  0
SECTION
  2
HEADER
  9
$ACADVER
  1
AC1027
  9
$ACADMAINTVER
 70
    83
  9
$DWGCODEPAGE
  3
ANSI_1252
  9
$LASTSAVEDBY
  1
usuario
  9
$REQUIREDVERSIONS
160
                 0
  9
$INSBASE
 10
0.0
 20
0.0
 30
0.0
  9
$EXTMIN
 10
3026.626283678872
 20
847.9093292968554
 30
0.0
  9
$EXTMAX
 10
3076.029264299316
 20
914.832605090417
 30
0.0
  9
$LIMMIN
 10
0.0
 20
0.0
  9
$LIMMAX
 10
420.0
 20
297.0
  9
$ORTHOMODE
 70
     1
  9
$REGENMODE
 70
     1
  9
$FILLMODE
 70
     1
  9
$QTEXTMODE
 70
     0
  9
$MIRRTEXT
 70
     0
  9
$LTSCALE
 40
1.0
  9
$ATTMODE
 70
     1
  9
$TEXTSIZE
 40
2.5
  9
$TRACEWID
 40
1.0
  9
$TEXTSTYLE
  7
Standard
  9
$CLAYER
  8
-
  9
$CELTYPE
  6
ByLayer
  9
$CECOLOR
 62
   256
  9
$CELTSCALE
 40
1.0
  9
$DISPSILH
 70
     0
  9
$DIMSCALE
 40
1.0
  9
$DIMASZ
 40
0.1
  9
$DIMEXO
 40
0.1
  9
$DIMDLI
 40
3.75
  9
$DIMRND
 40
0.0
  9
$DIMDLE
 40
0.0
  9
$DIMEXE
 40
0.1
  9
$DIMTP
 40
0.0
  9
$DIMTM
 40
0.0
  9
$DIMTXT
 40
0.15
  9
$DIMCEN
 40
2.5
  9
$DIMTSZ
 40
0.0
  9
$DIMTOL
 70
     0
  9
$DIMLIM
 70
     0
  9
$DIMTIH
 70
     0
  9
$DIMTOH
 70
     0
  9
$DIMSE1
 70
     0
  9
$DIMSE2
 70
     0
  9
$DIMTAD
 70
     1
  9
$DIMZIN
 70
     1
  9
$DIMBLK
  1
ArchTick
  9
$DIMASO
 70
     1
  9
$DIMSHO
 70
     1
  9
$DIMPOST
  1

  9
$DIMAPOST
  1

  9
$DIMALT
 70
     0
  9
$DIMALTD
 70
     3
  9
$DIMALTF
 40
0.03937007874016
  9
$DIMLFAC
 40
1.0
  9
$DIMTOFL
 70
     1
  9
$DIMTVP
 40
0.0
  9
$DIMTIX
 70
     0
  9
$DIMSOXD
 70
     0
  9
$DIMSAH
 70
     0
  9
$DIMBLK1
  1

  9
$DIMBLK2
  1

  9
$DIMSTYLE
  2
Guztion
  9
$DIMCLRD
 70
   256
  9
$DIMCLRE
 70
   256
  9
$DIMCLRT
 70
   256
  9
$DIMTFAC
 40
1.0
  9
$DIMGAP
 40
0.05
  9
$DIMJUST
 70
     0
  9
$DIMSD1
 70
     0
  9
$DIMSD2
 70
     0
  9
$DIMTOLJ
 70
     0
  9
$DIMTZIN
 70
     8
  9
$DIMALTZ
 70
     0
  9
$DIMALTTZ
 70
     0
  9
$DIMUPT
 70
     0
  9
$DIMDEC
 70
     2
  9
$DIMTDEC
 70
     2
  9
$DIMALTU
 70
     2
  9
$DIMALTTD
 70
     3
  9
$DIMTXSTY
  7
Standard
  9
$DIMAUNIT
 70
     0
  9
$DIMADEC
 70
     0
  9
$DIMALTRND
 40
0.0
  9
$DIMAZIN
 70
     0
  9
$DIMDSEP
 70
    46
  9
$DIMATFIT
 70
     3
  9
$DIMFRAC
 70
     0
  9
$DIMLDRBLK
  1

  9
$DIMLUNIT
 70
     2
  9
$DIMLWD
 70
    -2
  9
$DIMLWE
 70
    -2
  9
$DIMTMOVE
 70
     0
  9
$DIMFXL
 40
1.0
  9
$DIMFXLON
 70
     0
  9
$DIMJOGANG
 40
0.7853981633974483
  9
$DIMTFILL
 70
     0
  9
$DIMTFILLCLR
 70
     0
  9
$DIMARCSYM
 70
     0
  9
$DIMLTYPE
  6

  9
$DIMLTEX1
  6

  9
$DIMLTEX2
  6

  9
$DIMTXTDIRECTION
 70
     0
  9
$LUNITS
 70
     2
  9
$LUPREC
 70
     4
  9
$SKETCHINC
 40
1.0
  9
$FILLETRAD
 40
0.0
  9
$AUNITS
 70
     0
  9
$AUPREC
 70
     0
  9
$MENU
  1
.
  9
$ELEVATION
 40
0.0
  9
$PELEVATION
 40
0.0
  9
$THICKNESS
 40
0.0
  9
$LIMCHECK
 70
     0
  9
$CHAMFERA
 40
0.0
  9
$CHAMFERB
 40
0.0
  9
$CHAMFERC
 40
0.0
  9
$CHAMFERD
 40
0.0
  9
$SKPOLY
 70
     0
  9
$TDCREATE
 40
2458543.388716400
  9
$TDUCREATE
 40
2458543.305383067
  9
$TDUPDATE
 40
2458624.826978762
  9
$TDUUPDATE
 40
2458624.743645428
  9
$TDINDWG
 40
2.8313898843
  9
$TDUSRTIMER
 40
2.8313875347
  9
$USRTIMER
 70
     1
  9
$ANGBASE
 50
0.0
  9
$ANGDIR
 70
     0
  9
$PDMODE
 70
     0
  9
$PDSIZE
 40
0.0
  9
$PLINEWID
 40
0.0
  9
$SPLFRAME
 70
     0
  9
$SPLINETYPE
 70
     6
  9
$SPLINESEGS
 70
     8
  9
$HANDSEED
  5
99FD
  9
$SURFTAB1
 70
     6
  9
$SURFTAB2
 70
     6
  9
$SURFTYPE
 70
     6
  9
$SURFU
 70
     6
  9
$SURFV
 70
     6
  9
$UCSBASE
  2

  9
$UCSNAME
  2

  9
$UCSORG
 10
0.0
 20
0.0
 30
0.0
  9
$UCSXDIR
 10
1.0
 20
0.0
 30
0.0
  9
$UCSYDIR
 10
0.0
 20
1.0
 30
0.0
  9
$UCSORTHOREF
  2

  9
$UCSORTHOVIEW
 70
     0
  9
$UCSORGTOP
 10
0.0
 20
0.0
 30
0.0
  9
$UCSORGBOTTOM
 10
0.0
 20
0.0
 30
0.0
  9
$UCSORGLEFT
 10
0.0
 20
0.0
 30
0.0
  9
$UCSORGRIGHT
 10
0.0
 20
0.0
 30
0.0
  9
$UCSORGFRONT
 10
0.0
 20
0.0
 30
0.0
  9
$UCSORGBACK
 10
0.0
 20
0.0
 30
0.0
  9
$PUCSBASE
  2

  9
$PUCSNAME
  2

  9
$PUCSORG
 10
0.0
 20
0.0
 30
0.0
  9
$PUCSXDIR
 10
1.0
 20
0.0
 30
0.0
  9
$PUCSYDIR
 10
0.0
 20
1.0
 30
0.0
  9
$PUCSORTHOREF
  2

  9
$PUCSORTHOVIEW
 70
     0
  9
$PUCSORGTOP
 10
0.0
 20
0.0
 30
0.0
  9
$PUCSORGBOTTOM
 10
0.0
 20
0.0
 30
0.0
  9
$PUCSORGLEFT
 10
0.0
 20
0.0
 30
0.0
  9
$PUCSORGRIGHT
 10
0.0
 20
0.0
 30
0.0
  9
$PUCSORGFRONT
 10
0.0
 20
0.0
 30
0.0
  9
$PUCSORGBACK
 10
0.0
 20
0.0
 30
0.0
  9
$USERI1
 70
     0
  9
$USERI2
 70
     0
  9
$USERI3
 70
     0
  9
$USERI4
 70
     0
  9
$USERI5
 70
     0
  9
$USERR1
 40
0.0
  9
$USERR2
 40
0.0
  9
$USERR3
 40
0.0
  9
$USERR4
 40
0.0
  9
$USERR5
 40
0.0
  9
$WORLDVIEW
 70
     1
  9
$SHADEDGE
 70
     3
  9
$SHADEDIF
 70
    70
  9
$TILEMODE
 70
     0
  9
$MAXACTVP
 70
    64
  9
$PINSBASE
 10
0.0
 20
0.0
 30
0.0
  9
$PLIMCHECK
 70
     0
  9
$PEXTMIN
 10
-0.0018762920232689
 20
0.2812602170592981
 30
0.0
  9
$PEXTMAX
 10
231.3
 20
175.5
 30
0.0
  9
$PLIMMIN
 10
-0.0018762920232689
 20
0.2812602170592981
  9
$PLIMMAX
 10
0.2081237079767311
 20
0.5782602170592981
  9
$UNITMODE
 70
     0
  9
$VISRETAIN
 70
     1
  9
$PLINEGEN
 70
     0
  9
$PSLTSCALE
 70
     1
  9
$TREEDEPTH
 70
  3020
  9
$CMLSTYLE
  2
Standard
  9
$CMLJUST
 70
     0
  9
$CMLSCALE
 40
20.0
  9
$PROXYGRAPHICS
 70
     1
  9
$MEASUREMENT
 70
     1
  9
$CELWEIGHT
370
    -1
  9
$ENDCAPS
280
     0
  9
$JOINSTYLE
280
     0
  9
$LWDISPLAY
290
     0
  9
$INSUNITS
 70
     4
  9
$HYPERLINKBASE
  1

  9
$STYLESHEET
  1
Guztion_Planoak_pdf.ctb
  9
$XEDIT
290
     1
  9
$CEPSNTYPE
380
     0
  9
$PSTYLEMODE
290
     1
  9
$FINGERPRINTGUID
  2
{454E2246-75CB-45FB-A2E0-00429C7F3A53}
  9
$VERSIONGUID
  2
{70B9B6EF-E755-4F71-892F-9B5497AD9726}
  9
$EXTNAMES
290
     1
  9
$PSVPSCALE
 40
0.0
  9
$OLESTARTUP
290
     0
  9
$SORTENTS
280
   127
  9
$INDEXCTL
280
     0
  9
$HIDETEXT
280
     1
  9
$XCLIPFRAME
280
     2
  9
$HALOGAP
280
     0
  9
$OBSCOLOR
 70
   257
  9
$OBSLTYPE
280
     0
  9
$INTERSECTIONDISPLAY
280
     0
  9
$INTERSECTIONCOLOR
 70
   257
  9
$DIMASSOC
280
     2
  9
$PROJECTNAME
  1

  9
$CAMERADISPLAY
290
     0
  9
$LENSLENGTH
 40
50.0
  9
$CAMERAHEIGHT
 40
0.0
  9
$STEPSPERSEC
 40
2.0
  9
$STEPSIZE
 40
6.0
  9
$3DDWFPREC
 40
2.0
  9
$PSOLWIDTH
 40
5.0
  9
$PSOLHEIGHT
 40
80.0
  9
$LOFTANG1
 40
1.570796326794896
  9
$LOFTANG2
 40
1.570796326794896
  9
$LOFTMAG1
 40
0.0
  9
$LOFTMAG2
 40
0.0
  9
$LOFTPARAM
 70
     7
  9
$LOFTNORMALS
280
     1
  9
$LATITUDE
 40
37.795
  9
$LONGITUDE
 40
-122.394
  9
$NORTHDIRECTION
 40
0.0
  9
$TIMEZONE
 70
 -8000
  9
$LIGHTGLYPHDISPLAY
280
     1
  9
$TILEMODELIGHTSYNCH
280
     1
  9
$CMATERIAL
347
EC
  9
$SOLIDHIST
280
     0
  9
$SHOWHIST
280
     1
  9
$DWFFRAME
280
     2
  9
$DGNFRAME
280
     0
  9
$REALWORLDSCALE
290
     1
  9
$INTERFERECOLOR
 62
     1
  9
$INTERFEREOBJVS
345
F9
  9
$INTERFEREVPVS
346
F6
  9
$CSHADOW
280
     0
  9
$SHADOWPLANELOCATION
 40
0.0
  0
ENDSEC
  0
SECTION
  2
CLASSES
  0
CLASS
  1
ACDBDICTIONARYWDFLT
  2
AcDbDictionaryWithDefault
  3
ObjectDBX Classes
 90
        0
 91
        1
280
     0
281
     0
  0
CLASS
  1
DICTIONARYVAR
  2
AcDbDictionaryVar
  3
ObjectDBX Classes
 90
        0
 91
        9
280
     0
281
     0
  0
CLASS
  1
TABLESTYLE
  2
AcDbTableStyle
  3
ObjectDBX Classes
 90
     4095
 91
        1
280
     0
281
     0
  0
CLASS
  1
MATERIAL
  2
AcDbMaterial
  3
ObjectDBX Classes
 90
     1153
 91
        3
280
     0
281
     0
  0
CLASS
  1
VISUALSTYLE
  2
AcDbVisualStyle
  3
ObjectDBX Classes
 90
     4095
 91
       24
280
     0
281
     0
  0
CLASS
  1
SCALE
  2
AcDbScale
  3
ObjectDBX Classes
 90
     1153
 91
       18
280
     0
281
     0
  0
CLASS
  1
MLEADERSTYLE
  2
AcDbMLeaderStyle
  3
ACDB_MLEADERSTYLE_CLASS
 90
     4095
 91
        2
280
     0
281
     0
  0
CLASS
  1
CELLSTYLEMAP
  2
AcDbCellStyleMap
  3
ObjectDBX Classes
 90
     1152
 91
        1
280
     0
281
     0
  0
CLASS
  1
EXACXREFPANELOBJECT
  2
ExAcXREFPanelObject
  3
EXAC_ESW
 90
     1025
 91
        0
280
     0
281
     0
  0
CLASS
  1
NPOCOLLECTION
  2
AcDbImpNonPersistentObjectsCollection
  3
ObjectDBX Classes
 90
     1153
 91
        0
280
     0
281
     0
  0
CLASS
  1
LAYER_INDEX
  2
AcDbLayerIndex
  3
ObjectDBX Classes
 90
        0
 91
        0
280
     0
281
     0
  0
CLASS
  1
SPATIAL_INDEX
  2
AcDbSpatialIndex
  3
ObjectDBX Classes
 90
        0
 91
        0
280
     0
281
     0
  0
CLASS
  1
IDBUFFER
  2
AcDbIdBuffer
  3
ObjectDBX Classes
 90
        0
 91
        0
280
     0
281
     0
  0
CLASS
  1
ACDBSECTIONVIEWSTYLE
  2
AcDbSectionViewStyle
  3
ObjectDBX Classes
 90
     1025
 91
        2
280
     0
281
     0
  0
CLASS
  1
ACDBDETAILVIEWSTYLE
  2
AcDbDetailViewStyle
  3
ObjectDBX Classes
 90
     1025
 91
        2
280
     0
281
     0
  0
CLASS
  1
SORTENTSTABLE
  2
AcDbSortentsTable
  3
ObjectDBX Classes
 90
        0
 91
        3
280
     0
281
     0
  0
CLASS
  1
RASTERVARIABLES
  2
AcDbRasterVariables
  3
ISM
 90
        0
 91
        1
280
     0
281
     0
  0
CLASS
  1
IMAGEDEF
  2
AcDbRasterImageDef
  3
ISM
 90
        0
 91
        7
280
     0
281
     0
  0
CLASS
  1
IMAGEDEF_REACTOR
  2
AcDbRasterImageDefReactor
  3
ISM
 90
        1
 91
        3
280
     0
281
     0
  0
CLASS
  1
IMAGE
  2
AcDbRasterImage
  3
ISM
 90
     2175
 91
        3
280
     0
281
     1
  0
CLASS
  1
DIMASSOC
  2
AcDbDimAssoc
  3
"AcDbDimAssoc|Product Desc:     AcDim ARX App For Dimension|Company:          Autodesk, Inc.|WEB Address:      www.autodesk.com"
 90
        0
 91
       14
280
     0
281
     0
  0
CLASS
  1
BREAKDATA
  2
AcDbBreakData
  3
ObjectDBX Classes
 90
     1024
 91
        0
280
     0
281
     0
  0
CLASS
  1
SOLID_BACKGROUND
  2
AcDbSolidBackground
  3
SCENEOE
 90
     4095
 91
        0
280
     0
281
     0
  0
ENDSEC
  0
SECTION
  2
TABLES
  0
TABLE
  2
VPORT
  5
8
330
0
100
AcDbSymbolTable
 70
     1
  0
VPORT
  5
EA
330
8
100
AcDbSymbolTableRecord
100
AcDbViewportTableRecord
  2
*Active
 70
     0
 10
0.0
 20
0.0
 11
1.0
 21
1.0
 12
431.7628316541072
 22
3.728714625197881
 13
0.0
 23
0.0
 14
10.0
 24
10.0
 15
10.0
 25
10.0
 16
0.0
 26
0.0
 36
0.6188922984979737
 17
2619.601320438711
 27
877.6296409676874
 37
0.0
 40
67.64758187212272
 41
2.182692307692307
 42
50.0
 43
0.0
 44
0.0
 50
0.0
 51
0.0
 71
     0
 72
  1000
 73
     1
 74
     3
 75
     0
 76
     0
 77
     0
 78
     1
281
     0
 65
     1
110
0.0
120
0.0
130
0.0
111
1.0
121
0.0
131
0.0
112
0.0
122
1.0
132
0.0
 79
     0
146
0.0
348
F5
 60
     3
 61
     5
292
     1
282
     1
141
0.0
142
0.0
 63
   250
421
  3355443
1001
ACAD_NAV_VCDISPLAY
1070
     3
  0
ENDTAB
  0
TABLE
  2
LTYPE
  5
5
330
0
100
AcDbSymbolTable
 70
     4
  0
LTYPE
  5
14
330
5
100
AcDbSymbolTableRecord
100
AcDbLinetypeTableRecord
  2
ByBlock
 70
     0
  3

 72
    65
 73
     0
 40
0.0
  0
LTYPE
  5
15
330
5
100
AcDbSymbolTableRecord
100
AcDbLinetypeTableRecord
  2
ByLayer
 70
     0
  3

 72
    65
 73
     0
 40
0.0
  0
LTYPE
  5
16
330
5
100
AcDbSymbolTableRecord
100
AcDbLinetypeTableRecord
  2
Continuous
 70
     0
  3
Solid line
 72
    65
 73
     0
 40
0.0
  0
LTYPE
  5
3B76
330
5
100
AcDbSymbolTableRecord
100
AcDbLinetypeTableRecord
  2
ACAD_ISO02W100
 70
     0
  3
 ISO trazo __ __ __ __ __ __ __ __ __ __ __ __ 
 72
    65
 73
     2
 40
15.0
 49
12.0
 74
     0
 49
-3.0
 74
     0
  0
LTYPE
  5
3B7A
330
5
100
AcDbSymbolTableRecord
100
AcDbLinetypeTableRecord
  2
ACAD_ISO04W100
 70
     0
  3
 ISO trazo largo, punto ____ . ____ . ____ . __
 72
    65
 73
     4
 40
30.0
 49
24.0
 74
     0
 49
-3.0
 74
     0
 49
0.0
 74
     0
 49
-3.0
 74
     0
  0
LTYPE
  5
9168
330
5
100
AcDbSymbolTableRecord
100
AcDbLinetypeTableRecord
  2
DISCONT
 70
     0
  3
- - - - - - -
 72
    65
 73
     2
 40
2.0
 49
1.0
 74
     0
 49
-1.0
 74
     0
  0
ENDTAB
  0
TABLE
  2
LAYER
  5
2
102
{ACAD_XDICTIONARY
360
1FF
102
}
330
0
100
AcDbSymbolTable
 70
    30
  0
LAYER
  5
10
102
{ACAD_XDICTIONARY
360
13C
102
}
330
2
100
AcDbSymbolTableRecord
100
AcDbLayerTableRecord
  2
0
 70
     0
 62
     7
  6
Continuous
370
    -3
390
F
347
EE
348
0
  0
LAYER
  5
485
330
2
100
AcDbSymbolTableRecord
100
AcDbLayerTableRecord
  2
1.7. Ventanas Gráficas
 70
     0
 62
     5
  6
Continuous
290
     0
370
    -3
390
F
347
EE
348
0
1001
AcAecLayerStandard
1000

1000

1001
AcCmTransparency
1071
        0
  0
LAYER
  5
659
330
2
100
AcDbSymbolTableRecord
100
AcDbLayerTableRecord
  2
1.5. Marra1
 70
     0
 62
   248
  6
Continuous
370
    -3
390
F
347
EE
348
0
1001
AcAecLayerStandard
1000

1000

1001
AcCmTransparency
1071
        0
  0
LAYER
  5
6C6
102
{ACAD_XDICTIONARY
360
6C7
102
}
330
2
100
AcDbSymbolTableRecord
100
AcDbLayerTableRecord
  2
1.6. Marra2
 70
     0
 62
   252
  6
Continuous
370
    -3
390
F
347
EE
348
0
1001
AcAecLayerStandard
1000

1000

  0
LAYER
  5
7AC
330
2
100
AcDbSymbolTableRecord
100
AcDbLayerTableRecord
  2
1.4. Idatzia
 70
     0
 62
     7
  6
Continuous
370
    -3
390
F
347
EE
348
0
1001
AcAecLayerStandard
1000

1000

1001
AcCmTransparency
1071
        0
  0
LAYER
  5
7AD
330
2
100
AcDbSymbolTableRecord
100
AcDbLayerTableRecord
  2
1.1. Armarria
 70
     0
 62
     7
420
 16777215
  6
Continuous
370
    -3
390
F
347
EE
348
0
1001
AcAecLayerStandard
1000

1000

1001
AcCmTransparency
1071
        0
  0
LAYER
  5
7AE
330
2
100
AcDbSymbolTableRecord
100
AcDbLayerTableRecord
  2
1.3. Eskala grafikoa
 70
     0
 62
     7
  6
Continuous
370
    -3
390
F
347
EE
348
0
1001
AcAecLayerStandard
1000

1000

1001
AcCmTransparency
1071
        0
  0
LAYER
  5
FC3
330
2
100
AcDbSymbolTableRecord
100
AcDbLayerTableRecord
  2
2.1. Kanpo Horma
 70
     0
 62
    74
  6
Continuous
370
    -3
390
F
347
EE
348
0
1001
AcAecLayerStandard
1000

1000

1001
AcCmTransparency
1071
        0
  0
LAYER
  5
FC4
330
2
100
AcDbSymbolTableRecord
100
AcDbLayerTableRecord
  2
2.2. Barne Horma
 70
     0
 62
   160
  6
Continuous
370
    -3
390
F
347
EE
348
0
1001
AcAecLayerStandard
1000

1000

1001
AcCmTransparency
1071
        0
  0
LAYER
  5
FC5
330
2
100
AcDbSymbolTableRecord
100
AcDbLayerTableRecord
  2
2.3. Mehelina
 70
     0
 62
    42
  6
Continuous
370
    -3
390
F
347
EE
348
0
1001
AcAecLayerStandard
1000

1000

1001
AcCmTransparency
1071
        0
  0
LAYER
  5
FC6
330
2
100
AcDbSymbolTableRecord
100
AcDbLayerTableRecord
  2
3.1. Atea
 70
     0
 62
   251
  6
Continuous
370
    -3
390
F
347
EE
348
0
1001
AcAecLayerStandard
1000

1000

1001
AcCmTransparency
1071
        0
  0
LAYER
  5
FC7
330
2
100
AcDbSymbolTableRecord
100
AcDbLayerTableRecord
  2
3.2. Leihoa
 70
     0
 62
   251
  6
Continuous
370
    -3
390
F
347
EE
348
0
1001
AcAecLayerStandard
1000

1000

1001
AcCmTransparency
1071
        0
  0
LAYER
  5
FC8
330
2
100
AcDbSymbolTableRecord
100
AcDbLayerTableRecord
  2
2.4. Terraza horma
 70
     0
 62
     9
  6
Continuous
370
    -3
390
F
347
EE
348
0
1001
AcAecLayerStandard
1000

1000

1001
AcCmTransparency
1071
        0
  0
LAYER
  5
FC9
330
2
100
AcDbSymbolTableRecord
100
AcDbLayerTableRecord
  2
3.3. Eskudela
 70
     0
 62
   251
  6
Continuous
370
    -3
390
F
347
EE
348
0
1001
AcAecLayerStandard
1000

1000

1001
AcCmTransparency
1071
        0
  0
LAYER
  5
14FC
330
2
100
AcDbSymbolTableRecord
100
AcDbLayerTableRecord
  2
7.3. Kota
 70
     0
 62
   251
  6
Continuous
370
    -3
390
F
347
EE
348
0
1001
AcAecLayerStandard
1000

1000

1001
AcCmTransparency
1071
        0
  0
LAYER
  5
150C
330
2
100
AcDbSymbolTableRecord
100
AcDbLayerTableRecord
  2
2.5. Horma itzala
 70
     0
 62
   253
  6
Continuous
370
    -3
390
F
347
EE
348
0
1001
AcAecLayerStandard
1000

1000

1001
AcCmTransparency
1071
        0
  0
LAYER
  5
1874
330
2
100
AcDbSymbolTableRecord
100
AcDbLayerTableRecord
  2
5.1. Komuneko altzaria
 70
     0
 62
   252
  6
Continuous
370
    -3
390
F
347
EE
348
0
1001
AcAecLayerStandard
1000

1000

1001
AcCmTransparency
1071
        0
  0
LAYER
  5
194D
330
2
100
AcDbSymbolTableRecord
100
AcDbLayerTableRecord
  2
-
 70
     0
 62
     7
  6
Continuous
370
    -3
390
F
347
EE
348
0
  0
LAYER
  5
1BDA
330
2
100
AcDbSymbolTableRecord
100
AcDbLayerTableRecord
  2
Defpoints
 70
     0
 62
     7
  6
Continuous
290
     0
370
    -3
390
F
347
EE
348
0
  0
LAYER
  5
24FF
330
2
100
AcDbSymbolTableRecord
100
AcDbLayerTableRecord
  2
2.6. Zorua
 70
     0
 62
   253
  6
Continuous
370
    -3
390
F
347
EE
348
0
1001
AcAecLayerStandard
1000

1000

1001
AcCmTransparency
1071
        0
  0
LAYER
  5
253B
330
2
100
AcDbSymbolTableRecord
100
AcDbLayerTableRecord
  2
6.1. Eskailerak
 70
     0
 62
   252
  6
Continuous
370
    -3
390
F
347
EE
348
0
1001
AcAecLayerStandard
1000

1000

1001
AcCmTransparency
1071
        0
  0
LAYER
  5
3AB1
330
2
100
AcDbSymbolTableRecord
100
AcDbLayerTableRecord
  2
7.1. Azalera erabilgarria
 70
     0
 62
   -12
  6
Continuous
290
     0
370
    -3
390
F
347
EE
348
0
1001
AcAecLayerStandard
1000

1000

1001
AcCmTransparency
1071
        0
  0
LAYER
  5
3B73
330
2
100
AcDbSymbolTableRecord
100
AcDbLayerTableRecord
  2
8.1. Irisgarritasun boloa
 70
     0
 62
   252
  6
ACAD_ISO02W100
370
    -3
390
F
347
EE
348
0
1001
AcAecLayerStandard
1000

1000

1001
AcCmTransparency
1071
        0
  0
LAYER
  5
4035
330
2
100
AcDbSymbolTableRecord
100
AcDbLayerTableRecord
  2
4.1. Zeramika-baldosa
 70
     0
 62
   253
  6
Continuous
370
    -3
390
F
347
EE
348
0
1001
AcAecLayerStandard
1000

1000

1001
AcCmTransparency
1071
        0
  0
LAYER
  5
4129
330
2
100
AcDbSymbolTableRecord
100
AcDbLayerTableRecord
  2
7.2. Idatzia
 70
     0
 62
    18
420
   526344
  6
Continuous
370
    -3
390
F
347
EE
348
0
1001
AcAecLayerStandard
1000

1000

1001
AcCmTransparency
1071
        0
  0
LAYER
  5
45C5
330
2
100
AcDbSymbolTableRecord
100
AcDbLayerTableRecord
  2
4.2. Parket
 70
     0
 62
   253
  6
Continuous
370
    -3
390
F
347
EE
348
0
1001
AcAecLayerStandard
1000

1000

1001
AcCmTransparency
1071
        0
  0
LAYER
  5
8D45
330
2
100
AcDbSymbolTableRecord
100
AcDbLayerTableRecord
  2
4.3. Moketa
 70
     0
 62
   253
  6
Continuous
370
    -3
390
F
347
EE
348
0
1001
AcAecLayerStandard
1000

1000

1001
AcCmTransparency
1071
        0
  0
LAYER
  5
9169
102
{ACAD_XDICTIONARY
360
916A
102
}
330
2
100
AcDbSymbolTableRecord
100
AcDbLayerTableRecord
  2
Basea_Eraikuntza
 70
     0
 62
     7
  6
Continuous
370
    -3
390
F
347
EE
348
0
1001
RAK
1000
{ACET-LAYISO
1070
     0
1070
     1
1000
CONTINUOUS
1071
       -3
1071
        1
1005
F
1000
ACET-LAYISO}
  0
LAYER
  5
916B
330
2
100
AcDbSymbolTableRecord
100
AcDbLayerTableRecord
  2
Azterketa Eremua_6. Gunea
 70
     0
 62
   251
  6
DISCONT
370
    53
390
F
347
EE
348
0
1001
AcAecLayerStandard
1000

1000

1001
AcCmTransparency
1071
        0
  0
LAYER
  5
9232
330
2
100
AcDbSymbolTableRecord
100
AcDbLayerTableRecord
  2
7.1.1. Azalera eraikia
 70
     0
 62
   -12
  6
Continuous
290
     0
370
    -3
390
F
347
EE
348
0
1001
AcAecLayerStandard
1000

1000

1001
AcCmTransparency
1071
        0
  0
ENDTAB
  0
TABLE
  2
STYLE
  5
3
330
0
100
AcDbSymbolTable
 70
     3
  0
STYLE
  5
11
330
3
100
AcDbSymbolTableRecord
100
AcDbTextStyleTableRecord
  2
Standard
 70
     0
 40
0.0
 41
1.0
 50
0.0
 71
     0
 42
2.5
  3
arial.ttf
  4

1001
ACAD
1000
Arial
1071
       34
  0
STYLE
  5
132
330
3
100
AcDbSymbolTableRecord
100
AcDbTextStyleTableRecord
  2
Anotativo
 70
     0
 40
0.0
 41
1.0
 50
0.0
 71
     0
 42
2.5
  3
arial.ttf
  4

1001
AcadAnnotative
1000
AnnotativeData
1002
{
1070
     1
1070
     1
1002
}
1001
ACAD
1000
Arial
1071
       34
  0
STYLE
  5
3B75
330
3
100
AcDbSymbolTableRecord
100
AcDbTextStyleTableRecord
  2

 70
     1
 40
0.0
 41
1.0
 50
0.0
 71
     0
 42
2.5
  3
ltypeshp.shx
  4

  0
ENDTAB
  0
TABLE
  2
VIEW
  5
6
330
0
100
AcDbSymbolTable
 70
     1
  0
ENDTAB
  0
TABLE
  2
UCS
  5
7
330
0
100
AcDbSymbolTable
 70
     0
  0
ENDTAB
  0
TABLE
  2
APPID
  5
9
330
0
100
AcDbSymbolTable
 70
    16
  0
APPID
  5
12
330
9
100
AcDbSymbolTableRecord
100
AcDbRegAppTableRecord
  2
ACAD
 70
     0
  0
APPID
  5
9E
330
9
100
AcDbSymbolTableRecord
100
AcDbRegAppTableRecord
  2
ACAD_PSEXT
 70
     0
  0
APPID
  5
133
330
9
100
AcDbSymbolTableRecord
100
AcDbRegAppTableRecord
  2
AcadAnnoPO
 70
     0
  0
APPID
  5
134
330
9
100
AcDbSymbolTableRecord
100
AcDbRegAppTableRecord
  2
AcadAnnotative
 70
     0
  0
APPID
  5
135
330
9
100
AcDbSymbolTableRecord
100
AcDbRegAppTableRecord
  2
ACAD_DSTYLE_DIMJAG
 70
     0
  0
APPID
  5
136
330
9
100
AcDbSymbolTableRecord
100
AcDbRegAppTableRecord
  2
ACAD_DSTYLE_DIMTALN
 70
     0
  0
APPID
  5
165
330
9
100
AcDbSymbolTableRecord
100
AcDbRegAppTableRecord
  2
ACAD_MLEADERVER
 70
     0
  0
APPID
  5
217
330
9
100
AcDbSymbolTableRecord
100
AcDbRegAppTableRecord
  2
ACAD_NAV_VCDISPLAY
 70
     0
  0
APPID
  5
24C
330
9
100
AcDbSymbolTableRecord
100
AcDbRegAppTableRecord
  2
ACAD_EXEMPT_FROM_CAD_STANDARDS
 70
     0
  0
APPID
  5
486
330
9
100
AcDbSymbolTableRecord
100
AcDbRegAppTableRecord
  2
AcAecLayerStandard
 70
     0
  0
APPID
  5
487
330
9
100
AcDbSymbolTableRecord
100
AcDbRegAppTableRecord
  2
AcCmTransparency
 70
     0
  0
APPID
  5
FCA
330
9
100
AcDbSymbolTableRecord
100
AcDbRegAppTableRecord
  2
GradientColor1ACI
 70
     0
  0
APPID
  5
FCB
330
9
100
AcDbSymbolTableRecord
100
AcDbRegAppTableRecord
  2
GradientColor2ACI
 70
     0
  0
APPID
  5
14FB
330
9
100
AcDbSymbolTableRecord
100
AcDbRegAppTableRecord
  2
ACAD_DSTYLE_DIMBREAK
 70
     0
  0
APPID
  5
916C
330
9
100
AcDbSymbolTableRecord
100
AcDbRegAppTableRecord
  2
RAK
 70
     0
  0
APPID
  5
916D
330
9
100
AcDbSymbolTableRecord
100
AcDbRegAppTableRecord
  2
IRD
 70
     0
  0
ENDTAB
  0
TABLE
  2
DIMSTYLE
  5
A
330
0
100
AcDbSymbolTable
 70
     4
100
AcDbDimStyleTable
 71
     3
340
1501
340
27
340
137
  0
DIMSTYLE
105
1B0
330
A
100
AcDbSymbolTableRecord
100
AcDbDimStyleTableRecord
  2
Standard
 70
     0
340
11
  0
DIMSTYLE
105
137
330
A
100
AcDbSymbolTableRecord
100
AcDbDimStyleTableRecord
  2
Anotativo
 70
     0
 40
0.0
 41
2.5
 42
0.625
 43
3.75
 44
1.25
 73
     0
 74
     0
 77
     1
 78
     8
140
2.5
141
2.5
143
0.03937007874016
147
0.625
171
     3
172
     1
271
     2
272
     2
274
     3
278
    44
283
     0
284
     8
340
11
1001
AcadAnnotative
1000
AnnotativeData
1002
{
1070
     1
1070
     1
1002
}
1001
ACAD_DSTYLE_DIMJAG
1070
   388
1040
1.5
1001
ACAD_DSTYLE_DIMTALN
1070
   392
1070
     0
  0
DIMSTYLE
105
27
330
A
100
AcDbSymbolTableRecord
100
AcDbDimStyleTableRecord
  2
ISO-25
 70
     0
 41
2.5
 42
0.625
 43
3.75
 44
1.25
 73
     0
 74
     0
 77
     1
 78
     8
140
2.5
141
2.5
143
0.03937007874016
147
0.625
171
     3
172
     1
271
     2
272
     2
274
     3
278
    44
283
     0
284
     8
340
11
  0
DIMSTYLE
105
1501
102
{ACAD_REACTORS
330
686B
330
6878
330
6885
330
6890
330
68A4
330
68EE
330
6906
330
691E
330
6936
330
694E
330
6962
330
697A
330
6987
330
6994
330
69A1
330
69AE
330
69C6
330
96E6
330
96FA
330
970F
330
9724
330
9740
102
}
330
A
100
AcDbSymbolTableRecord
100
AcDbDimStyleTableRecord
  2
Guztion
 70
     0
 41
0.1
 42
0.1
 43
3.75
 44
0.1
 73
     0
 74
     0
 77
     1
 78
     1
140
0.15
141
2.5
143
0.03937007874016
147
0.05
171
     3
172
     1
176
   256
177
   256
178
   256
271
     2
272
     2
274
     3
283
     0
284
     8
340
11
342
14FD
1001
ACAD_DSTYLE_DIMBREAK
1070
   391
1040
3.75
1001
ACAD_DSTYLE_DIMJAG
1070
   388
1040
1.5
1001
ACAD_DSTYLE_DIMTALN
1070
   392
1070
     0
  0
ENDTAB
  0
TABLE
  2
BLOCK_RECORD
  5
1
330
0
100
AcDbSymbolTable
 70
   287
  0
BLOCK_RECORD
  5
1F
102
{ACAD_XDICTIONARY
360
1CE
102
}
330
1
100
AcDbSymbolTableRecord
100
AcDbBlockTableRecord
  2
*Model_Space
340
22
 70
     0
280
     1
281
     0
  0
BLOCK_RECORD
  5
65A8
330
1
100
AcDbSymbolTableRecord
100
AcDbBlockTableRecord
  2
*Paper_Space
340
65B5
 70
     0
280
     1
281
     0
  0
BLOCK_RECORD
  5
14FD
330
1
100
AcDbSymbolTableRecord
100
AcDbBlockTableRecord
  2
_ArchTick
340
0
102
{BLKREFS
331
6872
331
6873
331
687F
331
6880
331
688A
331
688B
331
689D
331
689E
331
68B5
331
68B6
331
68FF
331
6900
331
6917
331
6918
331
692F
331
6930
331
6947
331
6948
331
695B
331
695C
331
6973
331
6974
331
6981
331
6982
331
698E
331
698F
331
699B
331
699C
331
69A8
331
69A9
331
69BF
331
69C0
331
69D7
331
69D8
331
96F3
331
96F4
331
9707
331
9708
331
971C
331
971D
331
9739
331
973A
331
974D
331
974E
102
}
 70
     0
280
     1
281
     0
  0
BLOCK_RECORD
  5
194E
330
1
100
AcDbSymbolTableRecord
100
AcDbBlockTableRecord
  2
A$C6A1E31B2
340
0
 70
     0
280
     1
281
     0
  0
BLOCK_RECORD
  5
2643
102
{ACAD_XDICTIONARY
360
2645
102
}
330
1
100
AcDbSymbolTableRecord
100
AcDbBlockTableRecord
  2
A$C4C6C188E
340
0
 70
     4
280
     1
281
     0
  0
BLOCK_RECORD
  5
D6
330
1
100
AcDbSymbolTableRecord
100
AcDbBlockTableRecord
  2
*Paper_Space12
340
D7
 70
     0
280
     1
281
     0
  0
BLOCK_RECORD
  5
686C
330
1
100
AcDbSymbolTableRecord
100
AcDbBlockTableRecord
  2
*D181
340
0
 70
     0
280
     1
281
     0
  0
BLOCK_RECORD
  5
6879
330
1
100
AcDbSymbolTableRecord
100
AcDbBlockTableRecord
  2
*D182
340
0
 70
     0
280
     1
281
     0
  0
BLOCK_RECORD
  5
6886
330
1
100
AcDbSymbolTableRecord
100
AcDbBlockTableRecord
  2
*D183
340
0
 70
     0
280
     1
281
     0
  0
BLOCK_RECORD
  5
6891
330
1
100
AcDbSymbolTableRecord
100
AcDbBlockTableRecord
  2
*D184
340
0
 70
     0
280
     1
281
     0
  0
BLOCK_RECORD
  5
68A5
330
1
100
AcDbSymbolTableRecord
100
AcDbBlockTableRecord
  2
*D185
340
0
 70
     0
280
     1
281
     0
  0
BLOCK_RECORD
  5
68EF
330
1
100
AcDbSymbolTableRecord
100
AcDbBlockTableRecord
  2
*D186
340
0
 70
     0
280
     1
281
     0
  0
BLOCK_RECORD
  5
6907
330
1
100
AcDbSymbolTableRecord
100
AcDbBlockTableRecord
  2
*D187
340
0
 70
     0
280
     1
281
     0
  0
BLOCK_RECORD
  5
691F
330
1
100
AcDbSymbolTableRecord
100
AcDbBlockTableRecord
  2
*D188
340
0
 70
     0
280
     1
281
     0
  0
BLOCK_RECORD
  5
6937
330
1
100
AcDbSymbolTableRecord
100
AcDbBlockTableRecord
  2
*D189
340
0
 70
     0
280
     1
281
     0
  0
BLOCK_RECORD
  5
694F
330
1
100
AcDbSymbolTableRecord
100
AcDbBlockTableRecord
  2
*D190
340
0
 70
     0
280
     1
281
     0
  0
BLOCK_RECORD
  5
6963
330
1
100
AcDbSymbolTableRecord
100
AcDbBlockTableRecord
  2
*D191
340
0
 70
     0
280
     1
281
     0
  0
BLOCK_RECORD
  5
697B
330
1
100
AcDbSymbolTableRecord
100
AcDbBlockTableRecord
  2
*D192
340
0
 70
     0
280
     1
281
     0
  0
BLOCK_RECORD
  5
6988
330
1
100
AcDbSymbolTableRecord
100
AcDbBlockTableRecord
  2
*D193
340
0
 70
     0
280
     1
281
     0
  0
BLOCK_RECORD
  5
6995
330
1
100
AcDbSymbolTableRecord
100
AcDbBlockTableRecord
  2
*D194
340
0
 70
     0
280
     1
281
     0
  0
BLOCK_RECORD
  5
69A2
330
1
100
AcDbSymbolTableRecord
100
AcDbBlockTableRecord
  2
*D195
340
0
 70
     0
280
     1
281
     0
  0
BLOCK_RECORD
  5
69AF
330
1
100
AcDbSymbolTableRecord
100
AcDbBlockTableRecord
  2
*D196
340
0
 70
     0
280
     1
281
     0
  0
BLOCK_RECORD
  5
69C7
330
1
100
AcDbSymbolTableRecord
100
AcDbBlockTableRecord
  2
*D197
340
0
 70
     0
280
     1
281
     0
  0
BLOCK_RECORD
  5
916E
102
{ACAD_XDICTIONARY
360
9170
102
}
330
1
100
AcDbSymbolTableRecord
100
AcDbBlockTableRecord
  2
A$C56C501B1
340
0
 70
     4
280
     1
281
     0
  0
BLOCK_RECORD
  5
96E7
330
1
100
AcDbSymbolTableRecord
100
AcDbBlockTableRecord
  2
*D282
340
0
 70
     0
280
     1
281
     0
  0
BLOCK_RECORD
  5
96FB
330
1
100
AcDbSymbolTableRecord
100
AcDbBlockTableRecord
  2
*D283
340
0
 70
     0
280
     1
281
     0
  0
BLOCK_RECORD
  5
9710
330
1
100
AcDbSymbolTableRecord
100
AcDbBlockTableRecord
  2
*D284
340
0
 70
     0
280
     1
281
     0
  0
BLOCK_RECORD
  5
9725
330
1
100
AcDbSymbolTableRecord
100
AcDbBlockTableRecord
  2
*D285
340
0
 70
     0
280
     1
281
     0
  0
BLOCK_RECORD
  5
9741
330
1
100
AcDbSymbolTableRecord
100
AcDbBlockTableRecord
  2
*D286
340
0
 70
     0
280
     1
281
     0
  0
ENDTAB
  0
ENDSEC
  0
SECTION
  2
BLOCKS
  0
BLOCK
  5
20
330
1F
100
AcDbEntity
  8
0
100
AcDbBlockBegin
  2
*Model_Space
 70
     0
 10
0.0
 20
0.0
 30
0.0
  3
*Model_Space
  1

  0
ENDBLK
  5
21
330
1F
100
AcDbEntity
  8
0
100
AcDbBlockEnd
  0
BLOCK
  5
65A9
330
65A8
100
AcDbEntity
 67
     1
  8
0
100
AcDbBlockBegin
  2
*Paper_Space
 70
     0
 10
0.0
 20
0.0
 30
0.0
  3
*Paper_Space
  1

  0
ENDBLK
  5
65B4
330
65A8
100
AcDbEntity
 67
     1
  8
0
100
AcDbBlockEnd
  0
BLOCK
  5
14FF
330
14FD
100
AcDbEntity
  8
0
100
AcDbBlockBegin
  2
_ArchTick
 70
     0
 10
0.0
 20
0.0
 30
0.0
  3
_ArchTick
  1

  0
LWPOLYLINE
  5
14FE
330
14FD
100
AcDbEntity
  8
0
  6
ByBlock
 62
     0
100
AcDbPolyline
 90
        2
 70
     0
 43
0.15
 10
-0.5
 20
-0.5
 10
0.5
 20
0.5
  0
ENDBLK
  5
1500
330
14FD
100
AcDbEntity
  8
0
100
AcDbBlockEnd
  0
BLOCK
  5
195F
330
194E
100
AcDbEntity
  8
0
100
AcDbBlockBegin
  2
A$C6A1E31B2
 70
     0
 10
0.0
 20
0.0
 30
0.0
  3
A$C6A1E31B2
  1

  0
LWPOLYLINE
  5
194F
330
194E
100
AcDbEntity
  8
-
100
AcDbPolyline
 90
        4
 70
     1
 43
0.0
 10
0.3126854446639626
 20
-0.0000000212661178
 10
0.292428219745922
 20
-0.0000000212661178
 10
0.292428219745922
 20
0.1837702092999933
 10
0.3126854446639626
 20
0.1837702092999933
  0
LINE
  5
1950
330
194E
100
AcDbEntity
  8
-
100
AcDbLine
 10
0.5600000163788366
 20
0.2499999787338809
 30
0.0
 11
0.5600000163788366
 21
0.0799999787338823
 31
0.0
  0
LINE
  5
1951
330
194E
100
AcDbEntity
  8
-
100
AcDbLine
 10
0.0400000163788263
 20
0.0799999787338828
 30
0.0
 11
0.0400000163788263
 21
0.2499999787338831
 31
0.0
  0
LINE
  5
1952
330
194E
100
AcDbEntity
  8
-
100
AcDbLine
 10
0.6000000163788357
 20
0.2499999787338809
 30
0.0
 11
0.6000000163788357
 21
-0.0000000212661178
 31
0.0
  0
LINE
  5
1953
330
194E
100
AcDbEntity
  8
-
100
AcDbLine
 10
0.0000000163788343
 20
-0.0000000212661178
 30
0.0
 11
0.0000000163788272
 21
0.2499999787338818
 31
0.0
  0
LINE
  5
1954
330
194E
100
AcDbEntity
  8
-
100
AcDbLine
 10
0.5600000163788366
 20
0.0799999787338828
 30
0.0
 11
0.3126854446639626
 21
0.0799999787338828
 31
0.0
  0
LINE
  5
1955
330
194E
100
AcDbEntity
  8
-
100
AcDbLine
 10
0.6000000163788357
 20
-0.0000000212661178
 30
0.0
 11
0.0000000163788343
 21
-0.0000000212661178
 31
0.0
  0
LINE
  5
1956
330
194E
100
AcDbEntity
  8
-
100
AcDbLine
 10
0.292428219745922
 20
0.0799999787338828
 30
0.0
 11
0.0400000163788263
 21
0.0799999787338828
 31
0.0
  0
LWPOLYLINE
  5
1957
330
194E
100
AcDbEntity
  8
-
100
AcDbPolyline
 90
        4
 70
     1
 43
0.0
 10
0.3152422604900735
 20
0.0138949237869923
 10
0.3670918531628686
 20
0.0138949237869923
 10
0.3670918531628686
 20
0.0656861417695041
 10
0.3152422604900735
 20
0.0656861417695041
  0
LWPOLYLINE
  5
1958
330
194E
100
AcDbEntity
  8
-
100
AcDbPolyline
 90
        4
 70
     1
 43
0.0
 10
0.2903543029858397
 20
0.0656861417695041
 10
0.2322827209369862
 20
0.0656861417695041
 10
0.2322827209369862
 20
0.0138949237869923
 10
0.2903543029858397
 20
0.0138949237869923
  0
ARC
  5
1959
330
194E
100
AcDbEntity
  8
-
100
AcDbCircle
 10
0.3000000163788385
 20
0.2499999787338809
 30
0.0
 40
0.26
100
AcDbArc
 50
0.0
 51
90.0
  0
ARC
  5
195A
330
194E
100
AcDbEntity
  8
-
100
AcDbCircle
 10
0.3000000163788385
 20
0.2499999787338809
 30
0.0
 40
0.3
100
AcDbArc
 50
0.0
 51
90.0
  0
CIRCLE
  5
195B
330
194E
100
AcDbEntity
  8
-
100
AcDbCircle
 10
0.3000000163788243
 20
0.3321388107524541
 30
0.0
 40
0.0367980598417717
  0
ARC
  5
195C
330
194E
100
AcDbEntity
  8
-
100
AcDbCircle
 10
0.3000000163788243
 20
0.2499999787338818
 30
0.0
 40
0.26
100
AcDbArc
 50
90.0
 51
180.0
  0
LINE
  5
195D
330
194E
100
AcDbEntity
  8
-
100
AcDbLine
 10
0.3000000163788243
 20
0.5499999787338817
 30
0.0
 11
0.3000000163788385
 21
0.5499999787338808
 31
0.0
  0
ARC
  5
195E
330
194E
100
AcDbEntity
  8
-
100
AcDbCircle
 10
0.3000000163788243
 20
0.2499999787338818
 30
0.0
 40
0.3
100
AcDbArc
 50
90.0
 51
180.0
  0
ENDBLK
  5
1960
330
194E
100
AcDbEntity
  8
0
100
AcDbBlockEnd
  0
BLOCK
  5
2647
330
2643
100
AcDbEntity
  8
0
100
AcDbBlockBegin
  2
A$C4C6C188E
 70
     0
 10
0.0
 20
0.0
 30
0.0
  3
A$C4C6C188E
  1

  0
MTEXT
  5
2644
330
2643
100
AcDbEntity
  8
1.4. Idatzia
100
AcDbMText
 10
0.0007080675713951
 20
0.0039339599218238
 30
0.0
 40
0.0025
 41
0.1852149973614974
 46
0.0
 71
     1
 72
     5
  1
{\fCalibri Light|b1|i0|c0|p34;Katastro zk.\fCalibri Light|b0|i0|c0|p34;: 7791177}
 73
     1
 44
1.0
  0
ENDBLK
  5
2648
330
2643
100
AcDbEntity
  8
0
100
AcDbBlockEnd
  0
BLOCK
  5
D8
330
D6
100
AcDbEntity
 67
     1
  8
0
100
AcDbBlockBegin
  2
*Paper_Space12
 70
     0
 10
0.0
 20
0.0
 30
0.0
  3
*Paper_Space12
  1

  0
VIEWPORT
  5
2AF3
102
{ACAD_XDICTIONARY
360
2AF4
102
}
330
D6
100
AcDbEntity
 67
     1
  8
0
100
AcDbViewport
 10
128.5
 20
97.5
 30
0.0
 40
370.9329914529915
 41
222.18
 68
     0
 69
     0
 12
128.5
 22
97.5
 13
0.0
 23
0.0
 14
10.0
 24
10.0
 15
10.0
 25
10.0
 16
0.0
 26
0.0
 36
1.0
 17
0.0
 27
0.0
 37
0.0
 42
50.0
 43
0.0
 44
0.0
 45
222.18
 50
0.0
 51
0.0
 72
  1000
 90
   819232
  1

281
     0
 71
     1
 74
     0
110
0.0
120
0.0
130
0.0
111
1.0
121
0.0
131
0.0
112
0.0
122
1.0
132
0.0
 79
     0
146
0.0
170
     0
 61
     5
348
F5
292
     1
282
     1
141
0.0
142
0.0
 63
   250
421
  3355443
  0
VIEWPORT
  5
2AF7
102
{ACAD_XDICTIONARY
360
2AF8
102
}
330
D6
100
AcDbEntity
 67
     1
  8
0
100
AcDbViewport
 10
128.5
 20
97.5
 30
0.0
 40
205.6
 41
156.0
 68
     0
 69
     0
 12
-245.0678307719495
 22
37.05995025052767
 13
0.0
 23
0.0
 14
10.0
 24
10.0
 15
10.0
 25
10.0
 16
0.0
 26
0.0
 36
0.6188922984979737
 17
2619.601320438711
 27
877.6296409676874
 37
0.0
 42
50.0
 43
0.0
 44
0.0
 45
0.3532727290029537
 50
0.0
 51
0.0
 72
  1000
 90
   819296
  1

281
     0
 71
     1
 74
     0
110
0.0
120
0.0
130
0.0
111
1.0
121
0.0
131
0.0
112
0.0
122
1.0
132
0.0
 79
     0
146
0.0
170
     0
 61
     5
348
F5
292
     1
282
     1
141
0.0
142
0.0
 63
   250
421
  3355443
  0
ENDBLK
  5
D9
330
D6
100
AcDbEntity
 67
     1
  8
0
100
AcDbBlockEnd
  0
BLOCK
  5
686D
330
686C
100
AcDbEntity
  8
0
100
AcDbBlockBegin
  2
*D181
 70
     1
 10
0.0
 20
0.0
 30
0.0
  3
*D181
  1

  0
LINE
  5
686F
330
686C
100
AcDbEntity
  8
7.3. Kota
440
 16777216
370
    -2
100
AcDbLine
 10
3044.604935033462
 20
879.5727578059908
 30
0.0
 11
3044.604935033462
 21
879.5785446731851
 31
0.0
  0
LINE
  5
6870
330
686C
100
AcDbEntity
  8
7.3. Kota
440
 16777216
370
    -2
100
AcDbLine
 10
3047.95493503346
 20
879.5727578059912
 30
0.0
 11
3047.95493503346
 21
879.5785446731851
 31
0.0
  0
LINE
  5
6871
330
686C
100
AcDbEntity
  8
7.3. Kota
440
 16777216
370
    -2
100
AcDbLine
 10
3044.604935033462
 20
879.4785446731852
 30
0.0
 11
3047.95493503346
 21
879.4785446731852
 31
0.0
  0
INSERT
  5
6872
330
686C
100
AcDbEntity
  8
7.3. Kota
440
 16777216
370
    -2
100
AcDbBlockReference
  2
_ArchTick
 10
3044.604935033462
 20
879.4785446731852
 30
0.0
 41
0.1
 42
0.1
 43
0.1
 50
180.0
  0
INSERT
  5
6873
330
686C
100
AcDbEntity
  8
7.3. Kota
440
 16777216
370
    -2
100
AcDbBlockReference
  2
_ArchTick
 10
3047.95493503346
 20
879.4785446731852
 30
0.0
 41
0.1
 42
0.1
 43
0.1
  0
MTEXT
  5
6874
330
686C
100
AcDbEntity
  8
7.3. Kota
440
 16777216
100
AcDbMText
 10
3046.279935033461
 20
879.6051817809614
 30
0.0
 40
0.15
 41
0.0
 46
0.0
 71
     5
 72
     1
  1
3.35
 73
     1
 44
1.0
  0
POINT
  5
6875
330
686C
100
AcDbEntity
  8
Defpoints
 62
     0
440
 16777216
100
AcDbPoint
 10
3044.604935033462
 20
879.4727578059907
 30
0.0
  0
POINT
  5
6876
330
686C
100
AcDbEntity
  8
Defpoints
 62
     0
440
 16777216
100
AcDbPoint
 10
3047.95493503346
 20
879.4727578059912
 30
0.0
  0
POINT
  5
6877
330
686C
100
AcDbEntity
  8
Defpoints
 62
     0
440
 16777216
100
AcDbPoint
 10
3047.95493503346
 20
879.4785446731852
 30
0.0
  0
ENDBLK
  5
686E
330
686C
100
AcDbEntity
  8
0
100
AcDbBlockEnd
  0
BLOCK
  5
687A
330
6879
100
AcDbEntity
  8
0
100
AcDbBlockBegin
  2
*D182
 70
     1
 10
0.0
 20
0.0
 30
0.0
  3
*D182
  1

  0
LINE
  5
687C
330
6879
100
AcDbEntity
  8
7.3. Kota
440
 16777216
370
    -2
100
AcDbLine
 10
3043.9869939488
 20
879.733169128438
 30
0.0
 11
3044.024211162269
 21
879.733169128438
 31
0.0
  0
LINE
  5
687D
330
6879
100
AcDbEntity
  8
7.3. Kota
440
 16777216
370
    -2
100
AcDbLine
 10
3043.986993948796
 20
876.4631691284378
 30
0.0
 11
3044.024211162269
 21
876.4631691284378
 31
0.0
  0
LINE
  5
687E
330
6879
100
AcDbEntity
  8
7.3. Kota
440
 16777216
370
    -2
100
AcDbLine
 10
3043.924211162269
 20
879.733169128438
 30
0.0
 11
3043.924211162269
 21
876.4631691284378
 31
0.0
  0
INSERT
  5
687F
330
6879
100
AcDbEntity
  8
7.3. Kota
440
 16777216
370
    -2
100
AcDbBlockReference
  2
_ArchTick
 10
3043.924211162269
 20
879.733169128438
 30
0.0
 41
0.1
 42
0.1
 43
0.1
 50
90.0
  0
INSERT
  5
6880
330
6879
100
AcDbEntity
  8
7.3. Kota
440
 16777216
370
    -2
100
AcDbBlockReference
  2
_ArchTick
 10
3043.924211162269
 20
876.4631691284378
 30
0.0
 41
0.1
 42
0.1
 43
0.1
 50
270.0
  0
MTEXT
  5
6881
330
6879
100
AcDbEntity
  8
7.3. Kota
440
 16777216
100
AcDbMText
 10
3043.797574054492
 20
878.0981691284383
 30
0.0
 40
0.15
 41
0.0
 46
0.0
 71
     5
 72
     1
  1
3.27
 11
0.0000000000000001
 21
1.0
 31
0.0
 73
     1
 44
1.0
  0
POINT
  5
6882
330
6879
100
AcDbEntity
  8
Defpoints
 62
     0
440
 16777216
100
AcDbPoint
 10
3043.8869939488
 20
879.733169128438
 30
0.0
  0
POINT
  5
6883
330
6879
100
AcDbEntity
  8
Defpoints
 62
     0
440
 16777216
100
AcDbPoint
 10
3043.886993948796
 20
876.4631691284378
 30
0.0
  0
POINT
  5
6884
330
6879
100
AcDbEntity
  8
Defpoints
 62
     0
440
 16777216
100
AcDbPoint
 10
3043.924211162269
 20
876.4631691284378
 30
0.0
  0
ENDBLK
  5
687B
330
6879
100
AcDbEntity
  8
0
100
AcDbBlockEnd
  0
BLOCK
  5
6887
330
6886
100
AcDbEntity
  8
0
100
AcDbBlockBegin
  2
*D183
 70
     1
 10
0.0
 20
0.0
 30
0.0
  3
*D183
  1

  0
LINE
  5
6889
330
6886
100
AcDbEntity
  8
7.3. Kota
440
 16777216
370
    -2
100
AcDbLine
 10
3043.924211162269
 20
880.1631691284379
 30
0.0
 11
3043.924211162269
 21
883.4431691284377
 31
0.0
  0
INSERT
  5
688A
330
6886
100
AcDbEntity
  8
7.3. Kota
440
 16777216
370
    -2
100
AcDbBlockReference
  2
_ArchTick
 10
3043.924211162269
 20
880.1631691284379
 30
0.0
 41
0.1
 42
0.1
 43
0.1
 50
270.0
  0
INSERT
  5
688B
330
6886
100
AcDbEntity
  8
7.3. Kota
440
 16777216
370
    -2
100
AcDbBlockReference
  2
_ArchTick
 10
3043.924211162269
 20
883.4431691284377
 30
0.0
 41
0.1
 42
0.1
 43
0.1
 50
90.0
  0
MTEXT
  5
688C
330
6886
100
AcDbEntity
  8
7.3. Kota
440
 16777216
100
AcDbMText
 10
3043.797574054492
 20
881.8031691284383
 30
0.0
 40
0.15
 41
0.0
 46
0.0
 71
     5
 72
     1
  1
3.28
 11
0.0000000000000001
 21
1.0
 31
0.0
 73
     1
 44
1.0
  0
POINT
  5
688D
330
6886
100
AcDbEntity
  8
Defpoints
 62
     0
440
 16777216
100
AcDbPoint
 10
3043.924211162269
 20
880.1631691284379
 30
0.0
  0
POINT
  5
688E
330
6886
100
AcDbEntity
  8
Defpoints
 62
     0
440
 16777216
100
AcDbPoint
 10
3043.924211162267
 20
883.4431691284377
 30
0.0
  0
POINT
  5
688F
330
6886
100
AcDbEntity
  8
Defpoints
 62
     0
440
 16777216
100
AcDbPoint
 10
3043.924211162269
 20
883.4431691284377
 30
0.0
  0
ENDBLK
  5
6888
330
6886
100
AcDbEntity
  8
0
100
AcDbBlockEnd
  0
BLOCK
  5
6892
330
6891
100
AcDbEntity
  8
0
100
AcDbBlockBegin
  2
*D184
 70
     1
 10
0.0
 20
0.0
 30
0.0
  3
*D184
  1

  0
LINE
  5
689C
330
6891
100
AcDbEntity
  8
7.3. Kota
440
 16777216
370
    -2
100
AcDbLine
 10
3044.254935033461
 20
879.4785446731852
 30
0.0
 11
3040.934935033462
 21
879.4785446731852
 31
0.0
  0
INSERT
  5
689D
330
6891
100
AcDbEntity
  8
7.3. Kota
440
 16777216
370
    -2
100
AcDbBlockReference
  2
_ArchTick
 10
3044.254935033461
 20
879.4785446731852
 30
0.0
 41
0.1
 42
0.1
 43
0.1
  0
INSERT
  5
689E
330
6891
100
AcDbEntity
  8
7.3. Kota
440
 16777216
370
    -2
100
AcDbBlockReference
  2
_ArchTick
 10
3040.934935033462
 20
879.4785446731852
 30
0.0
 41
0.1
 42
0.1
 43
0.1
 50
180.0
  0
MTEXT
  5
689F
330
6891
100
AcDbEntity
  8
7.3. Kota
440
 16777216
100
AcDbMText
 10
3042.594935033462
 20
879.6051817809614
 30
0.0
 40
0.15
 41
0.0
 46
0.0
 71
     5
 72
     1
  1
3.32
 73
     1
 44
1.0
  0
POINT
  5
68A0
330
6891
100
AcDbEntity
  8
Defpoints
 62
     0
440
 16777216
100
AcDbPoint
 10
3044.254935033461
 20
879.4785446731852
 30
0.0
  0
POINT
  5
68A1
330
6891
100
AcDbEntity
  8
Defpoints
 62
     0
440
 16777216
100
AcDbPoint
 10
3040.934935033462
 20
879.4785446731852
 30
0.0
  0
POINT
  5
68A2
330
6891
100
AcDbEntity
  8
Defpoints
 62
     0
440
 16777216
100
AcDbPoint
 10
3040.934935033462
 20
879.4785446731852
 30
0.0
  0
ENDBLK
  5
6893
330
6891
100
AcDbEntity
  8
0
100
AcDbBlockEnd
  0
BLOCK
  5
68A6
330
68A5
100
AcDbEntity
  8
0
100
AcDbBlockBegin
  2
*D185
 70
     1
 10
0.0
 20
0.0
 30
0.0
  3
*D185
  1

  0
LINE
  5
68B2
330
68A5
100
AcDbEntity
  8
7.3. Kota
440
 16777216
370
    -2
100
AcDbLine
 10
3043.494935033461
 20
882.7631691284377
 30
0.0
 11
3043.823951781872
 21
882.7631691284377
 31
0.0
  0
LINE
  5
68B3
330
68A5
100
AcDbEntity
  8
7.3. Kota
440
 16777216
370
    -2
100
AcDbLine
 10
3043.494935033461
 20
883.7631691284379
 30
0.0
 11
3043.823951781872
 21
883.7631691284379
 31
0.0
  0
LINE
  5
68B4
330
68A5
100
AcDbEntity
  8
7.3. Kota
440
 16777216
370
    -2
100
AcDbLine
 10
3043.723951781872
 20
882.7631691284377
 30
0.0
 11
3043.723951781872
 21
883.7631691284379
 31
0.0
  0
INSERT
  5
68B5
330
68A5
100
AcDbEntity
  8
7.3. Kota
440
 16777216
370
    -2
100
AcDbBlockReference
  2
_ArchTick
 10
3043.723951781872
 20
882.7631691284377
 30
0.0
 41
0.1
 42
0.1
 43
0.1
 50
270.0
  0
INSERT
  5
68B6
330
68A5
100
AcDbEntity
  8
7.3. Kota
440
 16777216
370
    -2
100
AcDbBlockReference
  2
_ArchTick
 10
3043.723951781872
 20
883.7631691284379
 30
0.0
 41
0.1
 42
0.1
 43
0.1
 50
90.0
  0
MTEXT
  5
68B7
330
68A5
100
AcDbEntity
  8
7.3. Kota
440
 16777216
100
AcDbMText
 10
3043.597365833714
 20
883.2631691284381
 30
0.0
 40
0.15
 41
0.0
 46
0.0
 71
     5
 72
     1
  1
1.00
 11
0.0000000000000001
 21
1.0
 31
0.0
 73
     1
 44
1.0
  0
POINT
  5
68B8
330
68A5
100
AcDbEntity
  8
Defpoints
 62
     0
440
 16777216
100
AcDbPoint
 10
3043.394935033461
 20
882.7631691284377
 30
0.0
  0
POINT
  5
68B9
330
68A5
100
AcDbEntity
  8
Defpoints
 62
     0
440
 16777216
100
AcDbPoint
 10
3043.394935033461
 20
883.7631691284379
 30
0.0
  0
POINT
  5
68BA
330
68A5
100
AcDbEntity
  8
Defpoints
 62
     0
440
 16777216
100
AcDbPoint
 10
3043.723951781872
 20
883.7631691284379
 30
0.0
  0
ENDBLK
  5
68A7
330
68A5
100
AcDbEntity
  8
0
100
AcDbBlockEnd
  0
BLOCK
  5
68F0
330
68EF
100
AcDbEntity
  8
0
100
AcDbBlockBegin
  2
*D186
 70
     1
 10
0.0
 20
0.0
 30
0.0
  3
*D186
  1

  0
LINE
  5
68FC
330
68EF
100
AcDbEntity
  8
7.3. Kota
440
 16777216
370
    -2
100
AcDbLine
 10
3040.934935033462
 20
866.3138678851478
 30
0.0
 11
3040.934935033462
 21
866.0762482491614
 31
0.0
  0
LINE
  5
68FD
330
68EF
100
AcDbEntity
  8
7.3. Kota
440
 16777216
370
    -2
100
AcDbLine
 10
3044.254935033462
 20
866.3138678851478
 30
0.0
 11
3044.254935033462
 21
866.0762482491614
 31
0.0
  0
LINE
  5
68FE
330
68EF
100
AcDbEntity
  8
7.3. Kota
440
 16777216
370
    -2
100
AcDbLine
 10
3040.934935033462
 20
866.1762482491614
 30
0.0
 11
3044.254935033462
 21
866.1762482491614
 31
0.0
  0
INSERT
  5
68FF
330
68EF
100
AcDbEntity
  8
7.3. Kota
440
 16777216
370
    -2
100
AcDbBlockReference
  2
_ArchTick
 10
3040.934935033462
 20
866.1762482491614
 30
0.0
 41
0.1
 42
0.1
 43
0.1
 50
180.0
  0
INSERT
  5
6900
330
68EF
100
AcDbEntity
  8
7.3. Kota
440
 16777216
370
    -2
100
AcDbBlockReference
  2
_ArchTick
 10
3044.254935033462
 20
866.1762482491614
 30
0.0
 41
0.1
 42
0.1
 43
0.1
  0
MTEXT
  5
6901
330
68EF
100
AcDbEntity
  8
7.3. Kota
440
 16777216
100
AcDbMText
 10
3042.594935033462
 20
866.3028853569375
 30
0.0
 40
0.15
 41
0.0
 46
0.0
 71
     5
 72
     1
  1
3.32
 73
     1
 44
1.0
  0
POINT
  5
6902
330
68EF
100
AcDbEntity
  8
Defpoints
 62
     0
440
 16777216
100
AcDbPoint
 10
3040.934935033462
 20
866.4138678851479
 30
0.0
  0
POINT
  5
6903
330
68EF
100
AcDbEntity
  8
Defpoints
 62
     0
440
 16777216
100
AcDbPoint
 10
3044.254935033462
 20
866.4138678851479
 30
0.0
  0
POINT
  5
6904
330
68EF
100
AcDbEntity
  8
Defpoints
 62
     0
440
 16777216
100
AcDbPoint
 10
3044.254935033462
 20
866.1762482491614
 30
0.0
  0
ENDBLK
  5
68F1
330
68EF
100
AcDbEntity
  8
0
100
AcDbBlockEnd
  0
BLOCK
  5
6908
330
6907
100
AcDbEntity
  8
0
100
AcDbBlockBegin
  2
*D187
 70
     1
 10
0.0
 20
0.0
 30
0.0
  3
*D187
  1

  0
LINE
  5
6914
330
6907
100
AcDbEntity
  8
7.3. Kota
440
 16777216
370
    -2
100
AcDbLine
 10
3044.755197054306
 20
866.3138678851472
 30
0.0
 11
3044.755197054306
 21
866.0950580671546
 31
0.0
  0
LINE
  5
6915
330
6907
100
AcDbEntity
  8
7.3. Kota
440
 16777216
370
    -2
100
AcDbLine
 10
3047.874935033462
 20
866.3138678851472
 30
0.0
 11
3047.874935033462
 21
866.0950580671546
 31
0.0
  0
LINE
  5
6916
330
6907
100
AcDbEntity
  8
7.3. Kota
440
 16777216
370
    -2
100
AcDbLine
 10
3044.755197054306
 20
866.1950580671545
 30
0.0
 11
3047.874935033462
 21
866.1950580671545
 31
0.0
  0
INSERT
  5
6917
330
6907
100
AcDbEntity
  8
7.3. Kota
440
 16777216
370
    -2
100
AcDbBlockReference
  2
_ArchTick
 10
3044.755197054306
 20
866.1950580671545
 30
0.0
 41
0.1
 42
0.1
 43
0.1
 50
180.0
  0
INSERT
  5
6918
330
6907
100
AcDbEntity
  8
7.3. Kota
440
 16777216
370
    -2
100
AcDbBlockReference
  2
_ArchTick
 10
3047.874935033462
 20
866.1950580671545
 30
0.0
 41
0.1
 42
0.1
 43
0.1
  0
MTEXT
  5
6919
330
6907
100
AcDbEntity
  8
7.3. Kota
440
 16777216
100
AcDbMText
 10
3046.315066043884
 20
866.3216951749308
 30
0.0
 40
0.15
 41
0.0
 46
0.0
 71
     5
 72
     1
  1
3.12
 73
     1
 44
1.0
  0
POINT
  5
691A
330
6907
100
AcDbEntity
  8
Defpoints
 62
     0
440
 16777216
100
AcDbPoint
 10
3044.755197054306
 20
866.4138678851472
 30
0.0
  0
POINT
  5
691B
330
6907
100
AcDbEntity
  8
Defpoints
 62
     0
440
 16777216
100
AcDbPoint
 10
3047.874935033462
 20
866.4138678851472
 30
0.0
  0
POINT
  5
691C
330
6907
100
AcDbEntity
  8
Defpoints
 62
     0
440
 16777216
100
AcDbPoint
 10
3047.874935033462
 20
866.1950580671545
 30
0.0
  0
ENDBLK
  5
6909
330
6907
100
AcDbEntity
  8
0
100
AcDbBlockEnd
  0
BLOCK
  5
6920
330
691F
100
AcDbEntity
  8
0
100
AcDbBlockBegin
  2
*D188
 70
     1
 10
0.0
 20
0.0
 30
0.0
  3
*D188
  1

  0
LINE
  5
692C
330
691F
100
AcDbEntity
  8
7.3. Kota
440
 16777216
370
    -2
100
AcDbLine
 10
3042.934935033462
 20
873.6838678851476
 30
0.0
 11
3043.248900446922
 21
873.6838678851476
 31
0.0
  0
LINE
  5
692D
330
691F
100
AcDbEntity
  8
7.3. Kota
440
 16777216
370
    -2
100
AcDbLine
 10
3042.934935033462
 20
873.0838678851476
 30
0.0
 11
3043.248900446922
 21
873.0838678851476
 31
0.0
  0
LINE
  5
692E
330
691F
100
AcDbEntity
  8
7.3. Kota
440
 16777216
370
    -2
100
AcDbLine
 10
3043.148900446923
 20
873.6838678851476
 30
0.0
 11
3043.148900446923
 21
873.0838678851476
 31
0.0
  0
INSERT
  5
692F
330
691F
100
AcDbEntity
  8
7.3. Kota
440
 16777216
370
    -2
100
AcDbBlockReference
  2
_ArchTick
 10
3043.148900446923
 20
873.6838678851476
 30
0.0
 41
0.1
 42
0.1
 43
0.1
 50
90.0
  0
INSERT
  5
6930
330
691F
100
AcDbEntity
  8
7.3. Kota
440
 16777216
370
    -2
100
AcDbBlockReference
  2
_ArchTick
 10
3043.148900446923
 20
873.0838678851476
 30
0.0
 41
0.1
 42
0.1
 43
0.1
 50
270.0
  0
MTEXT
  5
6931
330
691F
100
AcDbEntity
  8
7.3. Kota
440
 16777216
100
AcDbMText
 10
3043.022314498764
 20
873.3838678851482
 30
0.0
 40
0.15
 41
0.0
 46
0.0
 71
     5
 72
     1
  1
0.60
 11
0.0000000000000001
 21
1.0
 31
0.0
 73
     1
 44
1.0
  0
POINT
  5
6932
330
691F
100
AcDbEntity
  8
Defpoints
 62
     0
440
 16777216
100
AcDbPoint
 10
3042.834935033462
 20
873.6838678851476
 30
0.0
  0
POINT
  5
6933
330
691F
100
AcDbEntity
  8
Defpoints
 62
     0
440
 16777216
100
AcDbPoint
 10
3042.834935033462
 20
873.0838678851476
 30
0.0
  0
POINT
  5
6934
330
691F
100
AcDbEntity
  8
Defpoints
 62
     0
440
 16777216
100
AcDbPoint
 10
3043.148900446923
 20
873.0838678851476
 30
0.0
  0
ENDBLK
  5
6921
330
691F
100
AcDbEntity
  8
0
100
AcDbBlockEnd
  0
BLOCK
  5
6938
330
6937
100
AcDbEntity
  8
0
100
AcDbBlockBegin
  2
*D189
 70
     1
 10
0.0
 20
0.0
 30
0.0
  3
*D189
  1

  0
LINE
  5
6944
330
6937
100
AcDbEntity
  8
7.3. Kota
440
 16777216
370
    -2
100
AcDbLine
 10
3040.74493503346
 20
873.0493830161083
 30
0.0
 11
3040.74493503346
 21
873.0431334422707
 31
0.0
  0
LINE
  5
6945
330
6937
100
AcDbEntity
  8
7.3. Kota
440
 16777216
370
    -2
100
AcDbLine
 10
3042.734935033462
 20
873.0493830161092
 30
0.0
 11
3042.734935033462
 21
873.0431334422707
 31
0.0
  0
LINE
  5
6946
330
6937
100
AcDbEntity
  8
7.3. Kota
440
 16777216
370
    -2
100
AcDbLine
 10
3040.74493503346
 20
873.1431334422708
 30
0.0
 11
3042.734935033462
 21
873.1431334422708
 31
0.0
  0
INSERT
  5
6947
330
6937
100
AcDbEntity
  8
7.3. Kota
440
 16777216
370
    -2
100
AcDbBlockReference
  2
_ArchTick
 10
3040.74493503346
 20
873.1431334422708
 30
0.0
 41
0.1
 42
0.1
 43
0.1
 50
180.0
  0
INSERT
  5
6948
330
6937
100
AcDbEntity
  8
7.3. Kota
440
 16777216
370
    -2
100
AcDbBlockReference
  2
_ArchTick
 10
3042.734935033462
 20
873.1431334422708
 30
0.0
 41
0.1
 42
0.1
 43
0.1
  0
MTEXT
  5
6949
330
6937
100
AcDbEntity
  8
7.3. Kota
440
 16777216
100
AcDbMText
 10
3041.739935033461
 20
873.2697193904289
 30
0.0
 40
0.15
 41
0.0
 46
0.0
 71
     5
 72
     1
  1
1.99
 73
     1
 44
1.0
  0
POINT
  5
694A
330
6937
100
AcDbEntity
  8
Defpoints
 62
     0
440
 16777216
100
AcDbPoint
 10
3040.74493503346
 20
873.1493830161085
 30
0.0
  0
POINT
  5
694B
330
6937
100
AcDbEntity
  8
Defpoints
 62
     0
440
 16777216
100
AcDbPoint
 10
3042.734935033462
 20
873.1493830161092
 30
0.0
  0
POINT
  5
694C
330
6937
100
AcDbEntity
  8
Defpoints
 62
     0
440
 16777216
100
AcDbPoint
 10
3042.734935033462
 20
873.1431334422708
 30
0.0
  0
ENDBLK
  5
6939
330
6937
100
AcDbEntity
  8
0
100
AcDbBlockEnd
  0
BLOCK
  5
6950
330
694F
100
AcDbEntity
  8
0
100
AcDbBlockBegin
  2
*D190
 70
     1
 10
0.0
 20
0.0
 30
0.0
  3
*D190
  1

  0
LINE
  5
695A
330
694F
100
AcDbEntity
  8
7.3. Kota
440
 16777216
370
    -2
100
AcDbLine
 10
3042.480639601451
 20
873.9838678851475
 30
0.0
 11
3042.480639601451
 21
872.8838678851477
 31
0.0
  0
INSERT
  5
695B
330
694F
100
AcDbEntity
  8
7.3. Kota
440
 16777216
370
    -2
100
AcDbBlockReference
  2
_ArchTick
 10
3042.480639601451
 20
873.9838678851475
 30
0.0
 41
0.1
 42
0.1
 43
0.1
 50
90.0
  0
INSERT
  5
695C
330
694F
100
AcDbEntity
  8
7.3. Kota
440
 16777216
370
    -2
100
AcDbBlockReference
  2
_ArchTick
 10
3042.480639601451
 20
872.8838678851477
 30
0.0
 41
0.1
 42
0.1
 43
0.1
 50
270.0
  0
MTEXT
  5
695D
330
694F
100
AcDbEntity
  8
7.3. Kota
440
 16777216
100
AcDbMText
 10
3042.354053653293
 20
873.433867885148
 30
0.0
 40
0.15
 41
0.0
 46
0.0
 71
     5
 72
     1
  1
1.10
 11
0.0000000000000001
 21
1.0
 31
0.0
 73
     1
 44
1.0
  0
POINT
  5
695E
330
694F
100
AcDbEntity
  8
Defpoints
 62
     0
440
 16777216
100
AcDbPoint
 10
3042.480639601451
 20
873.9838678851475
 30
0.0
  0
POINT
  5
695F
330
694F
100
AcDbEntity
  8
Defpoints
 62
     0
440
 16777216
100
AcDbPoint
 10
3042.480639601451
 20
872.8838678851477
 30
0.0
  0
POINT
  5
6960
330
694F
100
AcDbEntity
  8
Defpoints
 62
     0
440
 16777216
100
AcDbPoint
 10
3042.480639601451
 20
872.8838678851477
 30
0.0
  0
ENDBLK
  5
6951
330
694F
100
AcDbEntity
  8
0
100
AcDbBlockEnd
  0
BLOCK
  5
6964
330
6963
100
AcDbEntity
  8
0
100
AcDbBlockBegin
  2
*D191
 70
     1
 10
0.0
 20
0.0
 30
0.0
  3
*D191
  1

  0
LINE
  5
6970
330
6963
100
AcDbEntity
  8
7.3. Kota
440
 16777216
370
    -2
100
AcDbLine
 10
3040.934935033462
 20
870.533393640728
 30
0.0
 11
3040.934935033462
 21
870.3175902960138
 31
0.0
  0
LINE
  5
6971
330
6963
100
AcDbEntity
  8
7.3. Kota
440
 16777216
370
    -2
100
AcDbLine
 10
3042.204935033462
 20
870.5333936407287
 30
0.0
 11
3042.204935033462
 21
870.3175902960138
 31
0.0
  0
LINE
  5
6972
330
6963
100
AcDbEntity
  8
7.3. Kota
440
 16777216
370
    -2
100
AcDbLine
 10
3040.934935033462
 20
870.4175902960137
 30
0.0
 11
3042.204935033462
 21
870.4175902960137
 31
0.0
  0
INSERT
  5
6973
330
6963
100
AcDbEntity
  8
7.3. Kota
440
 16777216
370
    -2
100
AcDbBlockReference
  2
_ArchTick
 10
3040.934935033462
 20
870.4175902960137
 30
0.0
 41
0.1
 42
0.1
 43
0.1
 50
180.0
  0
INSERT
  5
6974
330
6963
100
AcDbEntity
  8
7.3. Kota
440
 16777216
370
    -2
100
AcDbBlockReference
  2
_ArchTick
 10
3042.204935033462
 20
870.4175902960137
 30
0.0
 41
0.1
 42
0.1
 43
0.1
  0
MTEXT
  5
6975
330
6963
100
AcDbEntity
  8
7.3. Kota
440
 16777216
100
AcDbMText
 10
3041.569935033462
 20
870.5428972537218
 30
0.0
 40
0.15
 41
0.0
 46
0.0
 71
     5
 72
     1
  1
1.27
 73
     1
 44
1.0
  0
POINT
  5
6976
330
6963
100
AcDbEntity
  8
Defpoints
 62
     0
440
 16777216
100
AcDbPoint
 10
3040.934935033462
 20
870.6333936407281
 30
0.0
  0
POINT
  5
6977
330
6963
100
AcDbEntity
  8
Defpoints
 62
     0
440
 16777216
100
AcDbPoint
 10
3042.204935033462
 20
870.6333936407288
 30
0.0
  0
POINT
  5
6978
330
6963
100
AcDbEntity
  8
Defpoints
 62
     0
440
 16777216
100
AcDbPoint
 10
3042.204935033462
 20
870.4175902960137
 30
0.0
  0
ENDBLK
  5
6965
330
6963
100
AcDbEntity
  8
0
100
AcDbBlockEnd
  0
BLOCK
  5
697C
330
697B
100
AcDbEntity
  8
0
100
AcDbBlockBegin
  2
*D192
 70
     1
 10
0.0
 20
0.0
 30
0.0
  3
*D192
  1

  0
LINE
  5
697E
330
697B
100
AcDbEntity
  8
7.3. Kota
440
 16777216
370
    -2
100
AcDbLine
 10
3043.936746006162
 20
870.2888678851476
 30
0.0
 11
3043.824113028549
 21
870.2888678851476
 31
0.0
  0
LINE
  5
697F
330
697B
100
AcDbEntity
  8
7.3. Kota
440
 16777216
370
    -2
100
AcDbLine
 10
3043.93674600616
 20
867.1338678851476
 30
0.0
 11
3043.824113028549
 21
867.1338678851476
 31
0.0
  0
LINE
  5
6980
330
697B
100
AcDbEntity
  8
7.3. Kota
440
 16777216
370
    -2
100
AcDbLine
 10
3043.924113028548
 20
870.2888678851476
 30
0.0
 11
3043.924113028548
 21
867.1338678851476
 31
0.0
  0
INSERT
  5
6981
330
697B
100
AcDbEntity
  8
7.3. Kota
440
 16777216
370
    -2
100
AcDbBlockReference
  2
_ArchTick
 10
3043.924113028548
 20
870.2888678851476
 30
0.0
 41
0.1
 42
0.1
 43
0.1
 50
90.0
  0
INSERT
  5
6982
330
697B
100
AcDbEntity
  8
7.3. Kota
440
 16777216
370
    -2
100
AcDbBlockReference
  2
_ArchTick
 10
3043.924113028548
 20
867.1338678851476
 30
0.0
 41
0.1
 42
0.1
 43
0.1
 50
270.0
  0
MTEXT
  5
6983
330
697B
100
AcDbEntity
  8
7.3. Kota
440
 16777216
100
AcDbMText
 10
3043.797475920772
 20
868.7113678851481
 30
0.0
 40
0.15
 41
0.0
 46
0.0
 71
     5
 72
     1
  1
3.16
 11
0.0000000000000001
 21
1.0
 31
0.0
 73
     1
 44
1.0
  0
POINT
  5
6984
330
697B
100
AcDbEntity
  8
Defpoints
 62
     0
440
 16777216
100
AcDbPoint
 10
3044.036746006162
 20
870.2888678851476
 30
0.0
  0
POINT
  5
6985
330
697B
100
AcDbEntity
  8
Defpoints
 62
     0
440
 16777216
100
AcDbPoint
 10
3044.03674600616
 20
867.1338678851476
 30
0.0
  0
POINT
  5
6986
330
697B
100
AcDbEntity
  8
Defpoints
 62
     0
440
 16777216
100
AcDbPoint
 10
3043.924113028548
 20
867.1338678851476
 30
0.0
  0
ENDBLK
  5
697D
330
697B
100
AcDbEntity
  8
0
100
AcDbBlockEnd
  0
BLOCK
  5
6989
330
6988
100
AcDbEntity
  8
0
100
AcDbBlockBegin
  2
*D193
 70
     1
 10
0.0
 20
0.0
 30
0.0
  3
*D193
  1

  0
LINE
  5
698B
330
6988
100
AcDbEntity
  8
7.3. Kota
440
 16777216
370
    -2
100
AcDbLine
 10
3044.604935033462
 20
870.9158335607888
 30
0.0
 11
3044.604935033462
 21
870.9287499029814
 31
0.0
  0
LINE
  5
698C
330
6988
100
AcDbEntity
  8
7.3. Kota
440
 16777216
370
    -2
100
AcDbLine
 10
3047.874935033461
 20
870.9158335607892
 30
0.0
 11
3047.874935033461
 21
870.9287499029814
 31
0.0
  0
LINE
  5
698D
330
6988
100
AcDbEntity
  8
7.3. Kota
440
 16777216
370
    -2
100
AcDbLine
 10
3044.604935033462
 20
870.8287499029813
 30
0.0
 11
3047.874935033461
 21
870.8287499029813
 31
0.0
  0
INSERT
  5
698E
330
6988
100
AcDbEntity
  8
7.3. Kota
440
 16777216
370
    -2
100
AcDbBlockReference
  2
_ArchTick
 10
3044.604935033462
 20
870.8287499029813
 30
0.0
 41
0.1
 42
0.1
 43
0.1
 50
180.0
  0
INSERT
  5
698F
330
6988
100
AcDbEntity
  8
7.3. Kota
440
 16777216
370
    -2
100
AcDbBlockReference
  2
_ArchTick
 10
3047.874935033461
 20
870.8287499029813
 30
0.0
 41
0.1
 42
0.1
 43
0.1
  0
MTEXT
  5
6990
330
6988
100
AcDbEntity
  8
7.3. Kota
440
 16777216
100
AcDbMText
 10
3046.239935033462
 20
870.9553870107576
 30
0.0
 40
0.15
 41
0.0
 46
0.0
 71
     5
 72
     1
  1
3.27
 73
     1
 44
1.0
  0
POINT
  5
6991
330
6988
100
AcDbEntity
  8
Defpoints
 62
     0
440
 16777216
100
AcDbPoint
 10
3044.604935033462
 20
870.8158335607889
 30
0.0
  0
POINT
  5
6992
330
6988
100
AcDbEntity
  8
Defpoints
 62
     0
440
 16777216
100
AcDbPoint
 10
3047.874935033461
 20
870.8158335607892
 30
0.0
  0
POINT
  5
6993
330
6988
100
AcDbEntity
  8
Defpoints
 62
     0
440
 16777216
100
AcDbPoint
 10
3047.874935033461
 20
870.8287499029813
 30
0.0
  0
ENDBLK
  5
698A
330
6988
100
AcDbEntity
  8
0
100
AcDbBlockEnd
  0
BLOCK
  5
6996
330
6995
100
AcDbEntity
  8
0
100
AcDbBlockBegin
  2
*D194
 70
     1
 10
0.0
 20
0.0
 30
0.0
  3
*D194
  1

  0
LINE
  5
6998
330
6995
100
AcDbEntity
  8
7.3. Kota
440
 16777216
370
    -2
100
AcDbLine
 10
3044.971029830317
 20
873.7238678851477
 30
0.0
 11
3045.354454047491
 21
873.7238678851477
 31
0.0
  0
LINE
  5
6999
330
6995
100
AcDbEntity
  8
7.3. Kota
440
 16777216
370
    -2
100
AcDbLine
 10
3044.971029830318
 20
870.6388678851476
 30
0.0
 11
3045.354454047491
 21
870.6388678851476
 31
0.0
  0
LINE
  5
699A
330
6995
100
AcDbEntity
  8
7.3. Kota
440
 16777216
370
    -2
100
AcDbLine
 10
3045.254454047491
 20
873.7238678851477
 30
0.0
 11
3045.254454047491
 21
870.6388678851476
 31
0.0
  0
INSERT
  5
699B
330
6995
100
AcDbEntity
  8
7.3. Kota
440
 16777216
370
    -2
100
AcDbBlockReference
  2
_ArchTick
 10
3045.254454047491
 20
873.7238678851477
 30
0.0
 41
0.1
 42
0.1
 43
0.1
 50
90.0
  0
INSERT
  5
699C
330
6995
100
AcDbEntity
  8
7.3. Kota
440
 16777216
370
    -2
100
AcDbBlockReference
  2
_ArchTick
 10
3045.254454047491
 20
870.6388678851476
 30
0.0
 41
0.1
 42
0.1
 43
0.1
 50
270.0
  0
MTEXT
  5
699D
330
6995
100
AcDbEntity
  8
7.3. Kota
440
 16777216
100
AcDbMText
 10
3045.127816939715
 20
872.181367885148
 30
0.0
 40
0.15
 41
0.0
 46
0.0
 71
     5
 72
     1
  1
3.09
 11
0.0000000000000001
 21
1.0
 31
0.0
 73
     1
 44
1.0
  0
POINT
  5
699E
330
6995
100
AcDbEntity
  8
Defpoints
 62
     0
440
 16777216
100
AcDbPoint
 10
3044.871029830317
 20
873.7238678851477
 30
0.0
  0
POINT
  5
699F
330
6995
100
AcDbEntity
  8
Defpoints
 62
     0
440
 16777216
100
AcDbPoint
 10
3044.871029830318
 20
870.6388678851476
 30
0.0
  0
POINT
  5
69A0
330
6995
100
AcDbEntity
  8
Defpoints
 62
     0
440
 16777216
100
AcDbPoint
 10
3045.254454047491
 20
870.6388678851476
 30
0.0
  0
ENDBLK
  5
6997
330
6995
100
AcDbEntity
  8
0
100
AcDbBlockEnd
  0
BLOCK
  5
69A3
330
69A2
100
AcDbEntity
  8
0
100
AcDbBlockBegin
  2
*D195
 70
     1
 10
0.0
 20
0.0
 30
0.0
  3
*D195
  1

  0
LINE
  5
69A5
330
69A2
100
AcDbEntity
  8
7.3. Kota
440
 16777216
370
    -2
100
AcDbLine
 10
3040.934935033462
 20
869.9732174626561
 30
0.0
 11
3040.934935033462
 21
869.8873664167695
 31
0.0
  0
LINE
  5
69A6
330
69A2
100
AcDbEntity
  8
7.3. Kota
440
 16777216
370
    -2
100
AcDbLine
 10
3044.254935033462
 20
869.9732174626559
 30
0.0
 11
3044.254935033462
 21
869.8873664167695
 31
0.0
  0
LINE
  5
69A7
330
69A2
100
AcDbEntity
  8
7.3. Kota
440
 16777216
370
    -2
100
AcDbLine
 10
3040.934935033462
 20
869.9873664167695
 30
0.0
 11
3044.254935033462
 21
869.9873664167695
 31
0.0
  0
INSERT
  5
69A8
330
69A2
100
AcDbEntity
  8
7.3. Kota
440
 16777216
370
    -2
100
AcDbBlockReference
  2
_ArchTick
 10
3040.934935033462
 20
869.9873664167695
 30
0.0
 41
0.1
 42
0.1
 43
0.1
 50
180.0
  0
INSERT
  5
69A9
330
69A2
100
AcDbEntity
  8
7.3. Kota
440
 16777216
370
    -2
100
AcDbBlockReference
  2
_ArchTick
 10
3044.254935033462
 20
869.9873664167695
 30
0.0
 41
0.1
 42
0.1
 43
0.1
  0
MTEXT
  5
69AA
330
69A2
100
AcDbEntity
  8
7.3. Kota
440
 16777216
100
AcDbMText
 10
3042.594935033462
 20
870.1140035245456
 30
0.0
 40
0.15
 41
0.0
 46
0.0
 71
     5
 72
     1
  1
3.32
 73
     1
 44
1.0
  0
POINT
  5
69AB
330
69A2
100
AcDbEntity
  8
Defpoints
 62
     0
440
 16777216
100
AcDbPoint
 10
3040.934935033462
 20
870.0732174626562
 30
0.0
  0
POINT
  5
69AC
330
69A2
100
AcDbEntity
  8
Defpoints
 62
     0
440
 16777216
100
AcDbPoint
 10
3044.254935033462
 20
870.0732174626558
 30
0.0
  0
POINT
  5
69AD
330
69A2
100
AcDbEntity
  8
Defpoints
 62
     0
440
 16777216
100
AcDbPoint
 10
3044.254935033462
 20
869.9873664167695
 30
0.0
  0
ENDBLK
  5
69A4
330
69A2
100
AcDbEntity
  8
0
100
AcDbBlockEnd
  0
BLOCK
  5
69B0
330
69AF
100
AcDbEntity
  8
0
100
AcDbBlockBegin
  2
*D196
 70
     1
 10
0.0
 20
0.0
 30
0.0
  3
*D196
  1

  0
LINE
  5
69BC
330
69AF
100
AcDbEntity
  8
7.3. Kota
440
 16777216
370
    -2
100
AcDbLine
 10
3044.912262655215
 20
867.8997242692089
 30
0.0
 11
3044.912262655215
 21
868.1717510488089
 31
0.0
  0
LINE
  5
69BD
330
69AF
100
AcDbEntity
  8
7.3. Kota
440
 16777216
370
    -2
100
AcDbLine
 10
3045.612262655215
 20
867.8997242692089
 30
0.0
 11
3045.612262655215
 21
868.1717510488089
 31
0.0
  0
LINE
  5
69BE
330
69AF
100
AcDbEntity
  8
7.3. Kota
440
 16777216
370
    -2
100
AcDbLine
 10
3044.912262655215
 20
868.0717510488088
 30
0.0
 11
3045.612262655215
 21
868.0717510488088
 31
0.0
  0
INSERT
  5
69BF
330
69AF
100
AcDbEntity
  8
7.3. Kota
440
 16777216
370
    -2
100
AcDbBlockReference
  2
_ArchTick
 10
3044.912262655215
 20
868.0717510488088
 30
0.0
 41
0.1
 42
0.1
 43
0.1
 50
180.0
  0
INSERT
  5
69C0
330
69AF
100
AcDbEntity
  8
7.3. Kota
440
 16777216
370
    -2
100
AcDbBlockReference
  2
_ArchTick
 10
3045.612262655215
 20
868.0717510488088
 30
0.0
 41
0.1
 42
0.1
 43
0.1
  0
MTEXT
  5
69C1
330
69AF
100
AcDbEntity
  8
7.3. Kota
440
 16777216
100
AcDbMText
 10
3045.262262655215
 20
868.1983369969671
 30
0.0
 40
0.15
 41
0.0
 46
0.0
 71
     5
 72
     1
  1
0.70
 73
     1
 44
1.0
  0
POINT
  5
69C2
330
69AF
100
AcDbEntity
  8
Defpoints
 62
     0
440
 16777216
100
AcDbPoint
 10
3044.912262655215
 20
867.7997242692089
 30
0.0
  0
POINT
  5
69C3
330
69AF
100
AcDbEntity
  8
Defpoints
 62
     0
440
 16777216
100
AcDbPoint
 10
3045.612262655215
 20
867.7997242692089
 30
0.0
  0
POINT
  5
69C4
330
69AF
100
AcDbEntity
  8
Defpoints
 62
     0
440
 16777216
100
AcDbPoint
 10
3045.612262655215
 20
868.0717510488088
 30
0.0
  0
ENDBLK
  5
69B1
330
69AF
100
AcDbEntity
  8
0
100
AcDbBlockEnd
  0
BLOCK
  5
69C8
330
69C7
100
AcDbEntity
  8
0
100
AcDbBlockBegin
  2
*D197
 70
     1
 10
0.0
 20
0.0
 30
0.0
  3
*D197
  1

  0
LINE
  5
69D4
330
69C7
100
AcDbEntity
  8
7.3. Kota
440
 16777216
370
    -2
100
AcDbLine
 10
3044.755197054306
 20
866.6638678851468
 30
0.0
 11
3044.755197054306
 21
866.775583813269
 31
0.0
  0
LINE
  5
69D5
330
69C7
100
AcDbEntity
  8
7.3. Kota
440
 16777216
370
    -2
100
AcDbLine
 10
3046.103270954784
 20
866.6638678851478
 30
0.0
 11
3046.103270954784
 21
866.775583813269
 31
0.0
  0
LINE
  5
69D6
330
69C7
100
AcDbEntity
  8
7.3. Kota
440
 16777216
370
    -2
100
AcDbLine
 10
3044.755197054306
 20
866.6755838132688
 30
0.0
 11
3046.103270954784
 21
866.6755838132688
 31
0.0
  0
INSERT
  5
69D7
330
69C7
100
AcDbEntity
  8
7.3. Kota
440
 16777216
370
    -2
100
AcDbBlockReference
  2
_ArchTick
 10
3044.755197054306
 20
866.6755838132688
 30
0.0
 41
0.1
 42
0.1
 43
0.1
 50
180.0
  0
INSERT
  5
69D8
330
69C7
100
AcDbEntity
  8
7.3. Kota
440
 16777216
370
    -2
100
AcDbBlockReference
  2
_ArchTick
 10
3046.103270954784
 20
866.6755838132688
 30
0.0
 41
0.1
 42
0.1
 43
0.1
  0
MTEXT
  5
69D9
330
69C7
100
AcDbEntity
  8
7.3. Kota
440
 16777216
100
AcDbMText
 10
3045.429234004545
 20
866.802220921045
 30
0.0
 40
0.15
 41
0.0
 46
0.0
 71
     5
 72
     1
  1
1.35
 73
     1
 44
1.0
  0
POINT
  5
69DA
330
69C7
100
AcDbEntity
  8
Defpoints
 62
     0
440
 16777216
100
AcDbPoint
 10
3044.755197054306
 20
866.5638678851468
 30
0.0
  0
POINT
  5
69DB
330
69C7
100
AcDbEntity
  8
Defpoints
 62
     0
440
 16777216
100
AcDbPoint
 10
3046.103270954784
 20
866.5638678851477
 30
0.0
  0
POINT
  5
69DC
330
69C7
100
AcDbEntity
  8
Defpoints
 62
     0
440
 16777216
100
AcDbPoint
 10
3046.103270954784
 20
866.6755838132688
 30
0.0
  0
ENDBLK
  5
69C9
330
69C7
100
AcDbEntity
  8
0
100
AcDbBlockEnd
  0
BLOCK
  5
9172
330
916E
100
AcDbEntity
  8
0
100
AcDbBlockBegin
  2
A$C56C501B1
 70
     0
 10
0.0
 20
0.0
 30
0.0
  3
A$C56C501B1
  1

  0
LWPOLYLINE
  5
916F
330
916E
100
AcDbEntity
  8
Basea_Eraikuntza
100
AcDbPolyline
 90
       54
 70
     1
 43
0.3
 10
6.693319272482767
 20
50.11846068780869
 10
19.8933192724362
 20
46.78846068959683
 10
21.97331927239429
 20
34.64846068900079
 10
22.35331927239895
 20
31.50846068933606
 10
22.57331927248742
 20
26.47846068814397
 10
22.75331927242223
 20
20.47846068907529
 10
23.19331927248277
 20
12.42846068926155
 10
22.75331927242223
 20
7.178460689261555
 10
22.08331927249674
 20
-0.4715393111109734
 10
21.01331927243155
 20
-9.161539310589432
 10
20.04331927245948
 20
-17.21153931040317
 10
18.25331927242223
 20
-22.17153931036591
 10
17.46331927250139
 20
-24.36153931170702
 10
16.87331927241757
 20
-24.1115393107757
 10
14.74331927241292
 20
-23.21153931040317
 10
13.88331927242689
 20
-22.85153931099921
 10
3.393319272436201
 20
-18.29153930954635
 10
0.5633192724781111
 20
-17.20153931248933
 10
0.7133192725013942
 20
-16.85153931193054
 10
3.853319272398948
 20
-9.65153931081295
 10
5.873319272417575
 20
-5.011539311148226
 10
11.10331927239895
 20
-7.39153931196779
 10
11.70331927249208
 20
-1.881539311259984
 10
8.743319272412918
 20
-1.471539311110973
 10
9.033319272566586
 20
3.528460688889026
 10
4.803319272468797
 20
5.618460687808692
 10
8.543319272459484
 20
11.41846068948507
 10
9.333319272496737
 20
11.45846068952232
 10
12.88331927231047
 20
11.62846068944782
 10
14.21331927250139
 20
22.44846068881452
 10
11.32331927248742
 20
23.11846068780869
 10
12.61331927240826
 20
28.59846068918705
 10
11.94331927248277
 20
28.74846068955958
 10
10.8033192724688
 20
23.3884606892243
 10
2.883319272426888
 20
26.08846068941057
 10
2.123319272417575
 20
24.41846068948507
 10
2.113319272408261
 20
24.39846068900079
 10
2.673319272464141
 20
23.41846068948507
 10
-2.096680727554485
 20
13.02846068888902
 10
0.2833192724501714
 20
11.94846068881452
 10
3.913319272454828
 20
10.28846068959683
 10
5.083319272496737
 20
9.758460689336061
 10
1.673319272464141
 20
2.368460687808692
 10
3.663319272454828
 20
1.488460687920451
 10
2.393319272436201
 20
-1.381539311259984
 10
-3.696680727531202
 20
-15.18153931107372
 10
-20.20668072754052
 20
-7.951539310626685
 10
-14.04668072750792
 20
5.958460690453648
 10
-13.16668072750326
 20
7.738460688851773
 10
-9.326680727419443
 20
16.2784606879577
 10
-4.346680727554485
 20
27.2784606879577
 10
-3.886680727591738
 20
28.29846068937332
 10
-0.9766807275591418
 20
34.18846068903804
 10
1.40331927256193
 20
39.00846068933606
1001
ACAD
1000
RTMaterial
1005
EC
1000
RTMaterial
1005
0
1001
IRD
1002
{
1000
TPMLINK_EDIFICIO-_-ade
1070
   515
1071
        1
1004
0100472000004706000047060000000000000CF3650C96F673400CF3650C96F6734000000000D31A0000
1002
}
  0
ENDBLK
  5
9173
330
916E
100
AcDbEntity
  8
0
100
AcDbBlockEnd
  0
BLOCK
  5
96E8
330
96E7
100
AcDbEntity
  8
0
100
AcDbBlockBegin
  2
*D282
 70
     1
 10
0.0
 20
0.0
 30
0.0
  3
*D282
  1

  0
LINE
  5
96F2
330
96E7
100
AcDbEntity
  8
7.3. Kota
440
 16777216
370
    -2
100
AcDbLine
 10
3040.934935033462
 20
883.4431691284377
 30
0.0
 11
3042.204935033462
 21
883.4431691284377
 31
0.0
  0
INSERT
  5
96F3
330
96E7
100
AcDbEntity
  8
7.3. Kota
440
 16777216
370
    -2
100
AcDbBlockReference
  2
_ArchTick
 10
3040.934935033462
 20
883.4431691284377
 30
0.0
 41
0.1
 42
0.1
 43
0.1
 50
180.0
  0
INSERT
  5
96F4
330
96E7
100
AcDbEntity
  8
7.3. Kota
440
 16777216
370
    -2
100
AcDbBlockReference
  2
_ArchTick
 10
3042.204935033462
 20
883.4431691284377
 30
0.0
 41
0.1
 42
0.1
 43
0.1
  0
MTEXT
  5
96F5
330
96E7
100
AcDbEntity
  8
7.3. Kota
440
 16777216
100
AcDbMText
 10
3041.569935033462
 20
883.5684760861459
 30
0.0
 40
0.15
 41
0.0
 46
0.0
 71
     5
 72
     1
  1
1.27
 73
     1
 44
1.0
  0
POINT
  5
96F6
330
96E7
100
AcDbEntity
  8
Defpoints
 62
     0
440
 16777216
100
AcDbPoint
 10
3040.934935033462
 20
883.4431691284377
 30
0.0
  0
POINT
  5
96F7
330
96E7
100
AcDbEntity
  8
Defpoints
 62
     0
440
 16777216
100
AcDbPoint
 10
3042.204935033462
 20
883.4431691284377
 30
0.0
  0
POINT
  5
96F8
330
96E7
100
AcDbEntity
  8
Defpoints
 62
     0
440
 16777216
100
AcDbPoint
 10
3042.204935033462
 20
883.4431691284377
 30
0.0
  0
ENDBLK
  5
96E9
330
96E7
100
AcDbEntity
  8
0
100
AcDbBlockEnd
  0
BLOCK
  5
96FC
330
96FB
100
AcDbEntity
  8
0
100
AcDbBlockBegin
  2
*D283
 70
     1
 10
0.0
 20
0.0
 30
0.0
  3
*D283
  1

  0
LINE
  5
9706
330
96FB
100
AcDbEntity
  8
7.3. Kota
440
 16777216
370
    -2
100
AcDbLine
 10
3040.744935033462
 20
878.0981691284379
 30
0.0
 11
3048.25493503346
 21
878.0981691284379
 31
0.0
  0
INSERT
  5
9707
330
96FB
100
AcDbEntity
  8
7.3. Kota
440
 16777216
370
    -2
100
AcDbBlockReference
  2
_ArchTick
 10
3040.744935033462
 20
878.0981691284379
 30
0.0
 41
0.1
 42
0.1
 43
0.1
 50
180.0
  0
INSERT
  5
9708
330
96FB
100
AcDbEntity
  8
7.3. Kota
440
 16777216
370
    -2
100
AcDbBlockReference
  2
_ArchTick
 10
3048.25493503346
 20
878.0981691284379
 30
0.0
 41
0.1
 42
0.1
 43
0.1
  0
MTEXT
  5
9709
330
96FB
100
AcDbEntity
  8
7.3. Kota
440
 16777216
100
AcDbMText
 10
3044.499935033461
 20
878.2247550765962
 30
0.0
 40
0.15
 41
0.0
 46
0.0
 71
     5
 72
     1
  1
7.51
 73
     1
 44
1.0
  0
POINT
  5
970A
330
96FB
100
AcDbEntity
  8
Defpoints
 62
     0
440
 16777216
100
AcDbPoint
 10
3040.744935033462
 20
878.0981691284379
 30
0.0
  0
POINT
  5
970B
330
96FB
100
AcDbEntity
  8
Defpoints
 62
     0
440
 16777216
100
AcDbPoint
 10
3048.25493503346
 20
878.0981691284379
 30
0.0
  0
POINT
  5
970C
330
96FB
100
AcDbEntity
  8
Defpoints
 62
     0
440
 16777216
100
AcDbPoint
 10
3048.25493503346
 20
878.0981691284379
 30
0.0
  0
ENDBLK
  5
96FD
330
96FB
100
AcDbEntity
  8
0
100
AcDbBlockEnd
  0
BLOCK
  5
9711
330
9710
100
AcDbEntity
  8
0
100
AcDbBlockBegin
  2
*D284
 70
     1
 10
0.0
 20
0.0
 30
0.0
  3
*D284
  1

  0
LINE
  5
971B
330
9710
100
AcDbEntity
  8
7.3. Kota
440
 16777216
370
    -2
100
AcDbLine
 10
3047.38183725504
 20
883.7631691284379
 30
0.0
 11
3047.38183725504
 21
876.1631691284378
 31
0.0
  0
INSERT
  5
971C
330
9710
100
AcDbEntity
  8
7.3. Kota
440
 16777216
370
    -2
100
AcDbBlockReference
  2
_ArchTick
 10
3047.38183725504
 20
883.7631691284379
 30
0.0
 41
0.1
 42
0.1
 43
0.1
 50
90.0
  0
INSERT
  5
971D
330
9710
100
AcDbEntity
  8
7.3. Kota
440
 16777216
370
    -2
100
AcDbBlockReference
  2
_ArchTick
 10
3047.38183725504
 20
876.1631691284378
 30
0.0
 41
0.1
 42
0.1
 43
0.1
 50
270.0
  0
MTEXT
  5
971E
330
9710
100
AcDbEntity
  8
7.3. Kota
440
 16777216
100
AcDbMText
 10
3047.255251306881
 20
879.9631691284382
 30
0.0
 40
0.15
 41
0.0
 46
0.0
 71
     5
 72
     1
  1
7.60
 11
0.0000000000000001
 21
1.0
 31
0.0
 73
     1
 44
1.0
  0
POINT
  5
971F
330
9710
100
AcDbEntity
  8
Defpoints
 62
     0
440
 16777216
100
AcDbPoint
 10
3047.381837255039
 20
883.7631691284379
 30
0.0
  0
POINT
  5
9720
330
9710
100
AcDbEntity
  8
Defpoints
 62
     0
440
 16777216
100
AcDbPoint
 10
3047.38183725504
 20
876.1631691284378
 30
0.0
  0
POINT
  5
9721
330
9710
100
AcDbEntity
  8
Defpoints
 62
     0
440
 16777216
100
AcDbPoint
 10
3047.38183725504
 20
876.1631691284378
 30
0.0
  0
ENDBLK
  5
9712
330
9710
100
AcDbEntity
  8
0
100
AcDbBlockEnd
  0
BLOCK
  5
9726
330
9725
100
AcDbEntity
  8
0
100
AcDbBlockBegin
  2
*D285
 70
     1
 10
0.0
 20
0.0
 30
0.0
  3
*D285
  1

  0
LINE
  5
9738
330
9725
100
AcDbEntity
  8
7.3. Kota
440
 16777216
370
    -2
100
AcDbLine
 10
3047.381837255039
 20
873.9838678851477
 30
0.0
 11
3047.381837255039
 21
866.7138678851477
 31
0.0
  0
INSERT
  5
9739
330
9725
100
AcDbEntity
  8
7.3. Kota
440
 16777216
370
    -2
100
AcDbBlockReference
  2
_ArchTick
 10
3047.381837255039
 20
873.9838678851477
 30
0.0
 41
0.1
 42
0.1
 43
0.1
 50
90.0
  0
INSERT
  5
973A
330
9725
100
AcDbEntity
  8
7.3. Kota
440
 16777216
370
    -2
100
AcDbBlockReference
  2
_ArchTick
 10
3047.381837255039
 20
866.7138678851477
 30
0.0
 41
0.1
 42
0.1
 43
0.1
 50
270.0
  0
MTEXT
  5
973B
330
9725
100
AcDbEntity
  8
7.3. Kota
440
 16777216
100
AcDbMText
 10
3047.256530297331
 20
870.3488678851481
 30
0.0
 40
0.15
 41
0.0
 46
0.0
 71
     5
 72
     1
  1
7.27
 11
0.0000000000000001
 21
1.0
 31
0.0
 73
     1
 44
1.0
  0
POINT
  5
973C
330
9725
100
AcDbEntity
  8
Defpoints
 62
     0
440
 16777216
100
AcDbPoint
 10
3047.38183725504
 20
873.9838678851477
 30
0.0
  0
POINT
  5
973D
330
9725
100
AcDbEntity
  8
Defpoints
 62
     0
440
 16777216
100
AcDbPoint
 10
3047.381837255039
 20
866.7138678851477
 30
0.0
  0
POINT
  5
973E
330
9725
100
AcDbEntity
  8
Defpoints
 62
     0
440
 16777216
100
AcDbPoint
 10
3047.381837255039
 20
866.7138678851477
 30
0.0
  0
ENDBLK
  5
9727
330
9725
100
AcDbEntity
  8
0
100
AcDbBlockEnd
  0
BLOCK
  5
9742
330
9741
100
AcDbEntity
  8
0
100
AcDbBlockBegin
  2
*D286
 70
     1
 10
0.0
 20
0.0
 30
0.0
  3
*D286
  1

  0
LINE
  5
974C
330
9741
100
AcDbEntity
  8
7.3. Kota
440
 16777216
370
    -2
100
AcDbLine
 10
3040.744935033462
 20
869.2368697285207
 30
0.0
 11
3048.174935033462
 21
869.2368697285207
 31
0.0
  0
INSERT
  5
974D
330
9741
100
AcDbEntity
  8
7.3. Kota
440
 16777216
370
    -2
100
AcDbBlockReference
  2
_ArchTick
 10
3040.744935033462
 20
869.2368697285207
 30
0.0
 41
0.1
 42
0.1
 43
0.1
 50
180.0
  0
INSERT
  5
974E
330
9741
100
AcDbEntity
  8
7.3. Kota
440
 16777216
370
    -2
100
AcDbBlockReference
  2
_ArchTick
 10
3048.174935033462
 20
869.2368697285207
 30
0.0
 41
0.1
 42
0.1
 43
0.1
  0
MTEXT
  5
974F
330
9741
100
AcDbEntity
  8
7.3. Kota
440
 16777216
100
AcDbMText
 10
3044.459935033462
 20
869.363506836297
 30
0.0
 40
0.15
 41
0.0
 46
0.0
 71
     5
 72
     1
  1
7.43
 73
     1
 44
1.0
  0
POINT
  5
9750
330
9741
100
AcDbEntity
  8
Defpoints
 62
     0
440
 16777216
100
AcDbPoint
 10
3040.744935033462
 20
869.2368697285207
 30
0.0
  0
POINT
  5
9751
330
9741
100
AcDbEntity
  8
Defpoints
 62
     0
440
 16777216
100
AcDbPoint
 10
3048.174935033462
 20
869.2368697285207
 30
0.0
  0
POINT
  5
9752
330
9741
100
AcDbEntity
  8
Defpoints
 62
     0
440
 16777216
100
AcDbPoint
 10
3048.174935033462
 20
869.2368697285207
 30
0.0
  0
ENDBLK
  5
9743
330
9741
100
AcDbEntity
  8
0
100
AcDbBlockEnd
  0
ENDSEC
  0
SECTION
  2
ENTITIES
  0
LWPOLYLINE
  5
365A
330
1F
100
AcDbEntity
  8
0
 62
     1
100
AcDbPolyline
 90
        4
 70
     1
 43
0.0
 10
3028.64965425927
 20
914.832605090417
 10
3076.029264299316
 20
914.832605090417
 10
3076.029264299316
 20
847.9093292968554
 10
3028.64965425927
 20
847.9093292968554
  0
MTEXT
  5
365B
330
1F
100
AcDbEntity
  8
0
100
AcDbMText
 10
3041.929702202676
 20
894.0673577912448
 30
0.0
 40
3.0
 41
942.7166960848172
 46
0.0
 71
     1
 72
     5
  1
47. Lokala
 73
     1
 44
1.0
1001
ACAD
1000
ACAD_MTEXT_COLUMN_INFO_BEGIN
1070
    75
1070
     2
1070
    79
1070
     0
1070
    76
1070
     1
1070
    78
1070
     0
1070
    48
1040
942.7166960848172
1070
    49
1040
12.5
1070
    50
1070
     1
1040
0.0
1000
ACAD_MTEXT_COLUMN_INFO_END
  0
LINE
  5
367B
102
{ACAD_REACTORS
330
8E2C
102
}
330
1F
100
AcDbEntity
  8
2.3. Mehelina
100
AcDbLine
 10
3040.744935033462
 20
867.2638678851477
 30
0.0
 11
3040.934935033462
 21
867.2638678851477
 31
0.0
  0
LINE
  5
367C
102
{ACAD_REACTORS
330
8E2C
102
}
330
1F
100
AcDbEntity
  8
2.3. Mehelina
100
AcDbLine
 10
3040.934935033462
 20
867.2638678851477
 30
0.0
 11
3040.934935033462
 21
866.7138678851477
 31
0.0
  0
LINE
  5
3680
102
{ACAD_REACTORS
330
6905
330
8E3B
102
}
330
1F
100
AcDbEntity
  8
2.1. Kanpo Horma
100
AcDbLine
 10
3044.254935033462
 20
866.4138678851479
 30
0.0
 11
3044.254935033462
 21
867.1338678851476
 31
0.0
  0
LINE
  5
3681
102
{ACAD_REACTORS
330
67C7
330
8E3B
102
}
330
1F
100
AcDbEntity
  8
2.1. Kanpo Horma
100
AcDbLine
 10
3044.254935033462
 20
867.1338678851476
 30
0.0
 11
3044.755197054306
 21
867.1338678851475
 31
0.0
  0
LINE
  5
3682
102
{ACAD_REACTORS
330
67C7
330
691D
330
8E3B
102
}
330
1F
100
AcDbEntity
  8
2.1. Kanpo Horma
100
AcDbLine
 10
3044.755197054306
 20
867.1338678851469
 30
0.0
 11
3044.755197054306
 21
866.4138678851472
 31
0.0
  0
LINE
  5
3686
102
{ACAD_REACTORS
330
691D
330
8E2C
102
}
330
1F
100
AcDbEntity
  8
2.1. Kanpo Horma
100
AcDbLine
 10
3047.874935033462
 20
866.4138678851481
 30
0.0
 11
3047.874935033462
 21
867.1338678851476
 31
0.0
  0
LINE
  5
3687
102
{ACAD_REACTORS
330
8E2C
102
}
330
1F
100
AcDbEntity
  8
2.1. Kanpo Horma
100
AcDbLine
 10
3047.874935033462
 20
867.1338678851476
 30
0.0
 11
3048.174935033462
 21
867.1338678851476
 31
0.0
  0
LINE
  5
3689
102
{ACAD_REACTORS
330
8E2C
102
}
330
1F
100
AcDbEntity
  8
2.3. Mehelina
100
AcDbLine
 10
3048.174935033462
 20
870.2838678851476
 30
0.0
 11
3047.874935033462
 21
870.2838678851476
 31
0.0
  0
LINE
  5
368A
102
{ACAD_REACTORS
330
8E2C
102
}
330
1F
100
AcDbEntity
  8
2.3. Mehelina
100
AcDbLine
 10
3047.874935033462
 20
870.2838678851476
 30
0.0
 11
3047.874935033462
 21
870.6438678851476
 31
0.0
  0
LINE
  5
368B
102
{ACAD_REACTORS
330
8E2C
102
}
330
1F
100
AcDbEntity
  8
2.3. Mehelina
100
AcDbLine
 10
3047.874935033462
 20
870.6438678851476
 30
0.0
 11
3048.174935033462
 21
870.6438678851476
 31
0.0
  0
LINE
  5
368C
102
{ACAD_REACTORS
330
8E2C
102
}
330
1F
100
AcDbEntity
  8
2.3. Mehelina
100
AcDbLine
 10
3048.174935033462
 20
867.1338678851476
 30
0.0
 11
3048.174935033462
 21
870.2838678851476
 31
0.0
  0
LINE
  5
3692
102
{ACAD_REACTORS
330
8E2C
102
}
330
1F
100
AcDbEntity
  8
2.3. Mehelina
100
AcDbLine
 10
3048.174935033462
 20
873.9838678851477
 30
0.0
 11
3044.604935033462
 21
873.9838678851477
 31
0.0
  0
LINE
  5
3693
102
{ACAD_REACTORS
330
8E2C
102
}
330
1F
100
AcDbEntity
  8
2.3. Mehelina
100
AcDbLine
 10
3044.604935033462
 20
873.9838678851477
 30
0.0
 11
3044.604935033462
 21
873.7238678851477
 31
0.0
  0
LINE
  5
3694
102
{ACAD_REACTORS
330
8E2C
102
}
330
1F
100
AcDbEntity
  8
2.3. Mehelina
100
AcDbLine
 10
3044.604935033462
 20
873.7238678851477
 30
0.0
 11
3044.254935033462
 21
873.7238678851477
 31
0.0
  0
LINE
  5
3695
102
{ACAD_REACTORS
330
8E2C
102
}
330
1F
100
AcDbEntity
  8
2.3. Mehelina
100
AcDbLine
 10
3044.254935033462
 20
873.7238678851477
 30
0.0
 11
3044.254935033462
 21
873.9838678851477
 31
0.0
  0
LINE
  5
3696
102
{ACAD_REACTORS
330
8E2C
102
}
330
1F
100
AcDbEntity
  8
2.3. Mehelina
100
AcDbLine
 10
3044.254935033462
 20
873.9838678851477
 30
0.0
 11
3042.734935033462
 21
873.9838678851477
 31
0.0
  0
LINE
  5
3697
330
1F
100
AcDbEntity
  8
2.2. Barne Horma
100
AcDbLine
 10
3042.834935033462
 20
873.9838678851477
 30
0.0
 11
3042.834935033461
 21
873.7438678851477
 31
0.0
  0
LINE
  5
3698
330
1F
100
AcDbEntity
  8
2.2. Barne Horma
100
AcDbLine
 10
3042.834935033462
 20
872.7838678851476
 30
0.0
 11
3040.744935033462
 21
872.7838678851476
 31
0.0
  0
LINE
  5
3699
102
{ACAD_REACTORS
330
67E3
330
6961
330
8E2C
102
}
330
1F
100
AcDbEntity
  8
2.3. Mehelina
100
AcDbLine
 10
3042.734935033462
 20
873.9838678851475
 30
0.0
 11
3040.74493503346
 21
873.9838678851462
 31
0.0
  0
LINE
  5
369A
102
{ACAD_REACTORS
330
8E2C
330
9753
102
}
330
1F
100
AcDbEntity
  8
2.3. Mehelina
100
AcDbLine
 10
3040.744935033462
 20
867.2638678851477
 30
0.0
 11
3040.744935033462
 21
870.2638678851476
 31
0.0
  0
LINE
  5
369B
102
{ACAD_REACTORS
330
8E2C
102
}
330
1F
100
AcDbEntity
  8
2.3. Mehelina
100
AcDbLine
 10
3040.744935033462
 20
870.2638678851476
 30
0.0
 11
3040.934935033462
 21
870.2638678851476
 31
0.0
  0
LINE
  5
369C
102
{ACAD_REACTORS
330
6979
330
8E2C
102
}
330
1F
100
AcDbEntity
  8
2.3. Mehelina
100
AcDbLine
 10
3040.934935033462
 20
870.2638678851476
 30
0.0
 11
3040.934935033462
 21
870.8038678851476
 31
0.0
  0
LINE
  5
369D
102
{ACAD_REACTORS
330
8E2C
102
}
330
1F
100
AcDbEntity
  8
2.3. Mehelina
100
AcDbLine
 10
3040.934935033462
 20
870.8038678851476
 30
0.0
 11
3040.744935033462
 21
870.8038678851476
 31
0.0
  0
LINE
  5
369E
102
{ACAD_REACTORS
330
8E2C
102
}
330
1F
100
AcDbEntity
  8
2.3. Mehelina
100
AcDbLine
 10
3040.744935033462
 20
870.8038678851476
 30
0.0
 11
3040.744935033462
 21
872.8838678851476
 31
0.0
  0
LINE
  5
369F
102
{ACAD_REACTORS
330
67E3
102
}
330
1F
100
AcDbEntity
  8
2.2. Barne Horma
100
AcDbLine
 10
3042.734935033462
 20
873.9838678851477
 30
0.0
 11
3042.734935033462
 21
873.7438678851475
 31
0.0
  0
LINE
  5
36A0
102
{ACAD_REACTORS
330
67E3
330
6961
102
}
330
1F
100
AcDbEntity
  8
2.2. Barne Horma
100
AcDbLine
 10
3042.734935033462
 20
872.8838678851477
 30
0.0
 11
3040.744935033462
 21
872.8838678851476
 31
0.0
  0
LINE
  5
36A2
102
{ACAD_REACTORS
330
8E2C
102
}
330
1F
100
AcDbEntity
  8
2.3. Mehelina
100
AcDbLine
 10
3048.374935033462
 20
867.1338678851476
 30
0.0
 11
3048.374935033463
 21
874.1838678851477
 31
0.0
  0
LINE
  5
36A3
102
{ACAD_REACTORS
330
8E2C
102
}
330
1F
100
AcDbEntity
  8
2.3. Mehelina
100
AcDbLine
 10
3048.374935033463
 20
874.1838678851477
 30
0.0
 11
3040.544935033461
 21
874.1838678851477
 31
0.0
  0
LINE
  5
36A4
102
{ACAD_REACTORS
330
8E2C
102
}
330
1F
100
AcDbEntity
  8
2.3. Mehelina
100
AcDbLine
 10
3048.174935033462
 20
870.6438678851476
 30
0.0
 11
3048.174935033462
 21
873.9838678851477
 31
0.0
  0
LINE
  5
36A5
102
{ACAD_REACTORS
330
67E3
330
694D
330
8E2C
102
}
330
1F
100
AcDbEntity
  8
2.3. Mehelina
100
AcDbLine
 10
3040.74493503346
 20
872.8838678851476
 30
0.0
 11
3040.74493503346
 21
873.9838678851477
 31
0.0
  0
LINE
  5
36A6
102
{ACAD_REACTORS
330
8E2C
102
}
330
1F
100
AcDbEntity
  8
2.3. Mehelina
100
AcDbLine
 10
3040.544935033462
 20
866.7138678851477
 30
0.0
 11
3040.544935033461
 21
874.1838678851477
 31
0.0
  0
LINE
  5
36B3
102
{ACAD_REACTORS
330
8E2C
102
}
330
1F
100
AcDbEntity
  8
2.1. Kanpo Horma
100
AcDbLine
 10
3040.244935033462
 20
866.4138678851479
 30
0.0
 11
3040.934935033462
 21
866.4138678851479
 31
0.0
  0
LINE
  5
36B9
330
1F
100
AcDbEntity
  8
3.2. Leihoa
100
AcDbLine
 10
3046.104935033462
 20
866.7138678851477
 30
0.0
 11
3046.104935033462
 21
866.7138678851477
 31
0.0
  0
LINE
  5
36BA
102
{ACAD_REACTORS
330
8E2C
102
}
330
1F
100
AcDbEntity
  8
2.1. Kanpo Horma
100
AcDbLine
 10
3048.374935033462
 20
867.1338678851476
 30
0.0
 11
3048.374935033462
 21
866.7138678851477
 31
0.0
  0
LINE
  5
36BB
102
{ACAD_REACTORS
330
8E2C
102
}
330
1F
100
AcDbEntity
  8
2.1. Kanpo Horma
100
AcDbLine
 10
3048.374935033462
 20
866.7138678851477
 30
0.0
 11
3048.674935033462
 21
866.7138678851477
 31
0.0
  0
LINE
  5
36BC
102
{ACAD_REACTORS
330
8E2C
102
}
330
1F
100
AcDbEntity
  8
2.1. Kanpo Horma
100
AcDbLine
 10
3048.674935033462
 20
866.7138678851477
 30
0.0
 11
3048.674935033462
 21
866.4138678851477
 31
0.0
  0
LINE
  5
36BE
102
{ACAD_REACTORS
330
8E2C
102
}
330
1F
100
AcDbEntity
  8
2.1. Kanpo Horma
100
AcDbLine
 10
3040.544935033462
 20
866.7138678851477
 30
0.0
 11
3040.244935033462
 21
866.7138678851477
 31
0.0
  0
LINE
  5
36BF
102
{ACAD_REACTORS
330
8E2C
102
}
330
1F
100
AcDbEntity
  8
2.1. Kanpo Horma
100
AcDbLine
 10
3040.244935033462
 20
866.7138678851477
 30
0.0
 11
3040.244935033462
 21
866.4138678851477
 31
0.0
  0
LINE
  5
36CC
102
{ACAD_REACTORS
330
8E3B
102
}
330
1F
100
AcDbEntity
  8
2.2. Barne Horma
100
AcDbLine
 10
3044.604935033462
 20
870.6388678851476
 30
0.0
 11
3044.254935033462
 21
870.6388678851476
 31
0.0
  0
LINE
  5
36CD
102
{ACAD_REACTORS
330
8E3B
102
}
330
1F
100
AcDbEntity
  8
2.2. Barne Horma
100
AcDbLine
 10
3044.604935033462
 20
870.2888678851476
 30
0.0
 11
3044.254935033462
 21
870.2888678851476
 31
0.0
  0
LINE
  5
36CE
102
{ACAD_REACTORS
330
8E3B
102
}
330
1F
100
AcDbEntity
  8
2.2. Barne Horma
100
AcDbLine
 10
3044.254935033462
 20
870.6388678851476
 30
0.0
 11
3044.254935033462
 21
870.2888678851476
 31
0.0
  0
LINE
  5
36CF
102
{ACAD_REACTORS
330
8E3B
102
}
330
1F
100
AcDbEntity
  8
2.2. Barne Horma
100
AcDbLine
 10
3044.604935033462
 20
870.2888678851476
 30
0.0
 11
3044.604935033462
 21
870.6388678851476
 31
0.0
  0
LINE
  5
36D1
102
{ACAD_REACTORS
330
8E2C
102
}
330
1F
100
AcDbEntity
  8
2.1. Kanpo Horma
100
AcDbLine
 10
3047.874935033462
 20
866.4138678851479
 30
0.0
 11
3048.674935033462
 21
866.4138678851479
 31
0.0
  0
LWPOLYLINE
  5
36F6
102
{ACAD_REACTORS
330
67E3
330
6935
102
}
330
1F
100
AcDbEntity
  8
3.1. Atea
100
AcDbPolyline
 90
        6
 70
     0
 43
0.0
 10
3042.734935033462
 20
873.7438678851475
 10
3042.734935033462
 20
873.7188678851474
 10
3042.759935033462
 20
873.7188678851474
 10
3042.759935033462
 20
873.6838678851476
 10
3042.834935033462
 20
873.6838678851476
 10
3042.834935033462
 20
873.7438678851475
  0
LWPOLYLINE
  5
36F7
102
{ACAD_REACTORS
330
67E3
330
6935
102
}
330
1F
100
AcDbEntity
  8
3.1. Atea
100
AcDbPolyline
 90
        6
 70
     0
 43
0.0
 10
3042.734935033462
 20
873.0238678851472
 10
3042.734935033462
 20
873.0488678851479
 10
3042.759935033462
 20
873.0488678851479
 10
3042.759935033462
 20
873.0838678851476
 10
3042.834935033462
 20
873.0838678851476
 10
3042.834935033462
 20
873.0238678851472
  0
LWPOLYLINE
  5
36F8
102
{ACAD_REACTORS
330
67E3
102
}
330
1F
100
AcDbEntity
  8
3.1. Atea
100
AcDbPolyline
 90
        4
 70
     1
 43
0.0
 10
3042.064935033462
 20
873.0738678851475
 10
3042.064935033462
 20
873.0488678851473
 10
3042.734935033462
 20
873.0488678851479
 10
3042.734935033462
 20
873.0738678851475
  0
ARC
  5
36F9
102
{ACAD_REACTORS
330
67E3
102
}
330
1F
100
AcDbEntity
  8
3.1. Atea
100
AcDbCircle
 10
3042.735287278007
 20
873.0480174915882
 30
0.0
 40
0.67085048603572
100
AcDbArc
 50
90.03008438867601
 51
177.7916312715354
  0
LINE
  5
36FB
330
1F
100
AcDbEntity
  8
2.2. Barne Horma
100
AcDbLine
 10
3042.734935033462
 20
873.7438678851475
 30
0.0
 11
3042.834935033462
 21
873.7438678851477
 31
0.0
  0
LINE
  5
36FC
330
1F
100
AcDbEntity
  8
2.2. Barne Horma
100
AcDbLine
 10
3042.734935033462
 20
873.0238678851472
 30
0.0
 11
3042.834935033462
 21
873.0238678851472
 31
0.0
  0
LINE
  5
36FD
102
{ACAD_REACTORS
330
67E3
102
}
330
1F
100
AcDbEntity
  8
2.2. Barne Horma
100
AcDbLine
 10
3042.734935033461
 20
873.0238678851474
 30
0.0
 11
3042.734935033462
 21
872.8838678851477
 31
0.0
  0
LINE
  5
36FE
330
1F
100
AcDbEntity
  8
2.2. Barne Horma
100
AcDbLine
 10
3042.834935033461
 20
873.0238678851474
 30
0.0
 11
3042.834935033462
 21
872.7838678851476
 31
0.0
  0
LINE
  5
36FF
102
{ACAD_REACTORS
330
67E3
102
}
330
1F
100
AcDbEntity
  8
5.1. Komuneko altzaria
100
AcDbLine
 10
3041.147894097355
 20
873.3538678851468
 30
0.0
 11
3041.027894097356
 21
873.3538678851468
 31
0.0
  0
ARC
  5
3700
330
1F
100
AcDbEntity
  8
5.1. Komuneko altzaria
100
AcDbCircle
 10
3041.052894097356
 20
873.4288678851468
 30
0.0
 40
0.05
100
AcDbArc
 50
180.0
 51
270.0
  0
LINE
  5
3701
102
{ACAD_REACTORS
330
67E3
102
}
330
1F
100
AcDbEntity
  8
5.1. Komuneko altzaria
100
AcDbLine
 10
3040.947894097355
 20
873.973867885147
 30
0.0
 11
3041.347894097356
 21
873.973867885147
 31
0.0
  0
LINE
  5
3702
102
{ACAD_REACTORS
330
67E3
102
}
330
1F
100
AcDbEntity
  8
5.1. Komuneko altzaria
100
AcDbLine
 10
3041.347894097356
 20
873.8438678851469
 30
0.0
 11
3040.947894097355
 21
873.8438678851469
 31
0.0
  0
LINE
  5
3703
102
{ACAD_REACTORS
330
67E3
102
}
330
1F
100
AcDbEntity
  8
5.1. Komuneko altzaria
100
AcDbLine
 10
3041.317894097355
 20
873.4038678851469
 30
0.0
 11
3041.317894097355
 21
873.8438678851469
 31
0.0
  0
LINE
  5
3704
330
1F
100
AcDbEntity
  8
5.1. Komuneko altzaria
100
AcDbLine
 10
3041.292894097356
 20
873.4288678851468
 30
0.0
 11
3041.292894097356
 21
873.8438678851469
 31
0.0
  0
LINE
  5
3705
102
{ACAD_REACTORS
330
67E3
102
}
330
1F
100
AcDbEntity
  8
5.1. Komuneko altzaria
100
AcDbLine
 10
3041.347894097356
 20
873.973867885147
 30
0.0
 11
3041.347894097356
 21
873.8438678851469
 31
0.0
  0
ARC
  5
3706
102
{ACAD_REACTORS
330
67E3
102
}
330
1F
100
AcDbEntity
  8
5.1. Komuneko altzaria
100
AcDbCircle
 10
3041.267894097356
 20
873.4038678851469
 30
0.0
 40
0.05
100
AcDbArc
 50
270.0
 51
0.0
  0
LINE
  5
3707
102
{ACAD_REACTORS
330
67E3
102
}
330
1F
100
AcDbEntity
  8
5.1. Komuneko altzaria
100
AcDbLine
 10
3041.147894097355
 20
873.3538678851468
 30
0.0
 11
3041.267894097356
 21
873.3538678851468
 31
0.0
  0
LINE
  5
3708
330
1F
100
AcDbEntity
  8
5.1. Komuneko altzaria
100
AcDbLine
 10
3041.147894097355
 20
873.3788678851468
 30
0.0
 11
3041.052894097356
 21
873.3788678851468
 31
0.0
  0
ARC
  5
3709
330
1F
100
AcDbEntity
  8
5.1. Komuneko altzaria
100
AcDbCircle
 10
3041.242894097356
 20
873.4288678851468
 30
0.0
 40
0.05
100
AcDbArc
 50
270.0
 51
0.0
  0
LINE
  5
370A
330
1F
100
AcDbEntity
  8
5.1. Komuneko altzaria
100
AcDbLine
 10
3041.147894097355
 20
873.3788678851468
 30
0.0
 11
3041.242894097356
 21
873.3788678851468
 31
0.0
  0
LINE
  5
370B
102
{ACAD_REACTORS
330
67E3
102
}
330
1F
100
AcDbEntity
  8
5.1. Komuneko altzaria
100
AcDbLine
 10
3040.977894097356
 20
873.4038678851469
 30
0.0
 11
3040.977894097356
 21
873.8438678851469
 31
0.0
  0
LINE
  5
370C
330
1F
100
AcDbEntity
  8
5.1. Komuneko altzaria
100
AcDbLine
 10
3041.002894097355
 20
873.4288678851468
 30
0.0
 11
3041.002894097355
 21
873.8438678851469
 31
0.0
  0
LINE
  5
370D
102
{ACAD_REACTORS
330
67E3
102
}
330
1F
100
AcDbEntity
  8
5.1. Komuneko altzaria
100
AcDbLine
 10
3040.947894097355
 20
873.8438678851469
 30
0.0
 11
3040.947894097355
 21
873.973867885147
 31
0.0
  0
ARC
  5
370E
102
{ACAD_REACTORS
330
67E3
102
}
330
1F
100
AcDbEntity
  8
5.1. Komuneko altzaria
100
AcDbCircle
 10
3041.027894097356
 20
873.4038678851469
 30
0.0
 40
0.05
100
AcDbArc
 50
180.0
 51
270.0
  0
LINE
  5
370F
102
{ACAD_REACTORS
330
67E3
102
}
330
1F
100
AcDbEntity
  8
5.1. Komuneko altzaria
100
AcDbLine
 10
3041.529594395095
 20
873.483867885147
 30
0.0
 11
3042.129594395095
 21
873.483867885147
 31
0.0
  0
LINE
  5
3710
330
1F
100
AcDbEntity
  8
5.1. Komuneko altzaria
100
AcDbLine
 10
3041.529594395095
 20
873.9838678851469
 30
0.0
 11
3042.129594395095
 21
873.9838678851469
 31
0.0
  0
LINE
  5
3711
102
{ACAD_REACTORS
330
67E3
102
}
330
1F
100
AcDbEntity
  8
5.1. Komuneko altzaria
100
AcDbLine
 10
3042.129594395095
 20
873.483867885147
 30
0.0
 11
3042.129594395095
 21
873.9838678851469
 31
0.0
  0
LINE
  5
3712
102
{ACAD_REACTORS
330
67E3
102
}
330
1F
100
AcDbEntity
  8
5.1. Komuneko altzaria
100
AcDbLine
 10
3041.529594395095
 20
873.4838678851479
 30
0.0
 11
3041.529594395095
 21
873.9838678851469
 31
0.0
  0
LWPOLYLINE
  5
3713
330
1F
100
AcDbEntity
  8
5.1. Komuneko altzaria
100
AcDbPolyline
 90
        6
 70
     0
 43
0.0
 10
3041.819465782636
 20
873.8485339302838
 10
3041.579594395095
 20
873.8485339302838
 10
3041.579594395095
 20
873.5338678851471
 10
3042.079594395095
 20
873.5338678851471
 10
3042.079594395095
 20
873.8485339302838
 10
3041.839723007554
 20
873.8485339302838
  0
LWPOLYLINE
  5
3714
330
1F
100
AcDbEntity
  8
5.1. Komuneko altzaria
100
AcDbPolyline
 90
        4
 70
     1
 43
0.0
 10
3041.819465782636
 20
873.9404190455671
 10
3041.839723007554
 20
873.9404190455671
 10
3041.839723007554
 20
873.7566488150005
 10
3041.819465782636
 20
873.7566488150005
  0
LWPOLYLINE
  5
3715
330
1F
100
AcDbEntity
  8
5.1. Komuneko altzaria
100
AcDbPolyline
 90
        4
 70
     1
 43
0.0
 10
3041.81690896681
 20
873.9265241005137
 10
3041.765059374137
 20
873.9265241005137
 10
3041.765059374137
 20
873.8747328825311
 10
3041.81690896681
 20
873.8747328825311
  0
LWPOLYLINE
  5
3716
330
1F
100
AcDbEntity
  8
5.1. Komuneko altzaria
100
AcDbPolyline
 90
        4
 70
     1
 43
0.0
 10
3041.841796924314
 20
873.8747328825311
 10
3041.899868506363
 20
873.8747328825311
 10
3041.899868506363
 20
873.9265241005137
 10
3041.841796924314
 20
873.9265241005137
  0
CIRCLE
  5
3717
330
1F
100
AcDbEntity
  8
5.1. Komuneko altzaria
100
AcDbCircle
 10
3041.83215121092
 20
873.7014691396549
 30
0.0
 40
0.0183990299208858
  0
LINE
  5
3741
330
1F
100
AcDbEntity
  8
2.3. Mehelina
100
AcDbLine
 10
3044.254935033461
 20
876.4631691284378
 30
0.0
 11
3044.604935033461
 21
876.4631691284378
 31
0.0
  0
LINE
  5
3742
102
{ACAD_REACTORS
330
3817
102
}
330
1F
100
AcDbEntity
  8
2.3. Mehelina
100
AcDbLine
 10
3044.254935033461
 20
876.1631691284378
 30
0.0
 11
3044.254935033461
 21
876.4631691284378
 31
0.0
  0
LINE
  5
3743
102
{ACAD_REACTORS
330
3817
102
}
330
1F
100
AcDbEntity
  8
2.3. Mehelina
100
AcDbLine
 10
3044.254935033461
 20
876.4631691284378
 30
0.0
 11
3044.604935033461
 21
876.4631691284378
 31
0.0
  0
LINE
  5
3744
102
{ACAD_REACTORS
330
3817
102
}
330
1F
100
AcDbEntity
  8
2.3. Mehelina
100
AcDbLine
 10
3044.604935033461
 20
876.4631691284378
 30
0.0
 11
3044.604935033461
 21
876.1631691284378
 31
0.0
  0
LINE
  5
3745
102
{ACAD_REACTORS
330
3817
102
}
330
1F
100
AcDbEntity
  8
2.3. Mehelina
100
AcDbLine
 10
3044.254935033461
 20
876.1631691284378
 30
0.0
 11
3040.934935033461
 21
876.1631691284376
 31
0.0
  0
LINE
  5
3746
102
{ACAD_REACTORS
330
3817
330
9722
102
}
330
1F
100
AcDbEntity
  8
2.3. Mehelina
100
AcDbLine
 10
3044.60493503346
 20
876.1631691284378
 30
0.0
 11
3047.95493503346
 21
876.1631691284378
 31
0.0
  0
LINE
  5
3747
102
{ACAD_REACTORS
330
3817
102
}
330
1F
100
AcDbEntity
  8
2.3. Mehelina
100
AcDbLine
 10
3047.95493503346
 20
876.1631691284378
 30
0.0
 11
3047.95493503346
 21
876.4631691284378
 31
0.0
  0
LINE
  5
3748
102
{ACAD_REACTORS
330
3817
102
}
330
1F
100
AcDbEntity
  8
2.3. Mehelina
100
AcDbLine
 10
3047.95493503346
 20
876.4631691284378
 30
0.0
 11
3048.25493503346
 21
876.4631691284378
 31
0.0
  0
LINE
  5
3749
102
{ACAD_REACTORS
330
3817
102
}
330
1F
100
AcDbEntity
  8
2.3. Mehelina
100
AcDbLine
 10
3040.934935033462
 20
876.1631691284378
 30
0.0
 11
3040.934935033462
 21
876.4631691284378
 31
0.0
  0
LINE
  5
374A
102
{ACAD_REACTORS
330
3817
102
}
330
1F
100
AcDbEntity
  8
2.3. Mehelina
100
AcDbLine
 10
3040.934935033462
 20
876.4631691284378
 30
0.0
 11
3040.744935033462
 21
876.4631691284378
 31
0.0
  0
LINE
  5
374B
102
{ACAD_REACTORS
330
3817
330
970D
102
}
330
1F
100
AcDbEntity
  8
2.3. Mehelina
100
AcDbLine
 10
3048.25493503346
 20
876.4631691284378
 30
0.0
 11
3048.25493503346
 21
879.7331691284382
 31
0.0
  0
LINE
  5
374C
102
{ACAD_REACTORS
330
3817
330
9722
102
}
330
1F
100
AcDbEntity
  8
2.3. Mehelina
100
AcDbLine
 10
3047.95493503346
 20
883.7631691284379
 30
0.0
 11
3044.664935033462
 21
883.7631691284379
 31
0.0
  0
LINE
  5
3752
102
{ACAD_REACTORS
330
3817
102
}
330
1F
100
AcDbEntity
  8
2.3. Mehelina
100
AcDbLine
 10
3044.664935033461
 20
883.7631691284379
 30
0.0
 11
3044.664935033461
 21
883.4431691284377
 31
0.0
  0
LINE
  5
3753
102
{ACAD_REACTORS
330
3817
102
}
330
1F
100
AcDbEntity
  8
2.3. Mehelina
100
AcDbLine
 10
3044.664935033461
 20
883.4431691284377
 30
0.0
 11
3044.194935033461
 21
883.4431691284377
 31
0.0
  0
LINE
  5
3754
102
{ACAD_REACTORS
330
3817
102
}
330
1F
100
AcDbEntity
  8
2.3. Mehelina
100
AcDbLine
 10
3044.194935033461
 20
883.4431691284377
 30
0.0
 11
3044.194935033461
 21
883.7631691284379
 31
0.0
  0
LINE
  5
3755
102
{ACAD_REACTORS
330
3817
102
}
330
1F
100
AcDbEntity
  8
2.3. Mehelina
100
AcDbLine
 10
3044.194935033462
 20
883.7631691284379
 30
0.0
 11
3040.934935033462
 21
883.7631691284379
 31
0.0
  0
LINE
  5
375B
102
{ACAD_REACTORS
330
3817
330
3823
102
}
330
1F
100
AcDbEntity
  8
2.2. Barne Horma
100
AcDbLine
 10
3044.254935033461
 20
880.1631691284379
 30
0.0
 11
3044.604935033462
 21
880.1631691284379
 31
0.0
  0
LINE
  5
375C
102
{ACAD_REACTORS
330
3817
330
3823
102
}
330
1F
100
AcDbEntity
  8
2.2. Barne Horma
100
AcDbLine
 10
3044.604935033462
 20
880.1631691284379
 30
0.0
 11
3044.604935033462
 21
879.733169128438
 31
0.0
  0
LINE
  5
375D
102
{ACAD_REACTORS
330
3817
330
3823
102
}
330
1F
100
AcDbEntity
  8
2.2. Barne Horma
100
AcDbLine
 10
3044.604935033462
 20
879.733169128438
 30
0.0
 11
3044.254935033461
 21
879.733169128438
 31
0.0
  0
LINE
  5
375E
102
{ACAD_REACTORS
330
3817
330
3823
102
}
330
1F
100
AcDbEntity
  8
2.2. Barne Horma
100
AcDbLine
 10
3044.254935033461
 20
879.733169128438
 30
0.0
 11
3044.254935033461
 21
880.1631691284379
 31
0.0
  0
LINE
  5
3763
102
{ACAD_REACTORS
330
3817
102
}
330
1F
100
AcDbEntity
  8
2.3. Mehelina
100
AcDbLine
 10
3048.25493503346
 20
879.733169128438
 30
0.0
 11
3047.95493503346
 21
879.733169128438
 31
0.0
  0
LINE
  5
3764
102
{ACAD_REACTORS
330
3817
102
}
330
1F
100
AcDbEntity
  8
2.3. Mehelina
100
AcDbLine
 10
3047.95493503346
 20
879.733169128438
 30
0.0
 11
3047.95493503346
 21
880.1631691284379
 31
0.0
  0
LINE
  5
3765
102
{ACAD_REACTORS
330
3817
102
}
330
1F
100
AcDbEntity
  8
2.3. Mehelina
100
AcDbLine
 10
3047.95493503346
 20
880.1631691284379
 30
0.0
 11
3048.25493503346
 21
880.1631691284379
 31
0.0
  0
LINE
  5
3766
102
{ACAD_REACTORS
330
3817
102
}
330
1F
100
AcDbEntity
  8
2.3. Mehelina
100
AcDbLine
 10
3048.25493503346
 20
880.1631691284379
 30
0.0
 11
3048.25493503346
 21
883.4431691284377
 31
0.0
  0
LINE
  5
3767
102
{ACAD_REACTORS
330
3817
102
}
330
1F
100
AcDbEntity
  8
2.3. Mehelina
100
AcDbLine
 10
3048.45493503346
 20
875.9631691284377
 30
0.0
 11
3048.45493503346
 21
883.9631691284377
 31
0.0
  0
LINE
  5
3768
102
{ACAD_REACTORS
330
3817
102
}
330
1F
100
AcDbEntity
  8
2.3. Mehelina
100
AcDbLine
 10
3048.45493503346
 20
883.9631691284377
 30
0.0
 11
3040.544935033461
 21
883.9631691284379
 31
0.0
  0
LINE
  5
3769
102
{ACAD_REACTORS
330
3817
102
}
330
1F
100
AcDbEntity
  8
2.3. Mehelina
100
AcDbLine
 10
3040.544935033461
 20
875.9631691284377
 30
0.0
 11
3048.45493503346
 21
875.9631691284377
 31
0.0
  0
LINE
  5
376C
102
{ACAD_REACTORS
330
3817
102
}
330
1F
100
AcDbEntity
  8
2.3. Mehelina
100
AcDbLine
 10
3047.95493503346
 20
883.7631691284379
 30
0.0
 11
3047.95493503346
 21
883.4431691284377
 31
0.0
  0
LINE
  5
376D
102
{ACAD_REACTORS
330
3817
102
}
330
1F
100
AcDbEntity
  8
2.3. Mehelina
100
AcDbLine
 10
3047.95493503346
 20
883.4431691284377
 30
0.0
 11
3048.25493503346
 21
883.4431691284377
 31
0.0
  0
LINE
  5
376E
102
{ACAD_REACTORS
330
3817
102
}
330
1F
100
AcDbEntity
  8
2.3. Mehelina
100
AcDbLine
 10
3040.934935033462
 20
879.733169128438
 30
0.0
 11
3040.934935033462
 21
880.1631691284379
 31
0.0
  0
LINE
  5
3771
102
{ACAD_REACTORS
330
3817
330
970D
102
}
330
1F
100
AcDbEntity
  8
2.3. Mehelina
100
AcDbLine
 10
3040.744935033462
 20
876.4631691284378
 30
0.0
 11
3040.744935033462
 21
879.733169128438
 31
0.0
  0
LINE
  5
3777
102
{ACAD_REACTORS
330
3817
102
}
330
1F
100
AcDbEntity
  8
2.3. Mehelina
100
AcDbLine
 10
3040.934935033462
 20
880.1631691284379
 30
0.0
 11
3040.744935033462
 21
880.1631691284379
 31
0.0
  0
LINE
  5
3778
102
{ACAD_REACTORS
330
3817
102
}
330
1F
100
AcDbEntity
  8
2.3. Mehelina
100
AcDbLine
 10
3040.934935033462
 20
879.733169128438
 30
0.0
 11
3040.744935033462
 21
879.733169128438
 31
0.0
  0
LINE
  5
3779
102
{ACAD_REACTORS
330
3817
102
}
330
1F
100
AcDbEntity
  8
2.3. Mehelina
100
AcDbLine
 10
3040.744935033462
 20
880.1631691284379
 30
0.0
 11
3040.744935033462
 21
883.4431691284377
 31
0.0
  0
LINE
  5
377A
102
{ACAD_REACTORS
330
3817
102
}
330
1F
100
AcDbEntity
  8
2.3. Mehelina
100
AcDbLine
 10
3040.934935033462
 20
883.7631691284379
 30
0.0
 11
3040.934935033462
 21
883.4431691284377
 31
0.0
  0
LINE
  5
377B
102
{ACAD_REACTORS
330
3817
102
}
330
1F
100
AcDbEntity
  8
2.3. Mehelina
100
AcDbLine
 10
3040.934935033462
 20
883.4431691284377
 30
0.0
 11
3040.744935033462
 21
883.4431691284377
 31
0.0
  0
LINE
  5
377C
102
{ACAD_REACTORS
330
3817
102
}
330
1F
100
AcDbEntity
  8
2.3. Mehelina
100
AcDbLine
 10
3040.544935033462
 20
875.9631691284379
 30
0.0
 11
3040.544935033461
 21
883.9631691284379
 31
0.0
  0
LINE
  5
37A4
102
{ACAD_REACTORS
330
3817
330
96F9
102
}
330
1F
100
AcDbEntity
  8
6.1. Eskailerak
100
AcDbLine
 10
3040.934935033462
 20
880.9781691284378
 30
0.0
 11
3040.934935033462
 21
883.4431691284377
 31
0.0
  0
LINE
  5
37A5
102
{ACAD_REACTORS
330
3817
330
96F9
102
}
330
1F
100
AcDbEntity
  8
6.1. Eskailerak
100
AcDbLine
 10
3042.204935033462
 20
883.7631691284379
 30
0.0
 11
3042.204935033462
 21
881.8706691284377
 31
0.0
  0
LINE
  5
37A6
102
{ACAD_REACTORS
330
3817
330
68BB
102
}
330
1F
100
AcDbEntity
  8
6.1. Eskailerak
100
AcDbLine
 10
3043.394935033461
 20
882.7631691284377
 30
0.0
 11
3040.934935033462
 21
882.7631691284379
 31
0.0
  0
LINE
  5
37A7
102
{ACAD_REACTORS
330
3817
330
68BB
102
}
330
1F
100
AcDbEntity
  8
6.1. Eskailerak
100
AcDbLine
 10
3043.394935033461
 20
882.7631691284377
 30
0.0
 11
3043.394935033461
 21
883.7631691284379
 31
0.0
  0
LINE
  5
37A8
330
1F
100
AcDbEntity
  8
6.1. Eskailerak
100
AcDbLine
 10
3042.502435033462
 20
883.7631691284379
 30
0.0
 11
3042.502435033462
 21
882.7631691284377
 31
0.0
  0
LINE
  5
37A9
330
1F
100
AcDbEntity
  8
6.1. Eskailerak
100
AcDbLine
 10
3042.799935033462
 20
883.7631691284379
 30
0.0
 11
3042.799935033462
 21
882.7631691284377
 31
0.0
  0
LINE
  5
37AA
330
1F
100
AcDbEntity
  8
6.1. Eskailerak
100
AcDbLine
 10
3043.097435033462
 20
883.7631691284379
 30
0.0
 11
3043.097435033462
 21
882.7631691284377
 31
0.0
  0
LINE
  5
37AB
102
{ACAD_REACTORS
330
3817
102
}
330
1F
100
AcDbEntity
  8
6.1. Eskailerak
100
AcDbLine
 10
3043.394935033461
 20
883.2631691284378
 30
0.0
 11
3041.569935033463
 21
883.2631691284378
 31
0.0
  0
LINE
  5
37AC
330
1F
100
AcDbEntity
  8
6.1. Eskailerak
100
AcDbLine
 10
3042.204935033462
 20
882.4656691284378
 30
0.0
 11
3040.934935033462
 21
882.4656691284378
 31
0.0
  0
LINE
  5
37AD
330
1F
100
AcDbEntity
  8
6.1. Eskailerak
100
AcDbLine
 10
3042.204935033462
 20
882.1681691284377
 30
0.0
 11
3040.934935033462
 21
882.1681691284378
 31
0.0
  0
LINE
  5
37AE
330
1F
100
AcDbEntity
  8
6.1. Eskailerak
100
AcDbLine
 10
3042.204935033462
 20
881.8706691284377
 30
0.0
 11
3040.934935033462
 21
881.8706691284377
 31
0.0
  0
LINE
  5
37AF
330
1F
100
AcDbEntity
  8
6.1. Eskailerak
100
AcDbLine
 10
3042.204935033462
 20
881.5731691284378
 30
0.0
 11
3040.934935033462
 21
881.5731691284378
 31
0.0
  0
LINE
  5
37B0
330
1F
100
AcDbEntity
  8
6.1. Eskailerak
100
AcDbLine
 10
3041.569935033462
 20
881.2756691284377
 30
0.0
 11
3040.934935033462
 21
881.2756691284377
 31
0.0
  0
LINE
  5
37B1
330
1F
100
AcDbEntity
  8
6.1. Eskailerak
  6
ACAD_ISO02W100
 48
0.00018
100
AcDbLine
 10
3042.204935033462
 20
880.9781691284376
 30
0.0
 11
3040.934935033462
 21
880.9781691284378
 31
0.0
  0
LINE
  5
37B2
330
1F
100
AcDbEntity
  8
6.1. Eskailerak
  6
ACAD_ISO02W100
 48
0.00018
100
AcDbLine
 10
3042.204935033462
 20
880.6806691284377
 30
0.0
 11
3040.934935033462
 21
880.6806691284377
 31
0.0
  0
LINE
  5
37B3
102
{ACAD_REACTORS
330
3817
102
}
330
1F
100
AcDbEntity
  8
6.1. Eskailerak
  6
ACAD_ISO02W100
 48
0.00018
100
AcDbLine
 10
3042.204935033462
 20
880.3831691284376
 30
0.0
 11
3040.934935033462
 21
880.3831691284377
 31
0.0
  0
LINE
  5
37B4
330
1F
100
AcDbEntity
  8
6.1. Eskailerak
  6
ACAD_ISO02W100
 48
0.00018
100
AcDbLine
 10
3042.204935033462
 20
880.0856691284376
 30
0.0
 11
3040.934935033462
 21
880.0856691284378
 31
0.0
  0
LINE
  5
37B5
330
1F
100
AcDbEntity
  8
6.1. Eskailerak
  6
ACAD_ISO02W100
 48
0.00018
100
AcDbLine
 10
3042.204935033462
 20
879.7881691284375
 30
0.0
 11
3040.934935033462
 21
879.7881691284377
 31
0.0
  0
LINE
  5
37B6
102
{ACAD_REACTORS
330
3817
102
}
330
1F
100
AcDbEntity
  8
6.1. Eskailerak
  6
ACAD_ISO02W100
 48
0.00018
100
AcDbLine
 10
3042.204935033462
 20
879.4906691284376
 30
0.0
 11
3040.934935033462
 21
879.4906691284378
 31
0.0
  0
LINE
  5
37B7
102
{ACAD_REACTORS
330
68A3
102
}
330
1F
100
AcDbEntity
  8
6.1. Eskailerak
  6
ACAD_ISO02W100
 48
0.00018
100
AcDbLine
 10
3040.934935033462
 20
879.4906691284378
 30
0.0
 11
3040.934935033462
 21
879.733169128438
 31
0.0
  0
LINE
  5
37B8
102
{ACAD_REACTORS
330
3817
102
}
330
1F
100
AcDbEntity
  8
6.1. Eskailerak
100
AcDbLine
 10
3041.569935033463
 20
881.3256691284381
 30
0.0
 11
3041.569935033463
 21
883.2631691284378
 31
0.0
  0
LWPOLYLINE
  5
37C5
102
{ACAD_REACTORS
330
3817
330
3823
102
}
330
1F
100
AcDbEntity
  8
2.2. Barne Horma
100
AcDbPolyline
 90
        4
 70
     1
 43
0.0
 10
3042.254935033462
 20
882.6331691284378
 10
3042.334935033461
 20
882.6331691284378
 10
3042.334935033461
 20
882.7131691284378
 10
3042.254935033462
 20
882.7131691284378
  0
HATCH
  5
3817
330
1F
100
AcDbEntity
  8
2.5. Horma itzala
100
AcDbHatch
 10
0.0
 20
0.0
 30
0.0
210
0.0
220
0.0
230
1.0
  2
SOLID
 70
     1
 71
     1
 91
        5
 92
        7
 72
     0
 73
     1
 93
        4
 10
3040.544935033461
 20
883.9631691284379
 10
3040.544935033462
 20
875.9631691284377
 10
3048.45493503346
 20
875.9631691284377
 10
3048.45493503346
 20
883.9631691284377
 97
        4
330
3768
330
377C
330
3769
330
3767
 92
       22
 72
     0
 73
     1
 93
       28
 10
3044.664935033461
 20
883.7631691284379
 10
3047.95493503346
 20
883.7631691284379
 10
3047.95493503346
 20
883.4431691284377
 10
3048.25493503346
 20
883.4431691284377
 10
3048.25493503346
 20
880.1631691284379
 10
3047.95493503346
 20
880.1631691284379
 10
3047.95493503346
 20
879.733169128438
 10
3048.25493503346
 20
879.733169128438
 10
3048.25493503346
 20
876.4631691284378
 10
3047.95493503346
 20
876.4631691284378
 10
3047.95493503346
 20
876.1631691284378
 10
3044.604935033461
 20
876.1631691284378
 10
3044.604935033461
 20
876.4631691284378
 10
3044.254935033461
 20
876.4631691284378
 10
3044.254935033461
 20
876.1631691284378
 10
3040.934935033462
 20
876.1631691284376
 10
3040.934935033462
 20
876.4631691284378
 10
3040.744935033462
 20
876.4631691284378
 10
3040.744935033462
 20
879.733169128438
 10
3040.934935033462
 20
879.733169128438
 10
3040.934935033462
 20
880.1631691284379
 10
3040.744935033462
 20
880.1631691284379
 10
3040.744935033462
 20
883.4431691284377
 10
3040.934935033462
 20
883.4431691284377
 10
3040.934935033462
 20
883.7631691284379
 10
3044.194935033461
 20
883.7631691284379
 10
3044.194935033461
 20
883.4431691284377
 10
3044.664935033461
 20
883.4431691284377
 97
       28
330
374C
330
376C
330
376D
330
3766
330
3765
330
3764
330
3763
330
374B
330
3748
330
3747
330
3746
330
3744
330
3743
330
3742
330
3745
330
3749
330
374A
330
3771
330
3778
330
376E
330
3777
330
3779
330
377B
330
377A
330
3755
330
3754
330
3753
330
3752
 92
        6
 72
     0
 73
     1
 93
        4
 10
3043.394935033461
 20
882.7631691284377
 10
3041.569935033463
 20
882.7631691284377
 10
3041.569935033463
 20
883.2631691284378
 10
3043.394935033461
 20
883.2631691284378
 97
        8
330
37A6
330
37A5
330
37B6
330
37B8
330
37B3
330
37A4
330
37AB
330
37A7
 92
        6
 72
     0
 73
     1
 93
        4
 10
3042.334935033461
 20
882.7131691284378
 10
3042.334935033461
 20
882.6331691284378
 10
3042.254935033462
 20
882.6331691284378
 10
3042.254935033462
 20
882.7131691284378
 97
        1
330
37C5
 92
        6
 72
     0
 73
     1
 93
        4
 10
3044.604935033462
 20
880.1631691284379
 10
3044.604935033462
 20
879.733169128438
 10
3044.254935033461
 20
879.733169128438
 10
3044.254935033461
 20
880.1631691284379
 97
        4
330
375C
330
375D
330
375E
330
375B
 75
     1
 76
     1
 47
0.015262303832545
 98
        5
 10
3044.484227965727
 20
883.6712195739005
 10
3044.484227965727
 20
883.6712195739005
 10
3044.484227965727
 20
883.6712195739005
 10
3044.484227965727
 20
883.6712195739005
 10
3044.484227965727
 20
883.6712195739005
450
        0
451
        0
460
0.0
461
0.0
452
        0
462
1.0
453
        2
463
0.0
 63
     5
421
      255
463
1.0
 63
     2
421
 16776960
470
LINEAR
1001
GradientColor1ACI
1070
     5
1001
GradientColor2ACI
1070
     2
1001
ACAD
1010
0.0
1020
0.0
1030
0.0
  0
HATCH
  5
3823
330
1F
100
AcDbEntity
  8
2.5. Horma itzala
100
AcDbHatch
 10
0.0
 20
0.0
 30
0.0
210
0.0
220
0.0
230
1.0
  2
SOLID
 70
     1
 71
     1
 91
        2
 92
        7
 72
     0
 73
     1
 93
        4
 10
3044.604935033462
 20
880.1631691284379
 10
3044.254935033461
 20
880.1631691284379
 10
3044.254935033461
 20
879.733169128438
 10
3044.604935033462
 20
879.733169128438
 97
        4
330
375B
330
375E
330
375D
330
375C
 92
        7
 72
     0
 73
     1
 93
        4
 10
3042.334935033461
 20
882.7131691284378
 10
3042.254935033462
 20
882.7131691284378
 10
3042.254935033462
 20
882.6331691284378
 10
3042.334935033461
 20
882.6331691284378
 97
        1
330
37C5
 75
     1
 76
     1
 47
0.002360693033381
 98
        2
 10
3044.438417791849
 20
879.9624780128064
 10
3042.319214693583
 20
882.6890325680547
450
        0
451
        0
460
0.0
461
0.0
452
        0
462
1.0
453
        2
463
0.0
 63
     5
421
      255
463
1.0
 63
     2
421
 16776960
470
LINEAR
1001
GradientColor1ACI
1070
     5
1001
GradientColor2ACI
1070
     2
1001
ACAD
1010
0.0
1020
0.0
1030
0.0
  0
LINE
  5
3830
330
1F
100
AcDbEntity
  8
3.2. Leihoa
100
AcDbLine
 10
3044.254935033462
 20
866.7138678851477
 30
0.0
 11
3040.934935033462
 21
866.7138678851479
 31
0.0
  0
LINE
  5
3831
330
1F
100
AcDbEntity
  8
3.2. Leihoa
100
AcDbLine
 10
3040.934935033462
 20
866.6488678851477
 30
0.0
 11
3044.254935033462
 21
866.6488678851477
 31
0.0
  0
LINE
  5
3832
330
1F
100
AcDbEntity
  8
3.2. Leihoa
100
AcDbLine
 10
3044.204935033462
 20
866.6638678851477
 30
0.0
 11
3040.984935033462
 21
866.6638678851477
 31
0.0
  0
LINE
  5
3833
330
1F
100
AcDbEntity
  8
3.2. Leihoa
100
AcDbLine
 10
3044.204935033462
 20
866.6488678851477
 30
0.0
 11
3044.204935033462
 21
866.7138678851477
 31
0.0
  0
LINE
  5
3834
330
1F
100
AcDbEntity
  8
3.2. Leihoa
100
AcDbLine
 10
3044.164935033462
 20
866.6638678851477
 30
0.0
 11
3044.164935033462
 21
866.7138678851477
 31
0.0
  0
LINE
  5
3835
330
1F
100
AcDbEntity
  8
3.2. Leihoa
100
AcDbLine
 10
3044.164935033462
 20
866.6888678851478
 30
0.0
 11
3041.024935033461
 21
866.6888678851476
 31
0.0
  0
LINE
  5
3836
330
1F
100
AcDbEntity
  8
3.2. Leihoa
100
AcDbLine
 10
3040.984935033462
 20
866.6488678851479
 30
0.0
 11
3040.984935033462
 21
866.7138678851477
 31
0.0
  0
LINE
  5
3837
330
1F
100
AcDbEntity
  8
3.2. Leihoa
100
AcDbLine
 10
3041.024935033462
 20
866.6638678851478
 30
0.0
 11
3041.024935033462
 21
866.7138678851477
 31
0.0
  0
LINE
  5
3839
102
{ACAD_REACTORS
330
6905
330
8E2C
102
}
330
1F
100
AcDbEntity
  8
2.1. Kanpo Horma
100
AcDbLine
 10
3040.934935033462
 20
866.7138678851477
 30
0.0
 11
3040.934935033462
 21
866.4138678851479
 31
0.0
  0
LINE
  5
383A
102
{ACAD_REACTORS
330
8E3B
102
}
330
1F
100
AcDbEntity
  8
2.1. Kanpo Horma
100
AcDbLine
 10
3044.254935033462
 20
866.4138678851479
 30
0.0
 11
3044.755197054306
 21
866.4138678851482
 31
0.0
  0
LINE
  5
383B
330
1F
100
AcDbEntity
  8
3.2. Leihoa
100
AcDbLine
 10
3040.934935033461
 20
866.5638678851477
 30
0.0
 11
3044.254935033461
 21
866.5638678851477
 31
0.0
  0
LINE
  5
383C
330
1F
100
AcDbEntity
  8
3.2. Leihoa
100
AcDbLine
 10
3047.874935033462
 20
866.7138678851477
 30
0.0
 11
3046.173873317793
 21
866.7138678851479
 31
0.0
  0
LINE
  5
383D
330
1F
100
AcDbEntity
  8
3.2. Leihoa
100
AcDbLine
 10
3046.127902119618
 20
866.6488678851477
 30
0.0
 11
3047.874935033462
 21
866.6488678851477
 31
0.0
  0
LINE
  5
383E
330
1F
100
AcDbEntity
  8
3.2. Leihoa
100
AcDbLine
 10
3047.824935033462
 20
866.6638678851477
 30
0.0
 11
3046.223873317793
 21
866.6638678851475
 31
0.0
  0
LINE
  5
383F
330
1F
100
AcDbEntity
  8
3.2. Leihoa
100
AcDbLine
 10
3047.824935033462
 20
866.6488678851477
 30
0.0
 11
3047.824935033462
 21
866.7138678851477
 31
0.0
  0
LINE
  5
3840
330
1F
100
AcDbEntity
  8
3.2. Leihoa
100
AcDbLine
 10
3047.784935033462
 20
866.6638678851477
 30
0.0
 11
3047.784935033462
 21
866.7138678851477
 31
0.0
  0
LINE
  5
3841
330
1F
100
AcDbEntity
  8
3.2. Leihoa
100
AcDbLine
 10
3047.784935033462
 20
866.6888678851478
 30
0.0
 11
3046.263873317793
 21
866.6888678851476
 31
0.0
  0
LINE
  5
3843
330
1F
100
AcDbEntity
  8
3.2. Leihoa
100
AcDbLine
 10
3046.194935033462
 20
866.6488678851477
 30
0.0
 11
3046.194935033462
 21
866.7138678851481
 31
0.0
  0
LWPOLYLINE
  5
3866
102
{ACAD_REACTORS
330
67C7
330
69C5
102
}
330
1F
100
AcDbEntity
  8
3.1. Atea
100
AcDbPolyline
 90
        6
 70
     0
 43
0.0
 10
3045.756592748678
 20
867.6997242692085
 10
3045.647262655215
 20
867.6997242692085
 10
3045.647262655215
 20
867.7247242692091
 10
3045.612262655215
 20
867.7247242692091
 10
3045.612262655215
 20
867.7997242692089
 10
3045.790197054306
 20
867.7997242692089
  0
LWPOLYLINE
  5
3867
102
{ACAD_REACTORS
330
67C7
330
69C5
102
}
330
1F
100
AcDbEntity
  8
3.1. Atea
100
AcDbPolyline
 90
        6
 70
     0
 43
0.0
 10
3044.670197054305
 20
867.6997242692085
 10
3044.877262655216
 20
867.6997242692085
 10
3044.877262655216
 20
867.7247242692091
 10
3044.912262655215
 20
867.7247242692091
 10
3044.912262655215
 20
867.7997242692089
 10
3044.605197054305
 20
867.7997242692095
  0
LWPOLYLINE
  5
3868
102
{ACAD_REACTORS
330
67C7
102
}
330
1F
100
AcDbEntity
  8
3.1. Atea
100
AcDbPolyline
 90
        4
 70
     1
 43
0.0
 10
3044.902262655214
 20
866.9297242692092
 10
3044.877262655216
 20
866.929724269209
 10
3044.877262655216
 20
867.6997242692085
 10
3044.902262655215
 20
867.6997242692085
  0
ARC
  5
3869
102
{ACAD_REACTORS
330
67C7
102
}
330
1F
100
AcDbEntity
  8
3.1. Atea
100
AcDbCircle
 10
3044.877577346146
 20
867.6990139513604
 30
0.0
 40
0.7696856368334839
100
AcDbArc
 50
271.8379017893391
 51
0.0528764194640606
  0
LINE
  5
386B
330
1F
100
AcDbEntity
  8
3.2. Leihoa
100
AcDbLine
 10
3044.605197054306
 20
867.7997242692095
 30
0.0
 11
3044.605197054305
 21
867.1338678851471
 31
0.0
  0
LINE
  5
386C
102
{ACAD_REACTORS
330
67C7
102
}
330
1F
100
AcDbEntity
  8
3.2. Leihoa
100
AcDbLine
 10
3044.670197054305
 20
867.1338678851471
 30
0.0
 11
3044.670197054305
 21
867.6997242692085
 31
0.0
  0
LINE
  5
386D
330
1F
100
AcDbEntity
  8
3.2. Leihoa
100
AcDbLine
 10
3044.655197054305
 20
867.6997242692085
 30
0.0
 11
3044.655197054304
 21
867.183867885147
 31
0.0
  0
LINE
  5
386E
330
1F
100
AcDbEntity
  8
3.2. Leihoa
100
AcDbLine
 10
3044.670197054305
 20
867.6997242692085
 30
0.0
 11
3044.605197054305
 21
867.6997242692085
 31
0.0
  0
LINE
  5
386F
330
1F
100
AcDbEntity
  8
3.2. Leihoa
100
AcDbLine
 10
3044.655197054305
 20
867.6568678851468
 30
0.0
 11
3044.605197054305
 21
867.6568678851468
 31
0.0
  0
LINE
  5
3870
330
1F
100
AcDbEntity
  8
3.2. Leihoa
100
AcDbLine
 10
3044.630197054305
 20
867.6568678851468
 30
0.0
 11
3044.630197054305
 21
867.2238678851471
 31
0.0
  0
LINE
  5
3889
330
1F
100
AcDbEntity
  8
3.2. Leihoa
100
AcDbLine
 10
3046.173873317793
 20
866.7138678851479
 30
0.0
 11
3045.790197054306
 21
867.7997242692089
 31
0.0
  0
LINE
  5
388A
330
1F
100
AcDbEntity
  8
3.2. Leihoa
100
AcDbLine
 10
3045.756592748678
 20
867.6997242692085
 30
0.0
 11
3046.127902119618
 21
866.6488678851477
 31
0.0
  0
LINE
  5
388B
330
1F
100
AcDbEntity
  8
3.2. Leihoa
100
AcDbLine
 10
3046.11340352968
 20
866.7349250626834
 30
0.0
 11
3045.770735833459
 21
867.7047215837731
 31
0.0
  0
LINE
  5
388C
330
1F
100
AcDbEntity
  8
3.2. Leihoa
100
AcDbLine
 10
3046.123649165478
 20
866.7809688130429
 30
0.0
 11
3045.807633813601
 21
867.6753355486289
 31
0.0
  0
LINE
  5
388D
330
1F
100
AcDbEntity
  8
3.2. Leihoa
100
AcDbLine
 10
3045.756592748678
 20
867.6997242692085
 30
0.0
 11
3045.817879449398
 21
867.7213792989887
 31
0.0
  0
LINE
  5
388E
330
1F
100
AcDbEntity
  8
3.2. Leihoa
100
AcDbLine
 10
3045.784062005632
 20
867.6670066910217
 30
0.0
 11
3045.831205621571
 21
867.6836644062372
 31
0.0
  0
LINE
  5
389A
330
1F
100
AcDbEntity
  8
3.2. Leihoa
100
AcDbLine
 10
3046.099260444899
 20
866.7299277481193
 30
0.0
 11
3046.16054714562
 21
866.7515827778993
 31
0.0
  0
LINE
  5
389B
330
1F
100
AcDbEntity
  8
3.2. Leihoa
100
AcDbLine
 10
3046.100077357508
 20
866.772639955435
 30
0.0
 11
3046.147220973447
 21
866.7892976706504
 31
0.0
  0
LINE
  5
389C
330
1F
100
AcDbEntity
  8
3.2. Leihoa
100
AcDbLine
 10
3046.223873317793
 20
866.6488678851477
 30
0.0
 11
3046.223873317793
 21
866.7138678851477
 31
0.0
  0
LINE
  5
389D
330
1F
100
AcDbEntity
  8
3.2. Leihoa
100
AcDbLine
 10
3046.263873317793
 20
866.6638678851477
 30
0.0
 11
3046.263873317793
 21
866.7138678851477
 31
0.0
  0
LINE
  5
38B7
330
1F
100
AcDbEntity
  8
3.2. Leihoa
100
AcDbLine
 10
3044.670197054305
 20
867.1838678851472
 30
0.0
 11
3044.605197054305
 21
867.1838678851472
 31
0.0
  0
LINE
  5
38B8
330
1F
100
AcDbEntity
  8
3.2. Leihoa
100
AcDbLine
 10
3044.655197054305
 20
867.2238678851471
 30
0.0
 11
3044.605197054305
 21
867.2238678851471
 31
0.0
  0
LINE
  5
38C5
102
{ACAD_REACTORS
330
67C7
330
69DD
102
}
330
1F
100
AcDbEntity
  8
3.2. Leihoa
100
AcDbLine
 10
3045.701927701946
 20
867.6997242692085
 30
0.0
 11
3046.103270954784
 21
866.5638678851477
 31
0.0
  0
LINE
  5
38C6
102
{ACAD_REACTORS
330
69DD
102
}
330
1F
100
AcDbEntity
  8
3.2. Leihoa
100
AcDbLine
 10
3046.103270954784
 20
866.5638678851477
 30
0.0
 11
3047.874935033462
 21
866.5638678851477
 31
0.0
  0
LINE
  5
393B
330
1F
100
AcDbEntity
  8
6.1. Eskailerak
100
AcDbLine
 10
3040.934935033462
 20
870.8038678851476
 30
0.0
 11
3040.934935033462
 21
872.7838678851476
 31
0.0
  0
LINE
  5
393C
102
{ACAD_REACTORS
330
3817
102
}
330
1F
100
AcDbEntity
  8
6.1. Eskailerak
100
AcDbLine
 10
3042.204935033462
 20
872.7838678851478
 30
0.0
 11
3042.204935033462
 21
870.8038678851476
 31
0.0
  0
LINE
  5
393D
330
1F
100
AcDbEntity
  8
6.1. Eskailerak
100
AcDbLine
 10
3040.934935033462
 20
870.8038678851476
 30
0.0
 11
3042.204935033462
 21
870.8038678851474
 31
0.0
  0
LINE
  5
3941
330
1F
100
AcDbEntity
  8
6.1. Eskailerak
100
AcDbLine
 10
3042.204935033462
 20
872.5888678851474
 30
0.0
 11
3040.934935033462
 21
872.5888678851475
 31
0.0
  0
LINE
  5
3942
330
1F
100
AcDbEntity
  8
6.1. Eskailerak
100
AcDbLine
 10
3042.204935033462
 20
872.2913678851474
 30
0.0
 11
3040.934935033462
 21
872.2913678851476
 31
0.0
  0
LINE
  5
3943
330
1F
100
AcDbEntity
  8
6.1. Eskailerak
100
AcDbLine
 10
3042.204935033462
 20
871.9938678851475
 30
0.0
 11
3040.934935033462
 21
871.9938678851475
 31
0.0
  0
LINE
  5
3944
102
{ACAD_REACTORS
330
3817
102
}
330
1F
100
AcDbEntity
  8
6.1. Eskailerak
100
AcDbLine
 10
3042.204935033462
 20
871.6963678851474
 30
0.0
 11
3040.934935033462
 21
871.6963678851476
 31
0.0
  0
LINE
  5
3945
330
1F
100
AcDbEntity
  8
6.1. Eskailerak
100
AcDbLine
 10
3042.204935033462
 20
871.3988678851475
 30
0.0
 11
3040.934935033462
 21
871.3988678851475
 31
0.0
  0
LINE
  5
3946
330
1F
100
AcDbEntity
  8
6.1. Eskailerak
100
AcDbLine
 10
3042.204935033462
 20
871.1013678851474
 30
0.0
 11
3040.934935033462
 21
871.1013678851475
 31
0.0
  0
LINE
  5
3947
330
1F
100
AcDbEntity
  8
6.1. Eskailerak
100
AcDbLine
 10
3041.569935033463
 20
870.8538678851475
 30
0.0
 11
3041.569935033462
 21
872.7838678851476
 31
0.0
  0
CIRCLE
  5
3EBE
330
1F
100
AcDbEntity
  8
8.1. Irisgarritasun boloa
 48
0.0005
100
AcDbCircle
 10
3045.307355861835
 20
868.7166427036888
 30
0.0
 40
0.9
  0
HATCH
  5
65E4
330
1F
100
AcDbEntity
  8
1.3. Eskala grafikoa
100
AcDbHatch
 10
0.0
 20
0.0
 30
0.0
210
0.0
220
0.0
230
1.0
  2
SOLID
 70
     1
 71
     0
 91
        1
 92
        5
 93
        4
 72
     1
 10
3026.77215441321
 20
913.5083864829356
 11
3026.77215441321
 21
913.5079127058597
 72
     1
 10
3026.77215441321
 20
913.5079127058597
 11
3026.77715441321
 21
913.5079127058597
 72
     1
 10
3026.77715441321
 20
913.5079127058597
 11
3026.77715441321
 21
913.5083864829356
 72
     1
 10
3026.77715441321
 20
913.5083864829356
 11
3026.77215441321
 21
913.5083864829356
 97
        0
 75
     1
 76
     1
 47
0.0000355507141102
 98
        1
 10
3026.77465441321
 20
913.5081495943977
450
        0
451
        0
460
0.0
461
0.0
452
        0
462
1.0
453
        2
463
0.0
 63
     5
421
      255
463
1.0
 63
     2
421
 16776960
470
LINEAR
1001
GradientColor1ACI
1070
     5
1001
GradientColor2ACI
1070
     2
1001
ACAD
1010
0.0
1020
0.0
1030
0.0
  0
HATCH
  5
65E5
330
1F
100
AcDbEntity
  8
1.3. Eskala grafikoa
100
AcDbHatch
 10
0.0
 20
0.0
 30
0.0
210
0.0
220
0.0
230
1.0
  2
SOLID
 70
     1
 71
     0
 91
        1
 92
        7
 72
     0
 73
     1
 93
        4
 10
3026.79715441321
 20
913.5083864829356
 10
3026.787154413211
 20
913.5083864829356
 10
3026.78715441321
 20
913.5079127058597
 10
3026.79715441321
 20
913.5079127058597
 97
        0
 75
     1
 76
     1
 47
0.0000355507141102
 98
        1
 10
3026.793325433491
 20
913.5080598509668
450
        0
451
        0
460
0.0
461
0.0
452
        0
462
1.0
453
        2
463
0.0
 63
     5
421
      255
463
1.0
 63
     2
421
 16776960
470
LINEAR
1001
GradientColor1ACI
1070
     5
1001
GradientColor2ACI
1070
     2
1001
ACAD
1010
0.0
1020
0.0
1030
0.0
  0
HATCH
  5
65E6
330
1F
100
AcDbEntity
  8
1.3. Eskala grafikoa
100
AcDbHatch
 10
0.0
 20
0.0
 30
0.0
210
0.0
220
0.0
230
1.0
  2
SOLID
 70
     1
 71
     0
 91
        1
 92
        7
 72
     0
 73
     1
 93
        4
 10
3026.78715441321
 20
913.5079127058597
 10
3026.77715441321
 20
913.5079127058597
 10
3026.77715441321
 20
913.5074389287836
 10
3026.78715441321
 20
913.5074389287836
 97
        0
 75
     1
 76
     1
 47
0.0000355507141102
 98
        1
 10
3026.781542292475
 20
913.5076095330223
450
        0
451
        0
460
0.0
461
0.0
452
        0
462
1.0
453
        2
463
0.0
 63
     5
421
      255
463
1.0
 63
     2
421
 16776960
470
LINEAR
1001
GradientColor1ACI
1070
     5
1001
GradientColor2ACI
1070
     2
1001
ACAD
1010
0.0
1020
0.0
1030
0.0
  0
HATCH
  5
65E7
330
1F
100
AcDbEntity
  8
1.3. Eskala grafikoa
100
AcDbHatch
 10
0.0
 20
0.0
 30
0.0
210
0.0
220
0.0
230
1.0
  2
SOLID
 70
     1
 71
     0
 91
        1
 92
        7
 72
     0
 73
     1
 93
        4
 10
3026.807154413211
 20
913.5079127058597
 10
3026.79715441321
 20
913.5079127058597
 10
3026.79715441321
 20
913.5074389287836
 10
3026.807154413211
 20
913.5074389287836
 97
        0
 75
     1
 76
     1
 47
0.0000355507141102
 98
        1
 10
3026.803925706933
 20
913.5077526368114
450
        0
451
        0
460
0.0
461
0.0
452
        0
462
1.0
453
        2
463
0.0
 63
     5
421
      255
463
1.0
 63
     2
421
 16776960
470
LINEAR
1001
GradientColor1ACI
1070
     5
1001
GradientColor2ACI
1070
     2
1001
ACAD
1010
0.0
1020
0.0
1030
0.0
  0
HATCH
  5
65E8
330
1F
100
AcDbEntity
  8
1.3. Eskala grafikoa
100
AcDbHatch
 10
0.0
 20
0.0
 30
0.0
210
0.0
220
0.0
230
1.0
  2
SOLID
 70
     1
 71
     0
 91
        1
 92
        5
 93
        4
 72
     1
 10
3026.76715441321
 20
913.5079127058597
 11
3026.76715441321
 21
913.5074389287836
 72
     1
 10
3026.76715441321
 20
913.5074389287836
 11
3026.772154413209
 21
913.5074389287836
 72
     1
 10
3026.772154413209
 20
913.5074389287836
 11
3026.77215441321
 21
913.5079127058597
 72
     1
 10
3026.77215441321
 20
913.5079127058597
 11
3026.76715441321
 21
913.5079127058597
 97
        0
 75
     1
 76
     1
 47
0.0000355507141102
 98
        1
 10
3026.76965441321
 20
913.5076758173216
450
        0
451
        0
460
0.0
461
0.0
452
        0
462
1.0
453
        2
463
0.0
 63
     5
421
      255
463
1.0
 63
     2
421
 16776960
470
LINEAR
1001
GradientColor1ACI
1070
     5
1001
GradientColor2ACI
1070
     2
1001
ACAD
1010
0.0
1020
0.0
1030
0.0
  0
LWPOLYLINE
  5
65EE
330
1F
100
AcDbEntity
  8
0
100
AcDbPolyline
 90
        4
 70
     1
 43
0.0
 10
3026.836283678872
 20
913.4942047235044
 10
3026.836283678872
 20
913.7912047235046
 10
3026.626283678872
 20
913.7912047235046
 10
3026.626283678872
 20
913.4942047235044
  0
MTEXT
  5
65EF
330
1F
100
AcDbEntity
  8
1.4. Idatzia
100
AcDbMText
 10
3026.767191464115
 20
913.513447617065
 30
0.0
 40
0.0018
 41
0.0172399289914779
 46
0.0
 71
     1
 72
     5
  1
{\fCalibri Light|b1|i0|c0|p34;E:\fCalibri Light|b0|i0|c0|p34; 1/100}
 73
     1
 44
1.0
  0
MTEXT
  5
65F0
330
1F
100
AcDbEntity
  8
1.4. Idatzia
100
AcDbMText
 10
3026.662000708698
 20
913.5163720204246
 30
0.0
 40
0.0025
 41
0.1852149973614974
 46
0.0
 71
     1
 72
     5
  1
{\fCalibri Light|b1|i0|c0|p34;Katastro zk.\fCalibri Light|b0|i0|c0|p34;: 7791225}
 73
     1
 44
1.0
  0
MTEXT
  5
65F1
330
1F
100
AcDbEntity
  8
1.4. Idatzia
100
AcDbMText
 10
3026.661999589914
 20
913.5242110173763
 30
0.0
 40
0.0025
 41
0.1852149973614974
 46
0.0
 71
     1
 72
     5
  1
{\fCalibri Light|b1|i0|c0|p34;Kokapena\fCalibri Light|b0|i0|c0|p34;: NAGUSI KALEA, 01. 20170 USURBIL}
 73
     1
 44
1.0
  0
LINE
  5
65F2
330
1F
100
AcDbEntity
  8
1.3. Eskala grafikoa
 48
0.01
100
AcDbLine
 10
3026.76715441321
 20
913.5074389287836
 30
0.0
 11
3026.807154413211
 21
913.5074389287836
 31
0.0
  0
LINE
  5
65F3
330
1F
100
AcDbEntity
  8
1.3. Eskala grafikoa
 48
0.01
100
AcDbLine
 10
3026.76715441321
 20
913.5083864829356
 30
0.0
 11
3026.76715441321
 21
913.5074389287836
 31
0.0
  0
LINE
  5
65F4
330
1F
100
AcDbEntity
  8
1.3. Eskala grafikoa
 48
0.01
100
AcDbLine
 10
3026.77715441321
 20
913.5083864829356
 30
0.0
 11
3026.77715441321
 21
913.5074389287836
 31
0.0
  0
LINE
  5
65F5
330
1F
100
AcDbEntity
  8
1.3. Eskala grafikoa
 48
0.01
100
AcDbLine
 10
3026.787154413211
 20
913.5083864829356
 30
0.0
 11
3026.78715441321
 21
913.5074389287836
 31
0.0
  0
LINE
  5
65F6
330
1F
100
AcDbEntity
  8
1.3. Eskala grafikoa
 48
0.01
100
AcDbLine
 10
3026.79715441321
 20
913.5083864829356
 30
0.0
 11
3026.79715441321
 21
913.5074389287836
 31
0.0
  0
LINE
  5
65F7
330
1F
100
AcDbEntity
  8
1.3. Eskala grafikoa
 48
0.01
100
AcDbLine
 10
3026.807154413211
 20
913.5083864829356
 30
0.0
 11
3026.807154413211
 21
913.5074389287836
 31
0.0
  0
MTEXT
  5
65F8
330
1F
100
AcDbEntity
  8
1.3. Eskala grafikoa
100
AcDbMText
 10
3026.766957067763
 20
913.5070629512785
 30
0.0
 40
0.001
 41
0.0010406224438389
 46
0.0
 71
     1
 72
     5
  1
{\fCalibri Light|b0|i0|c0|p34;0}
 73
     1
 44
1.0
  0
MTEXT
  5
65F9
330
1F
100
AcDbEntity
  8
1.4. Idatzia
100
AcDbMText
 10
3026.723411927458
 20
913.5083104375535
 30
0.0
 40
0.0025
 41
0.0273770814300611
 46
0.0
 71
     1
 72
     5
  1
{\fCalibri Light|b0|i0|c0|p34;Martxoak 2019}
 73
     1
 44
1.0
  0
MTEXT
  5
65FA
330
1F
100
AcDbEntity
  8
1.4. Idatzia
100
AcDbMText
 10
3026.768566417366
 20
913.5221568855746
 30
0.0
 40
0.0025
 41
0.0373092422454125
 46
0.0
 71
     1
 72
     5
  1
{\fCalibri Light|b1|i0|c0|p34;Planoa:\fCalibri Light|b0|i0|c0|p34; BEHE OINA}
 73
     1
 44
1.0
  0
MTEXT
  5
65FB
330
1F
100
AcDbEntity
  8
1.4. Idatzia
100
AcDbMText
 10
3026.662195485233
 20
913.5346932480956
 30
0.0
 40
0.004
 41
0.1447549525279904
 46
0.0
 71
     1
 72
     5
  1
{\fLucida Sans Unicode|b1|i0|c0|p34;MERKATARITZA LOKAL HUTSAK}
 73
     1
 44
1.0
  0
LINE
  5
65FC
330
1F
100
AcDbEntity
  8
1.6. Marra2
100
AcDbLine
 10
3026.636928015695
 20
913.5103195605761
 30
0.0
 11
3026.636928015695
 21
913.5047372489379
 31
0.0
  0
IMAGE
  5
65FD
330
1F
100
AcDbEntity
  8
1.1. Armarria
 62
     7
420
 16777215
160
               140
310
8C000000010000008400000006000000050000004BB3226A46A5A740EC165006188C8C4000000000000000004BB3226A46A5A740A09EE2124B8C8C40000000000000000059FC5B4D51A5A740A09EE2124B8C8C40000000000000000059FC5B4D51A5A740EC165006188C8C4000000000000000004BB3226A46A5A740EC1650
310
06188C8C400000000000000000
100
AcDbRasterImage
 90
        0
 10
3026.637528499972
 20
913.5117307908053
 30
0.0
 11
0.0001408266873892
 21
0.0
 31
0.0
 12
0.0
 22
0.0001408266873892
 32
0.0
 13
151.0
 23
177.0
340
2E2
 70
     7
280
     0
281
    50
282
    50
283
     0
290
     0
360
65FE
 71
     1
 91
        2
 14
-0.5
 24
-0.5
 14
150.5
 24
176.5
  0
LINE
  5
65FF
330
1F
100
AcDbEntity
  8
1.6. Marra2
100
AcDbLine
 10
3026.757139679692
 20
913.5047372489379
 30
0.0
 11
3026.757139679692
 21
913.5103195605761
 31
0.0
  0
MTEXT
  5
6600
330
1F
100
AcDbEntity
  8
1.4. Idatzia
100
AcDbMText
 10
3026.661964821978
 20
913.5088486542422
 30
0.0
 40
0.0025
 41
0.0410971974865084
 46
0.0
 71
     1
 72
     5
  1
{\fCalibri Light|b1|i0|c0|p34;Eraikuntza urtea\fCalibri Light|b0|i0|c0|p34;: 1991}
 73
     1
 44
1.0
  0
LWPOLYLINE
  5
6601
330
1F
100
AcDbEntity
  8
1.5. Marra1
100
AcDbPolyline
 90
        2
 70
     0
 43
0.0004
 10
3026.660145146157
 20
913.5288562686945
 10
3026.754904055588
 20
913.5288562686911
  0
LWPOLYLINE
  5
6602
330
1F
100
AcDbEntity
  8
1.5. Marra1
100
AcDbPolyline
 90
        3
 70
     0
 43
0.0003531510107016
 10
3026.76715441321
 20
913.5216517664456
 10
3026.76715441321
 20
913.5185323059626
 10
3026.807154413211
 20
913.5185323059626
  0
LWPOLYLINE
  5
6603
330
1F
100
AcDbEntity
  8
1.5. Marra1
100
AcDbPolyline
 90
        3
 70
     0
 43
0.0003531510107016
 10
3026.76715441321
 20
913.5257368082115
 10
3026.76715441321
 20
913.5288562686945
 10
3026.807154413211
 20
913.5288562686945
  0
LWPOLYLINE
  5
6604
330
1F
100
AcDbEntity
  8
1.6. Marra2
100
AcDbPolyline
 90
        2
 70
     0
 43
0.0002683175052431
 10
3026.760251323457
 20
913.5042047235044
 10
3026.760251323457
 20
913.5288562686929
  0
LWPOLYLINE
  5
6605
330
1F
100
AcDbEntity
  8
1.6. Marra2
100
AcDbPolyline
 90
        2
 70
     0
 43
0.0002683175052431
 10
3026.758695501575
 20
913.5042047235044
 10
3026.758695501575
 20
913.5288562686929
  0
LWPOLYLINE
  5
6606
330
1F
100
AcDbEntity
  8
1.6. Marra2
100
AcDbPolyline
 90
        2
 70
     0
 43
0.0002683175052431
 10
3026.759517445211
 20
913.5042047235044
 10
3026.759517445211
 20
913.5288562686929
  0
LWPOLYLINE
  5
6607
330
1F
100
AcDbEntity
  8
1.6. Marra2
100
AcDbPolyline
 90
        2
 70
     0
 43
0.0002683175052431
 10
3026.757139679693
 20
913.5042047235044
 10
3026.757139679693
 20
913.5288562686929
  0
LWPOLYLINE
  5
6608
330
1F
100
AcDbEntity
  8
1.6. Marra2
100
AcDbPolyline
 90
        2
 70
     0
 43
0.0002683175052431
 10
3026.757961623328
 20
913.5042047235044
 10
3026.757961623328
 20
913.5288562686929
  0
LWPOLYLINE
  5
6609
330
1F
100
AcDbEntity
  8
1.6. Marra2
100
AcDbPolyline
 90
        2
 70
     0
 43
0.0002683175052431
 10
3026.763362967222
 20
913.5042047235044
 10
3026.763362967222
 20
913.5288562686929
  0
LWPOLYLINE
  5
660A
330
1F
100
AcDbEntity
  8
1.6. Marra2
100
AcDbPolyline
 90
        2
 70
     0
 43
0.0002683175052431
 10
3026.76180714534
 20
913.5042047235044
 10
3026.76180714534
 20
913.5288562686929
  0
LWPOLYLINE
  5
660B
330
1F
100
AcDbEntity
  8
1.6. Marra2
100
AcDbPolyline
 90
        2
 70
     0
 43
0.0002683175052431
 10
3026.762629088976
 20
913.5042047235044
 10
3026.762629088976
 20
913.5288562686929
  0
LWPOLYLINE
  5
660C
330
1F
100
AcDbEntity
  8
1.6. Marra2
100
AcDbPolyline
 90
        2
 70
     0
 43
0.0002683175052431
 10
3026.761073267093
 20
913.5042047235044
 10
3026.761073267093
 20
913.5288562686929
  0
LWPOLYLINE
  5
660D
330
1F
100
AcDbEntity
  8
1.6. Marra2
100
AcDbPolyline
 90
        2
 70
     0
 43
0.0002683175052431
 10
3026.764918789105
 20
913.5042047235044
 10
3026.764918789105
 20
913.5288562686929
  0
LWPOLYLINE
  5
660E
330
1F
100
AcDbEntity
  8
1.6. Marra2
100
AcDbPolyline
 90
        2
 70
     0
 43
0.0002683175052431
 10
3026.764184910858
 20
913.5042047235044
 10
3026.764184910858
 20
913.5288562686929
  0
LINE
  5
660F
330
1F
100
AcDbEntity
  8
1.6. Marra2
100
AcDbLine
 10
3026.754761914173
 20
913.5047372489379
 30
0.0
 11
3026.754761914173
 21
913.5103195605761
 31
0.0
  0
LWPOLYLINE
  5
6610
330
1F
100
AcDbEntity
  8
1.6. Marra2
100
AcDbPolyline
 90
        2
 70
     0
 43
0.0002683175052431
 10
3026.756317736056
 20
913.5042047235044
 10
3026.756317736056
 20
913.5103195605761
  0
LWPOLYLINE
  5
6611
330
1F
100
AcDbEntity
  8
1.6. Marra2
100
AcDbPolyline
 90
        2
 70
     0
 43
0.0002683175052431
 10
3026.754761914174
 20
913.5042047235044
 10
3026.754761914174
 20
913.5103195605761
  0
LWPOLYLINE
  5
6612
330
1F
100
AcDbEntity
  8
1.6. Marra2
100
AcDbPolyline
 90
        2
 70
     0
 43
0.0002683175052431
 10
3026.75558385781
 20
913.5042047235044
 10
3026.75558385781
 20
913.5103195605761
  0
LINE
  5
6613
330
1F
100
AcDbEntity
  8
1.6. Marra2
100
AcDbLine
 10
3026.752384148655
 20
913.5047372489379
 30
0.0
 11
3026.752384148655
 21
913.5103195605761
 31
0.0
  0
LWPOLYLINE
  5
6614
330
1F
100
AcDbEntity
  8
1.6. Marra2
100
AcDbPolyline
 90
        2
 70
     0
 43
0.0002683175052431
 10
3026.753939970538
 20
913.5042047235044
 10
3026.753939970538
 20
913.5103195605761
  0
LWPOLYLINE
  5
6615
330
1F
100
AcDbEntity
  8
1.6. Marra2
100
AcDbPolyline
 90
        2
 70
     0
 43
0.0002683175052431
 10
3026.752384148655
 20
913.5042047235044
 10
3026.752384148655
 20
913.5103195605761
  0
LWPOLYLINE
  5
6616
330
1F
100
AcDbEntity
  8
1.6. Marra2
100
AcDbPolyline
 90
        2
 70
     0
 43
0.0002683175052431
 10
3026.753206092291
 20
913.5042047235044
 10
3026.753206092291
 20
913.5103195605761
  0
LINE
  5
6617
330
1F
100
AcDbEntity
  8
1.6. Marra2
100
AcDbLine
 10
3026.639305781213
 20
913.5047372489379
 30
0.0
 11
3026.639305781213
 21
913.5103195605761
 31
0.0
  0
LWPOLYLINE
  5
6618
330
1F
100
AcDbEntity
  8
1.6. Marra2
100
AcDbPolyline
 90
        2
 70
     0
 43
0.0002683175052431
 10
3026.640861603096
 20
913.5042047235044
 10
3026.640861603096
 20
913.5103195605761
  0
LWPOLYLINE
  5
6619
330
1F
100
AcDbEntity
  8
1.6. Marra2
100
AcDbPolyline
 90
        2
 70
     0
 43
0.0002683175052431
 10
3026.639305781214
 20
913.5042047235044
 10
3026.639305781214
 20
913.5103195605761
  0
LWPOLYLINE
  5
661A
330
1F
100
AcDbEntity
  8
1.6. Marra2
100
AcDbPolyline
 90
        2
 70
     0
 43
0.0002683175052431
 10
3026.64012772485
 20
913.5042047235044
 10
3026.64012772485
 20
913.5103195605761
  0
LWPOLYLINE
  5
661B
330
1F
100
AcDbEntity
  8
1.6. Marra2
100
AcDbPolyline
 90
        2
 70
     0
 43
0.0002683175052431
 10
3026.638483837578
 20
913.5042047235044
 10
3026.638483837578
 20
913.5103195605761
  0
LWPOLYLINE
  5
661C
330
1F
100
AcDbEntity
  8
1.6. Marra2
100
AcDbPolyline
 90
        2
 70
     0
 43
0.0002683175052431
 10
3026.637749959331
 20
913.5042047235044
 10
3026.637749959331
 20
913.5103195605761
  0
LWPOLYLINE
  5
661D
330
1F
100
AcDbEntity
  8
1.6. Marra2
100
AcDbPolyline
 90
        2
 70
     0
 43
0.0002683175052431
 10
3026.637016081084
 20
913.5042047235044
 10
3026.637016081084
 20
913.5103195605761
  0
LINE
  5
661E
330
1F
100
AcDbEntity
  8
1.6. Marra2
100
AcDbLine
 10
3026.643151303225
 20
913.5047372489379
 30
0.0
 11
3026.643151303225
 21
913.5103195605761
 31
0.0
  0
LWPOLYLINE
  5
661F
330
1F
100
AcDbEntity
  8
1.6. Marra2
100
AcDbPolyline
 90
        2
 70
     0
 43
0.0002683175052431
 10
3026.644707125108
 20
913.5042047235044
 10
3026.644707125108
 20
913.5103195605761
  0
LWPOLYLINE
  5
6620
330
1F
100
AcDbEntity
  8
1.6. Marra2
100
AcDbPolyline
 90
        2
 70
     0
 43
0.0002683175052431
 10
3026.643151303226
 20
913.5042047235044
 10
3026.643151303226
 20
913.5103195605761
  0
LWPOLYLINE
  5
6621
330
1F
100
AcDbEntity
  8
1.6. Marra2
100
AcDbPolyline
 90
        2
 70
     0
 43
0.0002683175052431
 10
3026.643973246862
 20
913.5042047235044
 10
3026.643973246862
 20
913.5103195605761
  0
LWPOLYLINE
  5
6622
330
1F
100
AcDbEntity
  8
1.6. Marra2
100
AcDbPolyline
 90
        2
 70
     0
 43
0.0002683175052431
 10
3026.64232935959
 20
913.5042047235044
 10
3026.64232935959
 20
913.5103195605761
  0
LWPOLYLINE
  5
6623
330
1F
100
AcDbEntity
  8
1.6. Marra2
100
AcDbPolyline
 90
        2
 70
     0
 43
0.0002683175052431
 10
3026.641595481343
 20
913.5042047235044
 10
3026.641595481343
 20
913.5103195605761
  0
LINE
  5
6624
330
1F
100
AcDbEntity
  8
1.6. Marra2
100
AcDbLine
 10
3026.646996825237
 20
913.5047372489379
 30
0.0
 11
3026.646996825237
 21
913.5103195605761
 31
0.0
  0
LWPOLYLINE
  5
6625
330
1F
100
AcDbEntity
  8
1.6. Marra2
100
AcDbPolyline
 90
        2
 70
     0
 43
0.0002683175052431
 10
3026.64855264712
 20
913.5042047235044
 10
3026.64855264712
 20
913.5103195605761
  0
LWPOLYLINE
  5
6626
330
1F
100
AcDbEntity
  8
1.6. Marra2
100
AcDbPolyline
 90
        2
 70
     0
 43
0.0002683175052431
 10
3026.646996825238
 20
913.5042047235044
 10
3026.646996825238
 20
913.5103195605761
  0
LWPOLYLINE
  5
6627
330
1F
100
AcDbEntity
  8
1.6. Marra2
100
AcDbPolyline
 90
        2
 70
     0
 43
0.0002683175052431
 10
3026.647818768874
 20
913.5042047235044
 10
3026.647818768874
 20
913.5103195605761
  0
LWPOLYLINE
  5
6628
330
1F
100
AcDbEntity
  8
1.6. Marra2
100
AcDbPolyline
 90
        2
 70
     0
 43
0.0002683175052431
 10
3026.646174881602
 20
913.5042047235044
 10
3026.646174881602
 20
913.5103195605761
  0
LWPOLYLINE
  5
6629
330
1F
100
AcDbEntity
  8
1.6. Marra2
100
AcDbPolyline
 90
        2
 70
     0
 43
0.0002683175052431
 10
3026.645441003355
 20
913.5042047235044
 10
3026.645441003355
 20
913.5103195605761
  0
LINE
  5
662A
330
1F
100
AcDbEntity
  8
1.6. Marra2
100
AcDbLine
 10
3026.650842347249
 20
913.5047372489379
 30
0.0
 11
3026.650842347249
 21
913.5103195605761
 31
0.0
  0
LWPOLYLINE
  5
662B
330
1F
100
AcDbEntity
  8
1.6. Marra2
100
AcDbPolyline
 90
        2
 70
     0
 43
0.0002683175052431
 10
3026.652398169132
 20
913.5042047235044
 10
3026.652398169132
 20
913.5103195605761
  0
LWPOLYLINE
  5
662C
330
1F
100
AcDbEntity
  8
1.6. Marra2
100
AcDbPolyline
 90
        2
 70
     0
 43
0.0002683175052431
 10
3026.65084234725
 20
913.5042047235044
 10
3026.65084234725
 20
913.5103195605761
  0
LWPOLYLINE
  5
662D
330
1F
100
AcDbEntity
  8
1.6. Marra2
100
AcDbPolyline
 90
        2
 70
     0
 43
0.0002683175052431
 10
3026.651664290886
 20
913.5042047235044
 10
3026.651664290886
 20
913.5103195605761
  0
LWPOLYLINE
  5
662E
330
1F
100
AcDbEntity
  8
1.6. Marra2
100
AcDbPolyline
 90
        2
 70
     0
 43
0.0002683175052431
 10
3026.650020403613
 20
913.5042047235044
 10
3026.650020403613
 20
913.5103195605761
  0
LWPOLYLINE
  5
662F
330
1F
100
AcDbEntity
  8
1.6. Marra2
100
AcDbPolyline
 90
        2
 70
     0
 43
0.0002683175052431
 10
3026.649286525367
 20
913.5042047235044
 10
3026.649286525367
 20
913.5103195605761
  0
LINE
  5
6630
330
1F
100
AcDbEntity
  8
1.6. Marra2
100
AcDbLine
 10
3026.653220112768
 20
913.5047372489379
 30
0.0
 11
3026.653220112768
 21
913.5103195605761
 31
0.0
  0
LWPOLYLINE
  5
6631
330
1F
100
AcDbEntity
  8
1.6. Marra2
100
AcDbPolyline
 90
        2
 70
     0
 43
0.0002683175052431
 10
3026.654775934651
 20
913.5042047235044
 10
3026.654775934651
 20
913.5103195605761
  0
LWPOLYLINE
  5
6632
330
1F
100
AcDbEntity
  8
1.6. Marra2
100
AcDbPolyline
 90
        2
 70
     0
 43
0.0002683175052431
 10
3026.653220112768
 20
913.5042047235044
 10
3026.653220112768
 20
913.5103195605761
  0
LWPOLYLINE
  5
6633
330
1F
100
AcDbEntity
  8
1.6. Marra2
100
AcDbPolyline
 90
        2
 70
     0
 43
0.0002683175052431
 10
3026.654042056404
 20
913.5042047235044
 10
3026.654042056404
 20
913.5103195605761
  0
LINE
  5
6634
330
1F
100
AcDbEntity
  8
1.6. Marra2
100
AcDbLine
 10
3026.655597878287
 20
913.5047372489379
 30
0.0
 11
3026.655597878287
 21
913.5103195605761
 31
0.0
  0
LWPOLYLINE
  5
6635
330
1F
100
AcDbEntity
  8
1.6. Marra2
100
AcDbPolyline
 90
        2
 70
     0
 43
0.0002683175052431
 10
3026.65715370017
 20
913.5042047235044
 10
3026.65715370017
 20
913.5103195605761
  0
LWPOLYLINE
  5
6636
330
1F
100
AcDbEntity
  8
1.6. Marra2
100
AcDbPolyline
 90
        2
 70
     0
 43
0.0002683175052431
 10
3026.655597878287
 20
913.5042047235044
 10
3026.655597878287
 20
913.5103195605761
  0
LWPOLYLINE
  5
6637
330
1F
100
AcDbEntity
  8
1.6. Marra2
100
AcDbPolyline
 90
        2
 70
     0
 43
0.0002683175052431
 10
3026.656419821923
 20
913.5042047235044
 10
3026.656419821923
 20
913.5103195605761
  0
LWPOLYLINE
  5
6638
330
1F
100
AcDbEntity
  8
1.6. Marra2
100
AcDbPolyline
 90
        2
 70
     0
 43
0.0002683175052431
 10
3026.658709522052
 20
913.5042047235044
 10
3026.658709522052
 20
913.5103195605761
  0
LWPOLYLINE
  5
6639
330
1F
100
AcDbEntity
  8
1.6. Marra2
100
AcDbPolyline
 90
        2
 70
     0
 43
0.0002683175052431
 10
3026.657975643806
 20
913.5042047235044
 10
3026.657975643806
 20
913.5103195605761
  0
LINE
  5
663A
330
1F
100
AcDbEntity
  8
1.7. Ventanas Gráficas
100
AcDbLine
 10
3026.831283678872
 20
913.5442047235043
 30
0.0
 11
3026.631283678872
 21
913.5442047235043
 31
0.0
  0
LINE
  5
663B
330
1F
100
AcDbEntity
  8
1.3. Eskala grafikoa
 48
0.01
100
AcDbLine
 10
3026.76715441321
 20
913.5083864829356
 30
0.0
 11
3026.807154413211
 21
913.5083864829356
 31
0.0
  0
LINE
  5
663C
330
1F
100
AcDbEntity
  8
1.3. Eskala grafikoa
 48
0.01
100
AcDbLine
 10
3026.76715441321
 20
913.5083864829356
 30
0.0
 11
3026.807154413211
 21
913.5083864829356
 31
0.0
  0
LINE
  5
663D
330
1F
100
AcDbEntity
  8
1.3. Eskala grafikoa
 48
0.01
100
AcDbLine
 10
3026.76715441321
 20
913.5079127058597
 30
0.0
 11
3026.807154413211
 21
913.5079127058595
 31
0.0
  0
MTEXT
  5
663E
330
1F
100
AcDbEntity
  8
1.3. Eskala grafikoa
100
AcDbMText
 10
3026.776884669358
 20
913.5070629512785
 30
0.0
 40
0.001
 41
0.0010406224438389
 46
0.0
 71
     1
 72
     5
  1
{\fCalibri Light|b0|i0|c0|p34;1}
 73
     1
 44
1.0
  0
MTEXT
  5
663F
330
1F
100
AcDbEntity
  8
1.3. Eskala grafikoa
100
AcDbMText
 10
3026.786884669358
 20
913.5070629512785
 30
0.0
 40
0.001
 41
0.0010406224438389
 46
0.0
 71
     1
 72
     5
  1
{\fCalibri Light|b0|i0|c0|p34;2}
 73
     1
 44
1.0
  0
MTEXT
  5
6640
330
1F
100
AcDbEntity
  8
1.3. Eskala grafikoa
100
AcDbMText
 10
3026.796884669358
 20
913.5070629512785
 30
0.0
 40
0.001
 41
0.0010406224438389
 46
0.0
 71
     1
 72
     5
  1
{\fCalibri Light|b0|i0|c0|p34;3}
 73
     1
 44
1.0
  0
MTEXT
  5
6641
330
1F
100
AcDbEntity
  8
1.3. Eskala grafikoa
100
AcDbMText
 10
3026.806884669358
 20
913.5070629512785
 30
0.0
 40
0.001
 41
0.0010406224438389
 46
0.0
 71
     1
 72
     5
  1
{\fCalibri Light|b0|i0|c0|p34;4m}
 73
     1
 44
1.0
  0
MTEXT
  5
6642
330
1F
100
AcDbEntity
  8
1.3. Eskala grafikoa
100
AcDbMText
 10
3026.771318590127
 20
913.5070629512785
 30
0.0
 40
0.001
 41
0.0010406224438389
 46
0.0
 71
     1
 72
     5
  1
{\fCalibri Light|b0|i0|c0|p34;0.5}
 73
     1
 44
1.0
  0
MTEXT
  5
6643
330
1F
100
AcDbEntity
  8
1.4. Idatzia
100
AcDbMText
 10
3026.814982712096
 20
913.5083104375535
 30
0.0
 40
0.002
 41
0.0273770814300611
 46
0.0
 71
     1
 72
     5
  1
{\fCalibri Light|b0|i0|c0|p34;Lokal zk.}
 73
     1
 44
1.0
  0
MTEXT
  5
6644
330
1F
100
AcDbEntity
  8
1.4. Idatzia
100
AcDbMText
 10
3026.8107419819
 20
913.5259771917924
 30
0.0
 40
0.012
 41
0.0273770814300611
 46
0.0
 71
     1
 72
     5
  1
{\fMicrosoft Sans Serif|b0|i0|c0|p34;47}
 73
     1
 44
1.0
  0
LWPOLYLINE
  5
6645
330
1F
100
AcDbEntity
  8
1.7. Ventanas Gráficas
100
AcDbPolyline
 90
        4
 70
     1
 43
0.0
 10
3026.631283678872
 20
913.4992047235044
 10
3026.831283678872
 20
913.4992047235044
 10
3026.831283678872
 20
913.7812047235044
 10
3026.631283678872
 20
913.7812047235044
  0
MTEXT
  5
6646
330
1F
100
AcDbEntity
  8
1.4. Idatzia
100
AcDbMText
 10
3026.723350036559
 20
913.5163720204243
 30
0.0
 40
0.0025
 41
0.1852149973614974
 46
0.0
 71
     1
 72
     5
  1
{\fCalibri Light|b1|i0|c0|p34;Finka zk.\fCalibri Light|b0|i0|c0|p34;: 5070271N}
 73
     1
 44
1.0
  0
LWPOLYLINE
  5
6727
330
1F
100
AcDbEntity
  8
7.1. Azalera erabilgarria
100
AcDbPolyline
 90
       28
 70
     1
 43
0.0
 10
3040.934935033462
 20
883.7631691284379
 10
3044.194935033461
 20
883.7631691284379
 10
3044.194935033461
 20
883.4431691284377
 10
3044.664935033461
 20
883.4431691284377
 10
3044.664935033461
 20
883.7631691284379
 10
3047.95493503346
 20
883.7631691284379
 10
3047.95493503346
 20
883.4431691284379
 10
3048.25493503346
 20
883.4431691284377
 10
3048.25493503346
 20
880.1631691284379
 10
3047.95493503346
 20
880.1631691284379
 10
3047.95493503346
 20
879.733169128438
 10
3048.25493503346
 20
879.733169128438
 10
3048.254935033461
 20
876.4631691284378
 10
3047.95493503346
 20
876.4631691284378
 10
3047.95493503346
 20
876.1631691284378
 10
3044.60493503346
 20
876.1631691284378
 10
3044.60493503346
 20
876.4631691284378
 10
3044.254935033461
 20
876.4631691284378
 10
3044.254935033461
 20
876.1631691284378
 10
3040.934935033461
 20
876.1631691284376
 10
3040.934935033462
 20
876.4631691284378
 10
3040.744935033462
 20
876.4631691284378
 10
3040.744935033462
 20
879.733169128438
 10
3040.934935033461
 20
879.733169128438
 10
3040.934935033462
 20
880.1631691284379
 10
3040.744935033462
 20
880.1631691284379
 10
3040.744935033462
 20
883.4431691284377
 10
3040.934935033462
 20
883.4431691284377
  0
MTEXT
  5
672C
330
1F
100
AcDbEntity
  8
7.2. Idatzia
100
AcDbMText
 10
3044.447967182857
 20
881.4525161460064
 30
0.0
 40
0.25
 41
3.934541634584093
 46
0.0
 71
     1
 72
     5
  1
H=3.16m
 73
     1
 44
1.0
1001
ACAD
1000
ACAD_MTEXT_COLUMN_INFO_BEGIN
1070
    75
1070
     2
1070
    79
1070
     0
1070
    76
1070
     1
1070
    78
1070
     0
1070
    48
1040
3.934541634584093
1070
    49
1040
12.5
1070
    50
1070
     1
1040
0.0
1000
ACAD_MTEXT_COLUMN_INFO_END
  0
MTEXT
  5
672D
330
1F
100
AcDbEntity
  8
7.2. Idatzia
100
AcDbMText
 10
3043.734086424106
 20
871.3401064320132
 30
0.0
 40
0.25
 41
3.934541634584093
 46
0.0
 71
     1
 72
     5
  1
H=2.35m
 73
     1
 44
1.0
1001
ACAD
1000
ACAD_MTEXT_COLUMN_INFO_BEGIN
1070
    75
1070
     2
1070
    79
1070
     0
1070
    76
1070
     1
1070
    78
1070
     0
1070
    48
1040
3.934541634584093
1070
    49
1040
12.5
1070
    50
1070
     1
1040
0.0
1000
ACAD_MTEXT_COLUMN_INFO_END
  0
LWPOLYLINE
  5
672E
330
1F
100
AcDbEntity
  8
7.1. Azalera erabilgarria
100
AcDbPolyline
 90
       34
 70
     1
 43
0.0
 10
3040.934935033462
 20
866.7138678851479
 10
3044.254935033462
 20
866.7138678851477
 10
3044.254935033462
 20
867.1338678851476
 10
3044.755197054306
 20
867.1338678851469
 10
3044.755197054306
 20
866.7138678851475
 10
3047.874935033462
 20
866.7138678851477
 10
3047.874935033462
 20
867.1338678851476
 10
3048.174935033462
 20
867.1338678851476
 10
3048.174935033462
 20
870.2838678851476
 10
3047.874935033462
 20
870.2838678851476
 10
3047.874935033462
 20
870.6438678851476
 10
3048.174935033462
 20
870.6438678851476
 10
3048.174935033462
 20
873.9838678851477
 10
3044.604935033462
 20
873.9838678851477
 10
3044.604935033462
 20
873.7238678851477
 10
3044.254935033462
 20
873.7238678851477
 10
3044.254935033462
 20
873.9838678851477
 10
3042.834935033462
 20
873.9838678851477
 10
3042.834935033461
 20
873.7447977185469
 10
3042.734935033462
 20
873.7447977185469
 10
3042.734935033462
 20
873.9838678851475
 10
3040.74493503346
 20
873.9838678851462
 10
3040.744935033462
 20
872.8838678851476
 10
3042.734935033462
 20
872.8838678851477
 10
3042.734935033462
 20
873.0238678851472
 10
3042.834935033462
 20
873.0238678851472
 10
3042.834935033462
 20
872.7838678851476
 10
3042.204935033462
 20
872.7838678851476
 10
3042.204935033461
 20
870.8038678851474
 10
3040.934935033462
 20
870.8038678851474
 10
3040.934935033462
 20
870.2638678851476
 10
3040.744935033462
 20
870.2638678851476
 10
3040.744935033462
 20
867.2638678851477
 10
3040.934935033462
 20
867.2638678851477
  0
LWPOLYLINE
  5
672F
330
1F
100
AcDbEntity
  8
7.1. Azalera erabilgarria
100
AcDbPolyline
 90
        4
 70
     1
 43
0.0
 10
3044.254935033462
 20
870.6388678851476
 10
3044.604935033462
 20
870.6388678851476
 10
3044.604935033462
 20
870.2888678851476
 10
3044.254935033462
 20
870.2888678851476
  0
MTEXT
  5
6730
330
1F
100
AcDbEntity
  8
7.2. Idatzia
100
AcDbMText
 10
3042.660526792037
 20
865.4522779989976
 30
0.0
 40
0.25
 41
3.934541634584093
 46
0.0
 71
     1
 72
     5
  1
A{\H0.5x;erabilgarria }= 50.00 m²
 73
     1
 44
1.0
1001
ACAD
1000
ACAD_MTEXT_COLUMN_INFO_BEGIN
1070
    75
1070
     2
1070
    79
1070
     0
1070
    76
1070
     1
1070
    78
1070
     0
1070
    48
1040
3.934541634584093
1070
    49
1040
12.5
1070
    50
1070
     1
1040
0.0
1000
ACAD_MTEXT_COLUMN_INFO_END
  0
MTEXT
  5
6731
330
1F
100
AcDbEntity
  8
7.2. Idatzia
100
AcDbMText
 10
3042.646027805545
 20
864.8754233983648
 30
0.0
 40
0.25
 41
3.934541634584093
 46
0.0
 71
     1
 72
     5
  1
A{\H0.5x;Osoa }= 106.16 m²
 73
     1
 44
1.0
1001
ACAD
1000
ACAD_MTEXT_COLUMN_INFO_BEGIN
1070
    75
1070
     2
1070
    79
1070
     0
1070
    76
1070
     1
1070
    78
1070
     0
1070
    48
1040
3.934541634584093
1070
    49
1040
12.5
1070
    50
1070
     1
1040
0.0
1000
ACAD_MTEXT_COLUMN_INFO_END
  0
MTEXT
  5
6732
330
1F
100
AcDbEntity
  8
7.2. Idatzia
100
AcDbMText
 10
3040.28391078351
 20
865.4522779989976
 30
0.0
 40
0.25
 41
3.934541634584093
 46
0.0
 71
     1
 72
     5
  1
BEHE OINA
 73
     1
 44
1.0
1001
ACAD
1000
ACAD_MTEXT_COLUMN_INFO_BEGIN
1070
    75
1070
     2
1070
    79
1070
     0
1070
    76
1070
     1
1070
    78
1070
     0
1070
    48
1040
3.934541634584093
1070
    49
1040
12.5
1070
    50
1070
     1
1040
0.0
1000
ACAD_MTEXT_COLUMN_INFO_END
  0
LWPOLYLINE
  5
6738
330
1F
100
AcDbEntity
  8
7.1. Azalera erabilgarria
100
AcDbPolyline
 90
        4
 70
     1
 43
0.0
 10
3044.254935033461
 20
880.1631691284379
 10
3044.604935033462
 20
880.1631691284379
 10
3044.604935033462
 20
879.733169128438
 10
3044.254935033461
 20
879.733169128438
  0
MTEXT
  5
6739
330
1F
100
AcDbEntity
  8
7.2. Idatzia
100
AcDbMText
 10
3044.527435322953
 20
875.6312601565234
 30
0.0
 40
0.25
 41
3.934541634584093
 46
0.0
 71
     1
 72
     5
  1
A{\H0.5x;erabilgarria }= 56.16 m²
 73
     1
 44
1.0
1001
ACAD
1000
ACAD_MTEXT_COLUMN_INFO_BEGIN
1070
    75
1070
     2
1070
    79
1070
     0
1070
    76
1070
     1
1070
    78
1070
     0
1070
    48
1040
3.934541634584093
1070
    49
1040
12.5
1070
    50
1070
     1
1040
0.0
1000
ACAD_MTEXT_COLUMN_INFO_END
  0
MTEXT
  5
673A
330
1F
100
AcDbEntity
  8
7.2. Idatzia
100
AcDbMText
 10
3040.654520207083
 20
875.6321262335363
 30
0.0
 40
0.25
 41
3.934541634584093
 46
0.0
 71
     1
 72
     5
  1
SOTOKO SOLAIRUA
 73
     1
 44
1.0
1001
ACAD
1000
ACAD_MTEXT_COLUMN_INFO_BEGIN
1070
    75
1070
     2
1070
    79
1070
     0
1070
    76
1070
     1
1070
    78
1070
     0
1070
    48
1040
3.934541634584093
1070
    49
1040
12.5
1070
    50
1070
     1
1040
0.0
1000
ACAD_MTEXT_COLUMN_INFO_END
  0
CIRCLE
  5
6765
330
1F
100
AcDbEntity
  8
8.1. Irisgarritasun boloa
 48
0.0005
100
AcDbCircle
 10
3043.799613917159
 20
872.913101092338
 30
0.0
 40
0.9
  0
LINE
  5
6766
102
{ACAD_REACTORS
330
67C7
330
69DD
102
}
330
1F
100
AcDbEntity
  8
3.1. Atea
100
AcDbLine
 10
3046.103270954784
 20
866.5638678851477
 30
0.0
 11
3044.755197054306
 21
866.5638678851468
 31
0.0
  0
CIRCLE
  5
6768
330
1F
100
AcDbEntity
  8
5.1. Komuneko altzaria
100
AcDbCircle
 10
3041.569935033462
 20
872.7838678851476
 30
0.0
 40
0.03
  0
LINE
  5
676A
102
{ACAD_REACTORS
330
3817
102
}
330
1F
100
AcDbEntity
  8
6.1. Eskailerak
100
AcDbLine
 10
3042.224935033462
 20
872.7838678851478
 30
0.0
 11
3042.224935033461
 21
870.7529192025237
 31
0.0
  0
LINE
  5
676B
102
{ACAD_REACTORS
330
3817
102
}
330
1F
100
AcDbEntity
  8
6.1. Eskailerak
100
AcDbLine
 10
3042.274935033462
 20
872.7838678851478
 30
0.0
 11
3042.274935033461
 21
870.7528824318794
 31
0.0
  0
LINE
  5
676C
330
1F
100
AcDbEntity
  8
6.1. Eskailerak
100
AcDbLine
 10
3042.224935033461
 20
870.7529192025235
 30
0.0
 11
3042.274935033461
 21
870.7528824318794
 31
0.0
  0
LINE
  5
676D
330
1F
100
AcDbEntity
  8
6.1. Eskailerak
100
AcDbLine
 10
3040.914935033462
 20
872.7838678851478
 30
0.0
 11
3040.914935033462
 21
870.8038678851476
 31
0.0
  0
LINE
  5
676E
330
1F
100
AcDbEntity
  8
6.1. Eskailerak
100
AcDbLine
 10
3040.864935033461
 20
872.7838678851478
 30
0.0
 11
3040.864935033463
 21
870.8038678851474
 31
0.0
  0
HATCH
  5
67BA
330
1F
100
AcDbEntity
  8
4.1. Zeramika-baldosa
100
AcDbHatch
 10
0.0
 20
0.0
 30
0.0
210
0.0
220
0.0
230
1.0
  2
ANSI37
 70
     0
 71
     0
 91
        2
 92
        7
 72
     1
 73
     1
 93
       56
 10
3047.874935033462
 20
870.6438678851476
 42
0.0
 10
3048.174935033462
 20
870.6438678851476
 42
0.0
 10
3048.174935033462
 20
873.9838678851477
 42
0.0
 10
3044.604935033462
 20
873.9838678851477
 42
0.0
 10
3044.604935033462
 20
873.7238678851477
 42
0.0
 10
3044.254935033462
 20
873.7238678851477
 42
0.0
 10
3044.254935033462
 20
873.9838678851477
 42
0.0
 10
3042.834935033462
 20
873.9838678851477
 42
0.0
 10
3042.834935033461
 20
873.7438678851477
 42
0.0
 10
3042.834935033462
 20
873.6838678851476
 42
0.0
 10
3042.759935033462
 20
873.6838678851476
 42
0.0
 10
3042.759935033462
 20
873.7188678851474
 42
0.0
 10
3042.734935034111
 20
873.7188678851474
 42
0.4028164464221347
 10
3042.064935033462
 20
873.0738678851475
 42
0.0
 10
3042.734935033462
 20
873.0738678851475
 42
0.0
 10
3042.734935033462
 20
873.0488678851479
 42
0.0
 10
3042.759935033462
 20
873.0488678851479
 42
0.0
 10
3042.759935033462
 20
873.0838678851476
 42
0.0
 10
3042.834935033462
 20
873.0838678851476
 42
0.0
 10
3042.834935033462
 20
873.0238678851472
 42
0.0
 10
3042.834935033462
 20
872.7838678851476
 42
0.0
 10
3042.274935033462
 20
872.7838678851476
 42
0.0
 10
3042.274935033461
 20
870.7528824318794
 42
0.0
 10
3042.224935033461
 20
870.7529192025235
 42
0.0
 10
3042.224935033462
 20
872.7838678851476
 42
0.0
 10
3042.204935033462
 20
872.7838678851476
 42
0.0
 10
3042.204935033462
 20
870.8038678851474
 42
0.0
 10
3041.599935033462
 20
870.8038678851474
 42
-1.0
 10
3041.539935033461
 20
870.8038678851474
 42
0.0
 10
3040.934935033462
 20
870.8038678851476
 42
0.0
 10
3040.934935033462
 20
870.2638678851476
 42
0.0
 10
3040.744935033462
 20
870.2638678851476
 42
0.0
 10
3040.744935033462
 20
867.2638678851477
 42
0.0
 10
3040.934935033462
 20
867.2638678851477
 42
0.0
 10
3040.934935033462
 20
866.7138678851479
 42
0.0
 10
3044.254935033462
 20
866.7138678851477
 42
0.0
 10
3044.254935033462
 20
867.1338678851476
 42
0.0
 10
3044.605197054305
 20
867.1338678851475
 42
0.0
 10
3044.605197054306
 20
867.7997242692095
 42
0.0
 10
3044.912262655215
 20
867.7997242692089
 42
0.0
 10
3044.912262655215
 20
867.7247242692091
 42
0.0
 10
3044.877262655216
 20
867.7247242692091
 42
0.0
 10
3044.877262655216
 20
867.6997242692085
 42
0.0
 10
3044.902262655215
 20
867.6997242692085
 42
0.0
 10
3044.902262655214
 20
866.9297242692094
 42
0.405117760700808
 10
3045.647262655215
 20
867.6997242692085
 42
0.0
 10
3045.647262655215
 20
867.7247242692091
 42
0.0
 10
3045.612262655215
 20
867.7247242692091
 42
0.0
 10
3045.612262655215
 20
867.7997242692089
 42
0.0
 10
3045.790197054306
 20
867.7997242692089
 42
0.0
 10
3046.173873317793
 20
866.7138678851479
 42
0.0
 10
3047.874935033462
 20
866.7138678851477
 42
0.0
 10
3047.874935033462
 20
867.1338678851476
 42
0.0
 10
3048.174935033462
 20
867.1338678851476
 42
0.0
 10
3048.174935033462
 20
870.2838678851476
 42
0.0
 10
3047.874935033462
 20
870.2838678851476
 42
0.0
 97
        0
 92
       22
 72
     0
 73
     1
 93
        4
 10
3044.604935033462
 20
870.6388678851476
 10
3044.604935033462
 20
870.2888678851476
 10
3044.254935033462
 20
870.2888678851476
 10
3044.254935033462
 20
870.6388678851476
 97
        0
 75
     1
 76
     1
 52
45.0
 41
0.13
 77
     0
 78
     2
 53
90.0
 43
0.0
 44
0.0
 45
-0.41275
 46
0.0000000000000001
 79
     0
 53
180.0
 43
0.0
 44
0.0
 45
-0.0000000000000001
 46
-0.41275
 79
     0
 47
0.0193339775726727
 98
        2
 10
3045.203647066132
 20
871.0643244750418
 10
3045.203647066132
 20
871.0643244750418
1001
GradientColor1ACI
1070
     5
1001
GradientColor2ACI
1070
     2
1001
ACAD
1010
0.0
1020
0.0
1030
0.0
  0
HATCH
  5
67C7
330
1F
100
AcDbEntity
  8
4.1. Zeramika-baldosa
100
AcDbHatch
 10
0.0
 20
0.0
 30
0.0
210
0.0
220
0.0
230
1.0
  2
ANSI37
 70
     0
 71
     1
 91
        1
 92
        7
 72
     1
 73
     1
 93
       10
 10
3045.701927701946
 20
867.6997242692085
 42
0.0
 10
3045.647262655215
 20
867.6997242692085
 42
-0.4051177607034802
 10
3044.902262655207
 20
866.9297242692092
 42
0.0
 10
3044.877262655216
 20
866.929724269209
 42
0.0
 10
3044.877262655216
 20
867.6997242692085
 42
0.0
 10
3044.670197054305
 20
867.6997242692085
 42
0.0
 10
3044.670197054305
 20
867.1338678851475
 42
0.0
 10
3044.755197054306
 20
867.1338678851475
 42
0.0
 10
3044.755197054306
 20
866.5638678851468
 42
0.0
 10
3046.103270954784
 20
866.5638678851477
 42
0.0
 97
        9
330
3866
330
3869
330
3868
330
3867
330
386C
330
3681
330
3682
330
6766
330
38C5
 75
     1
 76
     1
 52
45.0
 41
0.13
 77
     0
 78
     2
 53
90.0
 43
0.0
 44
0.0
 45
-0.41275
 46
0.0000000000000001
 79
     0
 53
180.0
 43
0.0
 44
0.0
 45
-0.0000000000000001
 46
-0.41275
 79
     0
 47
0.0030564360481835
 98
        1
 10
3045.636761993595
 20
866.7912915742745
1001
GradientColor1ACI
1070
     5
1001
GradientColor2ACI
1070
     2
1001
ACAD
1010
0.0
1020
0.0
1030
0.0
  0
HATCH
  5
67E3
330
1F
100
AcDbEntity
  8
4.1. Zeramika-baldosa
100
AcDbHatch
 10
0.0
 20
0.0
 30
0.0
210
0.0
220
0.0
230
1.0
  2
ANSI37
 70
     0
 71
     1
 91
        2
 92
        7
 72
     1
 73
     1
 93
       14
 10
3042.734935033462
 20
873.718867885147
 42
0.0
 10
3042.734935033462
 20
873.7438678851475
 42
0.0
 10
3042.734935033462
 20
873.9838678851475
 42
0.0
 10
3042.129594395095
 20
873.9838678851471
 42
0.0
 10
3042.129594395095
 20
873.483867885147
 42
0.0
 10
3041.529594395095
 20
873.483867885147
 42
0.0
 10
3041.529594395095
 20
873.9838678851468
 42
0.0
 10
3040.74493503346
 20
873.9838678851462
 42
0.0
 10
3040.74493503346
 20
872.8838678851476
 42
0.0
 10
3042.734935033462
 20
872.8838678851477
 42
0.0
 10
3042.734935033461
 20
873.0238678851474
 42
0.0
 10
3042.734935033462
 20
873.0488678851479
 42
0.0
 10
3042.064935033462
 20
873.0488678851473
 42
0.0
 10
3042.064935033462
 20
873.0738678851592
 42
-0.4028164461357695
 97
       12
330
36F6
330
369F
330
3699
330
3711
330
370F
330
3712
330
36A5
330
36A0
330
36FD
330
36F7
330
36F8
330
36F9
 92
       22
 72
     1
 73
     1
 93
       11
 10
3041.267894097356
 20
873.3538678851468
 42
0.0
 10
3041.147894097355
 20
873.3538678851468
 42
0.0
 10
3041.027894097356
 20
873.3538678851468
 42
-0.4142135623730951
 10
3040.977894097355
 20
873.4038678851469
 42
0.0
 10
3040.977894097356
 20
873.8438678851469
 42
0.0
 10
3040.947894097355
 20
873.8438678851469
 42
0.0
 10
3040.947894097355
 20
873.973867885147
 42
0.0
 10
3041.347894097356
 20
873.973867885147
 42
0.0
 10
3041.347894097356
 20
873.8438678851469
 42
0.0
 10
3041.317894097355
 20
873.8438678851469
 42
0.0
 10
3041.317894097356
 20
873.4038678851469
 42
-0.4142135623730951
 97
       10
330
3707
330
36FF
330
370E
330
370B
330
3702
330
370D
330
3701
330
3705
330
3703
330
3706
 75
     1
 76
     1
 52
45.0
 41
0.13
 77
     0
 78
     2
 53
90.0
 43
0.0
 44
0.0
 45
-0.41275
 46
0.0000000000000001
 79
     0
 53
180.0
 43
0.0
 44
0.0
 45
-0.0000000000000001
 46
-0.41275
 79
     0
 47
0.0049291262947782
 98
        2
 10
3041.775750344834
 20
873.3342168741524
 10
3041.775750344834
 20
873.3342168741524
1001
GradientColor1ACI
1070
     5
1001
GradientColor2ACI
1070
     2
1001
ACAD
1010
0.0
1020
0.0
1030
0.0
  0
CIRCLE
  5
67FC
102
{ACAD_REACTORS
330
67BA
102
}
330
1F
100
AcDbEntity
  8
5.1. Komuneko altzaria
100
AcDbCircle
 10
3043.394935033461
 20
883.2631691284378
 30
0.0
 40
0.03
  0
LWPOLYLINE
  5
680A
330
1F
100
AcDbEntity
  8
5.1. Komuneko altzaria
100
AcDbPolyline
 90
        3
 70
     1
 43
0.0
 10
3041.569935033462
 20
881.2756691284379
 10
3041.517074945872
 20
881.3256691284381
 10
3041.622795121053
 20
881.3256691284381
  0
DIMENSION
  5
686B
330
1F
100
AcDbEntity
  8
7.3. Kota
100
AcDbDimension
280
     0
  2
*D181
 10
3047.95493503346
 20
879.4785446731852
 30
0.0
 11
3046.279935033461
 21
879.6051817809614
 31
0.0
 70
    33
 71
     5
 42
3.349999999998544
 73
     0
 74
     0
 75
     0
  3
Guztion
100
AcDbAlignedDimension
 13
3044.604935033462
 23
879.4727578059907
 33
0.0
 14
3047.95493503346
 24
879.4727578059912
 34
0.0
  0
DIMENSION
  5
6878
330
1F
100
AcDbEntity
  8
7.3. Kota
100
AcDbDimension
280
     0
  2
*D182
 10
3043.924211162269
 20
876.4631691284378
 30
0.0
 11
3043.797574054492
 21
878.0981691284383
 31
0.0
 70
    33
 71
     5
 42
3.270000000000209
 73
     0
 74
     0
 75
     0
  3
Guztion
100
AcDbAlignedDimension
 13
3043.8869939488
 23
879.733169128438
 33
0.0
 14
3043.886993948796
 24
876.4631691284378
 34
0.0
  0
DIMENSION
  5
6885
330
1F
100
AcDbEntity
  8
7.3. Kota
100
AcDbDimension
280
     0
  2
*D183
 10
3043.924211162269
 20
883.4431691284377
 30
0.0
 11
3043.797574054492
 21
881.8031691284383
 31
0.0
 70
    33
 71
     5
 42
3.279999999999745
 73
     0
 74
     0
 75
     0
  3
Guztion
100
AcDbAlignedDimension
 13
3043.924211162269
 23
880.1631691284379
 33
0.0
 14
3043.924211162267
 24
883.4431691284377
 34
0.0
  0
DIMENSION
  5
6890
102
{ACAD_XDICTIONARY
360
689B
102
}
102
{ACAD_REACTORS
330
68A3
102
}
330
1F
100
AcDbEntity
  8
7.3. Kota
100
AcDbDimension
280
     0
  2
*D184
 10
3040.934935033462
 20
879.4785446731852
 30
0.0
 11
3042.594935033462
 21
879.6051817809614
 31
0.0
 70
    33
 71
     5
 42
3.319999999999254
 73
     0
 74
     0
 75
     0
  3
Guztion
100
AcDbAlignedDimension
 13
3044.254935033461
 23
879.4785446731852
 33
0.0
 14
3040.934935033462
 24
879.4785446731852
 34
0.0
  0
DIMENSION
  5
68A4
102
{ACAD_XDICTIONARY
360
68B1
102
}
102
{ACAD_REACTORS
330
68BB
102
}
330
1F
100
AcDbEntity
  8
7.3. Kota
100
AcDbDimension
280
     0
  2
*D185
 10
3043.723951781872
 20
883.7631691284379
 30
0.0
 11
3043.597365833714
 21
883.2631691284381
 31
0.0
 70
    33
 71
     5
 42
1.000000000000227
 73
     0
 74
     0
 75
     0
  3
Guztion
100
AcDbAlignedDimension
 13
3043.394935033461
 23
882.7631691284377
 33
0.0
 14
3043.394935033461
 24
883.7631691284379
 34
0.0
  0
DIMENSION
  5
68EE
102
{ACAD_XDICTIONARY
360
68FB
102
}
102
{ACAD_REACTORS
330
6905
102
}
330
1F
100
AcDbEntity
  8
7.3. Kota
100
AcDbDimension
280
     0
  2
*D186
 10
3044.254935033462
 20
866.1762482491614
 30
0.0
 11
3042.594935033462
 21
866.3028853569375
 31
0.0
 70
    33
 71
     5
 42
3.320000000000163
 73
     0
 74
     0
 75
     0
  3
Guztion
100
AcDbAlignedDimension
 13
3040.934935033462
 23
866.4138678851479
 33
0.0
 14
3044.254935033462
 24
866.4138678851479
 34
0.0
  0
DIMENSION
  5
6906
102
{ACAD_XDICTIONARY
360
6913
102
}
102
{ACAD_REACTORS
330
691D
102
}
330
1F
100
AcDbEntity
  8
7.3. Kota
100
AcDbDimension
280
     0
  2
*D187
 10
3047.874935033462
 20
866.1950580671545
 30
0.0
 11
3046.315066043884
 21
866.3216951749308
 31
0.0
 70
    33
 71
     5
 42
3.119737979155615
 73
     0
 74
     0
 75
     0
  3
Guztion
100
AcDbAlignedDimension
 13
3044.755197054306
 23
866.4138678851472
 33
0.0
 14
3047.874935033462
 24
866.4138678851472
 34
0.0
  0
DIMENSION
  5
691E
102
{ACAD_XDICTIONARY
360
692B
102
}
102
{ACAD_REACTORS
330
6935
102
}
330
1F
100
AcDbEntity
  8
7.3. Kota
100
AcDbDimension
280
     0
  2
*D188
 10
3043.148900446923
 20
873.0838678851476
 30
0.0
 11
3043.022314498764
 21
873.3838678851482
 31
0.0
 70
    33
 71
     5
 42
0.5999999999999091
 73
     0
 74
     0
 75
     0
  3
Guztion
100
AcDbAlignedDimension
 13
3042.834935033462
 23
873.6838678851476
 33
0.0
 14
3042.834935033462
 24
873.0838678851476
 34
0.0
  0
DIMENSION
  5
6936
102
{ACAD_XDICTIONARY
360
6943
102
}
102
{ACAD_REACTORS
330
694D
102
}
330
1F
100
AcDbEntity
  8
7.3. Kota
100
AcDbDimension
280
     0
  2
*D189
 10
3042.734935033462
 20
873.1431334422708
 30
0.0
 11
3041.739935033461
 21
873.2697193904289
 31
0.0
 70
    33
 71
     5
 42
1.9900000000016
 73
     0
 74
     0
 75
     0
  3
Guztion
100
AcDbAlignedDimension
 13
3040.74493503346
 23
873.1493830161085
 33
0.0
 14
3042.734935033462
 24
873.1493830161092
 34
0.0
  0
DIMENSION
  5
694E
102
{ACAD_XDICTIONARY
360
6959
102
}
102
{ACAD_REACTORS
330
6961
102
}
330
1F
100
AcDbEntity
  8
7.3. Kota
100
AcDbDimension
280
     0
  2
*D190
 10
3042.480639601451
 20
872.8838678851477
 30
0.0
 11
3042.354053653293
 21
873.433867885148
 31
0.0
 70
    33
 71
     5
 42
1.099999999999681
 73
     0
 74
     0
 75
     0
  3
Guztion
100
AcDbAlignedDimension
 13
3042.480639601451
 23
873.9838678851475
 33
0.0
 14
3042.480639601451
 24
872.8838678851477
 34
0.0
  0
DIMENSION
  5
6962
102
{ACAD_XDICTIONARY
360
696F
102
}
102
{ACAD_REACTORS
330
6979
102
}
330
1F
100
AcDbEntity
  8
7.3. Kota
100
AcDbDimension
280
     0
  2
*D191
 10
3042.204935033462
 20
870.4175902960137
 30
0.0
 11
3041.569935033462
 21
870.5428972537218
 31
0.0
 70
    33
 71
     5
 42
1.269999999999981
 73
     0
 74
     0
 75
     0
  3
Guztion
100
AcDbAlignedDimension
 13
3040.934935033462
 23
870.6333936407281
 33
0.0
 14
3042.204935033462
 24
870.6333936407288
 34
0.0
  0
DIMENSION
  5
697A
330
1F
100
AcDbEntity
  8
7.3. Kota
100
AcDbDimension
280
     0
  2
*D192
 10
3043.924113028548
 20
867.1338678851476
 30
0.0
 11
3043.797475920772
 21
868.7113678851481
 31
0.0
 70
    33
 71
     5
 42
3.154999999999972
 73
     0
 74
     0
 75
     0
  3
Guztion
100
AcDbAlignedDimension
 13
3044.036746006162
 23
870.2888678851476
 33
0.0
 14
3044.03674600616
 24
867.1338678851476
 34
0.0
  0
DIMENSION
  5
6987
330
1F
100
AcDbEntity
  8
7.3. Kota
100
AcDbDimension
280
     0
  2
*D193
 10
3047.874935033461
 20
870.8287499029813
 30
0.0
 11
3046.239935033462
 21
870.9553870107576
 31
0.0
 70
    33
 71
     5
 42
3.269999999999527
 73
     0
 74
     0
 75
     0
  3
Guztion
100
AcDbAlignedDimension
 13
3044.604935033462
 23
870.8158335607889
 33
0.0
 14
3047.874935033461
 24
870.8158335607892
 34
0.0
  0
DIMENSION
  5
6994
330
1F
100
AcDbEntity
  8
7.3. Kota
100
AcDbDimension
280
     0
  2
*D194
 10
3045.254454047491
 20
870.6388678851476
 30
0.0
 11
3045.127816939715
 21
872.181367885148
 31
0.0
 70
    33
 71
     5
 42
3.085000000000036
 73
     0
 74
     0
 75
     0
  3
Guztion
100
AcDbAlignedDimension
 13
3044.871029830317
 23
873.7238678851477
 33
0.0
 14
3044.871029830318
 24
870.6388678851476
 34
0.0
  0
DIMENSION
  5
69A1
330
1F
100
AcDbEntity
  8
7.3. Kota
100
AcDbDimension
280
     0
  2
*D195
 10
3044.254935033462
 20
869.9873664167695
 30
0.0
 11
3042.594935033462
 21
870.1140035245456
 31
0.0
 70
    33
 71
     5
 42
3.320000000000163
 73
     0
 74
     0
 75
     0
  3
Guztion
100
AcDbAlignedDimension
 13
3040.934935033462
 23
870.0732174626562
 33
0.0
 14
3044.254935033462
 24
870.0732174626558
 34
0.0
  0
DIMENSION
  5
69AE
102
{ACAD_XDICTIONARY
360
69BB
102
}
102
{ACAD_REACTORS
330
69C5
102
}
330
1F
100
AcDbEntity
  8
7.3. Kota
100
AcDbDimension
280
     0
  2
*D196
 10
3045.612262655215
 20
868.0717510488088
 30
0.0
 11
3045.262262655215
 21
868.1983369969671
 31
0.0
 70
    33
 71
     5
 42
0.6999999999998181
 73
     0
 74
     0
 75
     0
  3
Guztion
100
AcDbAlignedDimension
 13
3044.912262655215
 23
867.7997242692089
 33
0.0
 14
3045.612262655215
 24
867.7997242692089
 34
0.0
  0
DIMENSION
  5
69C6
102
{ACAD_XDICTIONARY
360
69D3
102
}
102
{ACAD_REACTORS
330
69DD
102
}
330
1F
100
AcDbEntity
  8
7.3. Kota
100
AcDbDimension
280
     0
  2
*D197
 10
3046.103270954784
 20
866.6755838132688
 30
0.0
 11
3045.429234004545
 21
866.802220921045
 31
0.0
 70
    33
 71
     5
 42
1.348073900477629
 73
     0
 74
     0
 75
     0
  3
Guztion
100
AcDbAlignedDimension
 13
3044.755197054306
 23
866.5638678851468
 33
0.0
 14
3046.103270954784
 24
866.5638678851477
 34
0.0
  0
CIRCLE
  5
69EA
330
1F
100
AcDbEntity
  8
8.1. Irisgarritasun boloa
 48
0.0005
100
AcDbCircle
 10
3043.267921456649
 20
870.6246791969302
 30
0.0
 40
0.9
  0
CIRCLE
  5
69EB
330
1F
100
AcDbEntity
  8
8.1. Irisgarritasun boloa
 48
0.0005
100
AcDbCircle
 10
3043.23392280134
 20
879.9831315784366
 30
0.0
 40
0.9
  0
LINE
  5
793C
330
1F
100
AcDbEntity
  8
6.1. Eskailerak
100
AcDbLine
 10
3042.204935033462
 20
881.5731691284376
 30
0.0
 11
3040.934935033462
 21
880.9781691284376
 31
0.0
  0
LINE
  5
793E
330
1F
100
AcDbEntity
  8
6.1. Eskailerak
  6
ACAD_ISO02W100
 48
0.00018
100
AcDbLine
 10
3042.204935033462
 20
881.8706691284377
 30
0.0
 11
3042.204935033462
 21
879.4906691284376
 31
0.0
  0
LINE
  5
793F
330
1F
100
AcDbEntity
  8
6.1. Eskailerak
  6
ACAD_ISO02W100
 48
0.00018
100
AcDbLine
 10
3040.934935033462
 20
880.9781691284378
 30
0.0
 11
3040.934935033462
 21
880.1631691284379
 31
0.0
  0
LWPOLYLINE
  5
7954
330
1F
100
AcDbEntity
  8
6.1. Eskailerak
  6
ACAD_ISO02W100
 48
0.00018
100
AcDbPolyline
 90
        3
 70
     1
 43
0.0
 10
3041.569935033461
 20
879.490669128438
 10
3041.517074945872
 20
879.5406691284382
 10
3041.622795121052
 20
879.5406691284382
  0
LINE
  5
7963
330
1F
100
AcDbEntity
  8
6.1. Eskailerak
  6
ACAD_ISO02W100
 48
0.00018
100
AcDbLine
 10
3041.569935033463
 20
881.2756691284377
 30
0.0
 11
3042.204935033462
 21
881.2756691284375
 31
0.0
  0
LINE
  5
7964
330
1F
100
AcDbEntity
  8
6.1. Eskailerak
  6
ACAD_ISO02W100
 48
0.00018
100
AcDbLine
 10
3041.569935033463
 20
881.2756691284377
 30
0.0
 11
3041.569935033462
 21
879.5406691284382
 31
0.0
  0
LWPOLYLINE
  5
7973
330
1F
100
AcDbEntity
  8
5.1. Komuneko altzaria
100
AcDbPolyline
 90
        3
 70
     1
 43
0.0
 10
3041.569935033462
 20
870.8038678851474
 10
3041.517074945872
 20
870.8538678851475
 10
3041.622795121053
 20
870.8538678851475
  0
HATCH
  5
8E2C
330
1F
100
AcDbEntity
  8
2.5. Horma itzala
100
AcDbHatch
 10
0.0
 20
0.0
 30
0.0
210
0.0
220
0.0
230
1.0
  2
SOLID
 70
     1
 71
     1
 91
        1
 92
        7
 72
     0
 73
     1
 93
       32
 10
3048.374935033463
 20
874.1838678851477
 10
3040.544935033461
 20
874.1838678851477
 10
3040.544935033462
 20
866.7138678851477
 10
3040.244935033462
 20
866.7138678851477
 10
3040.244935033462
 20
866.4138678851479
 10
3040.934935033462
 20
866.4138678851479
 10
3040.934935033462
 20
866.7138678851477
 10
3040.934935033462
 20
867.2638678851477
 10
3040.744935033462
 20
867.2638678851477
 10
3040.744935033462
 20
870.2638678851476
 10
3040.934935033462
 20
870.2638678851476
 10
3040.934935033462
 20
870.8038678851476
 10
3040.744935033462
 20
870.8038678851476
 10
3040.744935033462
 20
872.8838678851476
 10
3040.74493503346
 20
873.9838678851462
 10
3042.734935033462
 20
873.9838678851475
 10
3044.254935033462
 20
873.9838678851477
 10
3044.254935033462
 20
873.7238678851477
 10
3044.604935033462
 20
873.7238678851477
 10
3044.604935033462
 20
873.9838678851477
 10
3048.174935033462
 20
873.9838678851477
 10
3048.174935033462
 20
870.6438678851476
 10
3047.874935033462
 20
870.6438678851476
 10
3047.874935033462
 20
870.2838678851476
 10
3048.174935033462
 20
870.2838678851476
 10
3048.174935033462
 20
867.1338678851476
 10
3047.874935033462
 20
867.1338678851476
 10
3047.874935033462
 20
866.4138678851479
 10
3048.674935033462
 20
866.4138678851479
 10
3048.674935033462
 20
866.7138678851477
 10
3048.374935033462
 20
866.7138678851477
 10
3048.374935033462
 20
867.1338678851476
 97
       32
330
36A3
330
36A6
330
36BE
330
36BF
330
36B3
330
3839
330
367C
330
367B
330
369A
330
369B
330
369C
330
369D
330
369E
330
36A5
330
3699
330
3696
330
3695
330
3694
330
3693
330
3692
330
36A4
330
368B
330
368A
330
3689
330
368C
330
3687
330
3686
330
36D1
330
36BC
330
36BB
330
36BA
330
36A2
 75
     1
 76
     1
 47
0.0207592006039835
 98
        1
 10
3043.976191624001
 20
874.0816869914434
450
        0
451
        0
460
0.0
461
0.0
452
        0
462
1.0
453
        2
463
0.0
 63
     5
421
      255
463
1.0
 63
     2
421
 16776960
470
LINEAR
1001
GradientColor1ACI
1070
     5
1001
GradientColor2ACI
1070
     2
1001
ACAD
1010
0.0
1020
0.0
1030
0.0
  0
HATCH
  5
8E3B
330
1F
100
AcDbEntity
  8
2.5. Horma itzala
100
AcDbHatch
 10
0.0
 20
0.0
 30
0.0
210
0.0
220
0.0
230
1.0
  2
SOLID
 70
     1
 71
     1
 91
        2
 92
        7
 72
     0
 73
     1
 93
        4
 10
3044.604935033462
 20
870.6388678851476
 10
3044.254935033462
 20
870.6388678851476
 10
3044.254935033462
 20
870.2888678851476
 10
3044.604935033462
 20
870.2888678851476
 97
        4
330
36CC
330
36CE
330
36CD
330
36CF
 92
        7
 72
     0
 73
     1
 93
        4
 10
3044.755197054306
 20
867.1338678851475
 10
3044.254935033462
 20
867.1338678851476
 10
3044.254935033462
 20
866.4138678851479
 10
3044.755197054306
 20
866.4138678851482
 97
        4
330
3681
330
3680
330
383A
330
3682
 75
     1
 76
     1
 47
0.0207592006039835
 98
        2
 10
3044.454122725189
 20
870.5318626893022
 10
3044.537241461969
 20
866.5876110710815
450
        0
451
        0
460
0.0
461
0.0
452
        0
462
1.0
453
        2
463
0.0
 63
     5
421
      255
463
1.0
 63
     2
421
 16776960
470
LINEAR
1001
GradientColor1ACI
1070
     5
1001
GradientColor2ACI
1070
     2
1001
ACAD
1010
0.0
1020
0.0
1030
0.0
  0
MTEXT
  5
96B7
330
1F
100
AcDbEntity
  8
7.2. Idatzia
100
AcDbMText
 10
3046.066141102207
 20
865.4522779989976
 30
0.0
 40
0.25
 41
3.934541634584093
 46
0.0
 71
     1
 72
     5
  1
A{\H0.5x;eraikia }= 58.52 m²
 73
     1
 44
1.0
1001
ACAD
1000
ACAD_MTEXT_COLUMN_INFO_BEGIN
1070
    75
1070
     2
1070
    79
1070
     0
1070
    76
1070
     1
1070
    78
1070
     0
1070
    48
1040
3.934541634584093
1070
    49
1040
12.5
1070
    50
1070
     1
1040
0.0
1000
ACAD_MTEXT_COLUMN_INFO_END
  0
MTEXT
  5
96B8
330
1F
100
AcDbEntity
  8
7.2. Idatzia
100
AcDbMText
 10
3046.051642115715
 20
864.8754233983648
 30
0.0
 40
0.25
 41
3.934541634584093
 46
0.0
 71
     1
 72
     5
  1
A{\H0.5x;Osoa }= 118.66 m²
 73
     1
 44
1.0
1001
ACAD
1000
ACAD_MTEXT_COLUMN_INFO_BEGIN
1070
    75
1070
     2
1070
    79
1070
     0
1070
    76
1070
     1
1070
    78
1070
     0
1070
    48
1040
3.934541634584093
1070
    49
1040
12.5
1070
    50
1070
     1
1040
0.0
1000
ACAD_MTEXT_COLUMN_INFO_END
  0
MTEXT
  5
96B9
330
1F
100
AcDbEntity
  8
7.2. Idatzia
100
AcDbMText
 10
3044.527435322953
 20
875.021404870065
 30
0.0
 40
0.25
 41
3.934541634584093
 46
0.0
 71
     1
 72
     5
  1
A{\H0.5x;eraikia}= 60.14 m²
 73
     1
 44
1.0
1001
ACAD
1000
ACAD_MTEXT_COLUMN_INFO_BEGIN
1070
    75
1070
     2
1070
    79
1070
     0
1070
    76
1070
     1
1070
    78
1070
     0
1070
    48
1040
3.934541634584093
1070
    49
1040
12.5
1070
    50
1070
     1
1040
0.0
1000
ACAD_MTEXT_COLUMN_INFO_END
  0
LWPOLYLINE
  5
96C8
330
1F
100
AcDbEntity
  8
7.1.1. Azalera eraikia
100
AcDbPolyline
 90
        4
 70
     1
 43
0.0
 10
3040.644935033461
 20
883.8631691284378
 10
3048.35493503346
 20
883.8631691284378
 10
3048.35493503346
 20
876.0631691284379
 10
3040.644935033461
 20
876.0631691284379
  0
LWPOLYLINE
  5
96CA
330
1F
100
AcDbEntity
  8
7.1.1. Azalera eraikia
100
AcDbPolyline
 90
        4
 70
     1
 43
0.0
 10
3040.64493503346
 20
874.0838678851476
 10
3048.274935033461
 20
874.0838678851476
 10
3048.274935033461
 20
866.4138678851479
 10
3040.64493503346
 20
866.4138678851479
  0
DIMENSION
  5
96E6
102
{ACAD_XDICTIONARY
360
96F1
102
}
102
{ACAD_REACTORS
330
96F9
102
}
330
1F
100
AcDbEntity
  8
7.3. Kota
100
AcDbDimension
280
     0
  2
*D282
 10
3042.204935033462
 20
883.4431691284377
 30
0.0
 11
3041.569935033462
 21
883.5684760861459
 31
0.0
 70
    33
 71
     5
 42
1.269999999999981
 73
     0
 74
     0
 75
     0
  3
Guztion
100
AcDbAlignedDimension
 13
3040.934935033462
 23
883.4431691284377
 33
0.0
 14
3042.204935033462
 24
883.4431691284377
 34
0.0
  0
DIMENSION
  5
96FA
102
{ACAD_XDICTIONARY
360
9705
102
}
102
{ACAD_REACTORS
330
970D
102
}
330
1F
100
AcDbEntity
  8
7.3. Kota
100
AcDbDimension
280
     0
  2
*D283
 10
3048.25493503346
 20
878.0981691284379
 30
0.0
 11
3044.499935033461
 21
878.2247550765962
 31
0.0
 70
    33
 71
     5
 42
7.509999999998854
 73
     0
 74
     0
 75
     0
  3
Guztion
100
AcDbAlignedDimension
 13
3040.744935033462
 23
878.0981691284379
 33
0.0
 14
3048.25493503346
 24
878.0981691284379
 34
0.0
  0
DIMENSION
  5
970F
102
{ACAD_XDICTIONARY
360
971A
102
}
102
{ACAD_REACTORS
330
9722
102
}
330
1F
100
AcDbEntity
  8
7.3. Kota
100
AcDbDimension
280
     0
  2
*D284
 10
3047.38183725504
 20
876.1631691284378
 30
0.0
 11
3047.255251306881
 21
879.9631691284382
 31
0.0
 70
    33
 71
     5
 42
7.600000000000022
 73
     0
 74
     0
 75
     0
  3
Guztion
100
AcDbAlignedDimension
 13
3047.381837255039
 23
883.7631691284379
 33
0.0
 14
3047.38183725504
 24
876.1631691284378
 34
0.0
  0
DIMENSION
  5
9724
330
1F
100
AcDbEntity
  8
7.3. Kota
100
AcDbDimension
280
     0
  2
*D285
 10
3047.381837255039
 20
866.7138678851477
 30
0.0
 11
3047.256530297331
 21
870.3488678851481
 31
0.0
 70
    33
 71
     5
 42
7.269999999999981
 73
     0
 74
     0
 75
     0
  3
Guztion
100
AcDbAlignedDimension
 13
3047.38183725504
 23
873.9838678851477
 33
0.0
 14
3047.381837255039
 24
866.7138678851477
 34
0.0
  0
DIMENSION
  5
9740
102
{ACAD_XDICTIONARY
360
974B
102
}
102
{ACAD_REACTORS
330
9753
102
}
330
1F
100
AcDbEntity
  8
7.3. Kota
100
AcDbDimension
280
     0
  2
*D286
 10
3048.174935033462
 20
869.2368697285207
 30
0.0
 11
3044.459935033462
 21
869.363506836297
 31
0.0
 70
    33
 71
     5
 42
7.430000000000291
 73
     0
 74
     0
 75
     0
  3
Guztion
100
AcDbAlignedDimension
 13
3040.744935033462
 23
869.2368697285207
 33
0.0
 14
3048.174935033462
 24
869.2368697285207
 34
0.0
  0
IMAGE
  5
9922
330
1F
100
AcDbEntity
  8
1.1. Armarria
 62
     7
420
 16777215
160
               140
310
8C000000010000008400000006000000050000004BB3226A46A5A7405891A4F1188C8C4000000000000000004BB3226A46A5A7400C1937FE4B8C8C40000000000000000059FC5B4D51A5A7400C1937FE4B8C8C40000000000000000059FC5B4D51A5A7405891A4F1188C8C4000000000000000004BB3226A46A5A7405891A4
310
F1188C8C400000000000000000
100
AcDbRasterImage
 90
        0
 10
3026.637528499972
 20
913.5121796471457
 30
0.0
 11
0.0001408266873892
 21
0.0
 31
0.0
 12
0.0
 22
0.0001408266873892
 32
0.0
 13
151.0
 23
177.0
340
2E2
 70
     7
280
     0
281
    50
282
    50
283
     0
290
     0
360
9923
 71
     1
 91
        2
 14
-0.5
 24
-0.5
 14
150.5
 24
176.5
  0
IMAGE
  5
9924
330
1F
100
AcDbEntity
  8
1.1. Armarria
160
               140
310
8C00000001000000840000000600000005000000A2CA6D1B46A5A740E473C00D168C8C400000000000000000A2CA6D1B46A5A740E0B4DA574A8C8C4000000000000000008EDD5F4251A5A740E0B4DA574A8C8C4000000000000000008EDD5F4251A5A740E473C00D168C8C400000000000000000A2CA6D1B46A5A740E473C0
310
0D168C8C400000000000000000
100
AcDbRasterImage
 90
        0
 10
3026.636928015695
 20
913.5107684169165
 30
0.0
 11
0.0001442483864702
 21
0.0
 31
0.0
 12
0.0
 22
0.0001442483864702
 32
0.0
 13
151.0
 23
177.0
340
9835
 70
     7
280
     0
281
    50
282
    50
283
     0
290
     0
360
9925
 71
     1
 91
        2
 14
-0.5
 24
-0.5
 14
150.5
 24
176.5
  0
VIEWPORT
  5
65AA
102
{ACAD_XDICTIONARY
360
65AB
102
}
330
65A8
100
AcDbEntity
 67
     1
  8
0
100
AcDbViewport
 10
0.1838287207574092
 20
0.4391431817763147
 30
0.0
 40
0.9917455454614335
 41
0.3788344785458271
 68
     2
 69
     1
 12
0.1838287207574092
 22
0.4391431817763147
 13
0.0
 23
0.0
 14
10.0
 24
10.0
 15
10.0
 25
10.0
 16
0.0
 26
0.0
 36
1.0
 17
0.0
 27
0.0
 37
0.0
 42
50.0
 43
0.0
 44
0.0
 45
0.3788344785458271
 50
0.0
 51
0.0
 72
  1000
 90
   819232
  1

281
     0
 71
     1
 74
     0
110
0.0
120
0.0
130
0.0
111
1.0
121
0.0
131
0.0
112
0.0
122
1.0
132
0.0
 79
     0
146
0.0
170
     0
 61
     5
348
F5
292
     1
282
     1
141
0.0
142
0.0
 63
   250
421
  3355443
  0
VIEWPORT
  5
65AD
102
{ACAD_XDICTIONARY
360
65AE
102
}
330
65A8
100
AcDbEntity
 67
     1
  8
0
100
AcDbViewport
 10
128.5
 20
97.5
 30
0.0
 40
205.6
 41
156.0
 68
    -1
 69
     2
 12
2430.557043024972
 22
927.4626459547476
 13
0.0
 23
0.0
 14
10.0
 24
10.0
 15
10.0
 25
10.0
 16
0.0
 26
0.0
 36
1.0
 17
0.0
 27
0.0
 37
0.0
 42
50.0
 43
0.0
 44
0.0
 45
103.1514029277946
 50
0.0
 51
0.0
 72
  1000
 90
   819296
  1

281
     0
 71
     1
 74
     0
110
0.0
120
0.0
130
0.0
111
1.0
121
0.0
131
0.0
112
0.0
122
1.0
132
0.0
 79
     0
146
0.0
170
     0
 61
     5
348
F5
292
     1
282
     1
141
0.0
142
0.0
 63
   250
421
  3355443
  0
LWPOLYLINE
  5
65B0
330
65A8
100
AcDbEntity
 67
     1
  8
1.7. Ventanas Gráficas
100
AcDbPolyline
 90
        4
 70
     1
 43
0.0
 10
-0.0018762920232689
 20
0.2812602170592981
 10
0.2081237079767311
 20
0.2812602170592981
 10
0.2081237079767311
 20
0.5782602170592981
 10
-0.0018762920232689
 20
0.5782602170592981
  0
VIEWPORT
  5
65B1
102
{ACAD_XDICTIONARY
360
65B2
102
}
330
65A8
100
AcDbEntity
 67
     1
  8
1.7. Ventanas Gráficas
100
AcDbViewport
 10
0.1031310771647043
 20
0.4297528240861653
 30
0.0
 40
0.1983417124039874
 41
0.275393485691211
 68
     1
 69
     3
 12
3026.733078841937
 22
913.6356578604981
 13
0.0
 23
0.0
 14
10.0
 24
10.0
 15
10.0
 25
10.0
 16
0.0
 26
0.0
 36
1.0
 17
0.0
 27
0.0
 37
0.0
 42
50.0
 43
0.0
 44
0.0
 45
0.2753933547470533
 50
0.0
 51
0.0
 72
  1000
 90
   819296
  1

281
     0
 71
     1
 74
     0
110
0.0
120
0.0
130
0.0
111
1.0
121
0.0
131
0.0
112
0.0
122
1.0
132
0.0
 79
     0
146
0.0
170
     0
 61
     5
348
F5
292
     1
282
     1
141
0.0
142
0.0
 63
   250
421
  3355443
  0
VIEWPORT
  5
674F
102
{ACAD_XDICTIONARY
360
6750
102
}
330
65A8
100
AcDbEntity
 67
     1
  8
1.7. Ventanas Gráficas
100
AcDbViewport
 10
0.1021808183765358
 20
0.4525497162662454
 30
0.0
 40
0.1964411948276505
 41
0.2297997013310506
 68
     3
 69
     4
 12
3044.322866316403
 22
875.1153278284983
 13
0.0
 23
0.0
 14
10.0
 24
10.0
 15
10.0
 25
10.0
 16
0.0
 26
0.0
 36
1.0
 17
0.0
 27
0.0
 37
0.0
 42
50.0
 43
0.0
 44
0.0
 45
22.97996868871822
 50
0.0
 51
0.0
 72
  1000
 90
   819296
  1

281
     0
 71
     1
 74
     0
110
0.0
120
0.0
130
0.0
111
1.0
121
0.0
131
0.0
112
0.0
122
1.0
132
0.0
 79
     0
146
0.0
170
     0
 61
     5
348
F5
292
     1
282
     1
141
0.0
142
0.0
 63
   250
421
  3355443
  0
ENDSEC
  0
SECTION
  2
OBJECTS
  0
DICTIONARY
  5
C
330
0
100
AcDbDictionary
281
     1
  3
ACAD_BACKGROUND
350
222A
  3
ACAD_CIP_PREVIOUS_PRODUCT_INFO
350
216
  3
ACAD_COLOR
350
6B
  3
ACAD_DETAILVIEWSTYLE
350
21B
  3
ACAD_GROUP
350
D
  3
ACAD_IMAGE_DICT
350
2E0
  3
ACAD_IMAGE_VARS
350
2E1
  3
ACAD_LAYOUT
350
1A
  3
ACAD_MATERIAL
350
6A
  3
ACAD_MLEADERSTYLE
350
12D
  3
ACAD_MLINESTYLE
350
17
  3
ACAD_PLOTSETTINGS
350
19
  3
ACAD_PLOTSTYLENAME
350
E
  3
ACAD_SCALELIST
350
10C
  3
ACAD_SECTIONVIEWSTYLE
350
219
  3
ACAD_TABLESTYLE
350
7E
  3
ACAD_VISUALSTYLE
350
EF
  3
ACDB_RECOMPOSE_DATA
350
99FC
  3
AcDbVariableDictionary
350
5E
  3
AEC_PROPERTY_SET_DEFS
350
18A3
  0
DICTIONARY
  5
1FF
330
2
100
AcDbDictionary
280
     1
281
     1
  3
ACAD_LAYERFILTERS
360
9234
  3
ACAD_LAYERSTATES
360
200
  3
ACLYDICTIONARY
360
9233
  0
DICTIONARY
  5
13C
330
10
100
AcDbDictionary
280
     1
281
     1
  0
DICTIONARY
  5
6C7
330
6C6
100
AcDbDictionary
280
     1
281
     1
  0
DICTIONARY
  5
916A
330
9169
100
AcDbDictionary
280
     1
281
     1
  0
DICTIONARY
  5
1CE
330
1F
100
AcDbDictionary
280
     1
281
     1
  3
ACAD_SORTENTS
360
254
  0
DICTIONARY
  5
2645
330
2643
100
AcDbDictionary
280
     1
281
     1
  3
ACAD_SORTENTS
360
2646
  0
DICTIONARY
  5
9170
330
916E
100
AcDbDictionary
280
     1
281
     1
  3
ACAD_SORTENTS
360
9171
  0
DICTIONARY
  5
2AF4
330
2AF3
100
AcDbDictionary
280
     1
281
     1
  3
ASDK_XREC_ANNOTATION_SCALE_INFO
360
2AF5
  0
DICTIONARY
  5
2AF8
330
2AF7
100
AcDbDictionary
280
     1
281
     1
  3
ASDK_XREC_ANNOTATION_SCALE_INFO
360
2AF9
  0
IMAGEDEF_REACTOR
  5
65FE
330
65FD
100
AcDbRasterImageDefReactor
 90
        2
330
65FD
  0
DICTIONARY
  5
689B
330
6890
100
AcDbDictionary
280
     1
281
     1
  3
ACAD_DIMASSOC
360
68A3
  0
DICTIONARY
  5
68B1
330
68A4
100
AcDbDictionary
280
     1
281
     1
  3
ACAD_DIMASSOC
360
68BB
  0
DICTIONARY
  5
68FB
330
68EE
100
AcDbDictionary
280
     1
281
     1
  3
ACAD_DIMASSOC
360
6905
  0
DICTIONARY
  5
6913
330
6906
100
AcDbDictionary
280
     1
281
     1
  3
ACAD_DIMASSOC
360
691D
  0
DICTIONARY
  5
692B
330
691E
100
AcDbDictionary
280
     1
281
     1
  3
ACAD_DIMASSOC
360
6935
  0
DICTIONARY
  5
6943
330
6936
100
AcDbDictionary
280
     1
281
     1
  3
ACAD_DIMASSOC
360
694D
  0
DICTIONARY
  5
6959
330
694E
100
AcDbDictionary
280
     1
281
     1
  3
ACAD_DIMASSOC
360
6961
  0
DICTIONARY
  5
696F
330
6962
100
AcDbDictionary
280
     1
281
     1
  3
ACAD_DIMASSOC
360
6979
  0
DICTIONARY
  5
69BB
330
69AE
100
AcDbDictionary
280
     1
281
     1
  3
ACAD_DIMASSOC
360
69C5
  0
DICTIONARY
  5
69D3
330
69C6
100
AcDbDictionary
280
     1
281
     1
  3
ACAD_DIMASSOC
360
69DD
  0
DICTIONARY
  5
96F1
330
96E6
100
AcDbDictionary
280
     1
281
     1
  3
ACAD_DIMASSOC
360
96F9
  0
DICTIONARY
  5
9705
330
96FA
100
AcDbDictionary
280
     1
281
     1
  3
ACAD_DIMASSOC
360
970D
  0
DICTIONARY
  5
971A
330
970F
100
AcDbDictionary
280
     1
281
     1
  3
ACAD_DIMASSOC
360
9722
  0
DICTIONARY
  5
974B
330
9740
100
AcDbDictionary
280
     1
281
     1
  3
ACAD_DIMASSOC
360
9753
  0
IMAGEDEF_REACTOR
  5
9923
330
9922
100
AcDbRasterImageDefReactor
 90
        2
330
9922
  0
IMAGEDEF_REACTOR
  5
9925
330
9924
100
AcDbRasterImageDefReactor
 90
        2
330
9924
  0
DICTIONARY
  5
65AB
330
65AA
100
AcDbDictionary
280
     1
281
     1
  3
ASDK_XREC_ANNOTATION_SCALE_INFO
360
65AC
  0
DICTIONARY
  5
65AE
330
65AD
100
AcDbDictionary
280
     1
281
     1
  3
ASDK_XREC_ANNOTATION_SCALE_INFO
360
65AF
  0
DICTIONARY
  5
65B2
330
65B1
100
AcDbDictionary
280
     1
281
     1
  3
ASDK_XREC_ANNOTATION_SCALE_INFO
360
65B3
  0
DICTIONARY
  5
6750
330
674F
100
AcDbDictionary
280
     1
281
     1
  3
ASDK_XREC_ANNOTATION_SCALE_INFO
360
6751
  0
DICTIONARY
  5
222A
102
{ACAD_REACTORS
330
C
102
}
330
C
100
AcDbDictionary
281
     1
  0
XRECORD
  5
216
102
{ACAD_REACTORS
330
C
102
}
330
C
100
AcDbXrecord
280
     1
300
ACD
300
2015
300
ACD_F_S
  0
DICTIONARY
  5
6B
102
{ACAD_REACTORS
330
C
102
}
330
C
100
AcDbDictionary
281
     1
  0
DICTIONARY
  5
21B
102
{ACAD_REACTORS
330
C
102
}
330
C
100
AcDbDictionary
281
     1
  3
Imperial24
350
188F
  3
Metric50
350
21C
  0
DICTIONARY
  5
D
102
{ACAD_REACTORS
330
C
102
}
330
C
100
AcDbDictionary
281
     1
  0
DICTIONARY
  5
2E0
102
{ACAD_REACTORS
330
C
102
}
330
C
100
AcDbDictionary
281
     1
  3
Andoain
350
883
  3
Astigarraga
350
A1D
  3
Hernani
350
A20
  3
Lasarte_Oria
350
A38
  3
Urnieta
350
A0E
  3
Usurbil
350
2E2
  3
Usurbil_1
350
9835
  0
RASTERVARIABLES
  5
2E1
102
{ACAD_REACTORS
330
C
102
}
330
C
100
AcDbRasterVariables
 90
        0
 70
     1
 71
     1
 72
     1
  0
DICTIONARY
  5
1A
102
{ACAD_REACTORS
330
C
102
}
330
C
100
AcDbDictionary
281
     1
  3
47
350
65B5
  3
Model
350
22
  3
Presentación2
350
D7
  0
DICTIONARY
  5
6A
102
{ACAD_REACTORS
330
C
102
}
330
C
100
AcDbDictionary
281
     1
  3
ByBlock
350
ED
  3
ByLayer
350
EC
  3
Global
350
EE
  0
DICTIONARY
  5
12D
102
{ACAD_REACTORS
330
C
102
}
330
C
100
AcDbDictionary
281
     1
  3
Anotativo
350
13B
  3
Standard
350
12E
  0
DICTIONARY
  5
17
102
{ACAD_REACTORS
330
C
102
}
330
C
100
AcDbDictionary
281
     1
  3
Standard
350
18
  0
DICTIONARY
  5
19
102
{ACAD_REACTORS
330
C
102
}
330
C
100
AcDbDictionary
281
     1
  0
ACDBDICTIONARYWDFLT
  5
E
102
{ACAD_REACTORS
330
C
102
}
330
C
100
AcDbDictionary
281
     1
  3
Normal
350
F
100
AcDbDictionaryWithDefault
340
F
  0
DICTIONARY
  5
10C
102
{ACAD_REACTORS
330
C
102
}
330
C
100
AcDbDictionary
281
     1
  3
A0
350
10D
  3
A1
350
4B1
  3
A2
350
4B2
  3
A3
350
4B3
  3
A4
350
4B4
  3
A5
350
4B5
  3
A6
350
4B6
  3
A7
350
4B7
  3
A8
350
4B8
  3
A9
350
4B9
  3
B0
350
4BA
  3
B1
350
4BB
  3
B2
350
1C8
  3
B3
350
4BC
  3
B4
350
4BD
  3
B5
350
4BE
  3
B6
350
4BF
  3
B7
350
4C0
  0
DICTIONARY
  5
219
102
{ACAD_REACTORS
330
C
102
}
330
C
100
AcDbDictionary
281
     1
  3
Imperial24
350
188E
  3
Metric50
350
21A
  0
DICTIONARY
  5
7E
102
{ACAD_REACTORS
330
C
102
}
330
C
100
AcDbDictionary
281
     1
  3
Standard
350
7F
  0
DICTIONARY
  5
EF
102
{ACAD_REACTORS
330
C
102
}
330
C
100
AcDbDictionary
281
     1
  3
2dWireframe
350
F5
  3
Basic
350
F4
  3
Brighten
350
FB
  3
ColorChange
350
FF
  3
Conceptual
350
F8
  3
Dim
350
FA
  3
EdgeColorOff
350
1E6
  3
Facepattern
350
FE
  3
Flat
350
F0
  3
FlatWithEdges
350
F1
  3
Gouraud
350
F2
  3
GouraudWithEdges
350
F3
  3
Hidden
350
F7
  3
JitterOff
350
1E4
  3
Linepattern
350
FD
  3
OverhangOff
350
1E5
  3
Realistic
350
F9
  3
Shaded
350
1F3
  3
Shaded with edges
350
1F2
  3
Shades of Gray
350
1EF
  3
Sketchy
350
1F0
  3
Thicken
350
FC
  3
Wireframe
350
F6
  3
X-Ray
350
1F1
  0
XRECORD
  5
99FC
102
{ACAD_REACTORS
330
C
102
}
330
C
100
AcDbXrecord
280
     1
 90
        1
330
7F
330
21A
330
21C
330
188E
330
188F
330
365B
330
672C
330
672D
330
6730
330
6731
330
6732
330
6739
330
673A
330
96B7
330
96B8
330
96B9
  0
DICTIONARY
  5
5E
102
{ACAD_REACTORS
330
C
102
}
330
C
100
AcDbDictionary
281
     1
  3
CANNOSCALE
350
146
  3
CMLEADERSTYLE
350
145
  3
CTABLESTYLE
350
84
  3
CVIEWDETAILSTYLE
350
227
  3
CVIEWSECTIONSTYLE
350
228
  3
DIMASSOC
350
5F
  3
HIDETEXT
350
63
  3
LAYEREVAL
350
1AE
  3
LAYERNOTIFY
350
1AF
  0
DICTIONARY
  5
18A3
102
{ACAD_REACTORS
330
C
102
}
330
C
100
AcDbDictionary
281
     1
  0
DICTIONARY
  5
9234
102
{ACAD_REACTORS
330
1FF
102
}
330
1FF
100
AcDbDictionary
281
     1
  0
DICTIONARY
  5
200
102
{ACAD_REACTORS
330
1FF
102
}
330
1FF
100
AcDbDictionary
281
     1
  0
DICTIONARY
  5
9233
102
{ACAD_REACTORS
330
1FF
102
}
330
1FF
100
AcDbDictionary
281
     1
  3
*A1
350
9235
  3
*A2
350
9236
  3
*A3
350
9237
  3
*A4
350
9238
  3
*A5
350
9239
  3
*A6
350
923A
  3
*A7
350
923B
  3
*A8
350
923C
  0
SORTENTSTABLE
  5
254
102
{ACAD_REACTORS
330
1CE
102
}
330
1CE
100
AcDbSortentsTable
330
1F
331
3764
  5
3AFA
331
36F6
  5
39F9
331
3693
  5
39D4
331
6632
  5
6692
331
65F7
  5
6658
331
37AD
  5
3AA4
331
3778
  5
3B08
331
3715
  5
3A19
331
3763
  5
3AF8
331
660B
  5
666D
331
663E
  5
669F
331
3692
  5
39D1
331
65F6
  5
6659
331
3837
  5
3B2B
331
37AC
  5
3A55
331
3777
  5
3B07
331
3714
  5
3A17
331
661F
  5
6681
331
36A6
  5
39EF
331
660A
  5
666C
331
663D
  5
669E
331
38C6
  5
3F92
331
694E
  5
6B7F
331
6630
  5
6691
331
37AB
  5
3B20
331
3836
  5
3B29
331
6994
  5
6B86
331
6906
  5
6B7B
331
367C
  5
39B2
331
3713
  5
3A18
331
661E
  5
6680
331
36A5
  5
39EC
331
6609
  5
666B
331
663C
  5
669D
331
38C5
  5
3F7F
331
69EB
  5
6B00
331
65F4
  5
6655
331
37AA
  5
3B1F
331
3835
  5
3B2A
331
9740
  5
9793
331
367B
  5
39B3
331
3712
  5
3A16
331
661D
  5
667F
331
6885
  5
6B75
331
36A4
  5
39CF
331
3707
  5
3A08
331
6608
  5
666A
331
663B
  5
669C
331
69EA
  5
6AFF
331
6987
  5
6B87
331
37A9
  5
3B1E
331
3834
  5
3B28
331
3711
  5
3A15
331
661C
  5
667E
331
6727
  5
6B30
331
67BA
  5
12A8
331
36A3
  5
39D0
331
3706
  5
3A04
331
6607
  5
6669
331
663A
  5
669B
331
65F2
  5
6654
331
37A8
  5
3B1A
331
3833
  5
3B27
331
6936
  5
6B7D
331
36BF
  5
39F2
331
7954
  5
7A78
331
3710
  5
3A14
331
661B
  5
667D
331
68EE
  5
6AEF
331
8E2C
  5
12DE
331
96E6
  5
970F
331
3947
  5
43A4
331
36A2
  5
39D2
331
3705
  5
3A05
331
6606
  5
6667
331
6639
  5
669A
331
96B9
  5
96CA
331
970F
  5
9740
331
65F1
  5
6653
331
3832
  5
3B25
331
374C
  5
3A50
331
37A7
  5
3AEC
331
662F
  5
6690
331
673A
  5
6B67
331
96FA
  5
9724
331
36BE
  5
39F6
331
370F
  5
3A13
331
661A
  5
667B
331
3946
  5
4374
331
3704
  5
3A03
331
6605
  5
6666
331
6638
  5
6699
331
96B8
  5
96C8
331
368C
  5
39C7
331
65F0
  5
6652
331
3831
  5
3B24
331
374B
  5
3A23
331
37A6
  5
3A54
331
662E
  5
6630
331
6739
  5
6B65
331
3771
  5
3B01
331
370E
  5
3A0D
331
6619
  5
667A
331
3945
  5
435C
331
36A0
  5
39E0
331
3703
  5
3A00
331
368B
  5
39B8
331
3830
  5
1303
331
374A
  5
3A25
331
37A5
  5
3B14
331
67E3
  5
12BF
331
662D
  5
668F
331
6738
  5
6B63
331
36BC
  5
39F4
331
370D
  5
3A0F
331
6618
  5
6678
331
3944
  5
4343
331
3702
  5
3A02
331
369F
  5
39DD
331
686B
  5
6AE7
331
6603
  5
6665
331
375E
  5
3AF4
331
368A
  5
39CE
331
37A4
  5
3B12
331
3749
  5
3A20
331
662C
  5
668E
331
389D
  5
3F22
331
36BB
  5
39F3
331
370C
  5
3A0B
331
6617
  5
6679
331
3943
  5
432B
331
3870
  5
3D43
331
3701
  5
39FA
331
369E
  5
39ED
331
6602
  5
6663
331
3843
  5
3B4F
331
375D
  5
3AF2
331
37B8
  5
3B21
331
69A1
  5
6B97
331
3689
  5
39CD
331
3748
  5
3A4C
331
662B
  5
668D
331
389C
  5
3EF2
331
36BA
  5
39F0
331
793F
  5
7A74
331
370B
  5
3A0C
331
3942
  5
4233
331
386F
  5
3D13
331
3700
  5
3A01
331
369D
  5
39E8
331
6601
  5
6662
331
37B7
  5
3B22
331
375C
  5
3AF0
331
96B7
  5
96B9
331
7973
  5
7B78
331
3747
  5
3A3E
331
65EF
  5
6651
331
662A
  5
668C
331
389B
  5
3F0A
331
36B9
  5
39EE
331
793E
  5
7A4C
331
370A
  5
3A0A
331
6615
  5
6677
331
3941
  5
4109
331
386E
  5
3D11
331
691E
  5
6B7C
331
676E
  5
69A1
331
369C
  5
39E2
331
3841
  5
3B4C
331
37B6
  5
3AE9
331
375B
  5
3AEE
331
3746
  5
3A22
331
65EE
  5
6650
331
6629
  5
668B
331
389A
  5
3EBD
331
3709
  5
3A06
331
6614
  5
6676
331
386D
  5
3C7B
331
676D
  5
6962
331
369B
  5
39EB
331
3840
  5
3B4D
331
37B5
  5
3AE0
331
3EBE
  5
5EF5
331
3745
  5
3A1C
331
6890
  5
6B76
331
6628
  5
668A
331
793C
  5
7A75
331
3708
  5
3A07
331
6613
  5
6675
331
386C
  5
1302
331
376E
  5
3AF3
331
676C
  5
4040
331
369A
  5
39EA
331
37B4
  5
3ADE
331
68A4
  5
6AEC
331
680A
  5
6B72
331
3744
  5
3A1B
331
6732
  5
6B62
331
6627
  5
6689
331
69C6
  5
6B99
331
365B
  5
39AA
331
6612
  5
6674
331
386B
  5
3C45
331
376D
  5
3AFE
331
676B
  5
403D
331
3699
  5
39DC
331
36FF
  5
39FD
331
37B3
  5
3ADC
331
3687
  5
39C6
331
3743
  5
3A12
331
6731
  5
6B4E
331
6626
  5
6688
331
67C7
  5
12A7
331
365A
  5
39B1
331
6611
  5
6673
331
376C
  5
3AFD
331
676A
  5
403C
331
3698
  5
39E1
331
36FE
  5
39DE
331
37B2
  5
3ADD
331
65FF
  5
6661
331
3686
  5
39C8
331
36D1
  5
39B6
331
3742
  5
3A11
331
6730
  5
6B4C
331
6625
  5
6687
331
388E
  5
3EBC
331
3823
  5
128E
331
6610
  5
6672
331
6878
  5
6B71
331
3869
  5
3B7B
331
6646
  5
672F
331
36FD
  5
39DF
331
37B1
  5
3ADB
331
383F
  5
3B4B
331
3741
  5
3A10
331
6624
  5
6686
331
388D
  5
3EBA
331
36B3
  5
39B7
331
3868
  5
3B52
331
37C5
  5
3B23
331
69AE
  5
6B09
331
6645
  5
672E
331
6768
  5
6B6C
331
36FC
  5
39FF
331
37B0
  5
3AD9
331
3755
  5
3A53
331
65FD
  5
6660
331
383E
  5
3B4A
331
36CF
  5
39F7
331
7964
  5
7A76
331
65E8
  5
12C4
331
6623
  5
6685
331
388C
  5
3EBB
331
9724
  5
9792
331
3769
  5
3A24
331
6644
  5
672D
331
393D
  5
403F
331
36FB
  5
39FE
331
3754
  5
3AED
331
65FC
  5
665F
331
6637
  5
6698
331
38B8
  5
3F7E
331
383D
  5
3B31
331
36CE
  5
39F1
331
7963
  5
7A73
331
65E7
  5
12C3
331
6622
  5
6684
331
388B
  5
3E5E
331
3768
  5
3A51
331
6643
  5
672C
331
6766
  5
6767
331
393C
  5
3FFF
331
3697
  5
39DB
331
3753
  5
3AEB
331
65FB
  5
665E
331
38B7
  5
3F52
331
383C
  5
3B30
331
697A
  5
6987
331
36CD
  5
39D7
331
3682
  5
39B5
331
65E6
  5
12C2
331
6621
  5
6683
331
388A
  5
1301
331
3817
  5
128F
331
377C
  5
3B05
331
672F
  5
6731
331
3767
  5
3A4F
331
6642
  5
672A
331
6765
  5
6B69
331
660F
  5
6671
331
96CA
  5
96FA
331
393B
  5
3FA6
331
36F9
  5
39FC
331
3696
  5
39D9
331
3752
  5
3AE1
331
65FA
  5
665D
331
6635
  5
6696
331
383B
  5
3B2E
331
36CC
  5
39D3
331
3681
  5
39AD
331
6620
  5
6682
331
65E5
  5
12C1
331
3889
  5
3DBF
331
377B
  5
3B11
331
672E
  5
6B4B
331
3766
  5
3A4E
331
660E
  5
666E
331
6641
  5
66A0
331
3867
  5
3B51
331
36F8
  5
39FB
331
3695
  5
39D6
331
6634
  5
6695
331
65F9
  5
665C
331
383A
  5
39C5
331
37AF
  5
3ADA
331
3680
  5
39B4
331
65E4
  5
12C0
331
377A
  5
3B0B
331
3717
  5
3A09
331
672D
  5
6B33
331
8E3B
  5
12DD
331
3765
  5
3AFC
331
660D
  5
666F
331
6640
  5
6727
331
96C8
  5
96E6
331
3866
  5
3B4E
331
36F7
  5
39F8
331
3694
  5
39D5
331
6633
  5
6694
331
65F8
  5
665B
331
3839
  5
3B2C
331
37AE
  5
3AD7
331
67FC
  5
6B6D
331
3779
  5
3B03
331
3716
  5
3A1A
331
672C
  5
6B32
  0
SORTENTSTABLE
  5
2646
102
{ACAD_REACTORS
330
2645
102
}
330
2645
100
AcDbSortentsTable
330
2643
  0
SORTENTSTABLE
  5
9171
102
{ACAD_REACTORS
330
9170
102
}
330
9170
100
AcDbSortentsTable
330
916E
  0
XRECORD
  5
2AF5
102
{ACAD_REACTORS
330
2AF4
102
}
330
2AF4
100
AcDbXrecord
280
     1
 90
        1
340
10D
  0
XRECORD
  5
2AF9
102
{ACAD_REACTORS
330
2AF8
102
}
330
2AF8
100
AcDbXrecord
280
     1
 90
        1
340
10D
  0
DIMASSOC
  5
68A3
102
{ACAD_REACTORS
330
689B
102
}
330
689B
100
AcDbDimAssoc
330
6890
 90
        2
 70
     0
 71
     0
  1
AcDbOsnapPointRef
 72
     8
331
37B7
 73
     2
 91
        0
 40
-0.0499977536186897
 10
0.0
 20
0.0
 30
0.0
 75
     1
  1
AcDbOsnapPointRef
 72
     0
 40
0.0
 10
3044.254935033461
 20
879.4785446731852
 30
0.0
 75
     0
  0
DIMASSOC
  5
68BB
102
{ACAD_REACTORS
330
68B1
102
}
330
68B1
100
AcDbDimAssoc
330
68A4
 90
        3
 70
     0
 71
     0
  1
AcDbOsnapPointRef
 72
    13
331
37A6
 73
     2
 91
        0
 40
0.0
 10
0.0
 20
0.0
 30
2.000000000000000E+50
 75
     0
  1
AcDbOsnapPointRef
 72
     1
331
37A7
 73
     2
 91
        0
 40
1.0
 10
0.0
 20
0.0
 30
2.000000000000000E+50
 75
     0
  0
DIMASSOC
  5
6905
102
{ACAD_REACTORS
330
68FB
102
}
330
68FB
100
AcDbDimAssoc
330
68EE
 90
        3
 70
     0
 71
     0
  1
AcDbOsnapPointRef
 72
     1
331
3839
 73
     2
 91
        0
 40
1.0
 10
0.0
 20
0.0
 30
2.000000000000000E+50
 75
     0
  1
AcDbOsnapPointRef
 72
    13
331
3680
 73
     2
 91
        0
 40
0.0
 10
0.0
 20
0.0
 30
2.000000000000000E+50
 75
     0
  0
DIMASSOC
  5
691D
102
{ACAD_REACTORS
330
6913
102
}
330
6913
100
AcDbDimAssoc
330
6906
 90
        3
 70
     0
 71
     0
  1
AcDbOsnapPointRef
 72
     1
331
3682
 73
     2
 91
        0
 40
0.9999999999999998
 10
0.0
 20
0.0
 30
2.000000000000000E+50
 75
     0
  1
AcDbOsnapPointRef
 72
     8
331
3686
 73
     2
 91
        0
 40
-0.0000000000011053
 10
0.0
 20
0.0
 30
0.0
 75
     1
  1
AcDbOsnapPointRef
 72
     1
331
3682
 73
     2
 91
        0
 40
0.9999999999999998
 10
0.0
 20
0.0
 30
2.000000000000000E+50
 75
     0
  0
DIMASSOC
  5
6935
102
{ACAD_REACTORS
330
692B
102
}
330
692B
100
AcDbDimAssoc
330
691E
 90
        3
 70
     0
 71
     0
  1
AcDbOsnapPointRef
 72
     1
331
36F6
 73
     2
 91
        4
 40
1.0
 10
0.0
 20
0.0
 30
2.000000000000000E+50
 75
     0
  1
AcDbOsnapPointRef
 72
     1
331
36F7
 73
     2
 91
        4
 40
1.0
 10
0.0
 20
0.0
 30
2.000000000000000E+50
 75
     0
  0
DIMASSOC
  5
694D
102
{ACAD_REACTORS
330
6943
102
}
330
6943
100
AcDbDimAssoc
330
6936
 90
        1
 70
     0
 71
     0
  1
AcDbOsnapPointRef
 72
     8
331
36A5
 73
     2
 91
        0
 40
0.2413773917825471
 10
0.0
 20
0.0
 30
0.0
 75
     1
  1
AcDbOsnapPointRef
 72
     0
 40
0.0
 10
3043.148900446923
 20
873.1493830161095
 30
0.0
 75
     0
  0
DIMASSOC
  5
6961
102
{ACAD_REACTORS
330
6959
102
}
330
6959
100
AcDbDimAssoc
330
694E
 90
        3
 70
     0
 71
     0
  1
AcDbOsnapPointRef
 72
    13
331
3699
 73
     2
 91
        0
 40
0.1277866492514368
 10
0.0
 20
0.0
 30
2.000000000000000E+50
 75
     0
  1
AcDbOsnapPointRef
 72
     8
331
36A0
 73
     2
 91
        0
 40
0.1277866492515536
 10
0.0
 20
0.0
 30
0.0
 75
     1
  1
AcDbOsnapPointRef
 72
    13
331
3699
 73
     2
 91
        0
 40
0.1277866492514368
 10
0.0
 20
0.0
 30
2.000000000000000E+50
 75
     0
  0
DIMASSOC
  5
6979
102
{ACAD_REACTORS
330
696F
102
}
330
696F
100
AcDbDimAssoc
330
6962
 90
        1
 70
     0
 71
     0
  1
AcDbOsnapPointRef
 72
     2
331
369C
 73
     2
 91
        0
 40
0.6843069547785867
 10
0.0
 20
0.0
 30
0.0
 75
     0
  0
DIMASSOC
  5
69C5
102
{ACAD_REACTORS
330
69BB
102
}
330
69BB
100
AcDbDimAssoc
330
69AE
 90
        3
 70
     0
 71
     0
  1
AcDbOsnapPointRef
 72
     1
331
3867
 73
     2
 91
        4
 40
1.0
 10
0.0
 20
0.0
 30
2.000000000000000E+50
 75
     0
  1
AcDbOsnapPointRef
 72
     1
331
3866
 73
     2
 91
        4
 40
1.0
 10
0.0
 20
0.0
 30
2.000000000000000E+50
 75
     0
  0
DIMASSOC
  5
69DD
102
{ACAD_REACTORS
330
69D3
102
}
330
69D3
100
AcDbDimAssoc
330
69C6
 90
        3
 70
     0
 71
     0
  1
AcDbOsnapPointRef
 72
     1
331
6766
 73
     2
 91
        0
 40
1.0
 10
0.0
 20
0.0
 30
2.000000000000000E+50
 75
     0
  1
AcDbOsnapPointRef
 72
     6
331
38C6
 73
     2
 91
        0
 40
-0.0000000000002567
 10
0.0
 20
0.0
 30
0.0
332
38C5
 74
     2
 92
        0
 75
     0
  0
DIMASSOC
  5
96F9
102
{ACAD_REACTORS
330
96F1
102
}
330
96F1
100
AcDbDimAssoc
330
96E6
 90
        3
 70
     0
 71
     0
  1
AcDbOsnapPointRef
 72
     1
331
37A4
 73
     2
 91
        0
 40
1.0
 10
0.0
 20
0.0
 30
2.000000000000000E+50
 75
     0
  1
AcDbOsnapPointRef
 72
     8
331
37A5
 73
     2
 91
        0
 40
0.1690885072655344
 10
0.0
 20
0.0
 30
0.0
 75
     1
  1
AcDbOsnapPointRef
 72
     1
331
37A4
 73
     2
 91
        0
 40
1.0
 10
0.0
 20
0.0
 30
2.000000000000000E+50
 75
     0
  0
DIMASSOC
  5
970D
102
{ACAD_REACTORS
330
9705
102
}
330
9705
100
AcDbDimAssoc
330
96FA
 90
        3
 70
     0
 71
     0
  1
AcDbOsnapPointRef
 72
     2
331
3771
 73
     2
 91
        0
 40
0.5
 10
0.0
 20
0.0
 30
0.0
 75
     0
  1
AcDbOsnapPointRef
 72
     2
331
374B
 73
     2
 91
        0
 40
0.5000000000000174
 10
0.0
 20
0.0
 30
0.0
 75
     0
  0
DIMASSOC
  5
9722
102
{ACAD_REACTORS
330
971A
102
}
330
971A
100
AcDbDimAssoc
330
970F
 90
        3
 70
     0
 71
     0
  1
AcDbOsnapPointRef
 72
     8
331
374C
 73
     2
 91
        0
 40
0.1741938536235072
 10
0.0
 20
0.0
 30
0.0
 75
     1
  1
AcDbOsnapPointRef
 72
     0
 40
0.0
 10
3047.38183725504
 20
881.963951463198
 30
0.0
 75
     0
  1
AcDbOsnapPointRef
 72
     8
331
3746
 73
     2
 91
        0
 40
0.8289260362923652
 10
0.0
 20
0.0
 30
0.0
 75
     1
  1
AcDbOsnapPointRef
 72
     8
331
374C
 73
     2
 91
        0
 40
0.1741938536235072
 10
0.0
 20
0.0
 30
0.0
 75
     1
  1
AcDbOsnapPointRef
 72
     0
 40
0.0
 10
3047.38183725504
 20
881.963951463198
 30
0.0
 75
     0
  0
DIMASSOC
  5
9753
102
{ACAD_REACTORS
330
974B
102
}
330
974B
100
AcDbDimAssoc
330
9740
 90
        1
 70
     0
 71
     0
  1
AcDbOsnapPointRef
 72
     8
331
369A
 73
     2
 91
        0
 40
0.6576672811243802
 10
0.0
 20
0.0
 30
0.0
 75
     1
  1
AcDbOsnapPointRef
 72
     0
 40
0.0
 10
3048.737963407524
 20
869.2368697285207
 30
0.0
 75
     0
  0
XRECORD
  5
65AC
102
{ACAD_REACTORS
330
65AB
102
}
330
65AB
100
AcDbXrecord
280
     1
 90
        1
340
10D
  0
XRECORD
  5
65AF
102
{ACAD_REACTORS
330
65AE
102
}
330
65AE
100
AcDbXrecord
280
     1
 90
        1
340
10D
  0
XRECORD
  5
65B3
102
{ACAD_REACTORS
330
65B2
102
}
330
65B2
100
AcDbXrecord
280
     1
 90
        1
340
4B1
  0
XRECORD
  5
6751
102
{ACAD_REACTORS
330
6750
102
}
330
6750
100
AcDbXrecord
280
     1
 90
        1
340
10D
  0
ACDBDETAILVIEWSTYLE
  5
188F
102
{ACAD_XDICTIONARY
360
22E2
102
}
102
{ACAD_REACTORS
330
21B
102
}
330
21B
100
AcDbModelDocViewStyle
 70
     0
  3
Imperial24
290
     0
100
AcDbDetailViewStyle
 70
     0
 71
     0
 90
        3
 71
     1
340
11
 62
   256
 40
0.24
340
0
 62
   256
 40
0.24
300

 40
0.36
280
     3
 71
     2
340
16
 90
       25
 62
   256
 71
     3
340
11
 62
   256
 40
0.24
 90
        1
 40
0.75
 90
        1
300
%<\AcVar ViewType \f "%tc1">% %<\AcVar ViewDetailId>%\PESCALA %<\AcVar ViewScale \f "%sn">%
 71
     4
340
16
 90
       25
 62
   256
340
16
 90
       25
 62
   256
280
     0
  0
ACDBDETAILVIEWSTYLE
  5
21C
102
{ACAD_XDICTIONARY
360
236
102
}
102
{ACAD_REACTORS
330
21B
102
}
330
21B
100
AcDbModelDocViewStyle
 70
     0
  3
Metric50
290
     0
100
AcDbDetailViewStyle
 70
     0
 71
     0
 90
        3
 71
     1
340
11
 62
   256
 40
5.0
340
0
 62
   256
 40
5.0
300

 40
0.0
280
     1
 71
     2
340
16
 90
       25
 62
   256
 71
     3
340
11
 62
   256
 40
5.0
 90
        0
 40
15.0
 90
        1
300
%<\AcVar ViewDetailId>% (%<\AcVar ViewScale \f "%sn">%)
 71
     4
340
16
 90
       25
 62
   256
340
16
 90
       25
 62
   256
280
     0
  0
IMAGEDEF
  5
883
102
{ACAD_REACTORS
330
2E0
102
}
330
2E0
100
AcDbRasterImageDef
 90
        0
  1
\\zerbitzaria\pertsonalak$\guztion1\Downloads\Andoain.jpg
 10
400.0
 20
400.0
 11
0.2645833333333333
 21
0.2645833333333333
280
     1
281
     5
  0
IMAGEDEF
  5
A1D
102
{ACAD_REACTORS
330
2E0
102
}
330
2E0
100
AcDbRasterImageDef
 90
        0
  1
\\zerbitzaria\pertsonalak$\guztion1\Downloads\Astigarraga.jpg
 10
306.0
 20
278.0
 11
0.2645833333333333
 21
0.2645833333333333
280
     1
281
     5
  0
IMAGEDEF
  5
A20
102
{ACAD_REACTORS
330
2E0
102
}
330
2E0
100
AcDbRasterImageDef
 90
        0
  1
\\zerbitzaria\pertsonalak$\guztion1\Downloads\Hernani.jpg
 10
512.0
 20
512.0
 11
0.2645833333333333
 21
0.2645833333333333
280
     1
281
     5
  0
IMAGEDEF
  5
A38
102
{ACAD_REACTORS
330
2E0
102
}
330
2E0
100
AcDbRasterImageDef
 90
        0
  1
\\zerbitzaria\pertsonalak$\guztion1\Downloads\Lasarte_Oria.jpg
 10
306.0
 20
278.0
 11
0.2645833333333333
 21
0.2645833333333333
280
     1
281
     5
  0
IMAGEDEF
  5
A0E
102
{ACAD_REACTORS
330
2E0
102
}
330
2E0
100
AcDbRasterImageDef
 90
        0
  1
\\zerbitzaria\pertsonalak$\guztion1\Downloads\Urnieta.jpg
 10
512.0
 20
686.0
 11
0.2645833333333333
 21
0.2645833333333333
280
     1
281
     5
  0
IMAGEDEF
  5
2E2
102
{ACAD_REACTORS
330
2E0
330
65FE
330
9923
102
}
330
2E0
100
AcDbRasterImageDef
 90
        0
  1
\\zerbitzaria\pertsonalak$\guztion1\Downloads\Usurbil.jpg
 10
151.0
 20
177.0
 11
0.2645833333333333
 21
0.2645833333333333
280
     1
281
     5
  0
IMAGEDEF
  5
9835
102
{ACAD_REACTORS
330
2E0
330
9925
102
}
330
2E0
100
AcDbRasterImageDef
 90
        0
  1
G:\Udalerriak\US_Usurbil\Usurbil.jpg
 10
151.0
 20
177.0
 11
0.2645833333333333
 21
0.2645833333333333
280
     1
281
     5
  0
LAYOUT
  5
65B5
102
{ACAD_REACTORS
330
1A
102
}
330
1A
100
AcDbPlotSettings
  1

  2
DWG To PDF.pc3
  4
UserDefinedMetric (210.00 x 297.00mm)
  6

 40
0.0
 41
0.0
 42
0.0
 43
0.0
 44
210.0
 45
297.0
 46
0.0
 47
0.0000000000000284
 48
-0.0018762920232689
 49
0.2812602170592981
140
0.2081237079767311
141
0.5782602170592981
142
1000.0
143
1.0
 70
   676
 72
     1
 73
     0
 74
     4
  7
Guztion_Planoak_pdf.ctb
 75
     0
147
1000.0
 76
     0
 77
     2
 78
   300
148
0.0018762920232689
149
-0.2812602170592981
100
AcDbLayout
  1
47
 70
     1
 71
     1
 10
-0.0018762920232689
 20
0.2812602170592981
 11
0.2081237079767311
 21
0.5782602170592981
 12
0.0
 22
0.0
 32
0.0
 14
-0.0018762920232689
 24
0.2812602170592981
 34
0.0
 15
231.3
 25
175.5
 35
0.0
146
0.0
 13
0.0
 23
0.0
 33
0.0
 16
1.0
 26
0.0
 36
0.0
 17
0.0
 27
1.0
 37
0.0
 76
     0
330
65A8
331
65B1
1001
ACAD_PSEXT
1000
DWG To PDF.pc3
1000
DWG To PDF
1000
Archivo
1000

1070
     0
  0
LAYOUT
  5
22
102
{ACAD_XDICTIONARY
360
205
102
}
102
{ACAD_REACTORS
330
1A
102
}
330
1A
100
AcDbPlotSettings
  1

  2
DWG To PDF.pc3
  4
UserDefinedMetric (210.00 x 297.00mm)
  6

 40
0.0
 41
0.0
 42
0.0
 43
0.0
 44
210.0
 45
297.0
 46
0.0
 47
87.12725628375705
 48
-64.87770755501651
 49
-10.86078803921714
140
-49.28250067704721
141
-1.74535342089905
142
1.0
143
0.0742628898950919
 70
 11956
 72
     1
 73
     0
 74
     4
  7
Guztion_Planoak_pdf.ctb
 75
     0
147
13.46567580944747
 76
     0
 77
     2
 78
   300
148
64.87770755501651
149
10.86078803921714
100
AcDbLayout
  1
Model
 70
     1
 71
     0
 10
0.0
 20
0.0
 11
12.0
 21
9.0
 12
0.0
 22
0.0
 32
0.0
 14
0.0
 24
0.0
 34
0.0
 15
0.0
 25
0.0
 35
0.0
146
0.0
 13
0.0
 23
0.0
 33
0.0
 16
1.0
 26
0.0
 36
0.0
 17
0.0
 27
1.0
 37
0.0
 76
     0
330
1F
331
EA
1001
ACAD_PSEXT
1000
DWG To PDF.pc3
1000
DWG To PDF
1000
Archivo
1000

1070
     0
  0
LAYOUT
  5
D7
102
{ACAD_REACTORS
330
1A
102
}
330
1A
100
AcDbPlotSettings
  1

  2
none_device
  4
ISO_A4_(210.00_x_297.00_MM)
  6

 40
7.5
 41
20.0
 42
7.5
 43
20.0
 44
210.0
 45
297.0
 46
0.0
 47
0.0
 48
0.0
 49
0.0
140
0.0
141
0.0
142
1.0
143
1.0
 70
   688
 72
     1
 73
     1
 74
     5
  7
Guztion_Planoak_pdf.ctb
 75
    16
147
1.0
 76
     0
 77
     2
 78
   300
148
0.0
149
0.0
100
AcDbLayout
  1
Presentación2
 70
     1
 71
     2
 10
-20.0
 20
-7.5
 11
277.0
 21
202.5
 12
0.0
 22
0.0
 32
0.0
 14
25.69999999999999
 24
19.5
 34
0.0
 15
231.3
 25
175.5
 35
0.0
146
0.0
 13
0.0
 23
0.0
 33
0.0
 16
1.0
 26
0.0
 36
0.0
 17
0.0
 27
1.0
 37
0.0
 76
     0
330
D6
331
2AF3
1001
ACAD_PSEXT
1000
Ninguno
1000
Ninguno
1000
No aplicable
1000
La presentación no se trazará a menos que se seleccione un nuevo nombre de configuración de trazador.
1070
     0
  0
MATERIAL
  5
ED
102
{ACAD_XDICTIONARY
360
1F9
102
}
102
{ACAD_REACTORS
330
6A
102
}
330
6A
100
AcDbMaterial
  1
ByBlock
 94
       63
  0
MATERIAL
  5
EC
102
{ACAD_XDICTIONARY
360
1F7
102
}
102
{ACAD_REACTORS
330
6A
102
}
330
6A
100
AcDbMaterial
  1
ByLayer
 94
       63
  0
MATERIAL
  5
EE
102
{ACAD_XDICTIONARY
360
173
102
}
102
{ACAD_REACTORS
330
6A
102
}
330
6A
100
AcDbMaterial
  1
Global
 43
0.0007999999797903
 43
0.0
 43
0.0
 43
0.0
 43
0.0
 43
0.0007999999797903
 43
0.0
 43
0.0
 43
0.0
 43
0.0
 43
1.0
 43
0.0
 43
0.0
 43
0.0
 43
0.0
 43
1.0
 49
0.0007999999797903
 49
0.0
 49
0.0
 49
0.0
 49
0.0
 49
0.0007999999797903
 49
0.0
 49
0.0
 49
0.0
 49
0.0
 49
1.0
 49
0.0
 49
0.0
 49
0.0
 49
0.0
 49
1.0
142
0.0007999999797903
142
0.0
142
0.0
142
0.0
142
0.0
142
0.0007999999797903
142
0.0
142
0.0
142
0.0
142
0.0
142
1.0
142
0.0
142
0.0
142
0.0
142
0.0
142
1.0
144
0.0007999999797903
144
0.0
144
0.0
144
0.0
144
0.0
144
0.0007999999797903
144
0.0
144
0.0
144
0.0
144
0.0
144
1.0
144
0.0
144
0.0
144
0.0
144
0.0
144
1.0
 94
       63
1001
ACAD
1070
    -1
1070
     3
1070
     0
1000

1071
        0
1070
     0
  0
MLEADERSTYLE
  5
13B
102
{ACAD_REACTORS
330
12D
102
}
330
12D
100
AcDbMLeaderStyle
179
     2
170
     2
171
     1
172
     0
 90
        2
 40
0.0
 41
0.0
173
     1
 91
-1056964608
340
14
 92
       -2
290
     1
 42
2.0
291
     1
 43
8.0
  3
Standard
 44
4.0
300

342
11
174
     1
178
     1
175
     1
176
     0
 93
-1056964608
 45
4.0
292
     0
297
     0
 46
4.0
 94
-1056964608
 47
1.0
 49
1.0
140
1.0
293
     1
141
0.0
294
     1
177
     0
142
1.0
295
     0
296
     1
143
3.75
271
     0
272
     9
273
     9
298
     0
  0
MLEADERSTYLE
  5
12E
102
{ACAD_REACTORS
330
12D
102
}
330
12D
100
AcDbMLeaderStyle
179
     2
170
     2
171
     1
172
     0
 90
        2
 40
0.0
 41
0.0
173
     1
 91
-1056964608
340
14
 92
       -2
290
     1
 42
2.0
291
     1
 43
8.0
  3
Standard
 44
4.0
300

342
11
174
     1
178
     1
175
     1
176
     0
 93
-1056964608
 45
4.0
292
     0
297
     0
 46
4.0
 94
-1056964608
 47
1.0
 49
1.0
140
1.0
293
     1
141
0.0
294
     1
177
     0
142
1.0
295
     0
296
     0
143
3.75
271
     0
272
     9
273
     9
298
     0
  0
MLINESTYLE
  5
18
102
{ACAD_REACTORS
330
17
102
}
330
17
100
AcDbMlineStyle
  2
STANDARD
 70
     0
  3

 62
   256
 51
90.0
 52
90.0
 71
     2
 49
0.5
 62
   256
  6
BYLAYER
 49
-0.5
 62
   256
  6
BYLAYER
  0
ACDBPLACEHOLDER
  5
F
102
{ACAD_REACTORS
330
E
102
}
330
E
  0
SCALE
  5
10D
102
{ACAD_REACTORS
330
10C
102
}
330
10C
100
AcDbScale
 70
     0
300
1:1
140
1.0
141
1.0
290
     1
  0
SCALE
  5
4B1
102
{ACAD_REACTORS
330
10C
102
}
330
10C
100
AcDbScale
 70
     0
300
1/100 eskala
140
1000.0
141
1.0
290
     0
  0
SCALE
  5
4B2
102
{ACAD_REACTORS
330
10C
102
}
330
10C
100
AcDbScale
 70
     0
300
1:2
140
1.0
141
2.0
290
     0
  0
SCALE
  5
4B3
102
{ACAD_REACTORS
330
10C
102
}
330
10C
100
AcDbScale
 70
     0
300
1:4
140
1.0
141
4.0
290
     0
  0
SCALE
  5
4B4
102
{ACAD_REACTORS
330
10C
102
}
330
10C
100
AcDbScale
 70
     0
300
1:5
140
1.0
141
5.0
290
     0
  0
SCALE
  5
4B5
102
{ACAD_REACTORS
330
10C
102
}
330
10C
100
AcDbScale
 70
     0
300
1:8
140
1.0
141
8.0
290
     0
  0
SCALE
  5
4B6
102
{ACAD_REACTORS
330
10C
102
}
330
10C
100
AcDbScale
 70
     0
300
1:10
140
1.0
141
10.0
290
     0
  0
SCALE
  5
4B7
102
{ACAD_REACTORS
330
10C
102
}
330
10C
100
AcDbScale
 70
     0
300
1:16
140
1.0
141
16.0
290
     0
  0
SCALE
  5
4B8
102
{ACAD_REACTORS
330
10C
102
}
330
10C
100
AcDbScale
 70
     0
300
1:20
140
1.0
141
20.0
290
     0
  0
SCALE
  5
4B9
102
{ACAD_REACTORS
330
10C
102
}
330
10C
100
AcDbScale
 70
     0
300
1:30
140
1.0
141
30.0
290
     0
  0
SCALE
  5
4BA
102
{ACAD_REACTORS
330
10C
102
}
330
10C
100
AcDbScale
 70
     0
300
1:40
140
1.0
141
40.0
290
     0
  0
SCALE
  5
4BB
102
{ACAD_REACTORS
330
10C
102
}
330
10C
100
AcDbScale
 70
     0
300
1:50
140
1.0
141
50.0
290
     0
  0
SCALE
  5
1C8
102
{ACAD_REACTORS
330
10C
102
}
330
10C
100
AcDbScale
 70
     0
300
1:100
140
1.0
141
100.0
290
     0
  0
SCALE
  5
4BC
102
{ACAD_REACTORS
330
10C
102
}
330
10C
100
AcDbScale
 70
     0
300
2:1
140
2.0
141
1.0
290
     0
  0
SCALE
  5
4BD
102
{ACAD_REACTORS
330
10C
102
}
330
10C
100
AcDbScale
 70
     0
300
4:1
140
4.0
141
1.0
290
     0
  0
SCALE
  5
4BE
102
{ACAD_REACTORS
330
10C
102
}
330
10C
100
AcDbScale
 70
     0
300
8:1
140
8.0
141
1.0
290
     0
  0
SCALE
  5
4BF
102
{ACAD_REACTORS
330
10C
102
}
330
10C
100
AcDbScale
 70
     0
300
10:1
140
10.0
141
1.0
290
     0
  0
SCALE
  5
4C0
102
{ACAD_REACTORS
330
10C
102
}
330
10C
100
AcDbScale
 70
     0
300
100:1
140
100.0
141
1.0
290
     0
  0
ACDBSECTIONVIEWSTYLE
  5
188E
102
{ACAD_XDICTIONARY
360
22E0
102
}
102
{ACAD_REACTORS
330
219
102
}
330
219
100
AcDbModelDocViewStyle
 70
     0
  3
Imperial24
290
     0
100
AcDbSectionViewStyle
 70
     0
 71
     0
 90
       78
 71
     1
340
11
 62
   256
 40
0.24
340
0
340
0
 62
   256
 40
0.24
300
I, O, Q, S, X, Z
 40
0.48
 90
        3
 40
0.18
 90
        1
 71
     2
340
16
 90
       25
 62
   256
340
16
 90
       50
 62
   256
 40
0.24
 40
0.0
 40
0.24
 71
     3
340
11
 62
   256
 40
0.24
 90
        1
 40
0.75
 90
        1
300
%<\AcVar ViewType \f "%tc1">% %<\AcVar ViewSectionStartId>%-%<\AcVar ViewSectionEndId>%\PESCALA %<\AcVar ViewScale \f "%sn">%
 71
     4
 62
   256
 62
   257
300
ANSI31
 40
1.0
 90
        0
290
     0
290
     0
 90
        6
 40
0.0
 40
1.570796326794896
 40
0.2617993877991494
 40
1.308996938995747
 40
-0.2617993877991494
 40
1.832595714594046
  0
ACDBSECTIONVIEWSTYLE
  5
21A
102
{ACAD_XDICTIONARY
360
234
102
}
102
{ACAD_REACTORS
330
219
102
}
330
219
100
AcDbModelDocViewStyle
 70
     0
  3
Metric50
290
     0
100
AcDbSectionViewStyle
 70
     0
 71
     0
 90
      102
 71
     1
340
11
 62
   256
 40
5.0
340
0
340
0
 62
   256
 40
5.0
300
I, O, Q, S, X, Z
 40
10.0
 90
        0
 40
2.5
 90
        0
 71
     2
340
16
 90
       25
 62
   256
340
16
 90
       50
 62
   256
 40
5.0
 40
2.5
 40
5.0
 71
     3
340
11
 62
   256
 40
5.0
 90
        0
 40
15.0
 90
        1
300
%<\AcVar ViewSectionStartId>%-%<\AcVar ViewSectionEndId>% (%<\AcVar ViewScale \f "%sn">%)
 71
     4
 62
   256
 62
   257
300
ANSI31
 40
1.0
 90
        0
290
     0
290
     0
 90
        6
 40
0.0
 40
1.570796326794896
 40
0.2617993877991494
 40
1.308996938995747
 40
-0.2617993877991494
 40
1.832595714594046
  0
TABLESTYLE
  5
7F
102
{ACAD_XDICTIONARY
360
162
102
}
102
{ACAD_REACTORS
330
7E
102
}
330
7E
100
AcDbTableStyle
280
     0
  3
Standard
 70
     0
 71
     0
 40
1.5
 41
1.5
280
     0
281
     0
  7
Standard
140
4.5
170
     2
 62
     0
 63
     7
283
     0
 90
      512
 91
        0
  1

274
    -2
284
     1
 64
     0
275
    -2
285
     1
 65
     0
276
    -2
286
     1
 66
     0
277
    -2
287
     1
 67
     0
278
    -2
288
     1
 68
     0
279
    -2
289
     1
 69
     0
  7
Standard
140
6.0
170
     5
 62
     0
 63
     7
283
     0
 90
      512
 91
        0
  1

274
    -2
284
     1
 64
     0
275
    -2
285
     1
 65
     0
276
    -2
286
     1
 66
     0
277
    -2
287
     1
 67
     0
278
    -2
288
     1
 68
     0
279
    -2
289
     1
 69
     0
  7
Standard
140
4.5
170
     5
 62
     0
 63
     7
283
     0
 90
      512
 91
        0
  1

274
    -2
284
     1
 64
     0
275
    -2
285
     1
 65
     0
276
    -2
286
     1
 66
     0
277
    -2
287
     1
 67
     0
278
    -2
288
     1
 68
     0
279
    -2
289
     1
 69
     0
  0
VISUALSTYLE
  5
F5
102
{ACAD_REACTORS
330
EF
102
}
330
EF
100
AcDbVisualStyle
  2
2dWireframe
 70
     4
177
     3
291
     0
 70
    58
 90
        0
176
     1
 90
        2
176
     1
 90
        1
176
     1
 90
        0
176
     1
 40
0.6
176
     1
 40
30.0
176
     1
 62
     7
420
 16777215
176
     1
 90
        1
176
     1
 90
        4
176
     1
 62
     7
176
     1
 62
   257
176
     1
 90
        1
176
     1
 90
        1
176
     1
 40
1.0
176
     1
 90
        0
176
     1
 62
   257
176
     1
 40
1.0
176
     1
 90
        1
176
     1
 90
        6
176
     1
 90
        2
176
     1
 62
     7
176
     1
 90
        5
176
     1
 90
        0
176
     1
 90
        0
176
     1
290
     0
176
     1
 90
        1
176
     1
 40
0.0
176
     1
 90
        0
176
     1
290
     1
176
     1
290
     1
176
     1
290
     0
176
     1
290
     0
176
     1
290
     0
176
     1
290
     0
176
     1
290
     0
176
     1
290
     0
176
     1
290
     0
176
     1
 90
       50
176
     1
 40
0.0
176
     1
 40
1.0
176
     1
 90
        0
176
     1
 62
    18
420
        0
176
     1
 90
       50
176
     1
 90
        3
176
     1
 62
     5
420
      255
176
     1
290
     0
176
     1
 90
       50
176
     1
 90
       50
176
     1
 90
       50
176
     1
290
     0
176
     1
 90
       50
176
     1
 62
   256
176
     0
 40
1.0
176
     0
 90
        2
176
     1
  1
strokes_ogs.tif
176
     1
290
     0
176
     1
 40
1.0
176
     1
 40
1.0
176
     1
  0
VISUALSTYLE
  5
F4
102
{ACAD_REACTORS
330
EF
102
}
330
EF
100
AcDbVisualStyle
  2
Basic
 70
     7
177
     3
291
     1
 70
    58
 90
        1
176
     1
 90
        0
176
     1
 90
        1
176
     1
 90
        0
176
     1
 40
0.6
176
     1
 40
30.0
176
     1
 62
     7
420
 16777215
176
     1
 90
        0
176
     1
 90
        4
176
     1
 62
     7
176
     1
 62
   257
176
     1
 90
        1
176
     1
 90
        1
176
     1
 40
1.0
176
     1
 90
        8
176
     1
 62
     7
176
     1
 40
1.0
176
     1
 90
        1
176
     1
 90
        6
176
     1
 90
        2
176
     1
 62
     7
176
     1
 90
        5
176
     1
 90
        0
176
     1
 90
        0
176
     1
290
     0
176
     1
 90
        1
176
     1
 40
0.0
176
     1
 90
        0
176
     1
290
     0
176
     1
290
     1
176
     1
290
     1
176
     1
290
     0
176
     1
290
     0
176
     1
290
     0
176
     1
290
     0
176
     1
290
     0
176
     1
290
     0
176
     1
 90
       50
176
     1
 40
0.0
176
     1
 40
1.0
176
     1
 90
        0
176
     1
 62
    18
420
        0
176
     1
 90
       50
176
     1
 90
        3
176
     1
 62
     5
420
      255
176
     1
290
     0
176
     1
 90
       50
176
     1
 90
       50
176
     1
 90
       50
176
     1
290
     0
176
     1
 90
       50
176
     1
 62
   256
176
     0
 40
1.0
176
     0
 90
        2
176
     1
  1
strokes_ogs.tif
176
     1
290
     0
176
     1
 40
1.0
176
     1
 40
1.0
176
     1
  0
VISUALSTYLE
  5
FB
102
{ACAD_REACTORS
330
EF
102
}
330
EF
100
AcDbVisualStyle
  2
Brighten
 70
    12
177
     3
291
     1
 70
    58
 90
        2
176
     1
 90
        2
176
     1
 90
        1
176
     1
 90
        0
176
     1
 40
0.6
176
     1
 40
30.0
176
     1
 62
     7
420
 16777215
176
     1
 90
        1
176
     1
 90
        4
176
     1
 62
     7
176
     1
 62
   257
176
     1
 90
        1
176
     1
 90
        1
176
     1
 40
1.0
176
     1
 90
        8
176
     1
 62
     7
176
     1
 40
1.0
176
     1
 90
        1
176
     1
 90
        6
176
     1
 90
        2
176
     1
 62
     7
176
     1
 90
        5
176
     1
 90
        0
176
     1
 90
        0
176
     1
290
     0
176
     1
 90
        1
176
     1
 40
50.0
176
     1
 90
        0
176
     1
290
     0
176
     1
290
     1
176
     1
290
     1
176
     1
290
     0
176
     1
290
     0
176
     1
290
     0
176
     1
290
     0
176
     1
290
     0
176
     1
290
     0
176
     1
 90
       50
176
     1
 40
0.0
176
     1
 40
1.0
176
     1
 90
        0
176
     1
 62
    18
420
        0
176
     1
 90
       50
176
     1
 90
        3
176
     1
 62
     5
420
      255
176
     1
290
     0
176
     1
 90
       50
176
     1
 90
       50
176
     1
 90
       50
176
     1
290
     0
176
     1
 90
       50
176
     1
 62
   256
176
     0
 40
1.0
176
     0
 90
        2
176
     1
  1
strokes_ogs.tif
176
     1
290
     0
176
     1
 40
1.0
176
     1
 40
1.0
176
     1
  0
VISUALSTYLE
  5
FF
102
{ACAD_REACTORS
330
EF
102
}
330
EF
100
AcDbVisualStyle
  2
ColorChange
 70
    16
177
     3
291
     1
 70
    58
 90
        2
176
     1
 90
        2
176
     1
 90
        3
176
     1
 90
        0
176
     1
 40
0.6
176
     1
 40
30.0
176
     1
 62
     8
420
  8421504
176
     1
 90
        1
176
     1
 90
        4
176
     1
 62
     7
176
     1
 62
   257
176
     1
 90
        1
176
     1
 90
        1
176
     1
 40
1.0
176
     1
 90
        8
176
     1
 62
     8
420
  8421504
176
     1
 40
1.0
176
     1
 90
        1
176
     1
 90
        6
176
     1
 90
        2
176
     1
 62
     7
176
     1
 90
        5
176
     1
 90
        0
176
     1
 90
        0
176
     1
290
     0
176
     1
 90
        1
176
     1
 40
0.0
176
     1
 90
        0
176
     1
290
     0
176
     1
290
     1
176
     1
290
     1
176
     1
290
     0
176
     1
290
     0
176
     1
290
     0
176
     1
290
     0
176
     1
290
     0
176
     1
290
     0
176
     1
 90
       50
176
     1
 40
0.0
176
     1
 40
1.0
176
     1
 90
        0
176
     1
 62
    18
420
        0
176
     1
 90
       50
176
     1
 90
        3
176
     1
 62
     5
420
      255
176
     1
290
     0
176
     1
 90
       50
176
     1
 90
       50
176
     1
 90
       50
176
     1
290
     0
176
     1
 90
       50
176
     1
 62
   256
176
     0
 40
1.0
176
     0
 90
        2
176
     1
  1
strokes_ogs.tif
176
     1
290
     0
176
     1
 40
1.0
176
     1
 40
1.0
176
     1
  0
VISUALSTYLE
  5
F8
102
{ACAD_REACTORS
330
EF
102
}
330
EF
100
AcDbVisualStyle
  2
Conceptual
 70
     9
177
     3
291
     0
 70
    58
 90
        3
176
     1
 90
        2
176
     1
 90
        1
176
     1
 90
        0
176
     1
 40
0.6
176
     1
 40
30.0
176
     1
 62
     7
420
 16777215
176
     1
 90
        2
176
     1
 90
        2
176
     1
 62
     7
176
     1
 62
   257
176
     1
 90
        1
176
     1
 90
        1
176
     1
 40
40.0
176
     1
 90
        8
176
     1
 62
     7
176
     1
 40
1.0
176
     1
 90
        1
176
     1
 90
        6
176
     1
 90
        2
176
     1
 62
     7
176
     1
 90
        3
176
     1
 90
        0
176
     1
 90
        0
176
     1
290
     0
176
     1
 90
        1
176
     1
 40
0.0
176
     1
 90
        0
176
     1
290
     0
176
     1
290
     1
176
     1
290
     1
176
     1
290
     0
176
     1
290
     0
176
     1
290
     0
176
     1
290
     0
176
     1
290
     0
176
     1
290
     0
176
     1
 90
       50
176
     1
 40
0.0
176
     1
 40
1.0
176
     1
 90
        0
176
     1
 62
    18
420
        0
176
     1
 90
       50
176
     1
 90
        3
176
     1
 62
     5
420
      255
176
     1
290
     0
176
     1
 90
       50
176
     1
 90
       50
176
     1
 90
       50
176
     1
290
     0
176
     1
 90
       50
176
     1
 62
   256
176
     0
 40
1.0
176
     0
 90
        2
176
     1
  1
strokes_ogs.tif
176
     1
290
     0
176
     1
 40
1.0
176
     1
 40
1.0
176
     1
  0
VISUALSTYLE
  5
FA
102
{ACAD_REACTORS
330
EF
102
}
330
EF
100
AcDbVisualStyle
  2
Dim
 70
    11
177
     3
291
     1
 70
    58
 90
        2
176
     1
 90
        2
176
     1
 90
        1
176
     1
 90
        0
176
     1
 40
0.6
176
     1
 40
30.0
176
     1
 62
     7
420
 16777215
176
     1
 90
        1
176
     1
 90
        4
176
     1
 62
     7
176
     1
 62
   257
176
     1
 90
        1
176
     1
 90
        1
176
     1
 40
1.0
176
     1
 90
        8
176
     1
 62
     7
176
     1
 40
1.0
176
     1
 90
        1
176
     1
 90
        6
176
     1
 90
        2
176
     1
 62
     7
176
     1
 90
        5
176
     1
 90
        0
176
     1
 90
        0
176
     1
290
     0
176
     1
 90
        1
176
     1
 40
-50.0
176
     1
 90
        0
176
     1
290
     0
176
     1
290
     1
176
     1
290
     1
176
     1
290
     0
176
     1
290
     0
176
     1
290
     0
176
     1
290
     0
176
     1
290
     0
176
     1
290
     0
176
     1
 90
       50
176
     1
 40
0.0
176
     1
 40
1.0
176
     1
 90
        0
176
     1
 62
    18
420
        0
176
     1
 90
       50
176
     1
 90
        3
176
     1
 62
     5
420
      255
176
     1
290
     0
176
     1
 90
       50
176
     1
 90
       50
176
     1
 90
       50
176
     1
290
     0
176
     1
 90
       50
176
     1
 62
   256
176
     0
 40
1.0
176
     0
 90
        2
176
     1
  1
strokes_ogs.tif
176
     1
290
     0
176
     1
 40
1.0
176
     1
 40
1.0
176
     1
  0
VISUALSTYLE
  5
1E6
102
{ACAD_REACTORS
330
EF
102
}
330
EF
100
AcDbVisualStyle
  2
EdgeColorOff
 70
    22
177
     3
291
     1
 70
    58
 90
        2
176
     0
 90
        2
176
     0
 90
        0
176
     0
 90
        0
176
     0
 40
0.6
176
     0
 40
30.0
176
     0
 62
     7
420
 16777215
176
     0
 90
        1
176
     0
 90
        4
176
     0
 62
     7
176
     0
 62
   257
176
     0
 90
        1
176
     0
 90
        1
176
     0
 40
1.0
176
     0
 90
        8
176
     2
 62
     7
176
     0
 40
1.0
176
     0
 90
        1
176
     0
 90
        6
176
     0
 90
        2
176
     0
 62
     7
176
     0
 90
        5
176
     0
 90
        0
176
     0
 90
        0
176
     0
290
     0
176
     0
 90
        1
176
     0
 40
0.0
176
     0
 90
        0
176
     0
290
     0
176
     1
290
     1
176
     1
290
     1
176
     1
290
     0
176
     1
290
     0
176
     1
290
     0
176
     1
290
     0
176
     1
290
     0
176
     1
290
     0
176
     1
 90
       50
176
     1
 40
0.0
176
     1
 40
1.0
176
     1
 90
        0
176
     1
 62
    18
420
        0
176
     1
 90
       50
176
     1
 90
        3
176
     1
 62
     5
420
      255
176
     1
290
     0
176
     1
 90
       50
176
     1
 90
       50
176
     1
 90
       50
176
     1
290
     0
176
     1
 90
       50
176
     1
 62
   256
176
     0
 40
1.0
176
     0
 90
        2
176
     1
  1
strokes_ogs.tif
176
     1
290
     0
176
     1
 40
1.0
176
     1
 40
1.0
176
     1
  0
VISUALSTYLE
  5
FE
102
{ACAD_REACTORS
330
EF
102
}
330
EF
100
AcDbVisualStyle
  2
Facepattern
 70
    15
177
     3
291
     1
 70
    58
 90
        2
176
     1
 90
        2
176
     1
 90
        1
176
     1
 90
        0
176
     1
 40
0.6
176
     1
 40
30.0
176
     1
 62
     7
420
 16777215
176
     1
 90
        1
176
     1
 90
        4
176
     1
 62
     7
176
     1
 62
   257
176
     1
 90
        1
176
     1
 90
        1
176
     1
 40
1.0
176
     1
 90
        8
176
     1
 62
     7
176
     1
 40
1.0
176
     1
 90
        1
176
     1
 90
        6
176
     1
 90
        2
176
     1
 62
     7
176
     1
 90
        5
176
     1
 90
        0
176
     1
 90
        0
176
     1
290
     0
176
     1
 90
        1
176
     1
 40
0.0
176
     1
 90
        0
176
     1
290
     0
176
     1
290
     1
176
     1
290
     1
176
     1
290
     0
176
     1
290
     0
176
     1
290
     0
176
     1
290
     0
176
     1
290
     0
176
     1
290
     0
176
     1
 90
       50
176
     1
 40
0.0
176
     1
 40
1.0
176
     1
 90
        0
176
     1
 62
    18
420
        0
176
     1
 90
       50
176
     1
 90
        3
176
     1
 62
     5
420
      255
176
     1
290
     0
176
     1
 90
       50
176
     1
 90
       50
176
     1
 90
       50
176
     1
290
     0
176
     1
 90
       50
176
     1
 62
   256
176
     0
 40
1.0
176
     0
 90
        2
176
     1
  1
strokes_ogs.tif
176
     1
290
     0
176
     1
 40
1.0
176
     1
 40
1.0
176
     1
  0
VISUALSTYLE
  5
F0
102
{ACAD_REACTORS
330
EF
102
}
330
EF
100
AcDbVisualStyle
  2
Flat
 70
     0
177
     3
291
     1
 70
    58
 90
        2
176
     1
 90
        1
176
     1
 90
        1
176
     1
 90
        2
176
     1
 40
0.6
176
     1
 40
30.0
176
     1
 62
     7
420
 16777215
176
     1
 90
        0
176
     1
 90
        0
176
     1
 62
     7
176
     1
 62
   257
176
     1
 90
        1
176
     1
 90
        1
176
     1
 40
1.0
176
     1
 90
        8
176
     1
 62
     7
176
     1
 40
1.0
176
     1
 90
        1
176
     1
 90
        6
176
     1
 90
        2
176
     1
 62
     7
176
     1
 90
        5
176
     1
 90
        0
176
     1
 90
        0
176
     1
290
     0
176
     1
 90
       13
176
     1
 40
0.0
176
     1
 90
        0
176
     1
290
     0
176
     1
290
     1
176
     1
290
     1
176
     1
290
     0
176
     1
290
     0
176
     1
290
     0
176
     1
290
     0
176
     1
290
     0
176
     1
290
     0
176
     1
 90
       50
176
     1
 40
0.0
176
     1
 40
1.0
176
     1
 90
        0
176
     1
 62
    18
420
        0
176
     1
 90
       50
176
     1
 90
        3
176
     1
 62
     5
420
      255
176
     1
290
     0
176
     1
 90
       50
176
     1
 90
       50
176
     1
 90
       50
176
     1
290
     0
176
     1
 90
       50
176
     1
 62
   256
176
     0
 40
1.0
176
     0
 90
        2
176
     1
  1
strokes_ogs.tif
176
     1
290
     0
176
     1
 40
1.0
176
     1
 40
1.0
176
     1
  0
VISUALSTYLE
  5
F1
102
{ACAD_REACTORS
330
EF
102
}
330
EF
100
AcDbVisualStyle
  2
FlatWithEdges
 70
     1
177
     3
291
     1
 70
    58
 90
        2
176
     1
 90
        1
176
     1
 90
        1
176
     1
 90
        2
176
     1
 40
0.6
176
     1
 40
30.0
176
     1
 62
     7
420
 16777215
176
     1
 90
        1
176
     1
 90
        0
176
     1
 62
     7
176
     1
 62
   257
176
     1
 90
        1
176
     1
 90
        1
176
     1
 40
1.0
176
     1
 90
        0
176
     1
 62
   257
176
     1
 40
1.0
176
     1
 90
        1
176
     1
 90
        6
176
     1
 90
        2
176
     1
 62
     7
176
     1
 90
        5
176
     1
 90
        0
176
     1
 90
        0
176
     1
290
     0
176
     1
 90
       13
176
     1
 40
0.0
176
     1
 90
        0
176
     1
290
     0
176
     1
290
     1
176
     1
290
     1
176
     1
290
     0
176
     1
290
     0
176
     1
290
     0
176
     1
290
     0
176
     1
290
     0
176
     1
290
     0
176
     1
 90
       50
176
     1
 40
0.0
176
     1
 40
1.0
176
     1
 90
        0
176
     1
 62
    18
420
        0
176
     1
 90
       50
176
     1
 90
        3
176
     1
 62
     5
420
      255
176
     1
290
     0
176
     1
 90
       50
176
     1
 90
       50
176
     1
 90
       50
176
     1
290
     0
176
     1
 90
       50
176
     1
 62
   256
176
     0
 40
1.0
176
     0
 90
        2
176
     1
  1
strokes_ogs.tif
176
     1
290
     0
176
     1
 40
1.0
176
     1
 40
1.0
176
     1
  0
VISUALSTYLE
  5
F2
102
{ACAD_REACTORS
330
EF
102
}
330
EF
100
AcDbVisualStyle
  2
Gouraud
 70
     2
177
     3
291
     1
 70
    58
 90
        2
176
     1
 90
        2
176
     1
 90
        1
176
     1
 90
        2
176
     1
 40
0.6
176
     1
 40
30.0
176
     1
 62
     7
420
 16777215
176
     1
 90
        0
176
     1
 90
        0
176
     1
 62
     7
176
     1
 62
   257
176
     1
 90
        1
176
     1
 90
        1
176
     1
 40
1.0
176
     1
 90
        0
176
     1
 62
     7
176
     1
 40
1.0
176
     1
 90
        1
176
     1
 90
        6
176
     1
 90
        2
176
     1
 62
     7
176
     1
 90
        5
176
     1
 90
        0
176
     1
 90
        0
176
     1
290
     0
176
     1
 90
       13
176
     1
 40
0.0
176
     1
 90
        0
176
     1
290
     0
176
     1
290
     1
176
     1
290
     1
176
     1
290
     0
176
     1
290
     0
176
     1
290
     0
176
     1
290
     0
176
     1
290
     0
176
     1
290
     0
176
     1
 90
       50
176
     1
 40
0.0
176
     1
 40
1.0
176
     1
 90
        0
176
     1
 62
    18
420
        0
176
     1
 90
       50
176
     1
 90
        3
176
     1
 62
     5
420
      255
176
     1
290
     0
176
     1
 90
       50
176
     1
 90
       50
176
     1
 90
       50
176
     1
290
     0
176
     1
 90
       50
176
     1
 62
   256
176
     0
 40
1.0
176
     0
 90
        2
176
     1
  1
strokes_ogs.tif
176
     1
290
     0
176
     1
 40
1.0
176
     1
 40
1.0
176
     1
  0
VISUALSTYLE
  5
F3
102
{ACAD_REACTORS
330
EF
102
}
330
EF
100
AcDbVisualStyle
  2
GouraudWithEdges
 70
     3
177
     3
291
     1
 70
    58
 90
        2
176
     1
 90
        2
176
     1
 90
        1
176
     1
 90
        2
176
     1
 40
0.6
176
     1
 40
30.0
176
     1
 62
     7
420
 16777215
176
     1
 90
        1
176
     1
 90
        0
176
     1
 62
     7
176
     1
 62
   257
176
     1
 90
        1
176
     1
 90
        1
176
     1
 40
1.0
176
     1
 90
        0
176
     1
 62
   257
176
     1
 40
1.0
176
     1
 90
        1
176
     1
 90
        6
176
     1
 90
        2
176
     1
 62
     7
176
     1
 90
        5
176
     1
 90
        0
176
     1
 90
        0
176
     1
290
     0
176
     1
 90
       13
176
     1
 40
0.0
176
     1
 90
        0
176
     1
290
     0
176
     1
290
     1
176
     1
290
     1
176
     1
290
     0
176
     1
290
     0
176
     1
290
     0
176
     1
290
     0
176
     1
290
     0
176
     1
290
     0
176
     1
 90
       50
176
     1
 40
0.0
176
     1
 40
1.0
176
     1
 90
        0
176
     1
 62
    18
420
        0
176
     1
 90
       50
176
     1
 90
        3
176
     1
 62
     5
420
      255
176
     1
290
     0
176
     1
 90
       50
176
     1
 90
       50
176
     1
 90
       50
176
     1
290
     0
176
     1
 90
       50
176
     1
 62
   256
176
     0
 40
1.0
176
     0
 90
        2
176
     1
  1
strokes_ogs.tif
176
     1
290
     0
176
     1
 40
1.0
176
     1
 40
1.0
176
     1
  0
VISUALSTYLE
  5
F7
102
{ACAD_REACTORS
330
EF
102
}
330
EF
100
AcDbVisualStyle
  2
Hidden
 70
     6
177
     3
291
     0
 70
    58
 90
        1
176
     1
 90
        2
176
     1
 90
        2
176
     1
 90
        0
176
     1
 40
0.6
176
     1
 40
30.0
176
     1
 62
     7
420
 16777215
176
     1
 90
        2
176
     1
 90
        2
176
     1
 62
     7
176
     1
 62
   257
176
     1
 90
        2
176
     1
 90
        1
176
     1
 40
40.0
176
     1
 90
        0
176
     1
 62
   257
176
     1
 40
1.0
176
     1
 90
        1
176
     1
 90
        6
176
     1
 90
        2
176
     1
 62
     7
176
     1
 90
        3
176
     1
 90
        0
176
     1
 90
        0
176
     1
290
     0
176
     1
 90
        1
176
     1
 40
0.0
176
     1
 90
        0
176
     1
290
     0
176
     1
290
     1
176
     1
290
     1
176
     1
290
     0
176
     1
290
     0
176
     1
290
     0
176
     1
290
     0
176
     1
290
     0
176
     1
290
     0
176
     1
 90
       50
176
     1
 40
0.0
176
     1
 40
1.0
176
     1
 90
        0
176
     1
 62
    18
420
        0
176
     1
 90
       50
176
     1
 90
        3
176
     1
 62
     5
420
      255
176
     1
290
     0
176
     1
 90
       50
176
     1
 90
       50
176
     1
 90
       50
176
     1
290
     0
176
     1
 90
       50
176
     1
 62
   256
176
     0
 40
1.0
176
     0
 90
        2
176
     1
  1
strokes_ogs.tif
176
     1
290
     0
176
     1
 40
1.0
176
     1
 40
1.0
176
     1
  0
VISUALSTYLE
  5
1E4
102
{ACAD_REACTORS
330
EF
102
}
330
EF
100
AcDbVisualStyle
  2
JitterOff
 70
    20
177
     3
291
     1
 70
    58
 90
        2
176
     0
 90
        2
176
     0
 90
        0
176
     0
 90
        0
176
     0
 40
0.6
176
     0
 40
30.0
176
     0
 62
     7
420
 16777215
176
     0
 90
        1
176
     0
 90
        4
176
     0
 62
     7
176
     0
 62
   257
176
     0
 90
        1
176
     0
 90
        1
176
     0
 40
1.0
176
     0
 90
       10
176
     2
 62
     7
176
     0
 40
1.0
176
     0
 90
        1
176
     0
 90
        6
176
     0
 90
        2
176
     0
 62
     7
176
     0
 90
        5
176
     0
 90
        0
176
     0
 90
        0
176
     0
290
     0
176
     0
 90
        1
176
     0
 40
0.0
176
     0
 90
        0
176
     0
290
     0
176
     1
290
     1
176
     1
290
     1
176
     1
290
     0
176
     1
290
     0
176
     1
290
     0
176
     1
290
     0
176
     1
290
     0
176
     1
290
     0
176
     1
 90
       50
176
     1
 40
0.0
176
     1
 40
1.0
176
     1
 90
        0
176
     1
 62
    18
420
        0
176
     1
 90
       50
176
     1
 90
        3
176
     1
 62
     5
420
      255
176
     1
290
     0
176
     1
 90
       50
176
     1
 90
       50
176
     1
 90
       50
176
     1
290
     0
176
     1
 90
       50
176
     1
 62
   256
176
     0
 40
1.0
176
     0
 90
        2
176
     1
  1
strokes_ogs.tif
176
     1
290
     0
176
     1
 40
1.0
176
     1
 40
1.0
176
     1
  0
VISUALSTYLE
  5
FD
102
{ACAD_REACTORS
330
EF
102
}
330
EF
100
AcDbVisualStyle
  2
Linepattern
 70
    14
177
     3
291
     1
 70
    58
 90
        2
176
     1
 90
        2
176
     1
 90
        1
176
     1
 90
        0
176
     1
 40
0.6
176
     1
 40
30.0
176
     1
 62
     7
420
 16777215
176
     1
 90
        1
176
     1
 90
        4
176
     1
 62
     7
176
     1
 62
   257
176
     1
 90
        7
176
     1
 90
        7
176
     1
 40
1.0
176
     1
 90
        8
176
     1
 62
     7
176
     1
 40
1.0
176
     1
 90
        1
176
     1
 90
        6
176
     1
 90
        2
176
     1
 62
     7
176
     1
 90
        5
176
     1
 90
        0
176
     1
 90
        0
176
     1
290
     0
176
     1
 90
        1
176
     1
 40
0.0
176
     1
 90
        0
176
     1
290
     0
176
     1
290
     1
176
     1
290
     1
176
     1
290
     0
176
     1
290
     0
176
     1
290
     0
176
     1
290
     0
176
     1
290
     0
176
     1
290
     0
176
     1
 90
       50
176
     1
 40
0.0
176
     1
 40
1.0
176
     1
 90
        0
176
     1
 62
    18
420
        0
176
     1
 90
       50
176
     1
 90
        3
176
     1
 62
     5
420
      255
176
     1
290
     0
176
     1
 90
       50
176
     1
 90
       50
176
     1
 90
       50
176
     1
290
     0
176
     1
 90
       50
176
     1
 62
   256
176
     0
 40
1.0
176
     0
 90
        2
176
     1
  1
strokes_ogs.tif
176
     1
290
     0
176
     1
 40
1.0
176
     1
 40
1.0
176
     1
  0
VISUALSTYLE
  5
1E5
102
{ACAD_REACTORS
330
EF
102
}
330
EF
100
AcDbVisualStyle
  2
OverhangOff
 70
    21
177
     3
291
     1
 70
    58
 90
        2
176
     0
 90
        2
176
     0
 90
        0
176
     0
 90
        0
176
     0
 40
0.6
176
     0
 40
30.0
176
     0
 62
     7
420
 16777215
176
     0
 90
        1
176
     0
 90
        4
176
     0
 62
     7
176
     0
 62
   257
176
     0
 90
        1
176
     0
 90
        1
176
     0
 40
1.0
176
     0
 90
        9
176
     2
 62
     7
176
     0
 40
1.0
176
     0
 90
        1
176
     0
 90
        6
176
     0
 90
        2
176
     0
 62
     7
176
     0
 90
        5
176
     0
 90
        0
176
     0
 90
        0
176
     0
290
     0
176
     0
 90
        1
176
     0
 40
0.0
176
     0
 90
        0
176
     0
290
     0
176
     1
290
     1
176
     1
290
     1
176
     1
290
     0
176
     1
290
     0
176
     1
290
     0
176
     1
290
     0
176
     1
290
     0
176
     1
290
     0
176
     1
 90
       50
176
     1
 40
0.0
176
     1
 40
1.0
176
     1
 90
        0
176
     1
 62
    18
420
        0
176
     1
 90
       50
176
     1
 90
        3
176
     1
 62
     5
420
      255
176
     1
290
     0
176
     1
 90
       50
176
     1
 90
       50
176
     1
 90
       50
176
     1
290
     0
176
     1
 90
       50
176
     1
 62
   256
176
     0
 40
1.0
176
     0
 90
        2
176
     1
  1
strokes_ogs.tif
176
     1
290
     0
176
     1
 40
1.0
176
     1
 40
1.0
176
     1
  0
VISUALSTYLE
  5
F9
102
{ACAD_REACTORS
330
EF
102
}
330
EF
100
AcDbVisualStyle
  2
Realistic
 70
     8
177
     3
291
     0
 70
    58
 90
        2
176
     1
 90
        3
176
     1
 90
        0
176
     1
 90
        2
176
     1
 40
0.6
176
     1
 40
30.0
176
     1
 62
     7
420
 16777215
176
     1
 90
        0
176
     1
 90
        0
176
     1
 62
     7
176
     1
 62
   257
176
     1
 90
        1
176
     1
 90
        1
176
     1
 40
1.0
176
     1
 90
        8
176
     1
 62
   257
176
     1
 40
1.0
176
     1
 90
        1
176
     1
 90
        6
176
     1
 90
        2
176
     1
 62
     7
176
     1
 90
        3
176
     1
 90
        0
176
     1
 90
        0
176
     1
290
     0
176
     1
 90
       13
176
     1
 40
0.0
176
     1
 90
        0
176
     1
290
     0
176
     1
290
     1
176
     1
290
     1
176
     1
290
     0
176
     1
290
     0
176
     1
290
     0
176
     1
290
     0
176
     1
290
     0
176
     1
290
     0
176
     1
 90
       50
176
     1
 40
0.0
176
     1
 40
1.0
176
     1
 90
        0
176
     1
 62
    18
420
        0
176
     1
 90
       50
176
     1
 90
        3
176
     1
 62
     5
420
      255
176
     1
290
     0
176
     1
 90
       50
176
     1
 90
       50
176
     1
 90
       50
176
     1
290
     0
176
     1
 90
       50
176
     1
 62
   256
176
     0
 40
1.0
176
     0
 90
        2
176
     1
  1
strokes_ogs.tif
176
     1
290
     0
176
     1
 40
1.0
176
     1
 40
1.0
176
     1
  0
VISUALSTYLE
  5
1F3
102
{ACAD_REACTORS
330
EF
102
}
330
EF
100
AcDbVisualStyle
  2
Shaded
 70
    27
177
     3
291
     0
 70
    58
 90
        2
176
     1
 90
        2
176
     1
 90
        1
176
     1
 90
        2
176
     1
 40
0.6
176
     1
 40
30.0
176
     1
 62
     7
420
 16777215
176
     1
 90
        0
176
     1
 90
        4
176
     1
 62
     7
176
     1
 62
   257
176
     1
 90
        1
176
     1
 90
        1
176
     1
 40
1.0
176
     1
 90
        8
176
     1
 62
   257
176
     1
 40
1.0
176
     1
 90
        1
176
     1
 90
        6
176
     1
 90
        2
176
     1
 62
     8
420
  7895160
176
     1
 90
        3
176
     1
 90
        0
176
     1
 90
        0
176
     1
290
     0
176
     1
 90
        5
176
     1
 40
0.0
176
     1
 90
        0
176
     1
290
     0
176
     1
290
     1
176
     1
290
     1
176
     1
290
     0
176
     1
290
     0
176
     1
290
     0
176
     1
290
     0
176
     1
290
     0
176
     1
290
     0
176
     1
 90
       50
176
     1
 40
0.0
176
     1
 40
1.0
176
     1
 90
        0
176
     1
 62
    18
420
        0
176
     1
 90
       50
176
     1
 90
        3
176
     1
 62
     5
420
      255
176
     1
290
     0
176
     1
 90
       50
176
     1
 90
       50
176
     1
 90
       50
176
     1
290
     0
176
     1
 90
       50
176
     1
 62
   256
176
     0
 40
1.0
176
     0
 90
        2
176
     1
  1
strokes_ogs.tif
176
     1
290
     0
176
     1
 40
1.0
176
     1
 40
1.0
176
     1
  0
VISUALSTYLE
  5
1F2
102
{ACAD_REACTORS
330
EF
102
}
330
EF
100
AcDbVisualStyle
  2
Shaded with edges
 70
    26
177
     3
291
     0
 70
    58
 90
        2
176
     1
 90
        2
176
     1
 90
        1
176
     1
 90
        2
176
     1
 40
0.6
176
     1
 40
30.0
176
     1
 62
     7
420
 16777215
176
     1
 90
        1
176
     1
 90
       10
176
     1
 62
     7
176
     1
 62
   257
176
     1
 90
        2
176
     1
 90
        1
176
     1
 40
1.0
176
     1
 90
        8
176
     1
 62
   257
176
     1
 40
1.0
176
     1
 90
        1
176
     1
 90
        6
176
     1
 90
        2
176
     1
 62
     7
176
     1
 90
        3
176
     1
 90
        0
176
     1
 90
        0
176
     1
290
     0
176
     1
 90
        5
176
     1
 40
0.0
176
     1
 90
        0
176
     1
290
     0
176
     1
290
     1
176
     1
290
     1
176
     1
290
     0
176
     1
290
     0
176
     1
290
     0
176
     1
290
     0
176
     1
290
     0
176
     1
290
     0
176
     1
 90
       50
176
     1
 40
0.0
176
     1
 40
1.0
176
     1
 90
        0
176
     1
 62
    18
420
        0
176
     1
 90
       50
176
     1
 90
        3
176
     1
 62
     5
420
      255
176
     1
290
     0
176
     1
 90
       50
176
     1
 90
       50
176
     1
 90
       50
176
     1
290
     0
176
     1
 90
       50
176
     1
 62
   256
176
     0
 40
1.0
176
     0
 90
        2
176
     1
  1
strokes_ogs.tif
176
     1
290
     0
176
     1
 40
1.0
176
     1
 40
1.0
176
     1
  0
VISUALSTYLE
  5
1EF
102
{ACAD_REACTORS
330
EF
102
}
330
EF
100
AcDbVisualStyle
  2
Shades of Gray
 70
    23
177
     3
291
     0
 70
    58
 90
        2
176
     1
 90
        2
176
     1
 90
        3
176
     1
 90
        0
176
     1
 40
0.6
176
     1
 40
30.0
176
     1
 62
     7
420
 16777215
176
     1
 90
        2
176
     1
 90
        2
176
     1
 62
     7
176
     1
 62
     7
176
     1
 90
        1
176
     1
 90
        1
176
     1
 40
40.0
176
     1
 90
        8
176
     1
 62
     7
176
     1
 40
1.0
176
     1
 90
        1
176
     1
 90
        6
176
     1
 90
        2
176
     1
 62
     7
176
     1
 90
        3
176
     1
 90
        0
176
     1
 90
        0
176
     1
290
     0
176
     1
 90
        1
176
     1
 40
0.0
176
     1
 90
        0
176
     1
290
     0
176
     1
290
     1
176
     1
290
     1
176
     1
290
     0
176
     1
290
     0
176
     1
290
     0
176
     1
290
     0
176
     1
290
     0
176
     1
290
     0
176
     1
 90
       50
176
     1
 40
0.0
176
     1
 40
1.0
176
     1
 90
        0
176
     1
 62
    18
420
        0
176
     1
 90
       50
176
     1
 90
        3
176
     1
 62
     5
420
      255
176
     1
290
     0
176
     1
 90
       50
176
     1
 90
       50
176
     1
 90
       50
176
     1
290
     0
176
     1
 90
       50
176
     1
 62
   256
176
     0
 40
1.0
176
     0
 90
        2
176
     1
  1
strokes_ogs.tif
176
     1
290
     0
176
     1
 40
1.0
176
     1
 40
1.0
176
     1
  0
VISUALSTYLE
  5
1F0
102
{ACAD_REACTORS
330
EF
102
}
330
EF
100
AcDbVisualStyle
  2
Sketchy
 70
    24
177
     3
291
     0
 70
    58
 90
        1
176
     1
 90
        2
176
     1
 90
        2
176
     1
 90
        0
176
     1
 40
0.6
176
     1
 40
30.0
176
     1
 62
     7
420
 16777215
176
     1
 90
        2
176
     1
 90
        2
176
     1
 62
     7
176
     1
 62
     7
176
     1
 90
        1
176
     1
 90
        1
176
     1
 40
40.0
176
     1
 90
       11
176
     1
 62
     7
176
     1
 40
1.0
176
     1
 90
        1
176
     1
 90
        6
176
     1
 90
        2
176
     1
 62
     7
176
     1
 90
        6
176
     1
 90
        0
176
     1
 90
        0
176
     1
290
     0
176
     1
 90
        1
176
     1
 40
0.0
176
     1
 90
        0
176
     1
290
     0
176
     1
290
     1
176
     1
290
     1
176
     1
290
     0
176
     1
290
     0
176
     1
290
     0
176
     1
290
     0
176
     1
290
     0
176
     1
290
     0
176
     1
 90
       50
176
     1
 40
0.0
176
     1
 40
1.0
176
     1
 90
        0
176
     1
 62
    18
420
        0
176
     1
 90
       50
176
     1
 90
        3
176
     1
 62
     5
420
      255
176
     1
290
     0
176
     1
 90
       50
176
     1
 90
       50
176
     1
 90
       50
176
     1
290
     0
176
     1
 90
       50
176
     1
 62
   256
176
     0
 40
1.0
176
     0
 90
        2
176
     1
  1
strokes_ogs.tif
176
     1
290
     0
176
     1
 40
1.0
176
     1
 40
1.0
176
     1
  0
VISUALSTYLE
  5
FC
102
{ACAD_REACTORS
330
EF
102
}
330
EF
100
AcDbVisualStyle
  2
Thicken
 70
    13
177
     3
291
     1
 70
    58
 90
        2
176
     1
 90
        2
176
     1
 90
        1
176
     1
 90
        0
176
     1
 40
0.6
176
     1
 40
30.0
176
     1
 62
     7
420
 16777215
176
     1
 90
        1
176
     1
 90
        4
176
     1
 62
     7
176
     1
 62
   257
176
     1
 90
        1
176
     1
 90
        1
176
     1
 40
1.0
176
     1
 90
       12
176
     1
 62
     7
176
     1
 40
1.0
176
     1
 90
        1
176
     1
 90
        6
176
     1
 90
        2
176
     1
 62
     7
176
     1
 90
        5
176
     1
 90
        0
176
     1
 90
        0
176
     1
290
     0
176
     1
 90
        1
176
     1
 40
0.0
176
     1
 90
        0
176
     1
290
     0
176
     1
290
     1
176
     1
290
     1
176
     1
290
     0
176
     1
290
     0
176
     1
290
     0
176
     1
290
     0
176
     1
290
     0
176
     1
290
     0
176
     1
 90
       50
176
     1
 40
0.0
176
     1
 40
1.0
176
     1
 90
        0
176
     1
 62
    18
420
        0
176
     1
 90
       50
176
     1
 90
        3
176
     1
 62
     5
420
      255
176
     1
290
     0
176
     1
 90
       50
176
     1
 90
       50
176
     1
 90
       50
176
     1
290
     0
176
     1
 90
       50
176
     1
 62
   256
176
     0
 40
1.0
176
     0
 90
        2
176
     1
  1
strokes_ogs.tif
176
     1
290
     0
176
     1
 40
1.0
176
     1
 40
1.0
176
     1
  0
VISUALSTYLE
  5
F6
102
{ACAD_REACTORS
330
EF
102
}
330
EF
100
AcDbVisualStyle
  2
Wireframe
 70
     5
177
     3
291
     0
 70
    58
 90
        0
176
     1
 90
        2
176
     1
 90
        0
176
     1
 90
        0
176
     1
 40
0.6
176
     1
 40
30.0
176
     1
 62
     7
420
 16777215
176
     1
 90
        1
176
     1
 90
        4
176
     1
 62
     7
176
     1
 62
   257
176
     1
 90
        1
176
     1
 90
        1
176
     1
 40
1.0
176
     1
 90
        0
176
     1
 62
   257
176
     1
 40
1.0
176
     1
 90
        1
176
     1
 90
        6
176
     1
 90
        2
176
     1
 62
     7
176
     1
 90
        3
176
     1
 90
        0
176
     1
 90
        0
176
     1
290
     0
176
     1
 90
        1
176
     1
 40
0.0
176
     1
 90
        0
176
     1
290
     0
176
     1
290
     1
176
     1
290
     1
176
     1
290
     0
176
     1
290
     0
176
     1
290
     0
176
     1
290
     0
176
     1
290
     0
176
     1
290
     0
176
     1
 90
       50
176
     1
 40
0.0
176
     1
 40
1.0
176
     1
 90
        0
176
     1
 62
    18
420
        0
176
     1
 90
       50
176
     1
 90
        3
176
     1
 62
     5
420
      255
176
     1
290
     0
176
     1
 90
       50
176
     1
 90
       50
176
     1
 90
       50
176
     1
290
     0
176
     1
 90
       50
176
     1
 62
   256
176
     0
 40
1.0
176
     0
 90
        2
176
     1
  1
strokes_ogs.tif
176
     1
290
     0
176
     1
 40
1.0
176
     1
 40
1.0
176
     1
  0
VISUALSTYLE
  5
1F1
102
{ACAD_REACTORS
330
EF
102
}
330
EF
100
AcDbVisualStyle
  2
X-Ray
 70
    25
177
     3
291
     0
 70
    58
 90
        2
176
     1
 90
        2
176
     1
 90
        1
176
     1
 90
        1
176
     1
 40
0.5
176
     1
 40
30.0
176
     1
 62
     7
420
 16777215
176
     1
 90
        1
176
     1
 90
        0
176
     1
 62
     7
176
     1
 62
   257
176
     1
 90
        1
176
     1
 90
        1
176
     1
 40
1.0
176
     1
 90
        8
176
     1
 62
     7
176
     1
 40
1.0
176
     1
 90
        1
176
     1
 90
        6
176
     1
 90
        2
176
     1
 62
     7
176
     1
 90
        3
176
     1
 90
        0
176
     1
 90
        0
176
     1
290
     0
176
     1
 90
       13
176
     1
 40
0.0
176
     1
 90
        0
176
     1
290
     0
176
     1
290
     1
176
     1
290
     1
176
     1
290
     0
176
     1
290
     0
176
     1
290
     0
176
     1
290
     0
176
     1
290
     0
176
     1
290
     0
176
     1
 90
       50
176
     1
 40
0.0
176
     1
 40
1.0
176
     1
 90
        0
176
     1
 62
    18
420
        0
176
     1
 90
       50
176
     1
 90
        3
176
     1
 62
     5
420
      255
176
     1
290
     0
176
     1
 90
       50
176
     1
 90
       50
176
     1
 90
       50
176
     1
290
     0
176
     1
 90
       50
176
     1
 62
   256
176
     0
 40
1.0
176
     0
 90
        2
176
     1
  1
strokes_ogs.tif
176
     1
290
     0
176
     1
 40
1.0
176
     1
 40
1.0
176
     1
  0
DICTIONARYVAR
  5
146
102
{ACAD_REACTORS
330
5E
102
}
330
5E
100
DictionaryVariables
280
     0
  1
1:1
  0
DICTIONARYVAR
  5
145
102
{ACAD_REACTORS
330
5E
102
}
330
5E
100
DictionaryVariables
280
     0
  1
STANDARD
  0
DICTIONARYVAR
  5
84
102
{ACAD_REACTORS
330
5E
102
}
330
5E
100
DictionaryVariables
280
     0
  1
STANDARD
  0
DICTIONARYVAR
  5
227
102
{ACAD_REACTORS
330
5E
102
}
330
5E
100
DictionaryVariables
280
     0
  1
Metric50
  0
DICTIONARYVAR
  5
228
102
{ACAD_REACTORS
330
5E
102
}
330
5E
100
DictionaryVariables
280
     0
  1
Metric50
  0
DICTIONARYVAR
  5
5F
102
{ACAD_REACTORS
330
5E
102
}
330
5E
100
DictionaryVariables
280
     0
  1
2
  0
DICTIONARYVAR
  5
63
102
{ACAD_REACTORS
330
5E
102
}
330
5E
100
DictionaryVariables
280
     0
  1
1
  0
DICTIONARYVAR
  5
1AE
102
{ACAD_REACTORS
330
5E
102
}
330
5E
100
DictionaryVariables
280
     0
  1
0
  0
DICTIONARYVAR
  5
1AF
102
{ACAD_REACTORS
330
5E
102
}
330
5E
100
DictionaryVariables
280
     0
  1
0
  0
XRECORD
  5
9235
102
{ACAD_REACTORS
330
9233
102
}
330
9233
100
AcDbXrecord
280
     1
  1
AcLyLayerGroup
 90
        1
300
1. Inskripzio-laukia
330
485
330
6C6
330
659
330
7AC
330
7AE
330
7AD
  0
XRECORD
  5
9236
102
{ACAD_REACTORS
330
9233
102
}
330
9233
100
AcDbXrecord
280
     1
  1
AcLyLayerGroup
 90
        1
300
2. Egitura
330
FC8
330
FC5
330
FC4
330
FC3
330
150C
330
24FF
  0
XRECORD
  5
9237
102
{ACAD_REACTORS
330
9233
102
}
330
9233
100
AcDbXrecord
280
     1
  1
AcLyLayerGroup
 90
        1
300
3. Arotzeria
330
FC9
330
FC7
330
FC6
  0
XRECORD
  5
9238
102
{ACAD_REACTORS
330
9233
102
}
330
9233
100
AcDbXrecord
280
     1
  1
AcLyLayerGroup
 90
        1
300
4. Zorua
330
8D45
330
45C5
330
4035
  0
XRECORD
  5
9239
102
{ACAD_REACTORS
330
9233
102
}
330
9233
100
AcDbXrecord
280
     1
  1
AcLyLayerGroup
 90
        1
300
5. Altzariak
330
1874
  0
XRECORD
  5
923A
102
{ACAD_REACTORS
330
9233
102
}
330
9233
100
AcDbXrecord
280
     1
  1
AcLyLayerGroup
 90
        1
300
6. Elementuak
330
253B
  0
XRECORD
  5
923B
102
{ACAD_REACTORS
330
9233
102
}
330
9233
100
AcDbXrecord
280
     1
290
     1
  1
AcLyLayerGroup
 90
        1
300
7. Datuak
330
14FC
330
4129
330
3AB1
330
9232
  0
XRECORD
  5
923C
102
{ACAD_REACTORS
330
9233
102
}
330
9233
100
AcDbXrecord
280
     1
  1
AcLyLayerGroup
 90
        1
300
8. Irisgarritasuna
330
3B73
  0
DICTIONARY
  5
22E2
330
188F
100
AcDbDictionary
280
     1
281
     1
  3
ACAD_XREC_ROUNDTRIP
360
99FB
  0
DICTIONARY
  5
236
330
21C
100
AcDbDictionary
280
     1
281
     1
  3
ACAD_XREC_ROUNDTRIP
360
99F9
  0
DICTIONARY
  5
205
330
22
100
AcDbDictionary
280
     1
281
     1
  0
DICTIONARY
  5
1F9
330
ED
100
AcDbDictionary
280
     1
281
     1
  3
FBXASSET
360
1FA
  0
DICTIONARY
  5
1F7
330
EC
100
AcDbDictionary
280
     1
281
     1
  3
FBXASSET
360
1F8
  0
DICTIONARY
  5
173
330
EE
100
AcDbDictionary
280
     1
281
     1
  3
BUMPTILE
360
175
  3
DIFFUSETILE
360
174
  3
FBXASSET
360
1FB
  3
OPACITYTILE
360
176
  3
REFLECTIONTILE
360
177
  0
DICTIONARY
  5
22E0
330
188E
100
AcDbDictionary
280
     1
281
     1
  3
ACAD_XREC_ROUNDTRIP
360
99FA
  0
DICTIONARY
  5
234
330
21A
100
AcDbDictionary
280
     1
281
     1
  3
ACAD_XREC_ROUNDTRIP
360
99F8
  0
DICTIONARY
  5
162
330
7F
100
AcDbDictionary
280
     1
281
     1
  3
ACAD_ROUNDTRIP_2008_TABLESTYLE_CELLSTYLEMAP
360
99F7
  0
XRECORD
  5
99FB
102
{ACAD_REACTORS
330
22E2
102
}
330
22E2
100
AcDbXrecord
280
     1
102
DISPLAYNAME
  1
Imperial24
102
FLAGS
 90
        0
  0
XRECORD
  5
99F9
102
{ACAD_REACTORS
330
236
102
}
330
236
100
AcDbXrecord
280
     1
102
DISPLAYNAME
  1
Metric50
102
FLAGS
 90
        0
  0
XRECORD
  5
1FA
102
{ACAD_REACTORS
330
1F9
102
}
330
1F9
100
AcDbXrecord
280
     1
 70
     1
 90
429727718
  1
D62C5603-E3A1-4AEA-B7FB-FE5D8D0755AF
310
504B03040A0000080000CC70623B3DEE336E79000000790000001B0000006175746F6465736B2D64657369676E2D7061636B6167652E786D6C3C3F786D6C2076657273696F6E3D22312E302220656E636F64696E673D227574662D3822203F3E3C666F726D6174733E3C666F726D61743E687474703A2F2F736368656D612E
310
6175746F6465736B2E636F6D2F64657369676E2D7061636B6167652F323030393C2F666F726D61743E3C2F666F726D6174733E504B0304140006080800CC70623BD486FD9CA0000000F4000000130000005B436F6E74656E745F54797065735D2E786D6C7D8EC10E82300C865F65E91D8A1E8C310C0EEA1BF002731658846E
310
D98AC1B77784ABF1D8FE5FBFBF75BBCE937A534CCEB38643598122B6FEE978D0B0485F9C41B54DDD7D022595594E1A469170414C76A4D9A4D207E29CF43ECE46F218070CC6BECC4078ACAA135ACF422C856C0E68EA1BF5669944DDD7BCDE7B1F8E415D77AECB980613C2E4AC91FC167A2B244592486606FC29C8FD7F045B9A
310
EF7053A7E60B504B0304140006080800CC70623B853B8169EB0000007C01000008000000636F72652E786D6C8D90416EC3201045AF62CDB6C206821CC7C244919D9CA01740401C94182C03558F5F9C3852BBEB6A467FFE9B197D7EFC9E1EC5975982F5AE035262288C535E5B377690E21535501C055FBC8FBF6C503839990E
310
5619041F179FE64D52DE45E362569DD7661365082642A11EB9E920A89B99642953CC8E702F67A9EE7234257977194EC9EAE275C4EABCCF5EAD5940D4AC6F0E35A568B8F43562CD7046CD199FD07E60174276A7BE677B5EADB0E0D14EEFFB6A31321A0D82627C4084204C3F096B71DD52F6819B16635EADF63F509AF53FA164
310
5DDCD1EDDD17164090FCC8732078B56691CB33A85CD7DCC40F504B0304140006080800CC70623B55019EA25F0000007C00000007000000636E782E786D6C4DCB3B0E80201045D1AD90E915ED2CF8AC45050C11660C8261F98AB1B07AC9C97D42D718D865D3E909258CFD00CCE24AC6E326A164D74DC0B4128928FF32603847
310
2BA13128B1252AC747C6BAB984FC68F0B87FE8960A5C09FE86CFB69FBA01504B0304140006080800CC70623BDBABAAF470010000D40300000C0000006662782F636F72652E786D6CC553D16E823014FD95A6AF4B694182CC941A83FA05FB810A9511A125A5257EFE2E82712ECEB8A7F100CD39F7F69E734AF9FADC366850B6
310
AF8DCE7018308C942E4C59EB2AC3DE1D498AD15A706B8CFB56869196ADCAF00863C12B6B7C374385D14E6907A836A59A41D9F7CA615434B0C8705F7CAA5606D23BA8E84F41278B93AC54100640439DE0BDB320004D43C63716C7C399D30917DCFBBA9CD9BA8469F5B156168B24CED3F7248AC8769F27244EB73B92EED8862C
310
B7F13E0C179B3C8F979C8ECD82BBBABDAA2BAC924E9558448CBD9330242CFA08E3154B5651FCC6D215639C8EE5774DBE2B5F6CF2B5768B68963BB5F5588420E442FC700B1139D4CB01F450C1E918227C2E09DF070D8140C84E1E9AAB8F1340832A9CB13130A5F1376A908D57309505ECF2A0DF179C4E9D30F5B239B87E3823
310
7A79C6F31DE1A8A5AEC08474B03C7837EAE4938639B44E5932B833D2C6B6B279CDC613877FA26EE21F4A2A4C63EC7F29A2F301D1F9F7A0E37D145F504B0304140006080800CC70623B9C113CC27E0000009D0000000B0000006662782F636E782E786D6C4DCCDF0A83201C86E15B91DFB94BFB330DD428C8FB886521330DA7
310
6397BF1A1DECE883878F57749FCDA1B7892F1BBC047A23808C7F84D9FA55424E0BE6803A256208E9EF06C84F9B91703228B1C690F78B66B34CD9A5439DF5CF0BFBF65E35BCA1B8D6A5C6F540381E886698B5741C695F9503EBA150A2F8958E3DC3EA0B504B0304140006080800CC70623B7DF2F77C2A010000120200003100
310
00006662782F41393633353835312D344632462D344230382D423046372D3739314545314133324237412F636F72652E786D6C8D51DB8EC22014FC15C2939B0D2DB4B45643319AE817EC0F6041255A68B86CFCFC856D4D76DF7CE190393373060EDB3DC707F856CE6B6B7A480A0C81328395DA5C7B18C3057510EC3873D686
310
3F34088C18550F330C39BB3A1BA7051AAC09CA84841A2BD5020AEF55806078A44B0FFD7053A328440C89E1EFC52486BBB8AA8214A99D789CF9E05200300FC927E4FB4D5B375D43103D5527440FB843077C5AA3F5861C8F645F5787F59E95B390B318B55CE45AA638FAA2957BD7248B390B7A7CC51F9C124149C82B8C378810
310
84AB2F42B7B8DD56F413775B8C5999E9FF4471926F8AA236A1AE96B8B3CC434E5839373893369E1FAF30EA395917409EB7F26AF8801C171837A4A6AC9C89E9F9C9B1A58BA30FD6A5EF5DDDCF894B9AD9B6A59C957943A9FCAE2FD5BC4DFE03504B0304140006080800CC70623BAD7543B64E01000033030000300000006662
310
782F41393633353835312D344632462D344230382D423046372D3739314545314133324237412F636E782E786D6CD593CD6EC32010845F0571AD6CE3D48AD20813A9873E410FBD12D82434182C7EAAE6EDBB2424CD25871E7B41D6EC30B3FA84F9E67BB2E40B4234DE8DB46F1925E094D7C6ED479AD3AE5951B2113C789FEE
310
6C943839C1488B4C05DF079FE72A69D8C96C13AAD6B8631503449F83828872B949AC57D26200B826A308D316B4064D6E46FCDA41C05550DC9E483A00797BFD207EFB092A45DE9514C1BBD22178396BD39D891265658C238DEA00936C654E5E433CB65A26D9F6EDB5EBC14EBF49A45CB856E66048291F6939A9A81BB5C89177
310
38143CA680F4AA299D66A042CEB3354A2684DC9D8D178FE0D9B8B41CAAD720F880EE7EF93C0C18769E099ECC04D5A102C8049A8A05632F4DDF376CF1DE0F6BB65C2F8627B65A33C6BB62177CEBBDAD973006829F89F22E814B54F4BC2BE347F8AA8F681390B50FA73F804400B5F542E796F19FF974E7F78DB802FE05E20750
310
4B0304140006080800CC70623BE75B7789680500003C100000340000006662782F41393633353835312D344632462D344230382D423046372D3739314545314133324237412F6F626A656374732E786D6CAD575B8F9B3818FD2B887D06C22499CB8AA1CA655245D5B455A356FB305264C061D8018C6C3393D95FBFC7600890
310
A4CD5EF210B0B1BFEBF98E3F7B1FF6596ABC522E1296DF9BAE3D320D9A872C4AF2F8DE2CE5CEBA358D0FBEC719939D65A691938CDE9B6ADAF4BD98B3B2D05311DD91329583D9D5FC0F438434A7A611A644887B5384CF34233629258BA878B12322891DEFF6B66BD70BFB62634E8AE781D082709A4B588AF91C528CDA28B73F
310
1C998EEF39EABBEFA97FBD6A7C7E9553F9D3D79FE442923C3C523610337627CB87ABE99D359D4CC6D6E4FACAB5E6ABF9D2726FC6A3C5F56271377BB88362213924694B38DD99FE47C48627A1E7D49F5A8BB5E1A74C0A599ED3B0F21F1E56366B89112D681E218F0915D0D6F17AD41FBA2A369DCF6335D62ABBD39779D5DDD1
310
11D4D8DE3CBB96B2E04FB8202E41051754A1AA8E8F76B4C6DFE810B580B1547F4B84911149794252234D024EF8BBE963A95AE27B3D310A9D5C215C7960FAEE415ED75694C6AFB17BCACA5D99A60A9AA65F217B0BFC53292ACB92BF283FAD0D3621576592CB5BED907C2FA8E9DF794E35E97BEA31BED21FEB401ABB94C44839
310
DCACBF0E1C5DA8DA5B2F4DFFD32AD86F543D9E565E7056502E157C00AD2671CD534549AB752FCA9CDA00677A313F04E51B22FF19E57B300579E3C97EB29F682D92935CEC18CF901B7B54FD8C51F362B56FC72FE0B3C1EAE335EDCCBF5AEC39ADB17DC238973F804BA5E6F6BFE7AF1FB32E523BE9F3BD571418E3631DCA4D48
310
5250CF639223210A9446CA30052EDF057BD35F8329C1ECD84552BF0DC8D18BE7BCE23BFE6BD960AB4A7DE79923A103BEBD80F911CBAA2C60DB19B01CF164A5583B772EE6D3FFA56666CBCDA74DC97724A48F9A58967497E489C4D979006FD7A05E227A1EBDD0F737C623387A9C844D3709995625106D157315F8B8392CD4E0
310
A0B9A720C4BE9829CEF37EA1E13111214D53925356365ADA634861B52519DD27A00AEB808EAF0628E6F435519D446F45CF2C9CF5214F0A15B2F6D06B79DA3EE3CBF7F56780D2F4E7EF73A0F5E5B02A38D07DC852C6B7C1FBB6664213E0C39E3EBA7FF4E1AD23EA2829407C85E586727488B751B2DB9502BC7B228A3FD68B6E
310
A65A22397E690AA8D158D7E404EC8CDA235CC3B7D1898680131CEC2CDF2638C65196279577750F15884AEE19F94199155B92B13297978469D4F8D358DF0AEF7631E28DC8F0D9F437D5D39A83B2231A1D52D543813A824EF8D44BCFF2FA6A31BD1E8DAD87F1CCB526B3879935BF59CDADD5C37479BB1CDD4CA7B3556B516589
310
EF352754B706114D9C885EC9131DE6EFEB43D99AFE2391C2F958179413D7CFEF6B1B6DB1E7600F00DE6E5C67454A339A4BA2E0FBA85ED26F045D454F463DBFCE484C2F90F2E5E3666003662ED8F755951A7D1BECD5B30B550B2785C8E7320B7292A4838DDA71BBC863ED7613CAF659337A3354231D4FF4A182A54904C2898C
310
98B28C4AD0CE056CCF332A80986E571EE9DBC305BB5FEB7E509220A58D25CF042D712A806AC0AD0C657FDEF80D2D9CEAA2EE4D1C76F60BFE74219A06527D6F82DF6412526107381E55E353090704D085B52408A8913C4ED159D79BDA71BB4BC506F4831350EB6F975CD22D69BF7AC49B91A2C0A9DDA3D5CA36AD20FC478E37
310
E61844E2352865EBCB61A275A65283CAAA9DD27703B4102F5AF51EF5F573B75CBB5AD38BC845F7A49F82A0966A49C2E3EA5EA0ECD326CD965F1DB402C6FA8B51A4658C5C5E2EC9E214602E55810345408596591009A82E7E7FFACA19EEA299B14A0081A705CB3296EBC14CDF658DCD336EA6D1136881AAEB87B81AB9EE53D5
310
F5EB8BC8362082DA24122F98680A4E7930C01A0079749CEA14382A0783E5EBA5A10F8C098456A03D6A4AEB6BB881E2513747552A5DB22C7EDAF83BD5528081A365F7FF06504B0304140006080000CC70623B000000000000000000000000350000006662782F41393633353835312D344632462D344230382D423046372D37
310
39314545314133324237412F76657274696365732E62696E504B0304140006080800CC70623BF270F1330600000004000000360000006662782F41393633353835312D344632462D344230382D423046372D3739314545314133324237412F747269616E676C65732E62696E636660600000504B0304140006080000CC7062
310
3B000000000000000000000000370000006662782F41393633353835312D344632462D344230382D423046372D3739314545314133324237412F617474726962757465732E62696E504B0304140006080800CC70623B08DA0BD19000000041010000360000006662782F41393633353835312D344632462D344230382D4230
310
46372D3739314545314133324237412F6469726563746F72792E786D6C858F410AC3201045AF22B36F53E9A60B35CBEEBAE80D244E44489C6234F4F835464A48035D0DF398FF9F8AF63D0E6CC63039F212F8F9020C7D47C6792B21C5FE7403D62A1188E2E60C98D7234A5830286103A55745067B9D86B8A3CF9C7F90C11DE6
310
07FB144396D7B6A82D282E9A152AD114D5EF2CB866EEE831B8EEA07A7BB5A8D7D61A2BAAEB7FD5F70921FF497D00504B0304140006080800CC70623BEDD1DC58FD000000A00100003B0000006662782F41393633353835312D344632462D344230382D423046372D3739314545314133324237412F7265736F75726365732F
310
636F72652E786D6C8D504B6E833010BD0A9A6D65B00922041947112427E8052C33A156828DFCA97AFC9A40A576D7CDCCE87D344F8F9FBFE667F689CE6B6B3A6039850C8DB2A336530731DC4903D95970676DF82583CCC8193B5861107C72362E3BA4AC096842428D1D7107A5F7182053CF7474E0D507CE32973124857FE48B
310
540F3961CEF244279DE03EB81420DB9EAC1384436FA353E879B1B182C7A8C75DA3C7F453DF353A1075D537A7BA6464B8F535A99AE14A9A2BBD90E350DD183B5CFABE3AF262350B1EF4FC9351399401471025A527C218A1E53BAB5A5AB765F5469B96525EACF23FA6B88CFF34456DC2A1DCE36E360F82A5202F42F062ED2BAD
310
579969AFDD8A6F504B010214000A0000080000CC70623B3DEE336E79000000790000001B00000000000000000000000000000000006175746F6465736B2D64657369676E2D7061636B6167652E786D6C504B01021400140006080800CC70623BD486FD9CA0000000F40000001300000000000000000000000000B20000005B
310
436F6E74656E745F54797065735D2E786D6C504B01021400140006080800CC70623B853B8169EB0000007C010000080000000000000000000000000083010000636F72652E786D6C504B01021400140006080800CC70623B55019EA25F0000007C000000070000000000000000000000000094020000636E782E786D6C504B
310
01021400140006080800CC70623BDBABAAF470010000D40300000C00000000000000000000000000180300006662782F636F72652E786D6C504B01021400140006080800CC70623B9C113CC27E0000009D0000000B00000000000000000000000000B20400006662782F636E782E786D6C504B01021400140006080800CC70
310
623B7DF2F77C2A010000120200003100000000000000000000000000590500006662782F41393633353835312D344632462D344230382D423046372D3739314545314133324237412F636F72652E786D6C504B01021400140006080800CC70623BAD7543B64E010000330300003000000000000000000000000000D2060000
310
6662782F41393633353835312D344632462D344230382D423046372D3739314545314133324237412F636E782E786D6C504B01021400140006080800CC70623BE75B7789680500003C10000034000000000000000000000000006E0800006662782F41393633353835312D344632462D344230382D423046372D3739314545
310
314133324237412F6F626A656374732E786D6C504B01021400140006080000CC70623B0000000000000000000000003500000000000000000000000000280E00006662782F41393633353835312D344632462D344230382D423046372D3739314545314133324237412F76657274696365732E62696E504B01021400140006
310
080800CC70623BF270F133060000000400000036000000000000000000000000007B0E00006662782F41393633353835312D344632462D344230382D423046372D3739314545314133324237412F747269616E676C65732E62696E504B01021400140006080000CC70623B0000000000000000000000003700000000000000
310
000000000000D50E00006662782F41393633353835312D344632462D344230382D423046372D3739314545314133324237412F617474726962757465732E62696E504B01021400140006080800CC70623B08DA0BD1900000004101000036000000000000000000000000002A0F00006662782F41393633353835312D344632
310
462D344230382D423046372D3739314545314133324237412F6469726563746F72792E786D6C504B01021400140006080800CC70623BEDD1DC58FD000000A00100003B000000000000000000000000000E1000006662782F41393633353835312D344632462D344230382D423046372D3739314545314133324237412F7265
310
736F75726365732F636F72652E786D6C504B0506000000000E000E0080040000641100000000
  0
XRECORD
  5
1F8
102
{ACAD_REACTORS
330
1F7
102
}
330
1F7
100
AcDbXrecord
280
     1
 70
     1
 90
429727718
  1
30362254-06B7-45E0-A893-8CFA70E3D6BC
310
504B03040A0000080000CC70623B3DEE336E79000000790000001B0000006175746F6465736B2D64657369676E2D7061636B6167652E786D6C3C3F786D6C2076657273696F6E3D22312E302220656E636F64696E673D227574662D3822203F3E3C666F726D6174733E3C666F726D61743E687474703A2F2F736368656D612E
310
6175746F6465736B2E636F6D2F64657369676E2D7061636B6167652F323030393C2F666F726D61743E3C2F666F726D6174733E504B0304140006080800CC70623BD486FD9CA0000000F4000000130000005B436F6E74656E745F54797065735D2E786D6C7D8EC10E82300C865F65E91D8A1E8C310C0EEA1BF002731658846E
310
D98AC1B77784ABF1D8FE5FBFBF75BBCE937A534CCEB38643598122B6FEE978D0B0485F9C41B54DDD7D022595594E1A469170414C76A4D9A4D207E29CF43ECE46F218070CC6BECC4078ACAA135ACF422C856C0E68EA1BF5669944DDD7BCDE7B1F8E415D77AECB980613C2E4AC91FC167A2B244592486606FC29C8FD7F045B9A
310
EF7053A7E60B504B0304140006080800CC70623B1EC5D7A3EB0000007C01000008000000636F72652E786D6C8D90416EC3201045AF82665B6103C6756C6122AB4D4ED00B204C5C94182C03558F5F9C3852BBEB6A467FFE9B197D71FC9E6FE8CBACC17AD7032D0820E3B41FAD9B7A48F1820F808E52ACDEC75F36404ECDA687
310
4D0629A6D5A76597B477D1B89855E747B38B2A041301E95B6E7A08FAD3CCAA50296647B8168BD2573599823EBB0CA76447F43862C7BCCF5EAC59410E4DDD9C7973C2755553CCCFA4C603E3040F1565ED3B1FDE4E432BCA0D9622DAF9795FAF464533826484B498524CD807E51D79ED187F21878E10516EF63F505AC67F42C9
310
BA58B1FDDD071640D2FCC87D2045B96591CB3DA85CB7DCE40F504B0304140006080800CC70623B55019EA25F0000007C00000007000000636E782E786D6C4DCB3B0E80201045D1AD90E915ED2CF8AC45050C11660C8261F98AB1B07AC9C97D42D718D865D3E909258CFD00CCE24AC6E326A164D74DC0B4128928FF32603847
310
2BA13128B1252AC747C6BAB984FC68F0B87FE8960A5C09FE86CFB69FBA01504B0304140006080800CC70623B8C9102E971010000D40300000C0000006662782F636F72652E786D6CC5535B6E833010BC8AE5DF0A6C08340F1947A84D4ED00B38C6A128602363A31CBFCB234A53A551FA553EC09AD9F5CE8C31DB9E9B1AF5CA
310
7695D1198E428A91D2D214952E33ECDD315861B4E5CC1AE3BE9561A445A3323CC098B3D21ADFCE9034DA29ED00D5A6503328BA4E398C640D8B0C77F253352214DE4145770A5B214FA2546114020D759C75CE8200340D19DE981F0F6746269C33EFAB6266AB02A655C74A59CCF365BADC27CB5D902ED22848F6340DF238A141
310
BE88E2F57B92BFEDF23523433367AE6A2EEAA455C2A902F398D2751045018D3FA264435F3771F242571B4A1919CA6F9A7C5B3CD9E42BED16F12C776AEB308F40C848FC700B1139D4891EF410CEC810227CC6846F8386402064270EF5C5C709A05E49676C024C61FC95EA45ED154CA5211D1FF4FB8291A913A68E9B83EBBB33
310
E2A7673CDE118E5AE8124C0807CB8377834E366998436B950D7A7746DAD846D4CFD978E0F04FD455FC5D49D2D4C6FE9722321F10997F0F32DC47FE05504B0304140006080800CC70623BFFEA85907E0000009D0000000B0000006662782F636E782E786D6C4DCCD10A83201886E15B91FFDC95D95A811AB6F23E625948A6C3
310
E9D8E5AF46073BFAE0E1E365ED67B3E8ADC3CB78C7815C7240DA3DFC64DCC221C519D7805AC182F7F1EF06C88D9BE6703008B6049F9E274D7A1E938DBB5AE3D6131B2589BA0D3D965551E0B2EA732C9B9A624AAEB41E3A557677029960D9AFB4EF11165F504B0304140006080800CC70623B4FEEA4082C0100001202000031
310
0000006662782F39464131463745442D413632322D343644302D413938332D3331353338454246344243312F636F72652E786D6C8D515B6EC32010BC0AE2AB55850DD871ED0813254D72825EC00192A2C460F1A872FC42ED48ED5F7E00CDCECCCEB26C731F6FE05B39AFADE921293004CA082BB5B9F43086336A21D870E6AC
310
0D7F68109861543DCC30E4ECE26C9C164858139409093556AA051CBC570102714B8F1E7AF1A5C6A11862480C7F2DA6415C878B2A4891CA89C7990F2E050073937C42DE1DB7E4F87ED8A36D4329AA9B3D46DBAEAD504556557BD81DEBDD0761E52CE42C462D17B996298E3E6BE59E35C962CE821E1FF18553435012728A7187
310
0841987E927A8D9B35ADDF70BBC6989599FE4F1427F9A4286A132ABAC49D651EF234CD5CE04CDA78BA3DC2A8FB645D00B9DF8B57E215725C60BCA2A463E54C4CE327C7A65E1C7DB02E7DEFCBF594B864C5CA6CDBD49C957943E9FA5D5FBAF336F90F504B0304140006080800CC70623BAD7543B64E01000033030000300000
310
006662782F39464131463745442D413632322D343644302D413938332D3331353338454246344243312F636E782E786D6CD593CD6EC32010845F0571AD6CE3D48AD20813A9873E410FBD12D82434182C7EAAE6EDBB2424CD25871E7B41D6EC30B3FA84F9E67BB2E40B4234DE8DB46F1925E094D7C6ED479AD3AE5951B2113C
310
789FEE6C943839C1488B4C05DF079FE72A69D8C96C13AAD6B8631503449F83828872B949AC57D26200B826A308D316B4064D6E46FCDA41C05550DC9E483A00797BFD207EFB092A45DE9514C1BBD22178396BD39D891265658C238DEA00936C654E5E433CB65A26D9F6EDB5EBC14EBF49A45CB856E66048291F6939A9A81BB5
310
C8917738143CA680F4AA299D66A042CEB3354A2684DC9D8D178FE0D9B8B41CAAD720F880EE7EF93C0C18769E099ECC04D5A102C8049A8A05632F4DDF376CF1DE0F6BB65C2F8627B65A33C6BB62177CEBBDAD973006829F89F22E814B54F4BC2BE347F8AA8F681390B50FA73F804400B5F542E796F19FF974E7F78DB802FE05
310
E207504B0304140006080800CC70623B16AB87BA640500003C100000340000006662782F39464131463745442D413632322D343644302D413938332D3331353338454246344243312F6F626A656374732E786D6CAD575B6FA33818FD2B887DE6924B3BED8A326A92B68A663B534DD4D13E548A0C38942D60649B369D5FBFC7
310
600890A493BDE42160637FD7F31D7FF63E6FB3D478A55C242CBF3247B66B1A340F5994E4F19559CA8D75611A9F7D8F33263BCB4C232719BD32D5B4E97B316765A1A722BA21652A07B3B7B33F0D11D29C9A46981221AE4C113ED38CD8A4942CA2E2C58E882476BCD9DA23BB5ED8171B73523C0F841684D35CC252CCE79062D4
310
468DFA43D7747CCF51DF7D4FFDEB5593E3AB9CCA9FBEFE241792E4E19EB28198C968BAB8199F5D5A67D3E9C49A9E8F47D6EC76B6B0469F26EEFC7C3EBFBCBEB98462213924694B38DD98FE1D62C393D073EA4FADC5DAF04326852CCF6958F90F0F2B9BB5C48816348F90C7840A68EB78EDF68723159BCEE7891A6B95DDE9D3
310
BCEAEEE8086A6C6F9E5D4B59F0175C10A7A0820BAA5055C7473B5AE3CFDD452D602CD5DF12616444529E90D448938013FE6EFA58AA96F85E4F8C42275708571E98FE6827AF6B2B4AE3D7D83D64E5A64C53054DD3AF90BD06FEA9149565C94FCA0F6B834DC85599E4F2423B24DF0B6AFA979E534DFA9E7A4CC6FA631D486393
310
921829879BF5D781A373557BCB85E97FB90DB62B558F8795179C15944B051F40AB495CF35451D26A4727654E6D8033BD98EF82F21D91FF8AF2DD9982BCF1643BDD4EB516C9492E368C67C88DED563FC36D5EACF66DFF057C3658BDBFA69DF9578B3DA735B64F18C7F20770A9D45CFCF7FCF563D6456A277DBEF78A02637CA2
310
43B90A490AEAB94F72244481D24819A6C0E59B606BFA4B3025981DBB48EAB701D97BF19C577CC77F2D1B6C55A9EF3C732474C0B727303F625995056C3B02963D9EAC146BE78EC5FCEC7FA999EBC5EACBAAE41B12D27B4D2C0BBA49F244E2ECDC81B76B502F113D8F5EE8FB1BE3111CDD4FC2AA9B844CAB1288B68AB90A7CDC
310
1C166AB0D3DC5310625FCC14E779BFD0709F8890A629C9292B1B2DED31A4B0DA928CEE135085754027E3018A397D4D5427D15BD1330B677DC8934285AC3DF45A9EB68FF8F2B8FC0A509AFEECFD0FF2DE25CC6047F7214B195F07EFEB9A094D800F7BFAE8FED187B78EA8A3A400F115961BCAD1215E47C966530AF0EE8128FE
310
58CEBB996A8964FFA529A046635D9353B0336A8F700DDF46271A024E70B0B37C9DE01847591E54DED53D54202AB947E4076556AC49C6CA5C9E1226B7F1A7B1BE15DEED62C41B91E1B3E9AFAAA735036547343A925075041DF0A9979E893B391F8FCFA6967B3EFB644DCF6E5CEBFAE272625DCC6FAF3FB93793C5F90CE1EF57
310
407342756B10D1C489E8953CD1617E5CEECAD6F4EF8914CE5D5D504E5C3F1F9736DA62CFC11E00BCDDB8CC8A9466349744C1F75EBDA4DF09BA8A9E8C7A7E9991989E20E5DBDD6A6003664ED8F7A04A8DBE0DF6EAD9B9AA858342E47399053949D2C146EDB85DE4B176BB0965FBAC19BD19AA918E27FA50C1D22402E144464C
310
59462568E704B6E71915404CB72B8FF4EDE184DDAF753F284990D2C6926782963815403548A70C657FDEF80D2D9CEAA2AE4C1C76F60BFE74219A06527D6582DF6412526107381E55E353090704D085B52408D0933C4ED159D79BDA71BB4BC506F4831350EB6F979CD22D69BF7AC49B91A2C0A9DDA3D5CA36AD20FC478E37E6
310
1844E2352865EBCB6EA275A652E3836BE04EFB400BF1A2556F515F1FBB35B2AB35BD889C744FFA1004B5544B121E57F70215746DD2F5E2C1412B602CBF19455AC6C8E5E9922C4E01E65215385004546899059180EAFCF7A707CE7017CD8CDB0410789AB32C63B91E5CEBBBACB17AC6CD347A022D5075FD106377347AAABA7E
310
7D11590744509B44E205134DC1290F06580320F78E537D3D73540E06CB970B431F185308AD40BBD794D6D77003C5A36E8EAA54BA64597CD8F83BD552A080A365F7FF06504B0304140006080000CC70623B000000000000000000000000350000006662782F39464131463745442D413632322D343644302D413938332D3331
310
353338454246344243312F76657274696365732E62696E504B0304140006080800CC70623BF270F1330600000004000000360000006662782F39464131463745442D413632322D343644302D413938332D3331353338454246344243312F747269616E676C65732E62696E636660600000504B0304140006080000CC70623B
310
000000000000000000000000370000006662782F39464131463745442D413632322D343644302D413938332D3331353338454246344243312F617474726962757465732E62696E504B0304140006080800CC70623B08DA0BD19000000041010000360000006662782F39464131463745442D413632322D343644302D413938
310
332D3331353338454246344243312F6469726563746F72792E786D6C858F410AC3201045AF22B36F53E9A60B35CBEEBAE80D244E44489C6234F4F835464A48035D0DF398FF9F8AF63D0E6CC63039F212F8F9020C7D47C6792B21C5FE7403D62A1188E2E60C98D7234A5830286103A55745067B9D86B8A3CF9C7F90C11DE607
310
FB144396D7B6A82D282E9A152AD114D5EF2CB866EEE831B8EEA07A7BB5A8D7D61A2BAAEB7FD5F70921FF497D00504B0304140006080800CC70623B0D6EF93BFE000000A00100003B0000006662782F39464131463745442D413632322D343644302D413938332D3331353338454246344243312F7265736F75726365732F63
310
6F72652E786D6C8D50596E833010BD0A9ADFCA60B334011947A8694ED00B586642AC041B79A97AFC9A40A5F6AF3F33A3B7689E1E3F7DCD8FEC139DD7D6F4C0720A191A65476DA61E62B892236427C19DB5E1970C322367EC618541F0C9D9B8EC90B226A009093576C41D94DE63804C3DD2D18357379C652E63480A7FCF17A9
310
EE72C29CE5894E3AC17D702940B63D59270887DE46A7D0F36263058F518FBB468FE9A7BE6A7420864373B8D4873369AA8691FA421B3294352543C5CAF65C0F6FEF43CB8BD52C78D0F34F46E550061C419494B6843142CB0F5677F4B52BEB177AEC28E5C52AFF638ACBF84F53D42654E51E77B379102C05791282176B5F693D
310
CB4C7BED567C03504B010214000A0000080000CC70623B3DEE336E79000000790000001B00000000000000000000000000000000006175746F6465736B2D64657369676E2D7061636B6167652E786D6C504B01021400140006080800CC70623BD486FD9CA0000000F40000001300000000000000000000000000B20000005B
310
436F6E74656E745F54797065735D2E786D6C504B01021400140006080800CC70623B1EC5D7A3EB0000007C010000080000000000000000000000000083010000636F72652E786D6C504B01021400140006080800CC70623B55019EA25F0000007C000000070000000000000000000000000094020000636E782E786D6C504B
310
01021400140006080800CC70623B8C9102E971010000D40300000C00000000000000000000000000180300006662782F636F72652E786D6C504B01021400140006080800CC70623BFFEA85907E0000009D0000000B00000000000000000000000000B30400006662782F636E782E786D6C504B01021400140006080800CC70
310
623B4FEEA4082C0100001202000031000000000000000000000000005A0500006662782F39464131463745442D413632322D343644302D413938332D3331353338454246344243312F636F72652E786D6C504B01021400140006080800CC70623BAD7543B64E010000330300003000000000000000000000000000D5060000
310
6662782F39464131463745442D413632322D343644302D413938332D3331353338454246344243312F636E782E786D6C504B01021400140006080800CC70623B16AB87BA640500003C1000003400000000000000000000000000710800006662782F39464131463745442D413632322D343644302D413938332D3331353338
310
454246344243312F6F626A656374732E786D6C504B01021400140006080000CC70623B0000000000000000000000003500000000000000000000000000270E00006662782F39464131463745442D413632322D343644302D413938332D3331353338454246344243312F76657274696365732E62696E504B01021400140006
310
080800CC70623BF270F133060000000400000036000000000000000000000000007A0E00006662782F39464131463745442D413632322D343644302D413938332D3331353338454246344243312F747269616E676C65732E62696E504B01021400140006080000CC70623B0000000000000000000000003700000000000000
310
000000000000D40E00006662782F39464131463745442D413632322D343644302D413938332D3331353338454246344243312F617474726962757465732E62696E504B01021400140006080800CC70623B08DA0BD190000000410100003600000000000000000000000000290F00006662782F39464131463745442D413632
310
322D343644302D413938332D3331353338454246344243312F6469726563746F72792E786D6C504B01021400140006080800CC70623B0D6EF93BFE000000A00100003B000000000000000000000000000D1000006662782F39464131463745442D413632322D343644302D413938332D3331353338454246344243312F7265
310
736F75726365732F636F72652E786D6C504B0506000000000E000E0080040000641100000000
  0
XRECORD
  5
175
102
{ACAD_REACTORS
330
173
102
}
330
173
100
AcDbXrecord
280
     1
270
     1
271
     1
  0
XRECORD
  5
174
102
{ACAD_REACTORS
330
173
102
}
330
173
100
AcDbXrecord
280
     1
270
     1
271
     1
  0
XRECORD
  5
1FB
102
{ACAD_REACTORS
330
173
102
}
330
173
100
AcDbXrecord
280
     1
 70
     0
 90
1673772943
  1
ECE7A1D2-D628-4531-984C-D00F80459256
310
504B03040A0000080000CC70623B3DEE336E79000000790000001B0000006175746F6465736B2D64657369676E2D7061636B6167652E786D6C3C3F786D6C2076657273696F6E3D22312E302220656E636F64696E673D227574662D3822203F3E3C666F726D6174733E3C666F726D61743E687474703A2F2F736368656D612E
310
6175746F6465736B2E636F6D2F64657369676E2D7061636B6167652F323030393C2F666F726D61743E3C2F666F726D6174733E504B0304140006080800CC70623BD486FD9CA0000000F4000000130000005B436F6E74656E745F54797065735D2E786D6C7D8EC10E82300C865F65E91D8A1E8C310C0EEA1BF002731658846E
310
D98AC1B77784ABF1D8FE5FBFBF75BBCE937A534CCEB38643598122B6FEE978D0B0485F9C41B54DDD7D022595594E1A469170414C76A4D9A4D207E29CF43ECE46F218070CC6BECC4078ACAA135ACF422C856C0E68EA1BF5669944DDD7BCDE7B1F8E415D77AECB980613C2E4AC91FC167A2B244592486606FC29C8FD7F045B9A
310
EF7053A7E60B504B0304140006080800CC70623BD9DDAED0EC0000007C01000008000000636F72652E786D6C8D90416EC3201045AF82665B61836D9CD8C2444DD39CA01740405C94182C03558F5F9C3852BBEB6A467FFE9B197D7EF89E6EE8CB2CC17A37002D0820E394D7D68D03A478C17B4007C117EFE32F1B20272733C0
310
2A83E0E3E2D3BC49CABB685CCCAAF3DA6CA20CC14440EA969B0182FA34932C648AD911AEC52CD5558EA6A0CF2EC329598D1E47ACCEFBECC59A050463A7EA5833865FEBDD0E37353BE3EE8DBDE3F6786A48D375FBF6CC78B9C282473B3DEFABC5C86834888A900E538A49F5419B9EB47DD5BC907D4F082F57FB1F28CDFA9F50
310
B22ED6D5F6EE030B20687EE43E10BC5CB3C8E51E54AE6B6EE207504B0304140006080800CC70623B55019EA25F0000007C00000007000000636E782E786D6C4DCB3B0E80201045D1AD90E915ED2CF8AC45050C11660C8261F98AB1B07AC9C97D42D718D865D3E909258CFD00CCE24AC6E326A164D74DC0B4128928FF326038
310
472BA13128B1252AC747C6BAB984FC68F0B87FE8960A5C09FE86CFB69FBA01504B0304140006080800CC70623BA24EB22D72010000D40300000C0000006662782F636F72652E786D6CC5535B6E833010BC8AE5DF0A6C5E49888CA3A6694ED00B38E05014B091B1518EDFE511A5A9D228FD2A1F60CDEC7A67C6986DCE4D8D7A
310
69BA4AAB0C073EC548AA5C17952A33ECECD15B61B4E1CC686DBF9561A44423333CC098B3D268D7CE50AE9595CA02AA74216750749DB418E5352C32DCE59FB211BE70162ABA93DF8AFC244AE9073ED050C759670D0840D390E18DF9F1706664C23973AE2A66B62A605A75ACA4C13C4976E1364A12EF355A2EBD384AF65EFA96
310
BC7B8BED2EA6719AAE16FB8491A199335B351775B991C2CA02F390D2D40B028F861F41BCA68B7518BFD0D59A524686F29B26D7164F36B94AD9289CE54E6D1DE6010819891F6E21228B3AD1831EC219194284CF98F06DD01008846CC5A1BEF83801D4CBDC6A1303536877A57A513B0953A94FC707FDBE6064EA84A9E3E6E0FA
310
EE8CF0E9198F7784A316AA0413C2C2F2E0ECA0934D1AE6D05A69BCDE9E91D2A611F573361E38FC1375157F5752AE6B6DFE4B11990F88CCBF0719EE23FF02504B0304140006080800CC70623B408A7D3B7C0000009D0000000B0000006662782F636E782E786D6C4DCCD10A83201886E15B91FFDC552A92A0064DBC8F581632
310
D3703A76F9ABD1C18E3E78F878E5F0D9027ABBFCF2292AE86E2D20171F69F6715550CB827B40839639A5F2770314A7CD293819B45C73AAFB45B35BA61ACAA1C1C7E7855C58C15BC331339661262CC762340413D68D77DA5B42298546CBE6573AF60CEB2F504B0304140006080800CC70623B449FB9BD290100001202000031
310
0000006662782F36394639363044362D344446342D343946362D394244322D3234314243333846323333332F636F72652E786D6C8D515B6EC32010BC0AE22B55850D98B871848994463E412FE002495162B07854397EA176A4F62F3F2C9A9D991D587EB84F37F0AD7D30CEF6905418026DA553C65E7A98E219ED203808EE9D
310
8B7F6810D871D23D2C3014FCE25D9A57483A1BB58D19B54EE9151C43D0110279CB971E06F9A5A7B11A53CC8C70ADE6515EC78BAE4895DB992778883E0700CB907242D17643D7E2538BD869608875438BBAE38922CAC8F1BDD90DB4691A5E2F42C153326A951B95E398B3D1FE599322163C9AE9115F7A3D46ADA0A018778810
310
84E907617BDCEE297BC5BB3DC6BC2EF47FA234AB2745C9D8D8D035EE220B50105E2F0DC1954B9FB747187D9F9D8FA0CCDB042D5FA0C015C65B42DF78BD10F3F3B363CB56C7109DCFDFBBB97E662ED92EB62D13BC2E1BCAE5777DB9966D8A1F504B0304140006080800CC70623BAD7543B64E01000033030000300000006662
310
782F36394639363044362D344446342D343946362D394244322D3234314243333846323333332F636E782E786D6CD593CD6EC32010845F0571AD6CE3D48AD20813A9873E410FBD12D82434182C7EAAE6EDBB2424CD25871E7B41D6EC30B3FA84F9E67BB2E40B4234DE8DB46F1925E094D7C6ED479AD3AE5951B2113C789FEE
310
6C943839C1488B4C05DF079FE72A69D8C96C13AAD6B8631503449F83828872B949AC57D26200B826A308D316B4064D6E46FCDA41C05550DC9E483A00797BFD207EFB092A45DE9514C1BBD22178396BD39D891265658C238DEA00936C654E5E433CB65A26D9F6EDB5EBC14EBF49A45CB856E66048291F6939A9A81BB5C89177
310
38143CA680F4AA299D66A042CEB3354A2684DC9D8D178FE0D9B8B41CAAD720F880EE7EF93C0C18769E099ECC04D5A102C8049A8A05632F4DDF376CF1DE0F6BB65C2F8627B65A33C6BB62177CEBBDAD973006829F89F22E814B54F4BC2BE347F8AA8F681390B50FA73F804400B5F542E796F19FF974E7F78DB802FE05E20750
310
4B0304140006080800CC70623B8D05915C650500003B100000340000006662782F36394639363044362D344446342D343946362D394244322D3234314243333846323333332F6F626A656374732E786D6CAD575B6FA33814FE2B887D06429276DA1565D4266D158D3A339A6846FB502932E050B66023DB74D2FDF5FB190C01
310
9276B2973C046C8ECFF53B17071F77456EBD502133CEAE6CDF9DD81665314F32965ED995DA3A17B6F5310C04E7AA47665B8C14F4CAD6DB7618A48257A5D94AE89654B91AEDDEDDFC61C998326A5B714EA4BCB265FC440BE2924AF184CA6737218AB8E976E7FA6E4338649B0A523E8D98964450A6A029F619B8588D52FE7039
310
B1BD30F0F4F730D0FF866AF6369557DB33949F31A9088B0F848DD8CCFCF9F2767A76E99CCDE733677E3EF59D9BBB9BA5E37F984D16E78BC5E5F5ED25044B25C0C96822E8D60EEFE11B91C581D77CEA34368A1F5329E68CD1B8B61F16D63A1B8E092D294B10C78C4A48EB593D192E7DED9BDEE7995E1B91FDEDD3ACEA9FE831
310
6A756F9F7D4D79F4274C90A7A04248AA51D5F8C718DAE06FB2F75AC4796EBE65D22A88A22223B995679120E2D50E41AA49C260C046A35368846B0BECD0DFF3EBEB8AD4F835768F69B9ADF25C43D30E6B646F807FAA64AD59F61715C7A54127C4AACA98BA3006A9D792DAE165E0D59B61A01FB3A9F9D838D2DAE62445C86166
310
F37564E842E7DE6A69879FEEA2DD5AE7E371E1A5E025154AC307D06A03D73EB5978C58FFA4C8E9033066E0F3BD53BEC1F39F91BE7B55103791EDE6BBB991A2046172CB4581D8B893FA674DDA17A77B3B7C413D1B511FD2743BFF8A38F03A658705E3ADF8015C3A3417FF3D7E439FF591DA0B5F18BC20C1B8981957AE6392A3
310
F43C640C01D1A0B4728E2DD4F26DB4B3C3152A252A3B4E913CEC1C72F012782FF88EFF8637AA552DBEF76408E8A8DE9E50F9E1CB3A2DA0DB1B6039A893B56063DC5B3E3FFB5F72E67AB9FEB4AEC496C4F4C1149625DD662C53E89D7BF0F6151A046260D1337DFDC94502430F83B0EE07A130A224BCAD7DAE1D9FB6CD422FF6
310
920702629C4BB9AE79C12F243C6432A6794E18E5552BA56B431AAB5D91317302B2B071E86C3A42B1A02F999E24061403B5D0EB639195DA655DD3EBEAB4FB862DDF579F014AD0E73C22F99E28DA57FB98E75C6CA2D74D53086D600F4786E0FE3144B771A8A7B900F03594DB8A633CBC49B2EDB69228BB479CF863B5E807AAAB
310
23872F6DFEB4129B949CA33823F58830E86D65621E10047D9DB34D862E8EAC3C2ABC2F7B2C40D67CDFE01F5545B92105AF983AC54D93D69E56FB8E797F88913F898A9FEC705D3F9D1B54EC8426FB500D40A03BD0119B06E1B95DDC7EB8F6975367793EBD70E66733DFB9BC982F9CE564727731999F5D4ECFCE3B8D6A4DC2A0
310
6D50FD148437D110834A64C6CDDF57FBACB5C307A2A477DFE4939736CFEF2B175371E0E10CF0DD1D5C15654E0BCA14D1E87DD02FF93782A162C0A3D95F1524A52770F972BF1EE9809D13CE7DD599467F8ECE9ADD85CE85A34CD45355448C64F9E8A031DC2D596ACC6E5DD93D9B82DE2EF5CAF81363A8E47996A0DE24564A79
310
4115AACE09C55E14540231FDA13C319787134EBF34E3A022514E5B4D9E0826E25C02D5805B15ABE1BEF51B26383D445DD9E875EE33FE4C22DA16427D65A3BCA92CA6D28DD01DF5DC53330704308475351050232CCD31583787BA75774AFB06E5070DD0C8EF484E19968C5D83BA5B90B244D31E54D55A372320FE4786B7EA58
310
44E135AA5467CB7EA333A61683CC6A8C3257034C10CF46F40EF9F5BE59BE5BD30C3C72D235E95D10345C1D45445A5F0BB47E46A5EBE5570F9380B5FA629579952296A773720405982B9DE04011506178964401AA8BDF1FBF0A8EAB6861DD6580C0E38217056766716DAEB2D6FA0917D3E4116581EADB879C4E7CFFB11EFACD
310
3D641311495D92C8676CB409A72D18610D803CE8A626049E8EC1887CB5B44CC39883690DDA8399B4B9855B481E7D71D4A9D22F96E5BB73BF5793020C02137BF837504B0304140006080000CC70623B000000000000000000000000350000006662782F36394639363044362D344446342D343946362D394244322D32343142
310
43333846323333332F76657274696365732E62696E504B0304140006080800CC70623BF270F1330600000004000000360000006662782F36394639363044362D344446342D343946362D394244322D3234314243333846323333332F747269616E676C65732E62696E636660600000504B0304140006080000CC70623B0000
310
00000000000000000000370000006662782F36394639363044362D344446342D343946362D394244322D3234314243333846323333332F617474726962757465732E62696E504B0304140006080800CC70623B08DA0BD19000000041010000360000006662782F36394639363044362D344446342D343946362D394244322D
310
3234314243333846323333332F6469726563746F72792E786D6C858F410AC3201045AF22B36F53E9A60B35CBEEBAE80D244E44489C6234F4F835464A48035D0DF398FF9F8AF63D0E6CC63039F212F8F9020C7D47C6792B21C5FE7403D62A1188E2E60C98D7234A5830286103A55745067B9D86B8A3CF9C7F90C11DE607FB14
310
4396D7B6A82D282E9A152AD114D5EF2CB866EEE831B8EEA07A7BB5A8D7D61A2BAAEB7FD5F70921FF497D00504B0304140006080800CC70623BCA768048FE000000A00100003B0000006662782F36394639363044362D344446342D343946362D394244322D3234314243333846323333332F7265736F75726365732F636F72
310
652E786D6C8D50596E833010BD0A9ADFCA60D600328E9AA639412F609909B1126CE4A5EAF16B0295DABFFECC8CDEA2797AECF8353F924FB44E193D409E5248504B332A3D0D10FC95B4901C39B3C6F85F3248B49871801506CE266BC2B243D2688FDA47549B11775038871E12F988C7004EDE7016A9083E2ADC3D5D84BC8B09
310
D33C8D74D471E6BC8D0192EDC93A815B742658898E651BCB59086ADC356A8C3FD555A1055ED7E7E254D615792D0F075295F585746FF53B694EE78A565DD736979A65AB9933AFE69F8CD2A2F038022F28ED489E135A7CE4554F9BBEA85E68DB53CAB255FEC71496F19FA6A0B42F8B3DEE6673C0F318E4497096AD7DC5F52C33
310
EEB55BFE0D504B010214000A0000080000CC70623B3DEE336E79000000790000001B00000000000000000000000000000000006175746F6465736B2D64657369676E2D7061636B6167652E786D6C504B01021400140006080800CC70623BD486FD9CA0000000F40000001300000000000000000000000000B20000005B436F
310
6E74656E745F54797065735D2E786D6C504B01021400140006080800CC70623BD9DDAED0EC0000007C010000080000000000000000000000000083010000636F72652E786D6C504B01021400140006080800CC70623B55019EA25F0000007C000000070000000000000000000000000095020000636E782E786D6C504B0102
310
1400140006080800CC70623BA24EB22D72010000D40300000C00000000000000000000000000190300006662782F636F72652E786D6C504B01021400140006080800CC70623B408A7D3B7C0000009D0000000B00000000000000000000000000B50400006662782F636E782E786D6C504B01021400140006080800CC70623B
310
449FB9BD290100001202000031000000000000000000000000005A0500006662782F36394639363044362D344446342D343946362D394244322D3234314243333846323333332F636F72652E786D6C504B01021400140006080800CC70623BAD7543B64E010000330300003000000000000000000000000000D20600006662
310
782F36394639363044362D344446342D343946362D394244322D3234314243333846323333332F636E782E786D6C504B01021400140006080800CC70623B8D05915C650500003B10000034000000000000000000000000006E0800006662782F36394639363044362D344446342D343946362D394244322D32343142433338
310
46323333332F6F626A656374732E786D6C504B01021400140006080000CC70623B0000000000000000000000003500000000000000000000000000250E00006662782F36394639363044362D344446342D343946362D394244322D3234314243333846323333332F76657274696365732E62696E504B010214001400060808
310
00CC70623BF270F13306000000040000003600000000000000000000000000780E00006662782F36394639363044362D344446342D343946362D394244322D3234314243333846323333332F747269616E676C65732E62696E504B01021400140006080000CC70623B00000000000000000000000037000000000000000000
310
00000000D20E00006662782F36394639363044362D344446342D343946362D394244322D3234314243333846323333332F617474726962757465732E62696E504B01021400140006080800CC70623B08DA0BD190000000410100003600000000000000000000000000270F00006662782F36394639363044362D344446342D
310
343946362D394244322D3234314243333846323333332F6469726563746F72792E786D6C504B01021400140006080800CC70623BCA768048FE000000A00100003B000000000000000000000000000B1000006662782F36394639363044362D344446342D343946362D394244322D3234314243333846323333332F7265736F
310
75726365732F636F72652E786D6C504B0506000000000E000E0080040000621100000000
  0
XRECORD
  5
176
102
{ACAD_REACTORS
330
173
102
}
330
173
100
AcDbXrecord
280
     1
270
     1
271
     1
  0
XRECORD
  5
177
102
{ACAD_REACTORS
330
173
102
}
330
173
100
AcDbXrecord
280
     1
270
     1
271
     1
  0
XRECORD
  5
99FA
102
{ACAD_REACTORS
330
22E0
102
}
330
22E0
100
AcDbXrecord
280
     1
102
DISPLAYNAME
  1
Imperial24
102
FLAGS
 90
        0
  0
XRECORD
  5
99F8
102
{ACAD_REACTORS
330
234
102
}
330
234
100
AcDbXrecord
280
     1
102
DISPLAYNAME
  1
Metric50
102
FLAGS
 90
        0
  0
CELLSTYLEMAP
  5
99F7
102
{ACAD_REACTORS
330
162
102
}
330
162
100
AcDbCellStyleMap
 90
        3
300
CELLSTYLE
  1
TABLEFORMAT_BEGIN
 90
        5
170
     1
 91
        0
 92
    32768
 62
   257
 93
        1
300
CONTENTFORMAT
  1
CONTENTFORMAT_BEGIN
 90
        0
 91
        0
 92
      512
 93
        0
300

 40
0.0
140
1.0
 94
        5
 62
     0
340
11
144
6.0
309
CONTENTFORMAT_END
171
     1
301
MARGIN
  1
CELLMARGIN_BEGIN
 40
1.5
 40
1.5
 40
1.5
 40
1.5
 40
4.5
 40
4.5
309
CELLMARGIN_END
 94
        6
 95
        1
302
GRIDFORMAT
  1
GRIDFORMAT_BEGIN
 90
        0
 91
        1
 62
     0
 92
       -2
340
14
 93
        0
 40
1.125
309
GRIDFORMAT_END
 95
        2
302
GRIDFORMAT
  1
GRIDFORMAT_BEGIN
 90
        0
 91
        1
 62
     0
 92
       -2
340
14
 93
        0
 40
1.125
309
GRIDFORMAT_END
 95
        4
302
GRIDFORMAT
  1
GRIDFORMAT_BEGIN
 90
        0
 91
        1
 62
     0
 92
       -2
340
14
 93
        0
 40
1.125
309
GRIDFORMAT_END
 95
        8
302
GRIDFORMAT
  1
GRIDFORMAT_BEGIN
 90
        0
 91
        1
 62
     0
 92
       -2
340
14
 93
        0
 40
1.125
309
GRIDFORMAT_END
 95
       16
302
GRIDFORMAT
  1
GRIDFORMAT_BEGIN
 90
        0
 91
        1
 62
     0
 92
       -2
340
14
 93
        0
 40
1.125
309
GRIDFORMAT_END
 95
       32
302
GRIDFORMAT
  1
GRIDFORMAT_BEGIN
 90
        0
 91
        1
 62
     0
 92
       -2
340
14
 93
        0
 40
1.125
309
GRIDFORMAT_END
309
TABLEFORMAT_END
  1
CELLSTYLE_BEGIN
 90
        1
 91
        1
300
_TITLE
309
CELLSTYLE_END
300
CELLSTYLE
  1
TABLEFORMAT_BEGIN
 90
        5
170
     1
 91
        0
 92
        0
 62
   257
 93
        1
300
CONTENTFORMAT
  1
CONTENTFORMAT_BEGIN
 90
        0
 91
        0
 92
      512
 93
        0
300

 40
0.0
140
1.0
 94
        5
 62
     0
340
11
144
4.5
309
CONTENTFORMAT_END
171
     1
301
MARGIN
  1
CELLMARGIN_BEGIN
 40
1.5
 40
1.5
 40
1.5
 40
1.5
 40
4.5
 40
4.5
309
CELLMARGIN_END
 94
        6
 95
        1
302
GRIDFORMAT
  1
GRIDFORMAT_BEGIN
 90
        0
 91
        1
 62
     0
 92
       -2
340
14
 93
        0
 40
1.125
309
GRIDFORMAT_END
 95
        2
302
GRIDFORMAT
  1
GRIDFORMAT_BEGIN
 90
        0
 91
        1
 62
     0
 92
       -2
340
14
 93
        0
 40
1.125
309
GRIDFORMAT_END
 95
        4
302
GRIDFORMAT
  1
GRIDFORMAT_BEGIN
 90
        0
 91
        1
 62
     0
 92
       -2
340
14
 93
        0
 40
1.125
309
GRIDFORMAT_END
 95
        8
302
GRIDFORMAT
  1
GRIDFORMAT_BEGIN
 90
        0
 91
        1
 62
     0
 92
       -2
340
14
 93
        0
 40
1.125
309
GRIDFORMAT_END
 95
       16
302
GRIDFORMAT
  1
GRIDFORMAT_BEGIN
 90
        0
 91
        1
 62
     0
 92
       -2
340
14
 93
        0
 40
1.125
309
GRIDFORMAT_END
 95
       32
302
GRIDFORMAT
  1
GRIDFORMAT_BEGIN
 90
        0
 91
        1
 62
     0
 92
       -2
340
14
 93
        0
 40
1.125
309
GRIDFORMAT_END
309
TABLEFORMAT_END
  1
CELLSTYLE_BEGIN
 90
        2
 91
        1
300
_HEADER
309
CELLSTYLE_END
300
CELLSTYLE
  1
TABLEFORMAT_BEGIN
 90
        5
170
     1
 91
        0
 92
        0
 62
   257
 93
        1
300
CONTENTFORMAT
  1
CONTENTFORMAT_BEGIN
 90
        0
 91
        0
 92
      512
 93
        0
300

 40
0.0
140
1.0
 94
        2
 62
     0
340
11
144
4.5
309
CONTENTFORMAT_END
171
     1
301
MARGIN
  1
CELLMARGIN_BEGIN
 40
1.5
 40
1.5
 40
1.5
 40
1.5
 40
4.5
 40
4.5
309
CELLMARGIN_END
 94
        6
 95
        1
302
GRIDFORMAT
  1
GRIDFORMAT_BEGIN
 90
        0
 91
        1
 62
     0
 92
       -2
340
14
 93
        0
 40
1.125
309
GRIDFORMAT_END
 95
        2
302
GRIDFORMAT
  1
GRIDFORMAT_BEGIN
 90
        0
 91
        1
 62
     0
 92
       -2
340
14
 93
        0
 40
1.125
309
GRIDFORMAT_END
 95
        4
302
GRIDFORMAT
  1
GRIDFORMAT_BEGIN
 90
        0
 91
        1
 62
     0
 92
       -2
340
14
 93
        0
 40
1.125
309
GRIDFORMAT_END
 95
        8
302
GRIDFORMAT
  1
GRIDFORMAT_BEGIN
 90
        0
 91
        1
 62
     0
 92
       -2
340
14
 93
        0
 40
1.125
309
GRIDFORMAT_END
 95
       16
302
GRIDFORMAT
  1
GRIDFORMAT_BEGIN
 90
        0
 91
        1
 62
     0
 92
       -2
340
14
 93
        0
 40
1.125
309
GRIDFORMAT_END
 95
       32
302
GRIDFORMAT
  1
GRIDFORMAT_BEGIN
 90
        0
 91
        1
 62
     0
 92
       -2
340
14
 93
        0
 40
1.125
309
GRIDFORMAT_END
309
TABLEFORMAT_END
  1
CELLSTYLE_BEGIN
 90
        3
 91
        2
300
_DATA
309
CELLSTYLE_END
  0
ENDSEC
  0
SECTION
  2
ACDSDATA
 70
     2
 71
     8
  0
ACDSSCHEMA
 90
        0
  1
AcDb_Thumbnail_Schema
  2
AcDbDs::ID
280
    10
 91
        8
  2
Thumbnail_Data
280
    15
 91
        0
101
ACDSRECORD
 95
        0
 90
        1
  2
AcDbDs::TreatedAsObjectData
280
     1
291
     1
101
ACDSRECORD
 95
        0
 90
        2
  2
AcDbDs::Legacy
280
     1
291
     1
101
ACDSRECORD
  1
AcDbDs::ID
 90
        3
  2
AcDs:Indexable
280
     1
291
     1
101
ACDSRECORD
  1
AcDbDs::ID
 90
        4
  2
AcDbDs::HandleAttribute
280
     7
282
     1
  0
ACDSSCHEMA
 90
        1
  1
AcDbDs::TreatedAsObjectDataSchema
  2
AcDbDs::TreatedAsObjectData
280
     1
 91
        0
  0
ACDSSCHEMA
 90
        2
  1
AcDbDs::LegacySchema
  2
AcDbDs::Legacy
280
     1
 91
        0
  0
ACDSSCHEMA
 90
        3
  1
AcDbDs::IndexedPropertySchema
  2
AcDs:Indexable
280
     1
 91
        0
  0
ACDSSCHEMA
 90
        4
  1
AcDbDs::HandleAttributeSchema
  2
AcDbDs::HandleAttribute
280
     7
 91
        1
284
     1
  0
ACDSRECORD
 90
        0
  2
AcDbDs::ID
280
    10
320
65B5
  2
Thumbnail_Data
280
    15
 94
     2599
310
89504E470D0A1A0A0000000D49484452000000B40000010008030000002D3FACD700000300504C5445FFFFFF000000C8C8C80000000000000000000000000000000000000000000000000000330000660000990000CC0000FF0033000033330033660033990033CC0033FF0066000066330066660066990066CC0066FF0099
310
000099330099660099990099CC0099FF00CC0000CC3300CC6600CC9900CCCC00CCFF00FF0000FF3300FF6600FF9900FFCC00FFFF3300003300333300663300993300CC3300FF3333003333333333663333993333CC3333FF3366003366333366663366993366CC3366FF3399003399333399663399993399CC3399FF33CC00
310
33CC3333CC6633CC9933CCCC33CCFF33FF0033FF3333FF6633FF9933FFCC33FFFF6600006600336600666600996600CC6600FF6633006633336633666633996633CC6633FF6666006666336666666666996666CC6666FF6699006699336699666699996699CC6699FF66CC0066CC3366CC6666CC9966CCCC66CCFF66FF0066
310
FF3366FF6666FF9966FFCC66FFFF9900009900339900669900999900CC9900FF9933009933339933669933999933CC9933FF9966009966339966669966999966CC9966FF9999009999339999669999999999CC9999FF99CC0099CC3399CC6699CC9999CCCC99CCFF99FF0099FF3399FF6699FF9999FFCC99FFFFCC0000CC00
310
33CC0066CC0099CC00CCCC00FFCC3300CC3333CC3366CC3399CC33CCCC33FFCC6600CC6633CC6666CC6699CC66CCCC66FFCC9900CC9933CC9966CC9999CC99CCCC99FFCCCC00CCCC33CCCC66CCCC99CCCCCCCCCCFFCCFF00CCFF33CCFF66CCFF99CCFFCCCCFFFFFF0000FF0033FF0066FF0099FF00CCFF00FFFF3300FF3333
310
FF3366FF3399FF33CCFF33FFFF6600FF6633FF6666FF6699FF66CCFF66FFFF9900FF9933FF9966FF9999FF99CCFF99FFFFCC00FFCC33FFCC66FFCC99FFCCCCFFCCFFFFFF00FFFF33FFFF66FFFF99FFFFCCFFFFFF0000000D0D0D1A1A1A2828283535354343435050505D5D5D6B6B6B787878868686939393A1A1A1AEAEAEBB
310
BBBBC9C9C9D6D6D6E4E4E4F1F1F1FFFFFF000000000000000000000000000000000000000000000000000000000000B0E2D235000006E24944415478DAED9CBD76DA4814C7E7F8059C86D7A072A5C7A032DD3E852BD3F018A411CD96F136D9D2DBD8D59E54A48112FB9E9349542446DBEF8C461F3383240496987BC3BD7184
310
D108F8F9CF7FEE7C4823F1E3FA3BB9103FAE05BD606886666886BE38E86B3A614153D198A1199AA1199AA1199AA1199AA1199AA1199AA119BA2FE8791F7176E8A43120698DAA3808742599D43FD9660E2AD41EA7D80DC8B6C1A0CB6752FFC8FC11F68ADD0071E08041A1D5A76B5D353438D080163A33421195D2FA09405B3D
310
83BC220781D6888AD30F0DDDFA52A8DE2118B4E76960E833419B8A8818BA2EF27A4941E9914345119A8A3D041D68BB223234DBE3F7559A4C9E6668AE880D4A4B5957115FECA0A2345AE86CDCD290F2102BCD2D62909457FE0184942EE456A317324A4B82F6B06D0D92863DDC865CD250DA8516122BF4BC596990231508E7F2
310
F259CF7C42CF2B96A324A987CEFB8061E7A7EBECA10229F489F628A0E7E82A22E0CD1E6029ED0C57203B8701AEBEE040432068680D0107CA0329ED258CEA37CCCDB84F5DF4F50421E8BC6F8ABCC374088BA1199AA119FA78E896137321A1E1DD717EE8E69E5CC7A95E40650FDCF3D39C3D189AA1199AA1199AA1A942CF5B7A
310
1F02E9659B49D20A8DF5AADE797B3952E8B6682C86B0177DBF37CE0F4D71214390B84CE897B6C80FA83F143974732143F718EFC2E38A78BCD27D5983A18FABA9AC34574486C6D6353D3FF4710B6BEB8E0C016DAEACC92FAFD12B6747A34EC3AD7C8DED3C0C74A2691303AD051C8D3201B35D89866EF806CCAE40D0C582BEEC
310
5AF50460A4CF58295E559A68EDE7225F3197EDA91ECC9EC0D0E6120FD02416A2349890A0842E56216AB12D445D8A10DA78DAD854F366D055C804A1A77327685210C5955696D289C4A774D345601574666B64F6B0BEF81C587A6E900853DEC80E95F146D21614A7D2AA2DD4B466234764A085282F45CEA02405682BAC2CE7E4
310
3C6C9EDE57BA680611372EAED23669C9EF646EA49E2E5A1432D0A5934D77B54CE0E83CBD6F8F2A890842F6B0539E2091F2BADD94095BCAA3A0B4075DADF3A3620F83EF5544EC4A576DB83DE198E04E7995BCCE2C296EA529427B39AF1CB4803DF2ADEC0128EC215D41CD5DA47A5E50D4CF5DDC4A4C103E74B64AAE798629D4
310
5C5E069D51D542EBF588D914433D74A059D3C4B956DDF7B486AE6FD73373078306DB1E7692806211A527B1C80B03DA437F6E45E3B6DD20F7691DE8707379B0F7AD174F64F39981E2C040D007725A83D2A1A77AC1A5293A4C5282EF7244D03E8D2C1624423D2D8AF9E90E3789B506B948CEB988264173A58BC65D4AC4F6B0A1
310
75AEF6C6E728E6A7CFBE74AB9FB55BADF6709A1BB9A734A0F4B4DB8592143C2DBC4905893CE59986DA4F741277CA331378FEF48DC46D8F5A6892F690345A448AD9C3B8B8E8F2CB840AB42C5A4D3CCD78875E9E19A4A8ADA4D3CB53A26627604010E9E599D407F91DCBE90C02CAB1AE778A0BB53DCCBDD513B3FA9D8C3D7268
310
4810413B933544A09346576B33475104513943EDB85AFF1E45F3240A04DDA43488489341316BEA9CB8D57BB2625CD0EABF812E4F33DB8333E4D02673001268E5D842C98688BCF96B3F325F47D159A1ED2BDB1AA90E141F2F761FD0D18123A2436F7066E82CDA96878357EEDD1306CC3B44E7AD8842ECDD7A70AFCCB959A107
310
7DD207F6007D6052BDFD8050D0AD7281182078710E4333B41DEDCB0C9B0BDFB93AB17FE8D675E2F52B9C51401FBB1E9B95BE9CEC61946B70406B2143BFCFE73E74F08AF8DB28CDCD3843333443D380A6136C0F86666874D0FFED072B3D10F46EF3B0593FA8CDEAF3D7F54EEFD97688BD83EA5E361CF47A192F17CFF1D3327E
310
8E979B940474AAA09FE245BC785CC47F2ED744945E2DE378713B9DDC2BF2E58A0EF4DD0D7C781D4FE3C5D315154F2FEE5F55DCBCDE4C8CD2E3DEA35C32D5E1D86E9E5E2D6F5F5F34F6CBEB24DE0CA27405DD9BD2B3F1CB8D161A3EDC2C57E91079B67FE8D54C018FA79A7A7CBF1134A0D7B3C9CD64369DDEA904D23D7BB418
310
A705BA7B6C4B8E86ECB188EFEEA7539DABBB7B7A60E8EA6DEAA13FFFA3603FCE6E178BA7C5F32A1D147ADCF1555BB1B598EB5AC4F851FD9BCD54961E5CE9BEA0953D14F472F6C752413FFD3570F6E806BD1505F4B6214F7F8D95C2B36F5365ED47D3F71810BA53E3B21587A0C5267E541ACF2633F5B85C0FAB74D75A586ADF
310
A474FAF06FFC314B1DCF79DB72AC650FBCE6E49457EABDAF749A6E36AB4F5F3E7D7958EF521AD0E94E91EE766FE621DDA598A0B70D2D62FAEBE7AF9F59BCFDADB757E990D027F6596B94D632BF5DA98D7A78DBA54356C49EA0070FE71604FD40CB9A10DB53FCD109BA9F914B6FD08D871EF1CED6DBBB4F0343979D4E27B3D9
310
3BB697047D4A748716ADD03CD5CBD09777768B2234B1606886666886BE28E8EFE44241D38BFF01EE15E19D0941F4700000000049454E44AE426082
  0
ACDSRECORD
 90
        0
  2
AcDbDs::ID
280
    10
320
22
  2
Thumbnail_Data
280
    15
 94
     3695
310
89504E470D0A1A0A0000000D49484452000001000000007508030000009634CF9200000300504C5445FFFFFF000000C8C8C80000000000000000000000000000000000000000000000000000330000660000990000CC0000FF0033000033330033660033990033CC0033FF0066000066330066660066990066CC0066FF0099
310
000099330099660099990099CC0099FF00CC0000CC3300CC6600CC9900CCCC00CCFF00FF0000FF3300FF6600FF9900FFCC00FFFF3300003300333300663300993300CC3300FF3333003333333333663333993333CC3333FF3366003366333366663366993366CC3366FF3399003399333399663399993399CC3399FF33CC00
310
33CC3333CC6633CC9933CCCC33CCFF33FF0033FF3333FF6633FF9933FFCC33FFFF6600006600336600666600996600CC6600FF6633006633336633666633996633CC6633FF6666006666336666666666996666CC6666FF6699006699336699666699996699CC6699FF66CC0066CC3366CC6666CC9966CCCC66CCFF66FF0066
310
FF3366FF6666FF9966FFCC66FFFF9900009900339900669900999900CC9900FF9933009933339933669933999933CC9933FF9966009966339966669966999966CC9966FF9999009999339999669999999999CC9999FF99CC0099CC3399CC6699CC9999CCCC99CCFF99FF0099FF3399FF6699FF9999FFCC99FFFFCC0000CC00
310
33CC0066CC0099CC00CCCC00FFCC3300CC3333CC3366CC3399CC33CCCC33FFCC6600CC6633CC6666CC6699CC66CCCC66FFCC9900CC9933CC9966CC9999CC99CCCC99FFCCCC00CCCC33CCCC66CCCC99CCCCCCCCCCFFCCFF00CCFF33CCFF66CCFF99CCFFCCCCFFFFFF0000FF0033FF0066FF0099FF00CCFF00FFFF3300FF3333
310
FF3366FF3399FF33CCFF33FFFF6600FF6633FF6666FF6699FF66CCFF66FFFF9900FF9933FF9966FF9999FF99CCFF99FFFFCC00FFCC33FFCC66FFCC99FFCCCCFFCCFFFFFF00FFFF33FFFF66FFFF99FFFFCCFFFFFF0000000D0D0D1A1A1A2828283535354343435050505D5D5D6B6B6B787878868686939393A1A1A1AEAEAEBB
310
BBBBC9C9C9D6D6D6E4E4E4F1F1F1FFFFFF000000000000000000000000000000000000000000000000000000000000B0E2D235000001754944415478DAEDDDBD11C2300C86616F40C5320CE6F118C63915BAF310584E4C9C3BCA5024DF2B8ED8AD1EE49FA82125E23FF13E3F2E94FDA3019C4F7AB10A000000000000000000
310
00000000000000000000000000000000000000000000000000000000000000004017A094B24D0EC377BC39403966DE30FA67C4ED0122C5E9272FA3207AF21A00E517C0340A2C81F22DFFA2B70438050000000000000000000000004010C05AE42D2C2B022437775BE78A00D9FDE9A60DE05107DA00EA15A0BE07F8485D1620
310
4E42EBE7A122404ADA4BC0E6A789DE04F7D05C0249FB1E30A5AE0930852400FD0075807C084D008B8680A9EE01FD0E5CABB76F153D05DC5C1AC03DDE872A00CA0075594CF775784BBDCA56404BDCA333EEA200BC0EF7DA6F27616C84AA4B2004E236A40B60711F364980D76805F4CE707EC9026CA10720DF0F5846ACB32459
310
01002CFB933D00000000000000000000000000000000000000000000000000000000000000803B0048FFE3E485E2035D5075B2DDC689AE0000000049454E44AE426082426082A9CFB82C7C2244000210E03D02F0CF510000000000000000000000000000000077F409332C8DDB2F72862D0000000049454E44AE426082BAE2
310
2F006212C01DEBDD5B003F0EE6025873DAB7418083DD7B07A0B5E34ECDEB00BB6FA512F848F87B1C000000300FF00559576BED27DDECC10000000049454E44AE42608244AE426082FE432853001CCC80715BE1BAD64AD575AD0CB57DE86904FCD77B052D01FAE76BC36EB7FB56DBEDEB9DF64A00510DBABE33C37E7F9A55C0
310
1901D3B16DE3CA2DB16D2FA4FAFB6BC0770167A65F798AF68986BEBFEA8680FDF493EEA6EA790101372BA0D3EEF708B8A955C0D51F462000027C15E0FB3F4589EF19000110E0B1808F0D01000000000000000000000000000000000000000000805BE637198C5EF717517D810000000049454E44AE42608280000420000108
310
400002108000042000010840000210800004200001084000021080000420C01F03B83D13C77EEBE478CF7758180C0663E6F80650DD99FFE992B15F0000000049454E44AE426082F9A703B0F539C96DEEAD49E90F0078B83BE310F8E2C301000000000000000000000000000000000000000000000000000000000000000000
310
0000000000000000000000EC00B87CCBD4FEF0073EC07EB67F339B0B9C8253D1650000000049454E44AE4260825DA904610A406125C84B21BEE5674460B45FA8B4124CEB21CC07BD02E25EB2EA4AB0E4FA0A408C01A927A2BA126CD2019CB3404905E2D3E054013B1B9D1EC8E5510B80FC41BA02EC1400CFFAEEF2A9017C75
310
3A41C61FAC26B72BECA73E9000E47E8073ED5E39F0E7298807F04901C65727E760F0F0907E0083E766E343C4825D20CD9E9F77BCE791BF7E8A16F6C3EE121560F073923C2960FA2E2BA0D34D5523D091A2FDF06201ECFBF11D26FBA3B4E0C31B70FF17C8FCFC806F0460A40368353C0670D6B97800571B9FD7EF3FE6F9AF0B
310
FC0880C77EC1EF7581BBF62A40340059F60400FC4F44FEE19BBF2403C87FFE57639FE0DCFD6E110046F66F3FF02AE00D822F8017C00BE005F002F8BFF61704DAC6EF5724558A0000000049454E44AE426082C8AAF0763E298820C7663700D04C03D4FC80735FA05203EE9A2ABB39F5F96DCB2D5E6E05676C7E2FE07218BBF7
310
EDF29BAB89C5001873BE66ACD21B07E0EAE1C9C66EB381EDFC670BCFDAC0CFA85243C9144C6D6E2180651400E9C09D06A015610E00500A002C00E806C008E4FB40EE04CC59AD86AAAF60B2C6FBA524FB743DDF850F881FF7FDE7ADB94F4B008D863E1540241EC7EE8A184E0F0D067E009E0100CA01C01500A0863E1340C92B
310
45D3D91F99EE5D0FFB9C606F00BDA5ED57F80522211827B80DDECA0000000049454E44AE426082BB01740544660760FCBF641204F87700C0D7DAB6005C7D81C22200C0BD3CA7AE021F0080E4A536130348B7704E00A39DA156D1E1B05768AC2701312476F6454A649DE08A2A60105C7993D44F0008F9A4514552F301D099E3
310
CE3E3A12B76EA80ACA44E3B400CEF4D1485BEE01C4EAF3B925E0B88F0EA9DF255C55566CB0B804F4BC5011CBC7CC3309F8170030D7093707402A01B82480BE576A628983CE50321F3912B09004F4BC51128B579152550B6C4D00529E0580648F086C5509A0B71A1250E9F105301AC0206F7048C34E37F103007FDCC3FAA6A4
310
AE078B0000000049454E44AE42608204941542EAC209430780AEF77B8680DAD3C0507344BB466D262A4CCA021BB70EE846815C1B9CAC92484AFF9C8B003ED011B3A9D6CDDD50D7E4C190005D17BC0E005D16888E22B1871671E800CDB6BB5D2F785E882708B85750368BA5191C71352A2BA67049FA0000FAB20027008EDA08
310
0008180D409F754433BC104C7F621270134930E6101D6EC758BED60A6975C5A4C2B90A0ED1959EDB0E00A61DE00400B80000C400C05A286842308BE19CCFFB455EC8A5C3106735FD2A96FFE0328DEFC040E65B476E0F315E0815B880E829AD28FD5ABECF80A1F82DBD41BD8DD675F6C21EBBBAA614F4F34FCF1A80935E1275
310
333A5D6FF08DD79D37127D22EE8E7ED08900439BED804D01685B6B1FB285B657340F7557213D5BEE0F694D5F525A3D57E97A79A0751A33539766CFECF5324BEBFA99EE960FEC9A2CC6AC04159B099FAB6C9DEE6B5AEF5F689D71C7A8DECFCE15813B0C331AC3EC809ED123E33D0D1902BB1AC119C5CB18A60794E1F819ED2B
310
1CEF43E605CF50552176C9F2AF254DFF8999E3C459CF025C9F290007841EEF9E16688D0EA8AAF9D6485AA3E714B1771C3F2D7E5DA33D7AA9B3431ADED214D754007088539AA22AC6E88555D8E0C018CDCE7408EC43CC3989432601B734C6AC976BBC7C62ADB7AC35669CAD517558C47B54D3FDAF35034C48C0336552811ED0
310
7A875ED8B8408F283E4F002A8C1EB9D0578B3243EB94F57D384BD13AC40C8987E513668E316BCFF043865919735EF769B8BB7ACCB87CC4E8F7AC5C1E6629C3EBE13C017889774CEDEDD7777B3CC321DED7B74FE8AF347BBCAD9FD2789DC6748FAB678CE3B4CA30C64CDF89ADC535E318EFE27D7DC0192E99EE48EBDD990240
310
9985CBCCDD9A1FD4DCDCE5355ACB56B14D9C9F1267EAFF522A8D63791270C7885D7B5B89CFDF9DB931D8CEEDC614AFB5A82683D60ACED80E705876FAAD13342351BBB98276AF057AEE026094BA102807C6ED34462C98FC7E1D3EB79F437B7C0487DFDC77A7156B47F0AB3C653BC0A3EFC5B5A2BA66B448CD143976D41AFB45
310
9C6E2FEDF301E98083A40504FF3600665247E5436D546269C48A871959203BDCFA77C6C8E87087B22FD28C902B617F235EA886818D78B002801AD8B382A4A67810935D2700F46B7BFE6AC49B102D26AC258AD4CDE34AB0FE9500001300F25A00BE3AA9390F7DA7AF9D1830729A7A8FAAC3C14A0D28170824558D01AC2C90AE
310
03DE1F004D02ACF100D4CDE4C61820BADEB325A00540BF400F995B5920A0EBCDF707801812E0CC87EA89E216002BA4EF02C0BCC04C2E10F744F04100000D008D7332080018004047A8CBA4E8B24F9CEB2188352EDE090060A581ECE502B698D8635F5F57001CB960473E99987FC3D44D1F80C177651692D18DD304E07BE2FF
310
FB770C3C79F2E4C993274F9E3CFD185496EAD33EEC39EB6A608507C003E001F00078003C001E806F1C1E3277A39DFCAAF702C0B92FD2FE0DF6CD808DDD81F67D740778EFCD499B49D2A6E5FD0050F634EA777DD792D456F2B60DE8133BCB37B2F3ED9BD85BF76AEDBEE81D01B0DFEDBC90BEE753DFD661EEF41C07808E77C7
310
AD9A84001F0680DE032600E66DBF4D9937DAC06B2440DDA0637FD5C70040D4DB4B771DA3E5CD88EB6775BFEEAD00909EAFFA1000ACBD8244BFCDAC769B55D0A3F4AC8D52AF04C0DABC65FD57076F0778003C001E000F8007C003F02303F00FE5691FF69C7535B0E2FCC8E7053C79F2E4C993A71F97FE0FDD7D5BAF806EF9BC
310
0000000049454E44AE426082
  0
ACDSRECORD
 90
        0
  2
AcDbDs::ID
280
    10
320
D7
  2
Thumbnail_Data
280
    15
 94
     1439
310
89504E470D0A1A0A0000000D4948445200000100000000B408030000004C80028300000300504C5445FFFFFF000000C8C8C80000000000000000000000000000000000000000000000000000330000660000990000CC0000FF0033000033330033660033990033CC0033FF0066000066330066660066990066CC0066FF0099
310
000099330099660099990099CC0099FF00CC0000CC3300CC6600CC9900CCCC00CCFF00FF0000FF3300FF6600FF9900FFCC00FFFF3300003300333300663300993300CC3300FF3333003333333333663333993333CC3333FF3366003366333366663366993366CC3366FF3399003399333399663399993399CC3399FF33CC00
310
33CC3333CC6633CC9933CCCC33CCFF33FF0033FF3333FF6633FF9933FFCC33FFFF6600006600336600666600996600CC6600FF6633006633336633666633996633CC6633FF6666006666336666666666996666CC6666FF6699006699336699666699996699CC6699FF66CC0066CC3366CC6666CC9966CCCC66CCFF66FF0066
310
FF3366FF6666FF9966FFCC66FFFF9900009900339900669900999900CC9900FF9933009933339933669933999933CC9933FF9966009966339966669966999966CC9966FF9999009999339999669999999999CC9999FF99CC0099CC3399CC6699CC9999CCCC99CCFF99FF0099FF3399FF6699FF9999FFCC99FFFFCC0000CC00
310
33CC0066CC0099CC00CCCC00FFCC3300CC3333CC3366CC3399CC33CCCC33FFCC6600CC6633CC6666CC6699CC66CCCC66FFCC9900CC9933CC9966CC9999CC99CCCC99FFCCCC00CCCC33CCCC66CCCC99CCCCCCCCCCFFCCFF00CCFF33CCFF66CCFF99CCFFCCCCFFFFFF0000FF0033FF0066FF0099FF00CCFF00FFFF3300FF3333
310
FF3366FF3399FF33CCFF33FFFF6600FF6633FF6666FF6699FF66CCFF66FFFF9900FF9933FF9966FF9999FF99CCFF99FFFFCC00FFCC33FFCC66FFCC99FFCCCCFFCCFFFFFF00FFFF33FFFF66FFFF99FFFFCCFFFFFF0000000D0D0D1A1A1A2828283535354343435050505D5D5D6B6B6B787878868686939393A1A1A1AEAEAEBB
310
BBBBC9C9C9D6D6D6E4E4E4F1F1F1FFFFFF000000000000000000000000000000000000000000000000000000000000B0E2D2350000025A4944415478DAEDDD3192DA30140050DD80C3D1E4302953ED115CB117A1DA53A44A641AA7867E1708C9829191D79891F1FBCC52C86BA3797CA12F3183430C738EF83B009837400400
310
0040ABED18AD865B076E9E10C73A21BFAB5900CFFC86030000000000000A2100000000000000401F8038B518B0219257434DADE61B5A0A0300000000000000000000305780DC85C7D88B9A418BA19132208E982A5FDDB507F07580F0C40043364416E9B80058DC310A02481F6A01DCEFFD0700000000008F06884F0C100100
310
000000000000000000000000000000364400000000000000000A2100000000000000000000000000003077001B220000000000000080D90228850100000000000000000000000000C00C016C8800000000000000F30550090200000000000000000000F0B9F5297E58590600780CC0EE14B30508EBD5C763BB0B036F0937D5
310
EF0576DBD57AF37D551EC0901DA1A6599E476706ACEA4DBDD9EE9619D134AD4B2F0B05E83104FEBCD475FD2BEB33E000308D0C68BFC6218BAF67C0B7B7AA7B087401EC0FEFFF0A03B8E87C174055FDA8DE7A00B4DAE3E151F667403C76F37A06AC5F5EF7B340EE10485CBB2C80D06308FCAC3EE6C1709E0117397E6ADD0384
310
490C81D4B4D555086502A4A6C492BE17689273781BA03945DE006892D72EA912BCD2C9BF5DED0248953DFFDA5200C7E7A2009AD83AF56E00FFAFF9F91FAC066D882CDC6CAD1C8062EE375860063C340000000000000000230284FE85508971EF0D91270D00000000000000409935DF23CA48000000000000E0FACA3FB91590
310
3A70F38438D609F95D5508010000000080738099C73B55D119216D027E380000000049454E44AE426082
  0
ENDSEC
  0
EOF
