  0
SECTION
  2
HEADER
  9
$ACADVER
  1
AC1027
  9
$ACADMAINTVER
 70
    83
  9
$DWGCODEPAGE
  3
ANSI_1252
  9
$LASTSAVEDBY
  1
usuario
  9
$REQUIREDVERSIONS
160
                 0
  9
$INSBASE
 10
0.0
 20
0.0
 30
0.0
  9
$EXTMIN
 10
2482.588025050736
 20
847.9093292968554
 30
0.0
  9
$EXTMAX
 10
2531.040384328892
 20
914.832605090417
 30
0.0
  9
$LIMMIN
 10
0.0
 20
0.0
  9
$LIMMAX
 10
420.0
 20
297.0
  9
$ORTHOMODE
 70
     1
  9
$REGENMODE
 70
     1
  9
$FILLMODE
 70
     1
  9
$QTEXTMODE
 70
     0
  9
$MIRRTEXT
 70
     0
  9
$LTSCALE
 40
1.0
  9
$ATTMODE
 70
     1
  9
$TEXTSIZE
 40
2.5
  9
$TRACEWID
 40
1.0
  9
$TEXTSTYLE
  7
Standard
  9
$CLAYER
  8
-
  9
$CELTYPE
  6
ByLayer
  9
$CECOLOR
 62
   256
  9
$CELTSCALE
 40
1.0
  9
$DISPSILH
 70
     0
  9
$DIMSCALE
 40
1.0
  9
$DIMASZ
 40
0.1
  9
$DIMEXO
 40
0.1
  9
$DIMDLI
 40
3.75
  9
$DIMRND
 40
0.0
  9
$DIMDLE
 40
0.0
  9
$DIMEXE
 40
0.1
  9
$DIMTP
 40
0.0
  9
$DIMTM
 40
0.0
  9
$DIMTXT
 40
0.15
  9
$DIMCEN
 40
2.5
  9
$DIMTSZ
 40
0.0
  9
$DIMTOL
 70
     0
  9
$DIMLIM
 70
     0
  9
$DIMTIH
 70
     0
  9
$DIMTOH
 70
     0
  9
$DIMSE1
 70
     0
  9
$DIMSE2
 70
     0
  9
$DIMTAD
 70
     1
  9
$DIMZIN
 70
     1
  9
$DIMBLK
  1
ArchTick
  9
$DIMASO
 70
     1
  9
$DIMSHO
 70
     1
  9
$DIMPOST
  1

  9
$DIMAPOST
  1

  9
$DIMALT
 70
     0
  9
$DIMALTD
 70
     3
  9
$DIMALTF
 40
0.03937007874016
  9
$DIMLFAC
 40
1.0
  9
$DIMTOFL
 70
     1
  9
$DIMTVP
 40
0.0
  9
$DIMTIX
 70
     0
  9
$DIMSOXD
 70
     0
  9
$DIMSAH
 70
     0
  9
$DIMBLK1
  1

  9
$DIMBLK2
  1

  9
$DIMSTYLE
  2
Guztion
  9
$DIMCLRD
 70
   256
  9
$DIMCLRE
 70
   256
  9
$DIMCLRT
 70
   256
  9
$DIMTFAC
 40
1.0
  9
$DIMGAP
 40
0.05
  9
$DIMJUST
 70
     0
  9
$DIMSD1
 70
     0
  9
$DIMSD2
 70
     0
  9
$DIMTOLJ
 70
     0
  9
$DIMTZIN
 70
     8
  9
$DIMALTZ
 70
     0
  9
$DIMALTTZ
 70
     0
  9
$DIMUPT
 70
     0
  9
$DIMDEC
 70
     2
  9
$DIMTDEC
 70
     2
  9
$DIMALTU
 70
     2
  9
$DIMALTTD
 70
     3
  9
$DIMTXSTY
  7
Standard
  9
$DIMAUNIT
 70
     0
  9
$DIMADEC
 70
     0
  9
$DIMALTRND
 40
0.0
  9
$DIMAZIN
 70
     0
  9
$DIMDSEP
 70
    46
  9
$DIMATFIT
 70
     3
  9
$DIMFRAC
 70
     0
  9
$DIMLDRBLK
  1

  9
$DIMLUNIT
 70
     2
  9
$DIMLWD
 70
    -2
  9
$DIMLWE
 70
    -2
  9
$DIMTMOVE
 70
     0
  9
$DIMFXL
 40
1.0
  9
$DIMFXLON
 70
     0
  9
$DIMJOGANG
 40
0.7853981633974483
  9
$DIMTFILL
 70
     0
  9
$DIMTFILLCLR
 70
     0
  9
$DIMARCSYM
 70
     0
  9
$DIMLTYPE
  6

  9
$DIMLTEX1
  6

  9
$DIMLTEX2
  6

  9
$DIMTXTDIRECTION
 70
     0
  9
$LUNITS
 70
     2
  9
$LUPREC
 70
     4
  9
$SKETCHINC
 40
1.0
  9
$FILLETRAD
 40
0.0
  9
$AUNITS
 70
     0
  9
$AUPREC
 70
     0
  9
$MENU
  1
.
  9
$ELEVATION
 40
0.0
  9
$PELEVATION
 40
0.0
  9
$THICKNESS
 40
0.0
  9
$LIMCHECK
 70
     0
  9
$CHAMFERA
 40
0.0
  9
$CHAMFERB
 40
0.0
  9
$CHAMFERC
 40
0.0
  9
$CHAMFERD
 40
0.0
  9
$SKPOLY
 70
     0
  9
$TDCREATE
 40
2458543.388716400
  9
$TDUCREATE
 40
2458543.305383067
  9
$TDUPDATE
 40
2458624.826134190
  9
$TDUUPDATE
 40
2458624.742800857
  9
$TDINDWG
 40
2.8280740972
  9
$TDUSRTIMER
 40
2.8280717477
  9
$USRTIMER
 70
     1
  9
$ANGBASE
 50
0.0
  9
$ANGDIR
 70
     0
  9
$PDMODE
 70
     0
  9
$PDSIZE
 40
0.0
  9
$PLINEWID
 40
0.0
  9
$SPLFRAME
 70
     0
  9
$SPLINETYPE
 70
     6
  9
$SPLINESEGS
 70
     8
  9
$HANDSEED
  5
9A09
  9
$SURFTAB1
 70
     6
  9
$SURFTAB2
 70
     6
  9
$SURFTYPE
 70
     6
  9
$SURFU
 70
     6
  9
$SURFV
 70
     6
  9
$UCSBASE
  2

  9
$UCSNAME
  2

  9
$UCSORG
 10
0.0
 20
0.0
 30
0.0
  9
$UCSXDIR
 10
1.0
 20
0.0
 30
0.0
  9
$UCSYDIR
 10
0.0
 20
1.0
 30
0.0
  9
$UCSORTHOREF
  2

  9
$UCSORTHOVIEW
 70
     0
  9
$UCSORGTOP
 10
0.0
 20
0.0
 30
0.0
  9
$UCSORGBOTTOM
 10
0.0
 20
0.0
 30
0.0
  9
$UCSORGLEFT
 10
0.0
 20
0.0
 30
0.0
  9
$UCSORGRIGHT
 10
0.0
 20
0.0
 30
0.0
  9
$UCSORGFRONT
 10
0.0
 20
0.0
 30
0.0
  9
$UCSORGBACK
 10
0.0
 20
0.0
 30
0.0
  9
$PUCSBASE
  2

  9
$PUCSNAME
  2

  9
$PUCSORG
 10
0.0
 20
0.0
 30
0.0
  9
$PUCSXDIR
 10
1.0
 20
0.0
 30
0.0
  9
$PUCSYDIR
 10
0.0
 20
1.0
 30
0.0
  9
$PUCSORTHOREF
  2

  9
$PUCSORTHOVIEW
 70
     0
  9
$PUCSORGTOP
 10
0.0
 20
0.0
 30
0.0
  9
$PUCSORGBOTTOM
 10
0.0
 20
0.0
 30
0.0
  9
$PUCSORGLEFT
 10
0.0
 20
0.0
 30
0.0
  9
$PUCSORGRIGHT
 10
0.0
 20
0.0
 30
0.0
  9
$PUCSORGFRONT
 10
0.0
 20
0.0
 30
0.0
  9
$PUCSORGBACK
 10
0.0
 20
0.0
 30
0.0
  9
$USERI1
 70
     0
  9
$USERI2
 70
     0
  9
$USERI3
 70
     0
  9
$USERI4
 70
     0
  9
$USERI5
 70
     0
  9
$USERR1
 40
0.0
  9
$USERR2
 40
0.0
  9
$USERR3
 40
0.0
  9
$USERR4
 40
0.0
  9
$USERR5
 40
0.0
  9
$WORLDVIEW
 70
     1
  9
$SHADEDGE
 70
     3
  9
$SHADEDIF
 70
    70
  9
$TILEMODE
 70
     0
  9
$MAXACTVP
 70
    64
  9
$PINSBASE
 10
0.0
 20
0.0
 30
0.0
  9
$PLIMCHECK
 70
     0
  9
$PEXTMIN
 10
-0.0018762920232689
 20
0.2812602170592981
 30
0.0
  9
$PEXTMAX
 10
231.3
 20
175.5
 30
0.0
  9
$PLIMMIN
 10
-0.0018762920232689
 20
0.2812602170592981
  9
$PLIMMAX
 10
0.2081237079767311
 20
0.5782602170592981
  9
$UNITMODE
 70
     0
  9
$VISRETAIN
 70
     1
  9
$PLINEGEN
 70
     0
  9
$PSLTSCALE
 70
     1
  9
$TREEDEPTH
 70
  3020
  9
$CMLSTYLE
  2
Standard
  9
$CMLJUST
 70
     0
  9
$CMLSCALE
 40
20.0
  9
$PROXYGRAPHICS
 70
     1
  9
$MEASUREMENT
 70
     1
  9
$CELWEIGHT
370
    -1
  9
$ENDCAPS
280
     0
  9
$JOINSTYLE
280
     0
  9
$LWDISPLAY
290
     0
  9
$INSUNITS
 70
     4
  9
$HYPERLINKBASE
  1

  9
$STYLESHEET
  1
Guztion_Planoak_pdf.ctb
  9
$XEDIT
290
     1
  9
$CEPSNTYPE
380
     0
  9
$PSTYLEMODE
290
     1
  9
$FINGERPRINTGUID
  2
{454E2246-75CB-45FB-A2E0-00429C7F3A53}
  9
$VERSIONGUID
  2
{36F0943D-48FB-4816-AF3C-FFB7BC4834DB}
  9
$EXTNAMES
290
     1
  9
$PSVPSCALE
 40
0.0
  9
$OLESTARTUP
290
     0
  9
$SORTENTS
280
   127
  9
$INDEXCTL
280
     0
  9
$HIDETEXT
280
     1
  9
$XCLIPFRAME
280
     2
  9
$HALOGAP
280
     0
  9
$OBSCOLOR
 70
   257
  9
$OBSLTYPE
280
     0
  9
$INTERSECTIONDISPLAY
280
     0
  9
$INTERSECTIONCOLOR
 70
   257
  9
$DIMASSOC
280
     2
  9
$PROJECTNAME
  1

  9
$CAMERADISPLAY
290
     0
  9
$LENSLENGTH
 40
50.0
  9
$CAMERAHEIGHT
 40
0.0
  9
$STEPSPERSEC
 40
2.0
  9
$STEPSIZE
 40
6.0
  9
$3DDWFPREC
 40
2.0
  9
$PSOLWIDTH
 40
5.0
  9
$PSOLHEIGHT
 40
80.0
  9
$LOFTANG1
 40
1.570796326794896
  9
$LOFTANG2
 40
1.570796326794896
  9
$LOFTMAG1
 40
0.0
  9
$LOFTMAG2
 40
0.0
  9
$LOFTPARAM
 70
     7
  9
$LOFTNORMALS
280
     1
  9
$LATITUDE
 40
37.795
  9
$LONGITUDE
 40
-122.394
  9
$NORTHDIRECTION
 40
0.0
  9
$TIMEZONE
 70
 -8000
  9
$LIGHTGLYPHDISPLAY
280
     1
  9
$TILEMODELIGHTSYNCH
280
     1
  9
$CMATERIAL
347
EC
  9
$SOLIDHIST
280
     0
  9
$SHOWHIST
280
     1
  9
$DWFFRAME
280
     2
  9
$DGNFRAME
280
     0
  9
$REALWORLDSCALE
290
     1
  9
$INTERFERECOLOR
 62
     1
  9
$INTERFEREOBJVS
345
F9
  9
$INTERFEREVPVS
346
F6
  9
$CSHADOW
280
     0
  9
$SHADOWPLANELOCATION
 40
0.0
  0
ENDSEC
  0
SECTION
  2
CLASSES
  0
CLASS
  1
ACDBDICTIONARYWDFLT
  2
AcDbDictionaryWithDefault
  3
ObjectDBX Classes
 90
        0
 91
        1
280
     0
281
     0
  0
CLASS
  1
DICTIONARYVAR
  2
AcDbDictionaryVar
  3
ObjectDBX Classes
 90
        0
 91
        9
280
     0
281
     0
  0
CLASS
  1
TABLESTYLE
  2
AcDbTableStyle
  3
ObjectDBX Classes
 90
     4095
 91
        1
280
     0
281
     0
  0
CLASS
  1
MATERIAL
  2
AcDbMaterial
  3
ObjectDBX Classes
 90
     1153
 91
        3
280
     0
281
     0
  0
CLASS
  1
VISUALSTYLE
  2
AcDbVisualStyle
  3
ObjectDBX Classes
 90
     4095
 91
       24
280
     0
281
     0
  0
CLASS
  1
SCALE
  2
AcDbScale
  3
ObjectDBX Classes
 90
     1153
 91
       18
280
     0
281
     0
  0
CLASS
  1
MLEADERSTYLE
  2
AcDbMLeaderStyle
  3
ACDB_MLEADERSTYLE_CLASS
 90
     4095
 91
        2
280
     0
281
     0
  0
CLASS
  1
CELLSTYLEMAP
  2
AcDbCellStyleMap
  3
ObjectDBX Classes
 90
     1152
 91
        1
280
     0
281
     0
  0
CLASS
  1
EXACXREFPANELOBJECT
  2
ExAcXREFPanelObject
  3
EXAC_ESW
 90
     1025
 91
        0
280
     0
281
     0
  0
CLASS
  1
NPOCOLLECTION
  2
AcDbImpNonPersistentObjectsCollection
  3
ObjectDBX Classes
 90
     1153
 91
        0
280
     0
281
     0
  0
CLASS
  1
LAYER_INDEX
  2
AcDbLayerIndex
  3
ObjectDBX Classes
 90
        0
 91
        0
280
     0
281
     0
  0
CLASS
  1
SPATIAL_INDEX
  2
AcDbSpatialIndex
  3
ObjectDBX Classes
 90
        0
 91
        0
280
     0
281
     0
  0
CLASS
  1
IDBUFFER
  2
AcDbIdBuffer
  3
ObjectDBX Classes
 90
        0
 91
        0
280
     0
281
     0
  0
CLASS
  1
ACDBSECTIONVIEWSTYLE
  2
AcDbSectionViewStyle
  3
ObjectDBX Classes
 90
     1025
 91
        2
280
     0
281
     0
  0
CLASS
  1
ACDBDETAILVIEWSTYLE
  2
AcDbDetailViewStyle
  3
ObjectDBX Classes
 90
     1025
 91
        2
280
     0
281
     0
  0
CLASS
  1
SORTENTSTABLE
  2
AcDbSortentsTable
  3
ObjectDBX Classes
 90
        0
 91
        3
280
     0
281
     0
  0
CLASS
  1
RASTERVARIABLES
  2
AcDbRasterVariables
  3
ISM
 90
        0
 91
        1
280
     0
281
     0
  0
CLASS
  1
IMAGEDEF
  2
AcDbRasterImageDef
  3
ISM
 90
        0
 91
        7
280
     0
281
     0
  0
CLASS
  1
IMAGEDEF_REACTOR
  2
AcDbRasterImageDefReactor
  3
ISM
 90
        1
 91
        3
280
     0
281
     0
  0
CLASS
  1
IMAGE
  2
AcDbRasterImage
  3
ISM
 90
     2175
 91
        3
280
     0
281
     1
  0
CLASS
  1
DIMASSOC
  2
AcDbDimAssoc
  3
"AcDbDimAssoc|Product Desc:     AcDim ARX App For Dimension|Company:          Autodesk, Inc.|WEB Address:      www.autodesk.com"
 90
        0
 91
       23
280
     0
281
     0
  0
CLASS
  1
BREAKDATA
  2
AcDbBreakData
  3
ObjectDBX Classes
 90
     1024
 91
        0
280
     0
281
     0
  0
CLASS
  1
SOLID_BACKGROUND
  2
AcDbSolidBackground
  3
SCENEOE
 90
     4095
 91
        0
280
     0
281
     0
  0
ENDSEC
  0
SECTION
  2
TABLES
  0
TABLE
  2
VPORT
  5
8
330
0
100
AcDbSymbolTable
 70
     1
  0
VPORT
  5
EA
330
8
100
AcDbSymbolTableRecord
100
AcDbViewportTableRecord
  2
*Active
 70
     0
 10
0.0
 20
0.0
 11
1.0
 21
1.0
 12
-112.8176978347387
 22
3.728714625197881
 13
0.0
 23
0.0
 14
10.0
 24
10.0
 15
10.0
 25
10.0
 16
0.0
 26
0.0
 36
0.6188922984979737
 17
2619.601320438711
 27
877.6296409676874
 37
0.0
 40
67.64758187212272
 41
2.182692307692307
 42
50.0
 43
0.0
 44
0.0
 50
0.0
 51
0.0
 71
     0
 72
  1000
 73
     1
 74
     3
 75
     0
 76
     0
 77
     0
 78
     1
281
     0
 65
     1
110
0.0
120
0.0
130
0.0
111
1.0
121
0.0
131
0.0
112
0.0
122
1.0
132
0.0
 79
     0
146
0.0
348
F5
 60
     3
 61
     5
292
     1
282
     1
141
0.0
142
0.0
 63
   250
421
  3355443
1001
ACAD_NAV_VCDISPLAY
1070
     3
  0
ENDTAB
  0
TABLE
  2
LTYPE
  5
5
330
0
100
AcDbSymbolTable
 70
     4
  0
LTYPE
  5
14
330
5
100
AcDbSymbolTableRecord
100
AcDbLinetypeTableRecord
  2
ByBlock
 70
     0
  3

 72
    65
 73
     0
 40
0.0
  0
LTYPE
  5
15
330
5
100
AcDbSymbolTableRecord
100
AcDbLinetypeTableRecord
  2
ByLayer
 70
     0
  3

 72
    65
 73
     0
 40
0.0
  0
LTYPE
  5
16
330
5
100
AcDbSymbolTableRecord
100
AcDbLinetypeTableRecord
  2
Continuous
 70
     0
  3
Solid line
 72
    65
 73
     0
 40
0.0
  0
LTYPE
  5
3B76
330
5
100
AcDbSymbolTableRecord
100
AcDbLinetypeTableRecord
  2
ACAD_ISO02W100
 70
     0
  3
 ISO trazo __ __ __ __ __ __ __ __ __ __ __ __ 
 72
    65
 73
     2
 40
15.0
 49
12.0
 74
     0
 49
-3.0
 74
     0
  0
LTYPE
  5
3B7A
330
5
100
AcDbSymbolTableRecord
100
AcDbLinetypeTableRecord
  2
ACAD_ISO04W100
 70
     0
  3
 ISO trazo largo, punto ____ . ____ . ____ . __
 72
    65
 73
     4
 40
30.0
 49
24.0
 74
     0
 49
-3.0
 74
     0
 49
0.0
 74
     0
 49
-3.0
 74
     0
  0
LTYPE
  5
9168
330
5
100
AcDbSymbolTableRecord
100
AcDbLinetypeTableRecord
  2
DISCONT
 70
     0
  3
- - - - - - -
 72
    65
 73
     2
 40
2.0
 49
1.0
 74
     0
 49
-1.0
 74
     0
  0
ENDTAB
  0
TABLE
  2
LAYER
  5
2
102
{ACAD_XDICTIONARY
360
1FF
102
}
330
0
100
AcDbSymbolTable
 70
    30
  0
LAYER
  5
10
102
{ACAD_XDICTIONARY
360
13C
102
}
330
2
100
AcDbSymbolTableRecord
100
AcDbLayerTableRecord
  2
0
 70
     0
 62
     7
  6
Continuous
370
    -3
390
F
347
EE
348
0
  0
LAYER
  5
485
330
2
100
AcDbSymbolTableRecord
100
AcDbLayerTableRecord
  2
1.7. Ventanas Gráficas
 70
     0
 62
     5
  6
Continuous
290
     0
370
    -3
390
F
347
EE
348
0
1001
AcAecLayerStandard
1000

1000

1001
AcCmTransparency
1071
        0
  0
LAYER
  5
659
330
2
100
AcDbSymbolTableRecord
100
AcDbLayerTableRecord
  2
1.5. Marra1
 70
     0
 62
   248
  6
Continuous
370
    -3
390
F
347
EE
348
0
1001
AcAecLayerStandard
1000

1000

1001
AcCmTransparency
1071
        0
  0
LAYER
  5
6C6
102
{ACAD_XDICTIONARY
360
6C7
102
}
330
2
100
AcDbSymbolTableRecord
100
AcDbLayerTableRecord
  2
1.6. Marra2
 70
     0
 62
   252
  6
Continuous
370
    -3
390
F
347
EE
348
0
1001
AcAecLayerStandard
1000

1000

  0
LAYER
  5
7AC
330
2
100
AcDbSymbolTableRecord
100
AcDbLayerTableRecord
  2
1.4. Idatzia
 70
     0
 62
     7
  6
Continuous
370
    -3
390
F
347
EE
348
0
1001
AcAecLayerStandard
1000

1000

1001
AcCmTransparency
1071
        0
  0
LAYER
  5
7AD
330
2
100
AcDbSymbolTableRecord
100
AcDbLayerTableRecord
  2
1.1. Armarria
 70
     0
 62
     7
420
 16777215
  6
Continuous
370
    -3
390
F
347
EE
348
0
1001
AcAecLayerStandard
1000

1000

1001
AcCmTransparency
1071
        0
  0
LAYER
  5
7AE
330
2
100
AcDbSymbolTableRecord
100
AcDbLayerTableRecord
  2
1.3. Eskala grafikoa
 70
     0
 62
     7
  6
Continuous
370
    -3
390
F
347
EE
348
0
1001
AcAecLayerStandard
1000

1000

1001
AcCmTransparency
1071
        0
  0
LAYER
  5
FC3
330
2
100
AcDbSymbolTableRecord
100
AcDbLayerTableRecord
  2
2.1. Kanpo Horma
 70
     0
 62
    74
  6
Continuous
370
    -3
390
F
347
EE
348
0
1001
AcAecLayerStandard
1000

1000

1001
AcCmTransparency
1071
        0
  0
LAYER
  5
FC4
330
2
100
AcDbSymbolTableRecord
100
AcDbLayerTableRecord
  2
2.2. Barne Horma
 70
     0
 62
   160
  6
Continuous
370
    -3
390
F
347
EE
348
0
1001
AcAecLayerStandard
1000

1000

1001
AcCmTransparency
1071
        0
  0
LAYER
  5
FC5
330
2
100
AcDbSymbolTableRecord
100
AcDbLayerTableRecord
  2
2.3. Mehelina
 70
     0
 62
    42
  6
Continuous
370
    -3
390
F
347
EE
348
0
1001
AcAecLayerStandard
1000

1000

1001
AcCmTransparency
1071
        0
  0
LAYER
  5
FC6
330
2
100
AcDbSymbolTableRecord
100
AcDbLayerTableRecord
  2
3.1. Atea
 70
     0
 62
   251
  6
Continuous
370
    -3
390
F
347
EE
348
0
1001
AcAecLayerStandard
1000

1000

1001
AcCmTransparency
1071
        0
  0
LAYER
  5
FC7
330
2
100
AcDbSymbolTableRecord
100
AcDbLayerTableRecord
  2
3.2. Leihoa
 70
     0
 62
   251
  6
Continuous
370
    -3
390
F
347
EE
348
0
1001
AcAecLayerStandard
1000

1000

1001
AcCmTransparency
1071
        0
  0
LAYER
  5
FC8
330
2
100
AcDbSymbolTableRecord
100
AcDbLayerTableRecord
  2
2.4. Terraza horma
 70
     0
 62
     9
  6
Continuous
370
    -3
390
F
347
EE
348
0
1001
AcAecLayerStandard
1000

1000

1001
AcCmTransparency
1071
        0
  0
LAYER
  5
FC9
330
2
100
AcDbSymbolTableRecord
100
AcDbLayerTableRecord
  2
3.3. Eskudela
 70
     0
 62
   251
  6
Continuous
370
    -3
390
F
347
EE
348
0
1001
AcAecLayerStandard
1000

1000

1001
AcCmTransparency
1071
        0
  0
LAYER
  5
14FC
330
2
100
AcDbSymbolTableRecord
100
AcDbLayerTableRecord
  2
7.3. Kota
 70
     0
 62
   251
  6
Continuous
370
    -3
390
F
347
EE
348
0
1001
AcAecLayerStandard
1000

1000

1001
AcCmTransparency
1071
        0
  0
LAYER
  5
150C
330
2
100
AcDbSymbolTableRecord
100
AcDbLayerTableRecord
  2
2.5. Horma itzala
 70
     0
 62
   253
  6
Continuous
370
    -3
390
F
347
EE
348
0
1001
AcAecLayerStandard
1000

1000

1001
AcCmTransparency
1071
        0
  0
LAYER
  5
1874
330
2
100
AcDbSymbolTableRecord
100
AcDbLayerTableRecord
  2
5.1. Komuneko altzaria
 70
     0
 62
   252
  6
Continuous
370
    -3
390
F
347
EE
348
0
1001
AcAecLayerStandard
1000

1000

1001
AcCmTransparency
1071
        0
  0
LAYER
  5
194D
330
2
100
AcDbSymbolTableRecord
100
AcDbLayerTableRecord
  2
-
 70
     0
 62
     7
  6
Continuous
370
    -3
390
F
347
EE
348
0
  0
LAYER
  5
1BDA
330
2
100
AcDbSymbolTableRecord
100
AcDbLayerTableRecord
  2
Defpoints
 70
     0
 62
     7
  6
Continuous
290
     0
370
    -3
390
F
347
EE
348
0
  0
LAYER
  5
24FF
330
2
100
AcDbSymbolTableRecord
100
AcDbLayerTableRecord
  2
2.6. Zorua
 70
     0
 62
   253
  6
Continuous
370
    -3
390
F
347
EE
348
0
1001
AcAecLayerStandard
1000

1000

1001
AcCmTransparency
1071
        0
  0
LAYER
  5
253B
330
2
100
AcDbSymbolTableRecord
100
AcDbLayerTableRecord
  2
6.1. Eskailerak
 70
     0
 62
   252
  6
Continuous
370
    -3
390
F
347
EE
348
0
1001
AcAecLayerStandard
1000

1000

1001
AcCmTransparency
1071
        0
  0
LAYER
  5
3AB1
330
2
100
AcDbSymbolTableRecord
100
AcDbLayerTableRecord
  2
7.1. Azalera erabilgarria
 70
     0
 62
   -12
  6
Continuous
290
     0
370
    -3
390
F
347
EE
348
0
1001
AcAecLayerStandard
1000

1000

1001
AcCmTransparency
1071
        0
  0
LAYER
  5
3B73
330
2
100
AcDbSymbolTableRecord
100
AcDbLayerTableRecord
  2
8.1. Irisgarritasun boloa
 70
     0
 62
   252
  6
ACAD_ISO02W100
370
    -3
390
F
347
EE
348
0
1001
AcAecLayerStandard
1000

1000

1001
AcCmTransparency
1071
        0
  0
LAYER
  5
4035
330
2
100
AcDbSymbolTableRecord
100
AcDbLayerTableRecord
  2
4.1. Zeramika-baldosa
 70
     0
 62
   253
  6
Continuous
370
    -3
390
F
347
EE
348
0
1001
AcAecLayerStandard
1000

1000

1001
AcCmTransparency
1071
        0
  0
LAYER
  5
4129
330
2
100
AcDbSymbolTableRecord
100
AcDbLayerTableRecord
  2
7.2. Idatzia
 70
     0
 62
    18
420
   526344
  6
Continuous
370
    -3
390
F
347
EE
348
0
1001
AcAecLayerStandard
1000

1000

1001
AcCmTransparency
1071
        0
  0
LAYER
  5
45C5
330
2
100
AcDbSymbolTableRecord
100
AcDbLayerTableRecord
  2
4.2. Parket
 70
     0
 62
   253
  6
Continuous
370
    -3
390
F
347
EE
348
0
1001
AcAecLayerStandard
1000

1000

1001
AcCmTransparency
1071
        0
  0
LAYER
  5
8D45
330
2
100
AcDbSymbolTableRecord
100
AcDbLayerTableRecord
  2
4.3. Moketa
 70
     0
 62
   253
  6
Continuous
370
    -3
390
F
347
EE
348
0
1001
AcAecLayerStandard
1000

1000

1001
AcCmTransparency
1071
        0
  0
LAYER
  5
9169
102
{ACAD_XDICTIONARY
360
916A
102
}
330
2
100
AcDbSymbolTableRecord
100
AcDbLayerTableRecord
  2
Basea_Eraikuntza
 70
     0
 62
     7
  6
Continuous
370
    -3
390
F
347
EE
348
0
1001
RAK
1000
{ACET-LAYISO
1070
     0
1070
     1
1000
CONTINUOUS
1071
       -3
1071
        1
1005
F
1000
ACET-LAYISO}
  0
LAYER
  5
916B
330
2
100
AcDbSymbolTableRecord
100
AcDbLayerTableRecord
  2
Azterketa Eremua_6. Gunea
 70
     0
 62
   251
  6
DISCONT
370
    53
390
F
347
EE
348
0
1001
AcAecLayerStandard
1000

1000

1001
AcCmTransparency
1071
        0
  0
LAYER
  5
9232
330
2
100
AcDbSymbolTableRecord
100
AcDbLayerTableRecord
  2
7.1.1. Azalera eraikia
 70
     0
 62
   -12
  6
Continuous
290
     0
370
    -3
390
F
347
EE
348
0
1001
AcAecLayerStandard
1000

1000

1001
AcCmTransparency
1071
        0
  0
ENDTAB
  0
TABLE
  2
STYLE
  5
3
330
0
100
AcDbSymbolTable
 70
     3
  0
STYLE
  5
11
330
3
100
AcDbSymbolTableRecord
100
AcDbTextStyleTableRecord
  2
Standard
 70
     0
 40
0.0
 41
1.0
 50
0.0
 71
     0
 42
2.5
  3
arial.ttf
  4

1001
ACAD
1000
Arial
1071
       34
  0
STYLE
  5
132
330
3
100
AcDbSymbolTableRecord
100
AcDbTextStyleTableRecord
  2
Anotativo
 70
     0
 40
0.0
 41
1.0
 50
0.0
 71
     0
 42
2.5
  3
arial.ttf
  4

1001
AcadAnnotative
1000
AnnotativeData
1002
{
1070
     1
1070
     1
1002
}
1001
ACAD
1000
Arial
1071
       34
  0
STYLE
  5
3B75
330
3
100
AcDbSymbolTableRecord
100
AcDbTextStyleTableRecord
  2

 70
     1
 40
0.0
 41
1.0
 50
0.0
 71
     0
 42
2.5
  3
ltypeshp.shx
  4

  0
ENDTAB
  0
TABLE
  2
VIEW
  5
6
330
0
100
AcDbSymbolTable
 70
     0
  0
ENDTAB
  0
TABLE
  2
UCS
  5
7
330
0
100
AcDbSymbolTable
 70
     0
  0
ENDTAB
  0
TABLE
  2
APPID
  5
9
330
0
100
AcDbSymbolTable
 70
    16
  0
APPID
  5
12
330
9
100
AcDbSymbolTableRecord
100
AcDbRegAppTableRecord
  2
ACAD
 70
     0
  0
APPID
  5
9E
330
9
100
AcDbSymbolTableRecord
100
AcDbRegAppTableRecord
  2
ACAD_PSEXT
 70
     0
  0
APPID
  5
133
330
9
100
AcDbSymbolTableRecord
100
AcDbRegAppTableRecord
  2
AcadAnnoPO
 70
     0
  0
APPID
  5
134
330
9
100
AcDbSymbolTableRecord
100
AcDbRegAppTableRecord
  2
AcadAnnotative
 70
     0
  0
APPID
  5
135
330
9
100
AcDbSymbolTableRecord
100
AcDbRegAppTableRecord
  2
ACAD_DSTYLE_DIMJAG
 70
     0
  0
APPID
  5
136
330
9
100
AcDbSymbolTableRecord
100
AcDbRegAppTableRecord
  2
ACAD_DSTYLE_DIMTALN
 70
     0
  0
APPID
  5
165
330
9
100
AcDbSymbolTableRecord
100
AcDbRegAppTableRecord
  2
ACAD_MLEADERVER
 70
     0
  0
APPID
  5
217
330
9
100
AcDbSymbolTableRecord
100
AcDbRegAppTableRecord
  2
ACAD_NAV_VCDISPLAY
 70
     0
  0
APPID
  5
24C
330
9
100
AcDbSymbolTableRecord
100
AcDbRegAppTableRecord
  2
ACAD_EXEMPT_FROM_CAD_STANDARDS
 70
     0
  0
APPID
  5
486
330
9
100
AcDbSymbolTableRecord
100
AcDbRegAppTableRecord
  2
AcAecLayerStandard
 70
     0
  0
APPID
  5
487
330
9
100
AcDbSymbolTableRecord
100
AcDbRegAppTableRecord
  2
AcCmTransparency
 70
     0
  0
APPID
  5
FCA
330
9
100
AcDbSymbolTableRecord
100
AcDbRegAppTableRecord
  2
GradientColor1ACI
 70
     0
  0
APPID
  5
FCB
330
9
100
AcDbSymbolTableRecord
100
AcDbRegAppTableRecord
  2
GradientColor2ACI
 70
     0
  0
APPID
  5
14FB
330
9
100
AcDbSymbolTableRecord
100
AcDbRegAppTableRecord
  2
ACAD_DSTYLE_DIMBREAK
 70
     0
  0
APPID
  5
916C
330
9
100
AcDbSymbolTableRecord
100
AcDbRegAppTableRecord
  2
RAK
 70
     0
  0
APPID
  5
916D
330
9
100
AcDbSymbolTableRecord
100
AcDbRegAppTableRecord
  2
IRD
 70
     0
  0
ENDTAB
  0
TABLE
  2
DIMSTYLE
  5
A
330
0
100
AcDbSymbolTable
 70
     4
100
AcDbDimStyleTable
 71
     3
340
1501
340
27
340
137
  0
DIMSTYLE
105
1B0
330
A
100
AcDbSymbolTableRecord
100
AcDbDimStyleTableRecord
  2
Standard
 70
     0
340
11
  0
DIMSTYLE
105
137
330
A
100
AcDbSymbolTableRecord
100
AcDbDimStyleTableRecord
  2
Anotativo
 70
     0
 40
0.0
 41
2.5
 42
0.625
 43
3.75
 44
1.25
 73
     0
 74
     0
 77
     1
 78
     8
140
2.5
141
2.5
143
0.03937007874016
147
0.625
171
     3
172
     1
271
     2
272
     2
274
     3
278
    44
283
     0
284
     8
340
11
1001
AcadAnnotative
1000
AnnotativeData
1002
{
1070
     1
1070
     1
1002
}
1001
ACAD_DSTYLE_DIMJAG
1070
   388
1040
1.5
1001
ACAD_DSTYLE_DIMTALN
1070
   392
1070
     0
  0
DIMSTYLE
105
27
330
A
100
AcDbSymbolTableRecord
100
AcDbDimStyleTableRecord
  2
ISO-25
 70
     0
 41
2.5
 42
0.625
 43
3.75
 44
1.25
 73
     0
 74
     0
 77
     1
 78
     8
140
2.5
141
2.5
143
0.03937007874016
147
0.625
171
     3
172
     1
271
     2
272
     2
274
     3
278
    44
283
     0
284
     8
340
11
  0
DIMSTYLE
105
1501
102
{ACAD_REACTORS
330
3D13
330
3D2B
330
3D43
330
3D73
330
3DA7
330
3DBF
330
5CBE
330
5CCB
330
5CD8
330
5CE3
330
5CFB
330
5D2F
330
5D63
330
5D97
330
5DAF
330
5DC7
330
5DF7
330
5E1F
330
5E33
330
5E4B
330
5E63
330
5E7B
330
5E93
330
5EAB
330
5EC4
330
5FB9
330
5FFC
330
90EA
102
}
330
A
100
AcDbSymbolTableRecord
100
AcDbDimStyleTableRecord
  2
Guztion
 70
     0
 41
0.1
 42
0.1
 43
3.75
 44
0.1
 73
     0
 74
     0
 77
     1
 78
     1
140
0.15
141
2.5
143
0.03937007874016
147
0.05
171
     3
172
     1
176
   256
177
   256
178
   256
271
     2
272
     2
274
     3
283
     0
284
     8
340
11
342
14FD
1001
ACAD_DSTYLE_DIMBREAK
1070
   391
1040
3.75
1001
ACAD_DSTYLE_DIMJAG
1070
   388
1040
1.5
1001
ACAD_DSTYLE_DIMTALN
1070
   392
1070
     0
  0
ENDTAB
  0
TABLE
  2
BLOCK_RECORD
  5
1
330
0
100
AcDbSymbolTable
 70
   287
  0
BLOCK_RECORD
  5
1F
102
{ACAD_XDICTIONARY
360
1CE
102
}
330
1
100
AcDbSymbolTableRecord
100
AcDbBlockTableRecord
  2
*Model_Space
340
22
 70
     0
280
     1
281
     0
  0
BLOCK_RECORD
  5
2B1B
330
1
100
AcDbSymbolTableRecord
100
AcDbBlockTableRecord
  2
*Paper_Space
340
2B28
 70
     0
280
     1
281
     0
  0
BLOCK_RECORD
  5
14FD
330
1
100
AcDbSymbolTableRecord
100
AcDbBlockTableRecord
  2
_ArchTick
340
0
102
{BLKREFS
331
90F1
331
90F2
331
5CC5
331
5CC6
331
5CD2
331
5CD3
331
5CDD
331
5CDE
331
5CF4
331
5CF5
331
5D0C
331
5D0D
331
5D40
331
5D41
331
5D74
331
5D75
331
5DA8
331
5DA9
331
5DC0
331
5DC1
331
6009
331
600A
331
5DD8
331
5DD9
331
5E04
331
5E05
331
5E2C
331
5E2D
331
5E44
331
5E45
331
5E5C
331
5E5D
331
5E74
331
5E75
331
5E8C
331
5E8D
331
5EA4
331
5EA5
331
5EB2
331
5EB3
331
5ED5
331
5ED6
331
5FCA
331
5FCB
331
3D24
331
3D25
331
3D3C
331
3D3D
331
3D54
331
3D55
331
3D84
331
3D85
331
3DB8
331
3DB9
331
3DD0
331
3DD1
102
}
 70
     0
280
     1
281
     0
  0
BLOCK_RECORD
  5
194E
330
1
100
AcDbSymbolTableRecord
100
AcDbBlockTableRecord
  2
A$C6A1E31B2
340
0
 70
     0
280
     1
281
     0
  0
BLOCK_RECORD
  5
2643
102
{ACAD_XDICTIONARY
360
2645
102
}
330
1
100
AcDbSymbolTableRecord
100
AcDbBlockTableRecord
  2
A$C4C6C188E
340
0
 70
     4
280
     1
281
     0
  0
BLOCK_RECORD
  5
D6
330
1
100
AcDbSymbolTableRecord
100
AcDbBlockTableRecord
  2
*Paper_Space12
340
D7
 70
     0
280
     1
281
     0
  0
BLOCK_RECORD
  5
3D14
330
1
100
AcDbSymbolTableRecord
100
AcDbBlockTableRecord
  2
*D17
340
0
 70
     0
280
     1
281
     0
  0
BLOCK_RECORD
  5
3D2C
330
1
100
AcDbSymbolTableRecord
100
AcDbBlockTableRecord
  2
*D18
340
0
 70
     0
280
     1
281
     0
  0
BLOCK_RECORD
  5
3D44
330
1
100
AcDbSymbolTableRecord
100
AcDbBlockTableRecord
  2
*D19
340
0
 70
     0
280
     1
281
     0
  0
BLOCK_RECORD
  5
3D74
330
1
100
AcDbSymbolTableRecord
100
AcDbBlockTableRecord
  2
*D20
340
0
 70
     0
280
     1
281
     0
  0
BLOCK_RECORD
  5
3DA8
330
1
100
AcDbSymbolTableRecord
100
AcDbBlockTableRecord
  2
*D21
340
0
 70
     0
280
     1
281
     0
  0
BLOCK_RECORD
  5
3DC0
330
1
100
AcDbSymbolTableRecord
100
AcDbBlockTableRecord
  2
*D22
340
0
 70
     0
280
     1
281
     0
  0
BLOCK_RECORD
  5
5CBF
330
1
100
AcDbSymbolTableRecord
100
AcDbBlockTableRecord
  2
*D140
340
0
 70
     0
280
     1
281
     0
  0
BLOCK_RECORD
  5
5CCC
330
1
100
AcDbSymbolTableRecord
100
AcDbBlockTableRecord
  2
*D141
340
0
 70
     0
280
     1
281
     0
  0
BLOCK_RECORD
  5
5CD9
330
1
100
AcDbSymbolTableRecord
100
AcDbBlockTableRecord
  2
*D142
340
0
 70
     0
280
     1
281
     0
  0
BLOCK_RECORD
  5
5CE4
330
1
100
AcDbSymbolTableRecord
100
AcDbBlockTableRecord
  2
*D143
340
0
 70
     0
280
     1
281
     0
  0
BLOCK_RECORD
  5
5CFC
330
1
100
AcDbSymbolTableRecord
100
AcDbBlockTableRecord
  2
*D144
340
0
 70
     0
280
     1
281
     0
  0
BLOCK_RECORD
  5
5D30
330
1
100
AcDbSymbolTableRecord
100
AcDbBlockTableRecord
  2
*D145
340
0
 70
     0
280
     1
281
     0
  0
BLOCK_RECORD
  5
5D64
330
1
100
AcDbSymbolTableRecord
100
AcDbBlockTableRecord
  2
*D146
340
0
 70
     0
280
     1
281
     0
  0
BLOCK_RECORD
  5
5D98
330
1
100
AcDbSymbolTableRecord
100
AcDbBlockTableRecord
  2
*D147
340
0
 70
     0
280
     1
281
     0
  0
BLOCK_RECORD
  5
5DB0
330
1
100
AcDbSymbolTableRecord
100
AcDbBlockTableRecord
  2
*D148
340
0
 70
     0
280
     1
281
     0
  0
BLOCK_RECORD
  5
5DC8
330
1
100
AcDbSymbolTableRecord
100
AcDbBlockTableRecord
  2
*D149
340
0
 70
     0
280
     1
281
     0
  0
BLOCK_RECORD
  5
5DF8
330
1
100
AcDbSymbolTableRecord
100
AcDbBlockTableRecord
  2
*D150
340
0
 70
     0
280
     1
281
     0
  0
BLOCK_RECORD
  5
5E20
330
1
100
AcDbSymbolTableRecord
100
AcDbBlockTableRecord
  2
*D151
340
0
 70
     0
280
     1
281
     0
  0
BLOCK_RECORD
  5
5E34
330
1
100
AcDbSymbolTableRecord
100
AcDbBlockTableRecord
  2
*D152
340
0
 70
     0
280
     1
281
     0
  0
BLOCK_RECORD
  5
5E4C
330
1
100
AcDbSymbolTableRecord
100
AcDbBlockTableRecord
  2
*D153
340
0
 70
     0
280
     1
281
     0
  0
BLOCK_RECORD
  5
5E64
330
1
100
AcDbSymbolTableRecord
100
AcDbBlockTableRecord
  2
*D154
340
0
 70
     0
280
     1
281
     0
  0
BLOCK_RECORD
  5
5E7C
330
1
100
AcDbSymbolTableRecord
100
AcDbBlockTableRecord
  2
*D155
340
0
 70
     0
280
     1
281
     0
  0
BLOCK_RECORD
  5
5E94
330
1
100
AcDbSymbolTableRecord
100
AcDbBlockTableRecord
  2
*D156
340
0
 70
     0
280
     1
281
     0
  0
BLOCK_RECORD
  5
5EAC
330
1
100
AcDbSymbolTableRecord
100
AcDbBlockTableRecord
  2
*D157
340
0
 70
     0
280
     1
281
     0
  0
BLOCK_RECORD
  5
5EC5
330
1
100
AcDbSymbolTableRecord
100
AcDbBlockTableRecord
  2
*D158
340
0
 70
     0
280
     1
281
     0
  0
BLOCK_RECORD
  5
5FBA
330
1
100
AcDbSymbolTableRecord
100
AcDbBlockTableRecord
  2
*D159
340
0
 70
     0
280
     1
281
     0
  0
BLOCK_RECORD
  5
5FFD
330
1
100
AcDbSymbolTableRecord
100
AcDbBlockTableRecord
  2
*D160
340
0
 70
     0
280
     1
281
     0
  0
BLOCK_RECORD
  5
90EB
330
1
100
AcDbSymbolTableRecord
100
AcDbBlockTableRecord
  2
*D274
340
0
 70
     0
280
     1
281
     0
  0
BLOCK_RECORD
  5
916E
102
{ACAD_XDICTIONARY
360
9170
102
}
330
1
100
AcDbSymbolTableRecord
100
AcDbBlockTableRecord
  2
A$C56C501B1
340
0
 70
     4
280
     1
281
     0
  0
ENDTAB
  0
ENDSEC
  0
SECTION
  2
BLOCKS
  0
BLOCK
  5
20
330
1F
100
AcDbEntity
  8
0
100
AcDbBlockBegin
  2
*Model_Space
 70
     0
 10
0.0
 20
0.0
 30
0.0
  3
*Model_Space
  1

  0
ENDBLK
  5
21
330
1F
100
AcDbEntity
  8
0
100
AcDbBlockEnd
  0
BLOCK
  5
2B1C
330
2B1B
100
AcDbEntity
 67
     1
  8
0
100
AcDbBlockBegin
  2
*Paper_Space
 70
     0
 10
0.0
 20
0.0
 30
0.0
  3
*Paper_Space
  1

  0
ENDBLK
  5
2B27
330
2B1B
100
AcDbEntity
 67
     1
  8
0
100
AcDbBlockEnd
  0
BLOCK
  5
14FF
330
14FD
100
AcDbEntity
  8
0
100
AcDbBlockBegin
  2
_ArchTick
 70
     0
 10
0.0
 20
0.0
 30
0.0
  3
_ArchTick
  1

  0
LWPOLYLINE
  5
14FE
330
14FD
100
AcDbEntity
  8
0
  6
ByBlock
 62
     0
100
AcDbPolyline
 90
        2
 70
     0
 43
0.15
 10
-0.5
 20
-0.5
 10
0.5
 20
0.5
  0
ENDBLK
  5
1500
330
14FD
100
AcDbEntity
  8
0
100
AcDbBlockEnd
  0
BLOCK
  5
195F
330
194E
100
AcDbEntity
  8
0
100
AcDbBlockBegin
  2
A$C6A1E31B2
 70
     0
 10
0.0
 20
0.0
 30
0.0
  3
A$C6A1E31B2
  1

  0
LWPOLYLINE
  5
194F
330
194E
100
AcDbEntity
  8
-
100
AcDbPolyline
 90
        4
 70
     1
 43
0.0
 10
0.3126854446639626
 20
-0.0000000212661178
 10
0.292428219745922
 20
-0.0000000212661178
 10
0.292428219745922
 20
0.1837702092999933
 10
0.3126854446639626
 20
0.1837702092999933
  0
LINE
  5
1950
330
194E
100
AcDbEntity
  8
-
100
AcDbLine
 10
0.5600000163788366
 20
0.2499999787338809
 30
0.0
 11
0.5600000163788366
 21
0.0799999787338823
 31
0.0
  0
LINE
  5
1951
330
194E
100
AcDbEntity
  8
-
100
AcDbLine
 10
0.0400000163788263
 20
0.0799999787338828
 30
0.0
 11
0.0400000163788263
 21
0.2499999787338831
 31
0.0
  0
LINE
  5
1952
330
194E
100
AcDbEntity
  8
-
100
AcDbLine
 10
0.6000000163788357
 20
0.2499999787338809
 30
0.0
 11
0.6000000163788357
 21
-0.0000000212661178
 31
0.0
  0
LINE
  5
1953
330
194E
100
AcDbEntity
  8
-
100
AcDbLine
 10
0.0000000163788343
 20
-0.0000000212661178
 30
0.0
 11
0.0000000163788272
 21
0.2499999787338818
 31
0.0
  0
LINE
  5
1954
330
194E
100
AcDbEntity
  8
-
100
AcDbLine
 10
0.5600000163788366
 20
0.0799999787338828
 30
0.0
 11
0.3126854446639626
 21
0.0799999787338828
 31
0.0
  0
LINE
  5
1955
330
194E
100
AcDbEntity
  8
-
100
AcDbLine
 10
0.6000000163788357
 20
-0.0000000212661178
 30
0.0
 11
0.0000000163788343
 21
-0.0000000212661178
 31
0.0
  0
LINE
  5
1956
330
194E
100
AcDbEntity
  8
-
100
AcDbLine
 10
0.292428219745922
 20
0.0799999787338828
 30
0.0
 11
0.0400000163788263
 21
0.0799999787338828
 31
0.0
  0
LWPOLYLINE
  5
1957
330
194E
100
AcDbEntity
  8
-
100
AcDbPolyline
 90
        4
 70
     1
 43
0.0
 10
0.3152422604900735
 20
0.0138949237869923
 10
0.3670918531628686
 20
0.0138949237869923
 10
0.3670918531628686
 20
0.0656861417695041
 10
0.3152422604900735
 20
0.0656861417695041
  0
LWPOLYLINE
  5
1958
330
194E
100
AcDbEntity
  8
-
100
AcDbPolyline
 90
        4
 70
     1
 43
0.0
 10
0.2903543029858397
 20
0.0656861417695041
 10
0.2322827209369862
 20
0.0656861417695041
 10
0.2322827209369862
 20
0.0138949237869923
 10
0.2903543029858397
 20
0.0138949237869923
  0
ARC
  5
1959
330
194E
100
AcDbEntity
  8
-
100
AcDbCircle
 10
0.3000000163788385
 20
0.2499999787338809
 30
0.0
 40
0.26
100
AcDbArc
 50
0.0
 51
90.0
  0
ARC
  5
195A
330
194E
100
AcDbEntity
  8
-
100
AcDbCircle
 10
0.3000000163788385
 20
0.2499999787338809
 30
0.0
 40
0.3
100
AcDbArc
 50
0.0
 51
90.0
  0
CIRCLE
  5
195B
330
194E
100
AcDbEntity
  8
-
100
AcDbCircle
 10
0.3000000163788243
 20
0.3321388107524541
 30
0.0
 40
0.0367980598417717
  0
ARC
  5
195C
330
194E
100
AcDbEntity
  8
-
100
AcDbCircle
 10
0.3000000163788243
 20
0.2499999787338818
 30
0.0
 40
0.26
100
AcDbArc
 50
90.0
 51
180.0
  0
LINE
  5
195D
330
194E
100
AcDbEntity
  8
-
100
AcDbLine
 10
0.3000000163788243
 20
0.5499999787338817
 30
0.0
 11
0.3000000163788385
 21
0.5499999787338808
 31
0.0
  0
ARC
  5
195E
330
194E
100
AcDbEntity
  8
-
100
AcDbCircle
 10
0.3000000163788243
 20
0.2499999787338818
 30
0.0
 40
0.3
100
AcDbArc
 50
90.0
 51
180.0
  0
ENDBLK
  5
1960
330
194E
100
AcDbEntity
  8
0
100
AcDbBlockEnd
  0
BLOCK
  5
2647
330
2643
100
AcDbEntity
  8
0
100
AcDbBlockBegin
  2
A$C4C6C188E
 70
     0
 10
0.0
 20
0.0
 30
0.0
  3
A$C4C6C188E
  1

  0
MTEXT
  5
2644
330
2643
100
AcDbEntity
  8
1.4. Idatzia
100
AcDbMText
 10
0.0007080675713951
 20
0.0039339599218238
 30
0.0
 40
0.0025
 41
0.1852149973614974
 46
0.0
 71
     1
 72
     5
  1
{\fCalibri Light|b1|i0|c0|p34;Katastro zk.\fCalibri Light|b0|i0|c0|p34;: 7791177}
 73
     1
 44
1.0
  0
ENDBLK
  5
2648
330
2643
100
AcDbEntity
  8
0
100
AcDbBlockEnd
  0
BLOCK
  5
D8
330
D6
100
AcDbEntity
 67
     1
  8
0
100
AcDbBlockBegin
  2
*Paper_Space12
 70
     0
 10
0.0
 20
0.0
 30
0.0
  3
*Paper_Space12
  1

  0
VIEWPORT
  5
2AF3
102
{ACAD_XDICTIONARY
360
2AF4
102
}
330
D6
100
AcDbEntity
 67
     1
  8
0
100
AcDbViewport
 10
128.5
 20
97.5
 30
0.0
 40
370.9329914529915
 41
222.18
 68
     0
 69
     0
 12
128.5
 22
97.5
 13
0.0
 23
0.0
 14
10.0
 24
10.0
 15
10.0
 25
10.0
 16
0.0
 26
0.0
 36
1.0
 17
0.0
 27
0.0
 37
0.0
 42
50.0
 43
0.0
 44
0.0
 45
222.18
 50
0.0
 51
0.0
 72
  1000
 90
   819232
  1

281
     0
 71
     1
 74
     0
110
0.0
120
0.0
130
0.0
111
1.0
121
0.0
131
0.0
112
0.0
122
1.0
132
0.0
 79
     0
146
0.0
170
     0
 61
     5
348
F5
292
     1
282
     1
141
0.0
142
0.0
 63
   250
421
  3355443
  0
VIEWPORT
  5
2AF7
102
{ACAD_XDICTIONARY
360
2AF8
102
}
330
D6
100
AcDbEntity
 67
     1
  8
0
100
AcDbViewport
 10
128.5
 20
97.5
 30
0.0
 40
205.6
 41
156.0
 68
     0
 69
     0
 12
-245.0678307719495
 22
37.05995025052767
 13
0.0
 23
0.0
 14
10.0
 24
10.0
 15
10.0
 25
10.0
 16
0.0
 26
0.0
 36
0.6188922984979737
 17
2619.601320438711
 27
877.6296409676874
 37
0.0
 42
50.0
 43
0.0
 44
0.0
 45
0.3532727290029537
 50
0.0
 51
0.0
 72
  1000
 90
   819296
  1

281
     0
 71
     1
 74
     0
110
0.0
120
0.0
130
0.0
111
1.0
121
0.0
131
0.0
112
0.0
122
1.0
132
0.0
 79
     0
146
0.0
170
     0
 61
     5
348
F5
292
     1
282
     1
141
0.0
142
0.0
 63
   250
421
  3355443
  0
ENDBLK
  5
D9
330
D6
100
AcDbEntity
 67
     1
  8
0
100
AcDbBlockEnd
  0
BLOCK
  5
3D15
330
3D14
100
AcDbEntity
  8
0
100
AcDbBlockBegin
  2
*D17
 70
     1
 10
0.0
 20
0.0
 30
0.0
  3
*D17
  1

  0
LINE
  5
3D21
330
3D14
100
AcDbEntity
  8
7.3. Kota
440
 16777216
370
    -2
100
AcDbLine
 10
2503.698964818027
 20
865.7994778670612
 30
0.0
 11
2503.698964818027
 21
865.6783417640852
 31
0.0
  0
LINE
  5
3D22
330
3D14
100
AcDbEntity
  8
7.3. Kota
440
 16777216
370
    -2
100
AcDbLine
 10
2504.748964818027
 20
865.7994778670612
 30
0.0
 11
2504.748964818027
 21
865.6783417640852
 31
0.0
  0
LINE
  5
3D23
330
3D14
100
AcDbEntity
  8
7.3. Kota
440
 16777216
370
    -2
100
AcDbLine
 10
2503.698964818027
 20
865.7783417640853
 30
0.0
 11
2504.748964818027
 21
865.7783417640853
 31
0.0
  0
INSERT
  5
3D24
330
3D14
100
AcDbEntity
  8
7.3. Kota
440
 16777216
370
    -2
100
AcDbBlockReference
  2
_ArchTick
 10
2503.698964818027
 20
865.7783417640853
 30
0.0
 41
0.1
 42
0.1
 43
0.1
 50
180.0
  0
INSERT
  5
3D25
330
3D14
100
AcDbEntity
  8
7.3. Kota
440
 16777216
370
    -2
100
AcDbBlockReference
  2
_ArchTick
 10
2504.748964818027
 20
865.7783417640853
 30
0.0
 41
0.1
 42
0.1
 43
0.1
  0
MTEXT
  5
3D26
330
3D14
100
AcDbEntity
  8
7.3. Kota
440
 16777216
100
AcDbMText
 10
2504.223964818027
 20
865.9049277122434
 30
0.0
 40
0.15
 41
0.0
 46
0.0
 71
     5
 72
     1
  1
1.05
 73
     1
 44
1.0
  0
POINT
  5
3D27
330
3D14
100
AcDbEntity
  8
Defpoints
 62
     0
440
 16777216
100
AcDbPoint
 10
2503.698964818027
 20
865.8994778670614
 30
0.0
  0
POINT
  5
3D28
330
3D14
100
AcDbEntity
  8
Defpoints
 62
     0
440
 16777216
100
AcDbPoint
 10
2504.748964818027
 20
865.8994778670614
 30
0.0
  0
POINT
  5
3D29
330
3D14
100
AcDbEntity
  8
Defpoints
 62
     0
440
 16777216
100
AcDbPoint
 10
2504.748964818027
 20
865.7783417640853
 30
0.0
  0
ENDBLK
  5
3D16
330
3D14
100
AcDbEntity
  8
0
100
AcDbBlockEnd
  0
BLOCK
  5
3D2D
330
3D2C
100
AcDbEntity
  8
0
100
AcDbBlockBegin
  2
*D18
 70
     1
 10
0.0
 20
0.0
 30
0.0
  3
*D18
  1

  0
LINE
  5
3D39
330
3D2C
100
AcDbEntity
  8
7.3. Kota
440
 16777216
370
    -2
100
AcDbLine
 10
2502.158964818027
 20
862.4494778670612
 30
0.0
 11
2502.158964818027
 21
861.6297539456862
 31
0.0
  0
LINE
  5
3D3A
330
3D2C
100
AcDbEntity
  8
7.3. Kota
440
 16777216
370
    -2
100
AcDbLine
 10
2506.148964818026
 20
862.4494778670612
 30
0.0
 11
2506.148964818026
 21
861.6297539456862
 31
0.0
  0
LINE
  5
3D3B
330
3D2C
100
AcDbEntity
  8
7.3. Kota
440
 16777216
370
    -2
100
AcDbLine
 10
2502.158964818027
 20
861.7297539456863
 30
0.0
 11
2506.148964818026
 21
861.7297539456863
 31
0.0
  0
INSERT
  5
3D3C
330
3D2C
100
AcDbEntity
  8
7.3. Kota
440
 16777216
370
    -2
100
AcDbBlockReference
  2
_ArchTick
 10
2502.158964818027
 20
861.7297539456863
 30
0.0
 41
0.1
 42
0.1
 43
0.1
 50
180.0
  0
INSERT
  5
3D3D
330
3D2C
100
AcDbEntity
  8
7.3. Kota
440
 16777216
370
    -2
100
AcDbBlockReference
  2
_ArchTick
 10
2506.148964818026
 20
861.7297539456863
 30
0.0
 41
0.1
 42
0.1
 43
0.1
  0
MTEXT
  5
3D3E
330
3D2C
100
AcDbEntity
  8
7.3. Kota
440
 16777216
100
AcDbMText
 10
2504.153964818027
 20
861.8563910534625
 30
0.0
 40
0.15
 41
0.0
 46
0.0
 71
     5
 72
     1
  1
3.99
 73
     1
 44
1.0
  0
POINT
  5
3D3F
330
3D2C
100
AcDbEntity
  8
Defpoints
 62
     0
440
 16777216
100
AcDbPoint
 10
2502.158964818027
 20
862.5494778670613
 30
0.0
  0
POINT
  5
3D40
330
3D2C
100
AcDbEntity
  8
Defpoints
 62
     0
440
 16777216
100
AcDbPoint
 10
2506.148964818026
 20
862.5494778670613
 30
0.0
  0
POINT
  5
3D41
330
3D2C
100
AcDbEntity
  8
Defpoints
 62
     0
440
 16777216
100
AcDbPoint
 10
2506.148964818026
 20
861.7297539456863
 30
0.0
  0
ENDBLK
  5
3D2E
330
3D2C
100
AcDbEntity
  8
0
100
AcDbBlockEnd
  0
BLOCK
  5
3D45
330
3D44
100
AcDbEntity
  8
0
100
AcDbBlockBegin
  2
*D19
 70
     1
 10
0.0
 20
0.0
 30
0.0
  3
*D19
  1

  0
LINE
  5
3D51
330
3D44
100
AcDbEntity
  8
7.3. Kota
440
 16777216
370
    -2
100
AcDbLine
 10
2502.158964818027
 20
862.4494778670612
 30
0.0
 11
2502.158964818027
 21
862.0969895780516
 31
0.0
  0
LINE
  5
3D52
330
3D44
100
AcDbEntity
  8
7.3. Kota
440
 16777216
370
    -2
100
AcDbLine
 10
2503.108964818026
 20
862.4494778670612
 30
0.0
 11
2503.108964818026
 21
862.0969895780516
 31
0.0
  0
LINE
  5
3D53
330
3D44
100
AcDbEntity
  8
7.3. Kota
440
 16777216
370
    -2
100
AcDbLine
 10
2502.158964818027
 20
862.1969895780516
 30
0.0
 11
2503.108964818026
 21
862.1969895780516
 31
0.0
  0
INSERT
  5
3D54
330
3D44
100
AcDbEntity
  8
7.3. Kota
440
 16777216
370
    -2
100
AcDbBlockReference
  2
_ArchTick
 10
2502.158964818027
 20
862.1969895780516
 30
0.0
 41
0.1
 42
0.1
 43
0.1
 50
180.0
  0
INSERT
  5
3D55
330
3D44
100
AcDbEntity
  8
7.3. Kota
440
 16777216
370
    -2
100
AcDbBlockReference
  2
_ArchTick
 10
2503.108964818026
 20
862.1969895780516
 30
0.0
 41
0.1
 42
0.1
 43
0.1
  0
MTEXT
  5
3D56
330
3D44
100
AcDbEntity
  8
7.3. Kota
440
 16777216
100
AcDbMText
 10
2502.633964818027
 20
862.3235755262099
 30
0.0
 40
0.15
 41
0.0
 46
0.0
 71
     5
 72
     1
  1
0.95
 73
     1
 44
1.0
  0
POINT
  5
3D57
330
3D44
100
AcDbEntity
  8
Defpoints
 62
     0
440
 16777216
100
AcDbPoint
 10
2502.158964818027
 20
862.5494778670613
 30
0.0
  0
POINT
  5
3D58
330
3D44
100
AcDbEntity
  8
Defpoints
 62
     0
440
 16777216
100
AcDbPoint
 10
2503.108964818026
 20
862.5494778670613
 30
0.0
  0
POINT
  5
3D59
330
3D44
100
AcDbEntity
  8
Defpoints
 62
     0
440
 16777216
100
AcDbPoint
 10
2503.108964818026
 20
862.1969895780516
 30
0.0
  0
ENDBLK
  5
3D46
330
3D44
100
AcDbEntity
  8
0
100
AcDbBlockEnd
  0
BLOCK
  5
3D75
330
3D74
100
AcDbEntity
  8
0
100
AcDbBlockBegin
  2
*D20
 70
     1
 10
0.0
 20
0.0
 30
0.0
  3
*D20
  1

  0
LINE
  5
3D81
330
3D74
100
AcDbEntity
  8
7.3. Kota
440
 16777216
370
    -2
100
AcDbLine
 10
2503.698964818027
 20
862.4494778670612
 30
0.0
 11
2503.698964818027
 21
862.0969895780516
 31
0.0
  0
LINE
  5
3D82
330
3D74
100
AcDbEntity
  8
7.3. Kota
440
 16777216
370
    -2
100
AcDbLine
 10
2504.578964818027
 20
862.4494778670612
 30
0.0
 11
2504.578964818027
 21
862.0969895780516
 31
0.0
  0
LINE
  5
3D83
330
3D74
100
AcDbEntity
  8
7.3. Kota
440
 16777216
370
    -2
100
AcDbLine
 10
2503.698964818027
 20
862.1969895780516
 30
0.0
 11
2504.578964818027
 21
862.1969895780516
 31
0.0
  0
INSERT
  5
3D84
330
3D74
100
AcDbEntity
  8
7.3. Kota
440
 16777216
370
    -2
100
AcDbBlockReference
  2
_ArchTick
 10
2503.698964818027
 20
862.1969895780516
 30
0.0
 41
0.1
 42
0.1
 43
0.1
 50
180.0
  0
INSERT
  5
3D85
330
3D74
100
AcDbEntity
  8
7.3. Kota
440
 16777216
370
    -2
100
AcDbBlockReference
  2
_ArchTick
 10
2504.578964818027
 20
862.1969895780516
 30
0.0
 41
0.1
 42
0.1
 43
0.1
  0
MTEXT
  5
3D86
330
3D74
100
AcDbEntity
  8
7.3. Kota
440
 16777216
100
AcDbMText
 10
2504.138964818027
 20
862.3235755262099
 30
0.0
 40
0.15
 41
0.0
 46
0.0
 71
     5
 72
     1
  1
0.88
 73
     1
 44
1.0
  0
POINT
  5
3D87
330
3D74
100
AcDbEntity
  8
Defpoints
 62
     0
440
 16777216
100
AcDbPoint
 10
2503.698964818027
 20
862.5494778670613
 30
0.0
  0
POINT
  5
3D88
330
3D74
100
AcDbEntity
  8
Defpoints
 62
     0
440
 16777216
100
AcDbPoint
 10
2504.578964818027
 20
862.5494778670613
 30
0.0
  0
POINT
  5
3D89
330
3D74
100
AcDbEntity
  8
Defpoints
 62
     0
440
 16777216
100
AcDbPoint
 10
2504.578964818027
 20
862.1969895780516
 30
0.0
  0
ENDBLK
  5
3D76
330
3D74
100
AcDbEntity
  8
0
100
AcDbBlockEnd
  0
BLOCK
  5
3DA9
330
3DA8
100
AcDbEntity
  8
0
100
AcDbBlockBegin
  2
*D21
 70
     1
 10
0.0
 20
0.0
 30
0.0
  3
*D21
  1

  0
LINE
  5
3DB5
330
3DA8
100
AcDbEntity
  8
7.3. Kota
440
 16777216
370
    -2
100
AcDbLine
 10
2504.898964818027
 20
862.4494778670612
 30
0.0
 11
2504.898964818027
 21
862.0969895780516
 31
0.0
  0
LINE
  5
3DB6
330
3DA8
100
AcDbEntity
  8
7.3. Kota
440
 16777216
370
    -2
100
AcDbLine
 10
2506.148964818026
 20
862.4494778670612
 30
0.0
 11
2506.148964818026
 21
862.0969895780516
 31
0.0
  0
LINE
  5
3DB7
330
3DA8
100
AcDbEntity
  8
7.3. Kota
440
 16777216
370
    -2
100
AcDbLine
 10
2504.898964818027
 20
862.1969895780516
 30
0.0
 11
2506.148964818026
 21
862.1969895780516
 31
0.0
  0
INSERT
  5
3DB8
330
3DA8
100
AcDbEntity
  8
7.3. Kota
440
 16777216
370
    -2
100
AcDbBlockReference
  2
_ArchTick
 10
2504.898964818027
 20
862.1969895780516
 30
0.0
 41
0.1
 42
0.1
 43
0.1
 50
180.0
  0
INSERT
  5
3DB9
330
3DA8
100
AcDbEntity
  8
7.3. Kota
440
 16777216
370
    -2
100
AcDbBlockReference
  2
_ArchTick
 10
2506.148964818026
 20
862.1969895780516
 30
0.0
 41
0.1
 42
0.1
 43
0.1
  0
MTEXT
  5
3DBA
330
3DA8
100
AcDbEntity
  8
7.3. Kota
440
 16777216
100
AcDbMText
 10
2505.523964818026
 20
862.3235755262099
 30
0.0
 40
0.15
 41
0.0
 46
0.0
 71
     5
 72
     1
  1
1.25
 73
     1
 44
1.0
  0
POINT
  5
3DBB
330
3DA8
100
AcDbEntity
  8
Defpoints
 62
     0
440
 16777216
100
AcDbPoint
 10
2504.898964818027
 20
862.5494778670613
 30
0.0
  0
POINT
  5
3DBC
330
3DA8
100
AcDbEntity
  8
Defpoints
 62
     0
440
 16777216
100
AcDbPoint
 10
2506.148964818026
 20
862.5494778670613
 30
0.0
  0
POINT
  5
3DBD
330
3DA8
100
AcDbEntity
  8
Defpoints
 62
     0
440
 16777216
100
AcDbPoint
 10
2506.148964818026
 20
862.1969895780516
 30
0.0
  0
ENDBLK
  5
3DAA
330
3DA8
100
AcDbEntity
  8
0
100
AcDbBlockEnd
  0
BLOCK
  5
3DC1
330
3DC0
100
AcDbEntity
  8
0
100
AcDbBlockBegin
  2
*D22
 70
     1
 10
0.0
 20
0.0
 30
0.0
  3
*D22
  1

  0
LINE
  5
3DCD
330
3DC0
100
AcDbEntity
  8
7.3. Kota
440
 16777216
370
    -2
100
AcDbLine
 10
2502.158964818027
 20
862.4494778670612
 30
0.0
 11
2502.158964818027
 21
861.2020626358869
 31
0.0
  0
LINE
  5
3DCE
330
3DC0
100
AcDbEntity
  8
7.3. Kota
440
 16777216
370
    -2
100
AcDbLine
 10
2506.598964818027
 20
862.4494778670614
 30
0.0
 11
2506.598964818027
 21
861.2020626358869
 31
0.0
  0
LINE
  5
3DCF
330
3DC0
100
AcDbEntity
  8
7.3. Kota
440
 16777216
370
    -2
100
AcDbLine
 10
2502.158964818027
 20
861.3020626358871
 30
0.0
 11
2506.598964818027
 21
861.3020626358871
 31
0.0
  0
INSERT
  5
3DD0
330
3DC0
100
AcDbEntity
  8
7.3. Kota
440
 16777216
370
    -2
100
AcDbBlockReference
  2
_ArchTick
 10
2502.158964818027
 20
861.3020626358871
 30
0.0
 41
0.1
 42
0.1
 43
0.1
 50
180.0
  0
INSERT
  5
3DD1
330
3DC0
100
AcDbEntity
  8
7.3. Kota
440
 16777216
370
    -2
100
AcDbBlockReference
  2
_ArchTick
 10
2506.598964818027
 20
861.3020626358871
 30
0.0
 41
0.1
 42
0.1
 43
0.1
  0
MTEXT
  5
3DD2
330
3DC0
100
AcDbEntity
  8
7.3. Kota
440
 16777216
100
AcDbMText
 10
2504.378964818027
 20
861.4270626358871
 30
0.0
 40
0.15
 41
0.0
 46
0.0
 71
     5
 72
     1
  1
4.44
 73
     1
 44
1.0
  0
POINT
  5
3DD3
330
3DC0
100
AcDbEntity
  8
Defpoints
 62
     0
440
 16777216
100
AcDbPoint
 10
2502.158964818027
 20
862.5494778670613
 30
0.0
  0
POINT
  5
3DD4
330
3DC0
100
AcDbEntity
  8
Defpoints
 62
     0
440
 16777216
100
AcDbPoint
 10
2506.598964818027
 20
862.5494778670613
 30
0.0
  0
POINT
  5
3DD5
330
3DC0
100
AcDbEntity
  8
Defpoints
 62
     0
440
 16777216
100
AcDbPoint
 10
2506.598964818027
 20
861.3020626358871
 30
0.0
  0
ENDBLK
  5
3DC2
330
3DC0
100
AcDbEntity
  8
0
100
AcDbBlockEnd
  0
BLOCK
  5
5CC0
330
5CBF
100
AcDbEntity
  8
0
100
AcDbBlockBegin
  2
*D140
 70
     1
 10
0.0
 20
0.0
 30
0.0
  3
*D140
  1

  0
LINE
  5
5CC2
330
5CBF
100
AcDbEntity
  8
7.3. Kota
440
 16777216
370
    -2
100
AcDbLine
 10
2504.571376282462
 20
866.7644778670613
 30
0.0
 11
2504.544128300967
 21
866.7644778670613
 31
0.0
  0
LINE
  5
5CC3
330
5CBF
100
AcDbEntity
  8
7.3. Kota
440
 16777216
370
    -2
100
AcDbLine
 10
2504.571376282461
 20
866.2444778670613
 30
0.0
 11
2504.544128300967
 21
866.2444778670613
 31
0.0
  0
LINE
  5
5CC4
330
5CBF
100
AcDbEntity
  8
7.3. Kota
440
 16777216
370
    -2
100
AcDbLine
 10
2504.644128300967
 20
866.7644778670613
 30
0.0
 11
2504.644128300967
 21
866.2444778670613
 31
0.0
  0
INSERT
  5
5CC5
330
5CBF
100
AcDbEntity
  8
7.3. Kota
440
 16777216
370
    -2
100
AcDbBlockReference
  2
_ArchTick
 10
2504.644128300967
 20
866.7644778670613
 30
0.0
 41
0.1
 42
0.1
 43
0.1
 50
90.0
  0
INSERT
  5
5CC6
330
5CBF
100
AcDbEntity
  8
7.3. Kota
440
 16777216
370
    -2
100
AcDbBlockReference
  2
_ArchTick
 10
2504.644128300967
 20
866.2444778670613
 30
0.0
 41
0.1
 42
0.1
 43
0.1
 50
270.0
  0
MTEXT
  5
5CC7
330
5CBF
100
AcDbEntity
  8
7.3. Kota
440
 16777216
100
AcDbMText
 10
2504.517542352809
 20
866.5044778670617
 30
0.0
 40
0.15
 41
0.0
 46
0.0
 71
     5
 72
     1
  1
0.52
 11
0.0000000000000001
 21
1.0
 31
0.0
 73
     1
 44
1.0
  0
POINT
  5
5CC8
330
5CBF
100
AcDbEntity
  8
Defpoints
 62
     0
440
 16777216
100
AcDbPoint
 10
2504.671376282462
 20
866.7644778670613
 30
0.0
  0
POINT
  5
5CC9
330
5CBF
100
AcDbEntity
  8
Defpoints
 62
     0
440
 16777216
100
AcDbPoint
 10
2504.671376282461
 20
866.2444778670613
 30
0.0
  0
POINT
  5
5CCA
330
5CBF
100
AcDbEntity
  8
Defpoints
 62
     0
440
 16777216
100
AcDbPoint
 10
2504.644128300967
 20
866.2444778670613
 30
0.0
  0
ENDBLK
  5
5CC1
330
5CBF
100
AcDbEntity
  8
0
100
AcDbBlockEnd
  0
BLOCK
  5
5CCD
330
5CCC
100
AcDbEntity
  8
0
100
AcDbBlockBegin
  2
*D141
 70
     1
 10
0.0
 20
0.0
 30
0.0
  3
*D141
  1

  0
LINE
  5
5CCF
330
5CCC
100
AcDbEntity
  8
7.3. Kota
440
 16777216
370
    -2
100
AcDbLine
 10
2504.744128300967
 20
867.254477867061
 30
0.0
 11
2504.762534059762
 21
867.254477867061
 31
0.0
  0
LINE
  5
5CD0
330
5CCC
100
AcDbEntity
  8
7.3. Kota
440
 16777216
370
    -2
100
AcDbLine
 10
2504.744128300969
 20
867.7744778670613
 30
0.0
 11
2504.762534059762
 21
867.7744778670613
 31
0.0
  0
LINE
  5
5CD1
330
5CCC
100
AcDbEntity
  8
7.3. Kota
440
 16777216
370
    -2
100
AcDbLine
 10
2504.662534059762
 20
867.254477867061
 30
0.0
 11
2504.662534059762
 21
867.7744778670613
 31
0.0
  0
INSERT
  5
5CD2
330
5CCC
100
AcDbEntity
  8
7.3. Kota
440
 16777216
370
    -2
100
AcDbBlockReference
  2
_ArchTick
 10
2504.662534059762
 20
867.254477867061
 30
0.0
 41
0.1
 42
0.1
 43
0.1
 50
270.0
  0
INSERT
  5
5CD3
330
5CCC
100
AcDbEntity
  8
7.3. Kota
440
 16777216
370
    -2
100
AcDbBlockReference
  2
_ArchTick
 10
2504.662534059762
 20
867.7744778670613
 30
0.0
 41
0.1
 42
0.1
 43
0.1
 50
90.0
  0
MTEXT
  5
5CD4
330
5CCC
100
AcDbEntity
  8
7.3. Kota
440
 16777216
100
AcDbMText
 10
2504.535948111604
 20
867.5144778670615
 30
0.0
 40
0.15
 41
0.0
 46
0.0
 71
     5
 72
     1
  1
0.52
 11
0.0000000000000001
 21
1.0
 31
0.0
 73
     1
 44
1.0
  0
POINT
  5
5CD5
330
5CCC
100
AcDbEntity
  8
Defpoints
 62
     0
440
 16777216
100
AcDbPoint
 10
2504.644128300967
 20
867.254477867061
 30
0.0
  0
POINT
  5
5CD6
330
5CCC
100
AcDbEntity
  8
Defpoints
 62
     0
440
 16777216
100
AcDbPoint
 10
2504.644128300969
 20
867.7744778670613
 30
0.0
  0
POINT
  5
5CD7
330
5CCC
100
AcDbEntity
  8
Defpoints
 62
     0
440
 16777216
100
AcDbPoint
 10
2504.662534059762
 20
867.7744778670613
 30
0.0
  0
ENDBLK
  5
5CCE
330
5CCC
100
AcDbEntity
  8
0
100
AcDbBlockEnd
  0
BLOCK
  5
5CDA
330
5CD9
100
AcDbEntity
  8
0
100
AcDbBlockBegin
  2
*D142
 70
     1
 10
0.0
 20
0.0
 30
0.0
  3
*D142
  1

  0
LINE
  5
5CDC
330
5CD9
100
AcDbEntity
  8
7.3. Kota
440
 16777216
370
    -2
100
AcDbLine
 10
2504.662534059762
 20
868.2794778670611
 30
0.0
 11
2504.662534059762
 21
868.7994778670613
 31
0.0
  0
INSERT
  5
5CDD
330
5CD9
100
AcDbEntity
  8
7.3. Kota
440
 16777216
370
    -2
100
AcDbBlockReference
  2
_ArchTick
 10
2504.662534059762
 20
868.2794778670611
 30
0.0
 41
0.1
 42
0.1
 43
0.1
 50
270.0
  0
INSERT
  5
5CDE
330
5CD9
100
AcDbEntity
  8
7.3. Kota
440
 16777216
370
    -2
100
AcDbBlockReference
  2
_ArchTick
 10
2504.662534059762
 20
868.7994778670613
 30
0.0
 41
0.1
 42
0.1
 43
0.1
 50
90.0
  0
MTEXT
  5
5CDF
330
5CD9
100
AcDbEntity
  8
7.3. Kota
440
 16777216
100
AcDbMText
 10
2504.535948111604
 20
868.5394778670616
 30
0.0
 40
0.15
 41
0.0
 46
0.0
 71
     5
 72
     1
  1
0.52
 11
0.0000000000000001
 21
1.0
 31
0.0
 73
     1
 44
1.0
  0
POINT
  5
5CE0
330
5CD9
100
AcDbEntity
  8
Defpoints
 62
     0
440
 16777216
100
AcDbPoint
 10
2504.662534059762
 20
868.2794778670611
 30
0.0
  0
POINT
  5
5CE1
330
5CD9
100
AcDbEntity
  8
Defpoints
 62
     0
440
 16777216
100
AcDbPoint
 10
2504.662534059762
 20
868.7994778670613
 30
0.0
  0
POINT
  5
5CE2
330
5CD9
100
AcDbEntity
  8
Defpoints
 62
     0
440
 16777216
100
AcDbPoint
 10
2504.662534059762
 20
868.7994778670613
 30
0.0
  0
ENDBLK
  5
5CDB
330
5CD9
100
AcDbEntity
  8
0
100
AcDbBlockEnd
  0
BLOCK
  5
5CE5
330
5CE4
100
AcDbEntity
  8
0
100
AcDbBlockBegin
  2
*D143
 70
     1
 10
0.0
 20
0.0
 30
0.0
  3
*D143
  1

  0
LINE
  5
5CF1
330
5CE4
100
AcDbEntity
  8
7.3. Kota
440
 16777216
370
    -2
100
AcDbLine
 10
2503.873964818027
 20
868.9094778670613
 30
0.0
 11
2503.873964818027
 21
868.851687911551
 31
0.0
  0
LINE
  5
5CF2
330
5CE4
100
AcDbEntity
  8
7.3. Kota
440
 16777216
370
    -2
100
AcDbLine
 10
2504.573964818027
 20
868.9094778670613
 30
0.0
 11
2504.573964818027
 21
868.851687911551
 31
0.0
  0
LINE
  5
5CF3
330
5CE4
100
AcDbEntity
  8
7.3. Kota
440
 16777216
370
    -2
100
AcDbLine
 10
2503.873964818027
 20
868.9516879115512
 30
0.0
 11
2504.573964818027
 21
868.9516879115512
 31
0.0
  0
INSERT
  5
5CF4
330
5CE4
100
AcDbEntity
  8
7.3. Kota
440
 16777216
370
    -2
100
AcDbBlockReference
  2
_ArchTick
 10
2503.873964818027
 20
868.9516879115512
 30
0.0
 41
0.1
 42
0.1
 43
0.1
 50
180.0
  0
INSERT
  5
5CF5
330
5CE4
100
AcDbEntity
  8
7.3. Kota
440
 16777216
370
    -2
100
AcDbBlockReference
  2
_ArchTick
 10
2504.573964818027
 20
868.9516879115512
 30
0.0
 41
0.1
 42
0.1
 43
0.1
  0
MTEXT
  5
5CF6
330
5CE4
100
AcDbEntity
  8
7.3. Kota
440
 16777216
100
AcDbMText
 10
2504.223964818027
 20
869.0782738597093
 30
0.0
 40
0.15
 41
0.0
 46
0.0
 71
     5
 72
     1
  1
0.70
 73
     1
 44
1.0
  0
POINT
  5
5CF7
330
5CE4
100
AcDbEntity
  8
Defpoints
 62
     0
440
 16777216
100
AcDbPoint
 10
2503.873964818027
 20
869.0094778670614
 30
0.0
  0
POINT
  5
5CF8
330
5CE4
100
AcDbEntity
  8
Defpoints
 62
     0
440
 16777216
100
AcDbPoint
 10
2504.573964818027
 20
869.0094778670614
 30
0.0
  0
POINT
  5
5CF9
330
5CE4
100
AcDbEntity
  8
Defpoints
 62
     0
440
 16777216
100
AcDbPoint
 10
2504.573964818027
 20
868.9516879115512
 30
0.0
  0
ENDBLK
  5
5CE6
330
5CE4
100
AcDbEntity
  8
0
100
AcDbBlockEnd
  0
BLOCK
  5
5CFD
330
5CFC
100
AcDbEntity
  8
0
100
AcDbBlockBegin
  2
*D144
 70
     1
 10
0.0
 20
0.0
 30
0.0
  3
*D144
  1

  0
LINE
  5
5D09
330
5CFC
100
AcDbEntity
  8
7.3. Kota
440
 16777216
370
    -2
100
AcDbLine
 10
2506.898964818026
 20
873.0394778670612
 30
0.0
 11
2507.39102623946
 21
873.0394778670612
 31
0.0
  0
LINE
  5
5D0A
330
5CFC
100
AcDbEntity
  8
7.3. Kota
440
 16777216
370
    -2
100
AcDbLine
 10
2506.898964818027
 20
869.1094778670615
 30
0.0
 11
2507.39102623946
 21
869.1094778670615
 31
0.0
  0
LINE
  5
5D0B
330
5CFC
100
AcDbEntity
  8
7.3. Kota
440
 16777216
370
    -2
100
AcDbLine
 10
2507.29102623946
 20
873.0394778670612
 30
0.0
 11
2507.29102623946
 21
869.1094778670615
 31
0.0
  0
INSERT
  5
5D0C
330
5CFC
100
AcDbEntity
  8
7.3. Kota
440
 16777216
370
    -2
100
AcDbBlockReference
  2
_ArchTick
 10
2507.29102623946
 20
873.0394778670612
 30
0.0
 41
0.1
 42
0.1
 43
0.1
 50
90.0
  0
INSERT
  5
5D0D
330
5CFC
100
AcDbEntity
  8
7.3. Kota
440
 16777216
370
    -2
100
AcDbBlockReference
  2
_ArchTick
 10
2507.29102623946
 20
869.1094778670615
 30
0.0
 41
0.1
 42
0.1
 43
0.1
 50
270.0
  0
MTEXT
  5
5D0E
330
5CFC
100
AcDbEntity
  8
7.3. Kota
440
 16777216
100
AcDbMText
 10
2507.164389131684
 20
871.0744778670619
 30
0.0
 40
0.15
 41
0.0
 46
0.0
 71
     5
 72
     1
  1
3.93
 11
0.0000000000000001
 21
1.0
 31
0.0
 73
     1
 44
1.0
  0
POINT
  5
5D0F
330
5CFC
100
AcDbEntity
  8
Defpoints
 62
     0
440
 16777216
100
AcDbPoint
 10
2506.798964818027
 20
873.0394778670612
 30
0.0
  0
POINT
  5
5D10
330
5CFC
100
AcDbEntity
  8
Defpoints
 62
     0
440
 16777216
100
AcDbPoint
 10
2506.798964818027
 20
869.1094778670615
 30
0.0
  0
POINT
  5
5D11
330
5CFC
100
AcDbEntity
  8
Defpoints
 62
     0
440
 16777216
100
AcDbPoint
 10
2507.29102623946
 20
869.1094778670615
 30
0.0
  0
ENDBLK
  5
5CFE
330
5CFC
100
AcDbEntity
  8
0
100
AcDbBlockEnd
  0
BLOCK
  5
5D31
330
5D30
100
AcDbEntity
  8
0
100
AcDbBlockBegin
  2
*D145
 70
     1
 10
0.0
 20
0.0
 30
0.0
  3
*D145
  1

  0
LINE
  5
5D3D
330
5D30
100
AcDbEntity
  8
7.3. Kota
440
 16777216
370
    -2
100
AcDbLine
 10
2506.898964818026
 20
869.0094778670614
 30
0.0
 11
2507.39102623946
 21
869.0094778670614
 31
0.0
  0
LINE
  5
5D3E
330
5D30
100
AcDbEntity
  8
7.3. Kota
440
 16777216
370
    -2
100
AcDbLine
 10
2506.898964818026
 20
868.0694778670613
 30
0.0
 11
2507.39102623946
 21
868.0694778670613
 31
0.0
  0
LINE
  5
5D3F
330
5D30
100
AcDbEntity
  8
7.3. Kota
440
 16777216
370
    -2
100
AcDbLine
 10
2507.29102623946
 20
869.0094778670614
 30
0.0
 11
2507.29102623946
 21
868.0694778670613
 31
0.0
  0
INSERT
  5
5D40
330
5D30
100
AcDbEntity
  8
7.3. Kota
440
 16777216
370
    -2
100
AcDbBlockReference
  2
_ArchTick
 10
2507.29102623946
 20
869.0094778670614
 30
0.0
 41
0.1
 42
0.1
 43
0.1
 50
90.0
  0
INSERT
  5
5D41
330
5D30
100
AcDbEntity
  8
7.3. Kota
440
 16777216
370
    -2
100
AcDbBlockReference
  2
_ArchTick
 10
2507.29102623946
 20
868.0694778670613
 30
0.0
 41
0.1
 42
0.1
 43
0.1
 50
270.0
  0
MTEXT
  5
5D42
330
5D30
100
AcDbEntity
  8
7.3. Kota
440
 16777216
100
AcDbMText
 10
2507.164440291302
 20
868.5394778670618
 30
0.0
 40
0.15
 41
0.0
 46
0.0
 71
     5
 72
     1
  1
0.94
 11
0.0000000000000001
 21
1.0
 31
0.0
 73
     1
 44
1.0
  0
POINT
  5
5D43
330
5D30
100
AcDbEntity
  8
Defpoints
 62
     0
440
 16777216
100
AcDbPoint
 10
2506.798964818027
 20
869.0094778670614
 30
0.0
  0
POINT
  5
5D44
330
5D30
100
AcDbEntity
  8
Defpoints
 62
     0
440
 16777216
100
AcDbPoint
 10
2506.798964818027
 20
868.0694778670613
 30
0.0
  0
POINT
  5
5D45
330
5D30
100
AcDbEntity
  8
Defpoints
 62
     0
440
 16777216
100
AcDbPoint
 10
2507.29102623946
 20
868.0694778670613
 30
0.0
  0
ENDBLK
  5
5D32
330
5D30
100
AcDbEntity
  8
0
100
AcDbBlockEnd
  0
BLOCK
  5
5D65
330
5D64
100
AcDbEntity
  8
0
100
AcDbBlockBegin
  2
*D146
 70
     1
 10
0.0
 20
0.0
 30
0.0
  3
*D146
  1

  0
LINE
  5
5D71
330
5D64
100
AcDbEntity
  8
7.3. Kota
440
 16777216
370
    -2
100
AcDbLine
 10
2506.898964818026
 20
867.9694778670613
 30
0.0
 11
2507.39102623946
 21
867.9694778670613
 31
0.0
  0
LINE
  5
5D72
330
5D64
100
AcDbEntity
  8
7.3. Kota
440
 16777216
370
    -2
100
AcDbLine
 10
2506.898964818026
 20
867.0594778670613
 30
0.0
 11
2507.39102623946
 21
867.0594778670613
 31
0.0
  0
LINE
  5
5D73
330
5D64
100
AcDbEntity
  8
7.3. Kota
440
 16777216
370
    -2
100
AcDbLine
 10
2507.29102623946
 20
867.9694778670613
 30
0.0
 11
2507.29102623946
 21
867.0594778670613
 31
0.0
  0
INSERT
  5
5D74
330
5D64
100
AcDbEntity
  8
7.3. Kota
440
 16777216
370
    -2
100
AcDbBlockReference
  2
_ArchTick
 10
2507.29102623946
 20
867.9694778670613
 30
0.0
 41
0.1
 42
0.1
 43
0.1
 50
90.0
  0
INSERT
  5
5D75
330
5D64
100
AcDbEntity
  8
7.3. Kota
440
 16777216
370
    -2
100
AcDbBlockReference
  2
_ArchTick
 10
2507.29102623946
 20
867.0594778670613
 30
0.0
 41
0.1
 42
0.1
 43
0.1
 50
270.0
  0
MTEXT
  5
5D76
330
5D64
100
AcDbEntity
  8
7.3. Kota
440
 16777216
100
AcDbMText
 10
2507.164440291302
 20
867.5144778670619
 30
0.0
 40
0.15
 41
0.0
 46
0.0
 71
     5
 72
     1
  1
0.91
 11
0.0000000000000001
 21
1.0
 31
0.0
 73
     1
 44
1.0
  0
POINT
  5
5D77
330
5D64
100
AcDbEntity
  8
Defpoints
 62
     0
440
 16777216
100
AcDbPoint
 10
2506.798964818027
 20
867.9694778670613
 30
0.0
  0
POINT
  5
5D78
330
5D64
100
AcDbEntity
  8
Defpoints
 62
     0
440
 16777216
100
AcDbPoint
 10
2506.798964818027
 20
867.0594778670613
 30
0.0
  0
POINT
  5
5D79
330
5D64
100
AcDbEntity
  8
Defpoints
 62
     0
440
 16777216
100
AcDbPoint
 10
2507.29102623946
 20
867.0594778670613
 30
0.0
  0
ENDBLK
  5
5D66
330
5D64
100
AcDbEntity
  8
0
100
AcDbBlockEnd
  0
BLOCK
  5
5D99
330
5D98
100
AcDbEntity
  8
0
100
AcDbBlockBegin
  2
*D147
 70
     1
 10
0.0
 20
0.0
 30
0.0
  3
*D147
  1

  0
LINE
  5
5DA5
330
5D98
100
AcDbEntity
  8
7.3. Kota
440
 16777216
370
    -2
100
AcDbLine
 10
2506.898964818026
 20
866.9594778670612
 30
0.0
 11
2507.39102623946
 21
866.9594778670612
 31
0.0
  0
LINE
  5
5DA6
330
5D98
100
AcDbEntity
  8
7.3. Kota
440
 16777216
370
    -2
100
AcDbLine
 10
2506.898964818026
 20
866.0494778670614
 30
0.0
 11
2507.39102623946
 21
866.0494778670614
 31
0.0
  0
LINE
  5
5DA7
330
5D98
100
AcDbEntity
  8
7.3. Kota
440
 16777216
370
    -2
100
AcDbLine
 10
2507.29102623946
 20
866.9594778670612
 30
0.0
 11
2507.29102623946
 21
866.0494778670614
 31
0.0
  0
INSERT
  5
5DA8
330
5D98
100
AcDbEntity
  8
7.3. Kota
440
 16777216
370
    -2
100
AcDbBlockReference
  2
_ArchTick
 10
2507.29102623946
 20
866.9594778670612
 30
0.0
 41
0.1
 42
0.1
 43
0.1
 50
90.0
  0
INSERT
  5
5DA9
330
5D98
100
AcDbEntity
  8
7.3. Kota
440
 16777216
370
    -2
100
AcDbBlockReference
  2
_ArchTick
 10
2507.29102623946
 20
866.0494778670614
 30
0.0
 41
0.1
 42
0.1
 43
0.1
 50
270.0
  0
MTEXT
  5
5DAA
330
5D98
100
AcDbEntity
  8
7.3. Kota
440
 16777216
100
AcDbMText
 10
2507.164440291302
 20
866.5044778670617
 30
0.0
 40
0.15
 41
0.0
 46
0.0
 71
     5
 72
     1
  1
0.91
 11
0.0000000000000001
 21
1.0
 31
0.0
 73
     1
 44
1.0
  0
POINT
  5
5DAB
330
5D98
100
AcDbEntity
  8
Defpoints
 62
     0
440
 16777216
100
AcDbPoint
 10
2506.798964818027
 20
866.9594778670612
 30
0.0
  0
POINT
  5
5DAC
330
5D98
100
AcDbEntity
  8
Defpoints
 62
     0
440
 16777216
100
AcDbPoint
 10
2506.798964818027
 20
866.0494778670614
 30
0.0
  0
POINT
  5
5DAD
330
5D98
100
AcDbEntity
  8
Defpoints
 62
     0
440
 16777216
100
AcDbPoint
 10
2507.29102623946
 20
866.0494778670614
 30
0.0
  0
ENDBLK
  5
5D9A
330
5D98
100
AcDbEntity
  8
0
100
AcDbBlockEnd
  0
BLOCK
  5
5DB1
330
5DB0
100
AcDbEntity
  8
0
100
AcDbBlockBegin
  2
*D148
 70
     1
 10
0.0
 20
0.0
 30
0.0
  3
*D148
  1

  0
LINE
  5
5DBD
330
5DB0
100
AcDbEntity
  8
7.3. Kota
440
 16777216
370
    -2
100
AcDbLine
 10
2506.898964818026
 20
865.6494778670614
 30
0.0
 11
2507.39102623946
 21
865.6494778670614
 31
0.0
  0
LINE
  5
5DBE
330
5DB0
100
AcDbEntity
  8
7.3. Kota
440
 16777216
370
    -2
100
AcDbLine
 10
2506.898964818026
 20
863.1494778670614
 30
0.0
 11
2507.39102623946
 21
863.1494778670614
 31
0.0
  0
LINE
  5
5DBF
330
5DB0
100
AcDbEntity
  8
7.3. Kota
440
 16777216
370
    -2
100
AcDbLine
 10
2507.29102623946
 20
865.6494778670614
 30
0.0
 11
2507.29102623946
 21
863.1494778670614
 31
0.0
  0
INSERT
  5
5DC0
330
5DB0
100
AcDbEntity
  8
7.3. Kota
440
 16777216
370
    -2
100
AcDbBlockReference
  2
_ArchTick
 10
2507.29102623946
 20
865.6494778670614
 30
0.0
 41
0.1
 42
0.1
 43
0.1
 50
90.0
  0
INSERT
  5
5DC1
330
5DB0
100
AcDbEntity
  8
7.3. Kota
440
 16777216
370
    -2
100
AcDbBlockReference
  2
_ArchTick
 10
2507.29102623946
 20
863.1494778670614
 30
0.0
 41
0.1
 42
0.1
 43
0.1
 50
270.0
  0
MTEXT
  5
5DC2
330
5DB0
100
AcDbEntity
  8
7.3. Kota
440
 16777216
100
AcDbMText
 10
2507.164440291302
 20
864.3994778670618
 30
0.0
 40
0.15
 41
0.0
 46
0.0
 71
     5
 72
     1
  1
2.50
 11
0.0000000000000001
 21
1.0
 31
0.0
 73
     1
 44
1.0
  0
POINT
  5
5DC3
330
5DB0
100
AcDbEntity
  8
Defpoints
 62
     0
440
 16777216
100
AcDbPoint
 10
2506.798964818027
 20
865.6494778670614
 30
0.0
  0
POINT
  5
5DC4
330
5DB0
100
AcDbEntity
  8
Defpoints
 62
     0
440
 16777216
100
AcDbPoint
 10
2506.798964818026
 20
863.1494778670614
 30
0.0
  0
POINT
  5
5DC5
330
5DB0
100
AcDbEntity
  8
Defpoints
 62
     0
440
 16777216
100
AcDbPoint
 10
2507.29102623946
 20
863.1494778670614
 30
0.0
  0
ENDBLK
  5
5DB2
330
5DB0
100
AcDbEntity
  8
0
100
AcDbBlockEnd
  0
BLOCK
  5
5DC9
330
5DC8
100
AcDbEntity
  8
0
100
AcDbBlockBegin
  2
*D149
 70
     1
 10
0.0
 20
0.0
 30
0.0
  3
*D149
  1

  0
LINE
  5
5DD5
330
5DC8
100
AcDbEntity
  8
7.3. Kota
440
 16777216
370
    -2
100
AcDbLine
 10
2506.698964818026
 20
862.8994778670614
 30
0.0
 11
2507.914140377977
 21
862.8994778670614
 31
0.0
  0
LINE
  5
5DD6
330
5DC8
100
AcDbEntity
  8
7.3. Kota
440
 16777216
370
    -2
100
AcDbLine
 10
2506.698964818026
 20
873.0394778670612
 30
0.0
 11
2507.914140377977
 21
873.0394778670612
 31
0.0
  0
LINE
  5
5DD7
330
5DC8
100
AcDbEntity
  8
7.3. Kota
440
 16777216
370
    -2
100
AcDbLine
 10
2507.814140377977
 20
862.8994778670614
 30
0.0
 11
2507.814140377977
 21
873.0394778670612
 31
0.0
  0
INSERT
  5
5DD8
330
5DC8
100
AcDbEntity
  8
7.3. Kota
440
 16777216
370
    -2
100
AcDbBlockReference
  2
_ArchTick
 10
2507.814140377977
 20
862.8994778670614
 30
0.0
 41
0.1
 42
0.1
 43
0.1
 50
270.0
  0
INSERT
  5
5DD9
330
5DC8
100
AcDbEntity
  8
7.3. Kota
440
 16777216
370
    -2
100
AcDbBlockReference
  2
_ArchTick
 10
2507.814140377977
 20
873.0394778670612
 30
0.0
 41
0.1
 42
0.1
 43
0.1
 50
90.0
  0
MTEXT
  5
5DDA
330
5DC8
100
AcDbEntity
  8
7.3. Kota
440
 16777216
100
AcDbMText
 10
2507.687554429819
 20
867.9694778670619
 30
0.0
 40
0.15
 41
0.0
 46
0.0
 71
     5
 72
     1
  1
10.14
 11
0.0000000000000001
 21
1.0
 31
0.0
 73
     1
 44
1.0
  0
POINT
  5
5DDB
330
5DC8
100
AcDbEntity
  8
Defpoints
 62
     0
440
 16777216
100
AcDbPoint
 10
2506.598964818027
 20
862.8994778670614
 30
0.0
  0
POINT
  5
5DDC
330
5DC8
100
AcDbEntity
  8
Defpoints
 62
     0
440
 16777216
100
AcDbPoint
 10
2506.598964818027
 20
873.0394778670612
 30
0.0
  0
POINT
  5
5DDD
330
5DC8
100
AcDbEntity
  8
Defpoints
 62
     0
440
 16777216
100
AcDbPoint
 10
2507.814140377977
 20
873.0394778670612
 30
0.0
  0
ENDBLK
  5
5DCA
330
5DC8
100
AcDbEntity
  8
0
100
AcDbBlockEnd
  0
BLOCK
  5
5DF9
330
5DF8
100
AcDbEntity
  8
0
100
AcDbBlockBegin
  2
*D150
 70
     1
 10
0.0
 20
0.0
 30
0.0
  3
*D150
  1

  0
LINE
  5
5E03
330
5DF8
100
AcDbEntity
  8
7.3. Kota
440
 16777216
370
    -2
100
AcDbLine
 10
2504.848964818027
 20
863.9244778670613
 30
0.0
 11
2506.598964818027
 21
863.9244778670613
 31
0.0
  0
INSERT
  5
5E04
330
5DF8
100
AcDbEntity
  8
7.3. Kota
440
 16777216
370
    -2
100
AcDbBlockReference
  2
_ArchTick
 10
2504.848964818027
 20
863.9244778670613
 30
0.0
 41
0.1
 42
0.1
 43
0.1
 50
180.0
  0
INSERT
  5
5E05
330
5DF8
100
AcDbEntity
  8
7.3. Kota
440
 16777216
370
    -2
100
AcDbBlockReference
  2
_ArchTick
 10
2506.598964818027
 20
863.9244778670613
 30
0.0
 41
0.1
 42
0.1
 43
0.1
  0
MTEXT
  5
5E06
330
5DF8
100
AcDbEntity
  8
7.3. Kota
440
 16777216
100
AcDbMText
 10
2505.723964818027
 20
864.0510638152194
 30
0.0
 40
0.15
 41
0.0
 46
0.0
 71
     5
 72
     1
  1
1.75
 73
     1
 44
1.0
  0
POINT
  5
5E07
330
5DF8
100
AcDbEntity
  8
Defpoints
 62
     0
440
 16777216
100
AcDbPoint
 10
2504.848964818027
 20
863.9244778670613
 30
0.0
  0
POINT
  5
5E08
330
5DF8
100
AcDbEntity
  8
Defpoints
 62
     0
440
 16777216
100
AcDbPoint
 10
2506.598964818027
 20
863.9244778670613
 30
0.0
  0
POINT
  5
5E09
330
5DF8
100
AcDbEntity
  8
Defpoints
 62
     0
440
 16777216
100
AcDbPoint
 10
2506.598964818027
 20
863.9244778670613
 30
0.0
  0
ENDBLK
  5
5DFA
330
5DF8
100
AcDbEntity
  8
0
100
AcDbBlockEnd
  0
BLOCK
  5
5E21
330
5E20
100
AcDbEntity
  8
0
100
AcDbBlockBegin
  2
*D151
 70
     1
 10
0.0
 20
0.0
 30
0.0
  3
*D151
  1

  0
LINE
  5
5E2B
330
5E20
100
AcDbEntity
  8
7.3. Kota
440
 16777216
370
    -2
100
AcDbLine
 10
2504.748964818027
 20
863.9244778670613
 30
0.0
 11
2502.158964818027
 21
863.9244778670613
 31
0.0
  0
INSERT
  5
5E2C
330
5E20
100
AcDbEntity
  8
7.3. Kota
440
 16777216
370
    -2
100
AcDbBlockReference
  2
_ArchTick
 10
2504.748964818027
 20
863.9244778670613
 30
0.0
 41
0.1
 42
0.1
 43
0.1
  0
INSERT
  5
5E2D
330
5E20
100
AcDbEntity
  8
7.3. Kota
440
 16777216
370
    -2
100
AcDbBlockReference
  2
_ArchTick
 10
2502.158964818027
 20
863.9244778670613
 30
0.0
 41
0.1
 42
0.1
 43
0.1
 50
180.0
  0
MTEXT
  5
5E2E
330
5E20
100
AcDbEntity
  8
7.3. Kota
440
 16777216
100
AcDbMText
 10
2503.453964818027
 20
864.0510638152194
 30
0.0
 40
0.15
 41
0.0
 46
0.0
 71
     5
 72
     1
  1
2.59
 73
     1
 44
1.0
  0
POINT
  5
5E2F
330
5E20
100
AcDbEntity
  8
Defpoints
 62
     0
440
 16777216
100
AcDbPoint
 10
2504.748964818027
 20
863.9244778670613
 30
0.0
  0
POINT
  5
5E30
330
5E20
100
AcDbEntity
  8
Defpoints
 62
     0
440
 16777216
100
AcDbPoint
 10
2502.158964818027
 20
863.9244778670613
 30
0.0
  0
POINT
  5
5E31
330
5E20
100
AcDbEntity
  8
Defpoints
 62
     0
440
 16777216
100
AcDbPoint
 10
2502.158964818027
 20
863.9244778670613
 30
0.0
  0
ENDBLK
  5
5E22
330
5E20
100
AcDbEntity
  8
0
100
AcDbBlockEnd
  0
BLOCK
  5
5E35
330
5E34
100
AcDbEntity
  8
0
100
AcDbBlockBegin
  2
*D152
 70
     1
 10
0.0
 20
0.0
 30
0.0
  3
*D152
  1

  0
LINE
  5
5E41
330
5E34
100
AcDbEntity
  8
7.3. Kota
440
 16777216
370
    -2
100
AcDbLine
 10
2503.498964818027
 20
868.8094778670613
 30
0.0
 11
2503.498964818027
 21
868.4636386052034
 31
0.0
  0
LINE
  5
5E42
330
5E34
100
AcDbEntity
  8
7.3. Kota
440
 16777216
370
    -2
100
AcDbLine
 10
2498.278964818027
 20
868.8094778670615
 30
0.0
 11
2498.278964818027
 21
868.4636386052035
 31
0.0
  0
LINE
  5
5E43
330
5E34
100
AcDbEntity
  8
7.3. Kota
440
 16777216
370
    -2
100
AcDbLine
 10
2503.498964818027
 20
868.5636386052035
 30
0.0
 11
2498.278964818027
 21
868.5636386052035
 31
0.0
  0
INSERT
  5
5E44
330
5E34
100
AcDbEntity
  8
7.3. Kota
440
 16777216
370
    -2
100
AcDbBlockReference
  2
_ArchTick
 10
2503.498964818027
 20
868.5636386052035
 30
0.0
 41
0.1
 42
0.1
 43
0.1
 50
359.9999999999988
  0
INSERT
  5
5E45
330
5E34
100
AcDbEntity
  8
7.3. Kota
440
 16777216
370
    -2
100
AcDbBlockReference
  2
_ArchTick
 10
2498.278964818027
 20
868.5636386052035
 30
0.0
 41
0.1
 42
0.1
 43
0.1
 50
179.9999999999988
  0
MTEXT
  5
5E46
330
5E34
100
AcDbEntity
  8
7.3. Kota
440
 16777216
100
AcDbMText
 10
2500.888964818027
 20
868.6902245533616
 30
0.0
 40
0.15
 41
0.0
 46
0.0
 71
     5
 72
     1
  1
5.22
 73
     1
 44
1.0
  0
POINT
  5
5E47
330
5E34
100
AcDbEntity
  8
Defpoints
 62
     0
440
 16777216
100
AcDbPoint
 10
2503.498964818027
 20
868.9094778670613
 30
0.0
  0
POINT
  5
5E48
330
5E34
100
AcDbEntity
  8
Defpoints
 62
     0
440
 16777216
100
AcDbPoint
 10
2498.278964818027
 20
868.9094778670614
 30
0.0
  0
POINT
  5
5E49
330
5E34
100
AcDbEntity
  8
Defpoints
 62
     0
440
 16777216
100
AcDbPoint
 10
2498.278964818027
 20
868.5636386052035
 30
0.0
  0
ENDBLK
  5
5E36
330
5E34
100
AcDbEntity
  8
0
100
AcDbBlockEnd
  0
BLOCK
  5
5E4D
330
5E4C
100
AcDbEntity
  8
0
100
AcDbBlockBegin
  2
*D153
 70
     1
 10
0.0
 20
0.0
 30
0.0
  3
*D153
  1

  0
LINE
  5
5E59
330
5E4C
100
AcDbEntity
  8
7.3. Kota
440
 16777216
370
    -2
100
AcDbLine
 10
2506.647859565403
 20
873.3354665554921
 30
0.0
 11
2506.703284955797
 21
873.6709890704597
 31
0.0
  0
LINE
  5
5E5A
330
5E4C
100
AcDbEntity
  8
7.3. Kota
440
 16777216
370
    -2
100
AcDbLine
 10
2499.908934520569
 20
874.448678142733
 30
0.0
 11
2499.964359910963
 21
874.7842006577005
 31
0.0
  0
LINE
  5
5E5B
330
5E4C
100
AcDbEntity
  8
7.3. Kota
440
 16777216
370
    -2
100
AcDbLine
 10
2506.686986706671
 20
873.5723261743164
 30
0.0
 11
2499.948061661837
 21
874.6855377615572
 31
0.0
  0
INSERT
  5
5E5C
330
5E4C
100
AcDbEntity
  8
7.3. Kota
440
 16777216
370
    -2
100
AcDbBlockReference
  2
_ArchTick
 10
2506.686986706671
 20
873.5723261743164
 30
0.0
 41
0.1
 42
0.1
 43
0.1
 50
350.6199467125483
  0
INSERT
  5
5E5D
330
5E4C
100
AcDbEntity
  8
7.3. Kota
440
 16777216
370
    -2
100
AcDbBlockReference
  2
_ArchTick
 10
2499.948061661837
 20
874.6855377615572
 30
0.0
 41
0.1
 42
0.1
 43
0.1
 50
170.6199467125483
  0
MTEXT
  5
5E5E
330
5E4C
100
AcDbEntity
  8
7.3. Kota
440
 16777216
100
AcDbMText
 10
2503.338163815565
 20
874.2538758060614
 30
0.0
 40
0.15
 41
0.0
 46
0.0
 71
     5
 72
     1
  1
6.83
 11
0.98662896143625
 21
-0.1629824912535906
 31
0.0
 73
     1
 44
1.0
  0
POINT
  5
5E5F
330
5E4C
100
AcDbEntity
  8
Defpoints
 62
     0
440
 16777216
100
AcDbPoint
 10
2506.631561316277
 20
873.2368036593488
 30
0.0
  0
POINT
  5
5E60
330
5E4C
100
AcDbEntity
  8
Defpoints
 62
     0
440
 16777216
100
AcDbPoint
 10
2499.892636271444
 20
874.3500152465896
 30
0.0
  0
POINT
  5
5E61
330
5E4C
100
AcDbEntity
  8
Defpoints
 62
     0
440
 16777216
100
AcDbPoint
 10
2499.948061661837
 20
874.6855377615572
 30
0.0
  0
ENDBLK
  5
5E4E
330
5E4C
100
AcDbEntity
  8
0
100
AcDbBlockEnd
  0
BLOCK
  5
5E65
330
5E64
100
AcDbEntity
  8
0
100
AcDbBlockBegin
  2
*D154
 70
     1
 10
0.0
 20
0.0
 30
0.0
  3
*D154
  1

  0
LINE
  5
5E71
330
5E64
100
AcDbEntity
  8
7.3. Kota
440
 16777216
370
    -2
100
AcDbLine
 10
2498.650405396188
 20
871.8448905689589
 30
0.0
 11
2498.208924641177
 21
871.9808317597188
 31
0.0
  0
LINE
  5
5E72
330
5E64
100
AcDbEntity
  8
7.3. Kota
440
 16777216
370
    -2
100
AcDbLine
 10
2498.296458851724
 20
870.69541860384
 30
0.0
 11
2497.854978096713
 21
870.8313597945997
 31
0.0
  0
LINE
  5
5E73
330
5E64
100
AcDbEntity
  8
7.3. Kota
440
 16777216
370
    -2
100
AcDbLine
 10
2498.304496396801
 20
871.9514032101953
 30
0.0
 11
2497.950549852337
 21
870.8019312450762
 31
0.0
  0
INSERT
  5
5E74
330
5E64
100
AcDbEntity
  8
7.3. Kota
440
 16777216
370
    -2
100
AcDbBlockReference
  2
_ArchTick
 10
2498.304496396801
 20
871.9514032101953
 30
0.0
 41
0.1
 42
0.1
 43
0.1
 50
72.88530250735655
  0
INSERT
  5
5E75
330
5E64
100
AcDbEntity
  8
7.3. Kota
440
 16777216
370
    -2
100
AcDbBlockReference
  2
_ArchTick
 10
2497.950549852337
 20
870.8019312450762
 30
0.0
 41
0.1
 42
0.1
 43
0.1
 50
252.8853025073566
  0
MTEXT
  5
5E76
330
5E64
100
AcDbEntity
  8
7.3. Kota
440
 16777216
100
AcDbMText
 10
2498.006542711542
 20
871.4139196360797
 30
0.0
 40
0.15
 41
0.0
 46
0.0
 71
     5
 72
     1
  1
1.20
 11
0.2942854952339026
 21
0.9557175562345481
 31
0.0
 73
     1
 44
1.0
  0
POINT
  5
5E77
330
5E64
100
AcDbEntity
  8
Defpoints
 62
     0
440
 16777216
100
AcDbPoint
 10
2498.745977151811
 20
871.8154620194356
 30
0.0
  0
POINT
  5
5E78
330
5E64
100
AcDbEntity
  8
Defpoints
 62
     0
440
 16777216
100
AcDbPoint
 10
2498.392030607347
 20
870.6659900543165
 30
0.0
  0
POINT
  5
5E79
330
5E64
100
AcDbEntity
  8
Defpoints
 62
     0
440
 16777216
100
AcDbPoint
 10
2497.950549852337
 20
870.8019312450762
 30
0.0
  0
ENDBLK
  5
5E66
330
5E64
100
AcDbEntity
  8
0
100
AcDbBlockEnd
  0
BLOCK
  5
5E7D
330
5E7C
100
AcDbEntity
  8
0
100
AcDbBlockBegin
  2
*D155
 70
     1
 10
0.0
 20
0.0
 30
0.0
  3
*D155
  1

  0
LINE
  5
5E89
330
5E7C
100
AcDbEntity
  8
7.3. Kota
440
 16777216
370
    -2
100
AcDbLine
 10
2498.83465211747
 20
872.4432477053449
 30
0.0
 11
2498.393171362459
 21
872.5791888961047
 31
0.0
  0
LINE
  5
5E8A
330
5E7C
100
AcDbEntity
  8
7.3. Kota
440
 16777216
370
    -2
100
AcDbLine
 10
2499.188598661933
 20
873.5927196704638
 30
0.0
 11
2498.747117906923
 21
873.7286608612237
 31
0.0
  0
LINE
  5
5E8B
330
5E7C
100
AcDbEntity
  8
7.3. Kota
440
 16777216
370
    -2
100
AcDbLine
 10
2498.488743118083
 20
872.5497603465813
 30
0.0
 11
2498.842689662546
 21
873.6992323117002
 31
0.0
  0
INSERT
  5
5E8C
330
5E7C
100
AcDbEntity
  8
7.3. Kota
440
 16777216
370
    -2
100
AcDbBlockReference
  2
_ArchTick
 10
2498.488743118083
 20
872.5497603465813
 30
0.0
 41
0.1
 42
0.1
 43
0.1
 50
252.8853025073582
  0
INSERT
  5
5E8D
330
5E7C
100
AcDbEntity
  8
7.3. Kota
440
 16777216
370
    -2
100
AcDbBlockReference
  2
_ArchTick
 10
2498.842689662546
 20
873.6992323117002
 30
0.0
 41
0.1
 42
0.1
 43
0.1
 50
72.88530250735819
  0
MTEXT
  5
5E8E
330
5E7C
100
AcDbEntity
  8
7.3. Kota
440
 16777216
100
AcDbMText
 10
2498.544735977287
 20
873.1617487375848
 30
0.0
 40
0.15
 41
0.0
 46
0.0
 71
     5
 72
     1
  1
1.20
 11
0.2942854952338759
 21
0.9557175562345562
 31
0.0
 73
     1
 44
1.0
  0
POINT
  5
5E8F
330
5E7C
100
AcDbEntity
  8
Defpoints
 62
     0
440
 16777216
100
AcDbPoint
 10
2498.930223873094
 20
872.4138191558216
 30
0.0
  0
POINT
  5
5E90
330
5E7C
100
AcDbEntity
  8
Defpoints
 62
     0
440
 16777216
100
AcDbPoint
 10
2499.284170417557
 20
873.5632911209405
 30
0.0
  0
POINT
  5
5E91
330
5E7C
100
AcDbEntity
  8
Defpoints
 62
     0
440
 16777216
100
AcDbPoint
 10
2498.842689662546
 20
873.6992323117002
 30
0.0
  0
ENDBLK
  5
5E7E
330
5E7C
100
AcDbEntity
  8
0
100
AcDbBlockEnd
  0
BLOCK
  5
5E95
330
5E94
100
AcDbEntity
  8
0
100
AcDbBlockBegin
  2
*D156
 70
     1
 10
0.0
 20
0.0
 30
0.0
  3
*D156
  1

  0
LINE
  5
5EA1
330
5E94
100
AcDbEntity
  8
7.3. Kota
440
 16777216
370
    -2
100
AcDbLine
 10
2499.389176314676
 20
874.2441129168833
 30
0.0
 11
2498.54999831965
 21
874.5025134351585
 31
0.0
  0
LINE
  5
5EA2
330
5E94
100
AcDbEntity
  8
7.3. Kota
440
 16777216
370
    -2
100
AcDbLine
 10
2497.81717607945
 20
869.1389064165848
 30
0.0
 11
2496.977998084423
 21
869.3973069348601
 31
0.0
  0
LINE
  5
5EA3
330
5E94
100
AcDbEntity
  8
7.3. Kota
440
 16777216
370
    -2
100
AcDbLine
 10
2498.645570075273
 20
874.4730848856352
 30
0.0
 11
2497.073569840047
 21
869.3678783853368
 31
0.0
  0
INSERT
  5
5EA4
330
5E94
100
AcDbEntity
  8
7.3. Kota
440
 16777216
370
    -2
100
AcDbBlockReference
  2
_ArchTick
 10
2498.645570075273
 20
874.4730848856352
 30
0.0
 41
0.1
 42
0.1
 43
0.1
 50
72.88530250736286
  0
INSERT
  5
5EA5
330
5E94
100
AcDbEntity
  8
7.3. Kota
440
 16777216
370
    -2
100
AcDbBlockReference
  2
_ArchTick
 10
2497.073569840047
 20
869.3678783853368
 30
0.0
 41
0.1
 42
0.1
 43
0.1
 50
252.8853025073628
  0
MTEXT
  5
5EA6
330
5E94
100
AcDbEntity
  8
7.3. Kota
440
 16777216
100
AcDbMText
 10
2497.738540650487
 20
871.9577490994629
 30
0.0
 40
0.15
 41
0.0
 46
0.0
 71
     5
 72
     1
  1
5.34
 11
0.2942854952337982
 21
0.9557175562345802
 31
0.0
 73
     1
 44
1.0
  0
POINT
  5
5EA7
330
5E94
100
AcDbEntity
  8
Defpoints
 62
     0
440
 16777216
100
AcDbPoint
 10
2499.4847480703
 20
874.21468436736
 30
0.0
  0
POINT
  5
5EA8
330
5E94
100
AcDbEntity
  8
Defpoints
 62
     0
440
 16777216
100
AcDbPoint
 10
2497.912747835073
 20
869.1094778670615
 30
0.0
  0
POINT
  5
5EA9
330
5E94
100
AcDbEntity
  8
Defpoints
 62
     0
440
 16777216
100
AcDbPoint
 10
2497.073569840047
 20
869.3678783853368
 30
0.0
  0
ENDBLK
  5
5E96
330
5E94
100
AcDbEntity
  8
0
100
AcDbBlockEnd
  0
BLOCK
  5
5EAD
330
5EAC
100
AcDbEntity
  8
0
100
AcDbBlockBegin
  2
*D157
 70
     1
 10
0.0
 20
0.0
 30
0.0
  3
*D157
  1

  0
LINE
  5
5EAF
330
5EAC
100
AcDbEntity
  8
7.3. Kota
440
 16777216
370
    -2
100
AcDbLine
 10
2503.278744849775
 20
873.2166868074473
 30
0.0
 11
2503.265437563884
 21
873.2166868074473
 31
0.0
  0
LINE
  5
5EB0
330
5EAC
100
AcDbEntity
  8
7.3. Kota
440
 16777216
370
    -2
100
AcDbLine
 10
2503.278744849777
 20
869.4594778670614
 30
0.0
 11
2503.265437563884
 21
869.4594778670614
 31
0.0
  0
LINE
  5
5EB1
330
5EAC
100
AcDbEntity
  8
7.3. Kota
440
 16777216
370
    -2
100
AcDbLine
 10
2503.365437563884
 20
873.2166868074473
 30
0.0
 11
2503.365437563884
 21
869.4594778670614
 31
0.0
  0
INSERT
  5
5EB2
330
5EAC
100
AcDbEntity
  8
7.3. Kota
440
 16777216
370
    -2
100
AcDbBlockReference
  2
_ArchTick
 10
2503.365437563884
 20
873.2166868074473
 30
0.0
 41
0.1
 42
0.1
 43
0.1
 50
90.0
  0
INSERT
  5
5EB3
330
5EAC
100
AcDbEntity
  8
7.3. Kota
440
 16777216
370
    -2
100
AcDbBlockReference
  2
_ArchTick
 10
2503.365437563884
 20
869.4594778670614
 30
0.0
 41
0.1
 42
0.1
 43
0.1
 50
270.0
  0
MTEXT
  5
5EB4
330
5EAC
100
AcDbEntity
  8
7.3. Kota
440
 16777216
100
AcDbMText
 10
2503.238800456108
 20
871.3380823372547
 30
0.0
 40
0.15
 41
0.0
 46
0.0
 71
     5
 72
     1
  1
3.76
 11
0.0000000000000001
 21
1.0
 31
0.0
 73
     1
 44
1.0
  0
POINT
  5
5EB5
330
5EAC
100
AcDbEntity
  8
Defpoints
 62
     0
440
 16777216
100
AcDbPoint
 10
2503.378744849774
 20
873.2166868074473
 30
0.0
  0
POINT
  5
5EB6
330
5EAC
100
AcDbEntity
  8
Defpoints
 62
     0
440
 16777216
100
AcDbPoint
 10
2503.378744849777
 20
869.4594778670614
 30
0.0
  0
POINT
  5
5EB7
330
5EAC
100
AcDbEntity
  8
Defpoints
 62
     0
440
 16777216
100
AcDbPoint
 10
2503.365437563884
 20
869.4594778670614
 30
0.0
  0
ENDBLK
  5
5EAE
330
5EAC
100
AcDbEntity
  8
0
100
AcDbBlockEnd
  0
BLOCK
  5
5EC6
330
5EC5
100
AcDbEntity
  8
0
100
AcDbBlockBegin
  2
*D158
 70
     1
 10
0.0
 20
0.0
 30
0.0
  3
*D158
  1

  0
LINE
  5
5ED2
330
5EC5
100
AcDbEntity
  8
7.3. Kota
440
 16777216
370
    -2
100
AcDbLine
 10
2503.398964818027
 20
869.0094778670614
 30
0.0
 11
2503.048776937633
 21
869.0094778670614
 31
0.0
  0
LINE
  5
5ED3
330
5EC5
100
AcDbEntity
  8
7.3. Kota
440
 16777216
370
    -2
100
AcDbLine
 10
2503.398964818027
 20
865.8994778670614
 30
0.0
 11
2503.048776937633
 21
865.8994778670614
 31
0.0
  0
LINE
  5
5ED4
330
5EC5
100
AcDbEntity
  8
7.3. Kota
440
 16777216
370
    -2
100
AcDbLine
 10
2503.148776937633
 20
869.0094778670614
 30
0.0
 11
2503.148776937633
 21
865.8994778670614
 31
0.0
  0
INSERT
  5
5ED5
330
5EC5
100
AcDbEntity
  8
7.3. Kota
440
 16777216
370
    -2
100
AcDbBlockReference
  2
_ArchTick
 10
2503.148776937633
 20
869.0094778670614
 30
0.0
 41
0.1
 42
0.1
 43
0.1
 50
90.0
  0
INSERT
  5
5ED6
330
5EC5
100
AcDbEntity
  8
7.3. Kota
440
 16777216
370
    -2
100
AcDbBlockReference
  2
_ArchTick
 10
2503.148776937633
 20
865.8994778670614
 30
0.0
 41
0.1
 42
0.1
 43
0.1
 50
270.0
  0
MTEXT
  5
5ED7
330
5EC5
100
AcDbEntity
  8
7.3. Kota
440
 16777216
100
AcDbMText
 10
2503.022139829857
 20
867.4544778670618
 30
0.0
 40
0.15
 41
0.0
 46
0.0
 71
     5
 72
     1
  1
3.11
 11
0.0000000000000001
 21
1.0
 31
0.0
 73
     1
 44
1.0
  0
POINT
  5
5ED8
330
5EC5
100
AcDbEntity
  8
Defpoints
 62
     0
440
 16777216
100
AcDbPoint
 10
2503.498964818027
 20
869.0094778670614
 30
0.0
  0
POINT
  5
5ED9
330
5EC5
100
AcDbEntity
  8
Defpoints
 62
     0
440
 16777216
100
AcDbPoint
 10
2503.498964818027
 20
865.8994778670614
 30
0.0
  0
POINT
  5
5EDA
330
5EC5
100
AcDbEntity
  8
Defpoints
 62
     0
440
 16777216
100
AcDbPoint
 10
2503.148776937633
 20
865.8994778670614
 30
0.0
  0
ENDBLK
  5
5EC7
330
5EC5
100
AcDbEntity
  8
0
100
AcDbBlockEnd
  0
BLOCK
  5
5FBB
330
5FBA
100
AcDbEntity
  8
0
100
AcDbBlockBegin
  2
*D159
 70
     1
 10
0.0
 20
0.0
 30
0.0
  3
*D159
  1

  0
LINE
  5
5FC7
330
5FBA
100
AcDbEntity
  8
7.3. Kota
440
 16777216
370
    -2
100
AcDbLine
 10
2504.648964818027
 20
865.4594778670613
 30
0.0
 11
2504.544128300967
 21
865.4594778670613
 31
0.0
  0
LINE
  5
5FC8
330
5FBA
100
AcDbEntity
  8
7.3. Kota
440
 16777216
370
    -2
100
AcDbLine
 10
2504.648964818027
 20
864.7594778670613
 30
0.0
 11
2504.544128300967
 21
864.7594778670613
 31
0.0
  0
LINE
  5
5FC9
330
5FBA
100
AcDbEntity
  8
7.3. Kota
440
 16777216
370
    -2
100
AcDbLine
 10
2504.644128300967
 20
865.4594778670613
 30
0.0
 11
2504.644128300967
 21
864.7594778670613
 31
0.0
  0
INSERT
  5
5FCA
330
5FBA
100
AcDbEntity
  8
7.3. Kota
440
 16777216
370
    -2
100
AcDbBlockReference
  2
_ArchTick
 10
2504.644128300967
 20
865.4594778670613
 30
0.0
 41
0.1
 42
0.1
 43
0.1
 50
90.0
  0
INSERT
  5
5FCB
330
5FBA
100
AcDbEntity
  8
7.3. Kota
440
 16777216
370
    -2
100
AcDbBlockReference
  2
_ArchTick
 10
2504.644128300967
 20
864.7594778670613
 30
0.0
 41
0.1
 42
0.1
 43
0.1
 50
270.0
  0
MTEXT
  5
5FCC
330
5FBA
100
AcDbEntity
  8
7.3. Kota
440
 16777216
100
AcDbMText
 10
2504.517542352809
 20
865.1094778670618
 30
0.0
 40
0.15
 41
0.0
 46
0.0
 71
     5
 72
     1
  1
0.70
 11
0.0000000000000001
 21
1.0
 31
0.0
 73
     1
 44
1.0
  0
POINT
  5
5FCD
330
5FBA
100
AcDbEntity
  8
Defpoints
 62
     0
440
 16777216
100
AcDbPoint
 10
2504.748964818027
 20
865.4594778670613
 30
0.0
  0
POINT
  5
5FCE
330
5FBA
100
AcDbEntity
  8
Defpoints
 62
     0
440
 16777216
100
AcDbPoint
 10
2504.748964818027
 20
864.7594778670613
 30
0.0
  0
POINT
  5
5FCF
330
5FBA
100
AcDbEntity
  8
Defpoints
 62
     0
440
 16777216
100
AcDbPoint
 10
2504.644128300967
 20
864.7594778670613
 30
0.0
  0
ENDBLK
  5
5FBC
330
5FBA
100
AcDbEntity
  8
0
100
AcDbBlockEnd
  0
BLOCK
  5
5FFE
330
5FFD
100
AcDbEntity
  8
0
100
AcDbBlockBegin
  2
*D160
 70
     1
 10
0.0
 20
0.0
 30
0.0
  3
*D160
  1

  0
LINE
  5
6008
330
5FFD
100
AcDbEntity
  8
7.3. Kota
440
 16777216
370
    -2
100
AcDbLine
 10
2499.094467855662
 20
871.7578943974499
 30
0.0
 11
2506.598964818027
 21
871.7578943974499
 31
0.0
  0
INSERT
  5
6009
330
5FFD
100
AcDbEntity
  8
7.3. Kota
440
 16777216
370
    -2
100
AcDbBlockReference
  2
_ArchTick
 10
2499.094467855662
 20
871.7578943974499
 30
0.0
 41
0.1
 42
0.1
 43
0.1
 50
180.0
  0
INSERT
  5
600A
330
5FFD
100
AcDbEntity
  8
7.3. Kota
440
 16777216
370
    -2
100
AcDbBlockReference
  2
_ArchTick
 10
2506.598964818027
 20
871.7578943974499
 30
0.0
 41
0.1
 42
0.1
 43
0.1
  0
MTEXT
  5
600B
330
5FFD
100
AcDbEntity
  8
7.3. Kota
440
 16777216
100
AcDbMText
 10
2502.846716336844
 20
871.8844803456081
 30
0.0
 40
0.15
 41
0.0
 46
0.0
 71
     5
 72
     1
  1
7.50
 73
     1
 44
1.0
  0
POINT
  5
600C
330
5FFD
100
AcDbEntity
  8
Defpoints
 62
     0
440
 16777216
100
AcDbPoint
 10
2499.094467855662
 20
871.7578943974499
 30
0.0
  0
POINT
  5
600D
330
5FFD
100
AcDbEntity
  8
Defpoints
 62
     0
440
 16777216
100
AcDbPoint
 10
2506.598964818027
 20
871.7578943974499
 30
0.0
  0
POINT
  5
600E
330
5FFD
100
AcDbEntity
  8
Defpoints
 62
     0
440
 16777216
100
AcDbPoint
 10
2506.598964818027
 20
871.7578943974499
 30
0.0
  0
ENDBLK
  5
5FFF
330
5FFD
100
AcDbEntity
  8
0
100
AcDbBlockEnd
  0
BLOCK
  5
90EC
330
90EB
100
AcDbEntity
  8
0
100
AcDbBlockBegin
  2
*D274
 70
     1
 10
0.0
 20
0.0
 30
0.0
  3
*D274
  1

  0
LINE
  5
90EE
330
90EB
100
AcDbEntity
  8
7.3. Kota
440
 16777216
370
    -2
100
AcDbLine
 10
2503.758964818027
 20
862.6247733979528
 30
0.0
 11
2503.758964818027
 21
862.5309296549815
 31
0.0
  0
LINE
  5
90EF
330
90EB
100
AcDbEntity
  8
7.3. Kota
440
 16777216
370
    -2
100
AcDbLine
 10
2504.518964818027
 20
862.6247733979534
 30
0.0
 11
2504.518964818027
 21
862.5309296549815
 31
0.0
  0
LINE
  5
90F0
330
90EB
100
AcDbEntity
  8
7.3. Kota
440
 16777216
370
    -2
100
AcDbLine
 10
2503.758964818027
 20
862.6309296549816
 30
0.0
 11
2504.518964818027
 21
862.6309296549816
 31
0.0
  0
INSERT
  5
90F1
330
90EB
100
AcDbEntity
  8
7.3. Kota
440
 16777216
370
    -2
100
AcDbBlockReference
  2
_ArchTick
 10
2503.758964818027
 20
862.6309296549816
 30
0.0
 41
0.1
 42
0.1
 43
0.1
 50
180.0
  0
INSERT
  5
90F2
330
90EB
100
AcDbEntity
  8
7.3. Kota
440
 16777216
370
    -2
100
AcDbBlockReference
  2
_ArchTick
 10
2504.518964818027
 20
862.6309296549816
 30
0.0
 41
0.1
 42
0.1
 43
0.1
  0
MTEXT
  5
90F3
330
90EB
100
AcDbEntity
  8
7.3. Kota
440
 16777216
100
AcDbMText
 10
2504.138964818027
 20
862.7575156031397
 30
0.0
 40
0.15
 41
0.0
 46
0.0
 71
     5
 72
     1
  1
0.76
 73
     1
 44
1.0
  0
POINT
  5
90F4
330
90EB
100
AcDbEntity
  8
Defpoints
 62
     0
440
 16777216
100
AcDbPoint
 10
2503.758964818027
 20
862.724773397953
 30
0.0
  0
POINT
  5
90F5
330
90EB
100
AcDbEntity
  8
Defpoints
 62
     0
440
 16777216
100
AcDbPoint
 10
2504.518964818027
 20
862.7247733979533
 30
0.0
  0
POINT
  5
90F6
330
90EB
100
AcDbEntity
  8
Defpoints
 62
     0
440
 16777216
100
AcDbPoint
 10
2504.518964818027
 20
862.6309296549816
 30
0.0
  0
ENDBLK
  5
90ED
330
90EB
100
AcDbEntity
  8
0
100
AcDbBlockEnd
  0
BLOCK
  5
9172
330
916E
100
AcDbEntity
  8
0
100
AcDbBlockBegin
  2
A$C56C501B1
 70
     0
 10
0.0
 20
0.0
 30
0.0
  3
A$C56C501B1
  1

  0
LWPOLYLINE
  5
916F
330
916E
100
AcDbEntity
  8
Basea_Eraikuntza
100
AcDbPolyline
 90
       54
 70
     1
 43
0.3
 10
6.693319272482767
 20
50.11846068780869
 10
19.8933192724362
 20
46.78846068959683
 10
21.97331927239429
 20
34.64846068900079
 10
22.35331927239895
 20
31.50846068933606
 10
22.57331927248742
 20
26.47846068814397
 10
22.75331927242223
 20
20.47846068907529
 10
23.19331927248277
 20
12.42846068926155
 10
22.75331927242223
 20
7.178460689261555
 10
22.08331927249674
 20
-0.4715393111109734
 10
21.01331927243155
 20
-9.161539310589432
 10
20.04331927245948
 20
-17.21153931040317
 10
18.25331927242223
 20
-22.17153931036591
 10
17.46331927250139
 20
-24.36153931170702
 10
16.87331927241757
 20
-24.1115393107757
 10
14.74331927241292
 20
-23.21153931040317
 10
13.88331927242689
 20
-22.85153931099921
 10
3.393319272436201
 20
-18.29153930954635
 10
0.5633192724781111
 20
-17.20153931248933
 10
0.7133192725013942
 20
-16.85153931193054
 10
3.853319272398948
 20
-9.65153931081295
 10
5.873319272417575
 20
-5.011539311148226
 10
11.10331927239895
 20
-7.39153931196779
 10
11.70331927249208
 20
-1.881539311259984
 10
8.743319272412918
 20
-1.471539311110973
 10
9.033319272566586
 20
3.528460688889026
 10
4.803319272468797
 20
5.618460687808692
 10
8.543319272459484
 20
11.41846068948507
 10
9.333319272496737
 20
11.45846068952232
 10
12.88331927231047
 20
11.62846068944782
 10
14.21331927250139
 20
22.44846068881452
 10
11.32331927248742
 20
23.11846068780869
 10
12.61331927240826
 20
28.59846068918705
 10
11.94331927248277
 20
28.74846068955958
 10
10.8033192724688
 20
23.3884606892243
 10
2.883319272426888
 20
26.08846068941057
 10
2.123319272417575
 20
24.41846068948507
 10
2.113319272408261
 20
24.39846068900079
 10
2.673319272464141
 20
23.41846068948507
 10
-2.096680727554485
 20
13.02846068888902
 10
0.2833192724501714
 20
11.94846068881452
 10
3.913319272454828
 20
10.28846068959683
 10
5.083319272496737
 20
9.758460689336061
 10
1.673319272464141
 20
2.368460687808692
 10
3.663319272454828
 20
1.488460687920451
 10
2.393319272436201
 20
-1.381539311259984
 10
-3.696680727531202
 20
-15.18153931107372
 10
-20.20668072754052
 20
-7.951539310626685
 10
-14.04668072750792
 20
5.958460690453648
 10
-13.16668072750326
 20
7.738460688851773
 10
-9.326680727419443
 20
16.2784606879577
 10
-4.346680727554485
 20
27.2784606879577
 10
-3.886680727591738
 20
28.29846068937332
 10
-0.9766807275591418
 20
34.18846068903804
 10
1.40331927256193
 20
39.00846068933606
1001
ACAD
1000
RTMaterial
1005
EC
1000
RTMaterial
1005
0
1001
IRD
1002
{
1000
TPMLINK_EDIFICIO-_-ade
1070
   515
1071
        1
1004
0100472000004706000047060000000000000CF3650C96F673400CF3650C96F6734000000000D31A0000
1002
}
  0
ENDBLK
  5
9173
330
916E
100
AcDbEntity
  8
0
100
AcDbBlockEnd
  0
ENDSEC
  0
SECTION
  2
ENTITIES
  0
LINE
  5
124E
330
1F
100
AcDbEntity
  8
3.2. Leihoa
100
AcDbLine
 10
2498.392030607348
 20
870.6659900543169
 30
0.0
 11
2498.745977151811
 21
871.8154620194358
 31
0.0
  0
LINE
  5
124F
102
{ACAD_REACTORS
330
1A89
330
5EAA
102
}
330
1F
100
AcDbEntity
  8
2.3. Mehelina
100
AcDbLine
 10
2502.790577026883
 20
873.6685902833002
 30
0.0
 11
2500.279651506543
 21
874.0833732591228
 31
0.0
  0
MTEXT
  5
1353
330
1F
100
AcDbEntity
  8
0
100
AcDbMText
 10
2496.940822232252
 20
894.0673577912448
 30
0.0
 40
3.0
 41
942.7166960848172
 46
0.0
 71
     1
 72
     5
  1
45. Lokala
 73
     1
 44
1.0
1001
ACAD
1000
ACAD_MTEXT_COLUMN_INFO_BEGIN
1070
    75
1070
     2
1070
    79
1070
     0
1070
    76
1070
     1
1070
    78
1070
     0
1070
    48
1040
942.7166960848172
1070
    49
1040
12.5
1070
    50
1070
     1
1040
0.0
1000
ACAD_MTEXT_COLUMN_INFO_END
  0
LWPOLYLINE
  5
1354
330
1F
100
AcDbEntity
  8
0
 62
     1
100
AcDbPolyline
 90
        4
 70
     1
 43
0.0
 10
2483.660774288846
 20
914.832605090417
 10
2531.040384328892
 20
914.832605090417
 10
2531.040384328892
 20
847.9093292968554
 10
2483.660774288846
 20
847.9093292968554
  0
LINE
  5
1355
330
1F
100
AcDbEntity
  8
2.2. Barne Horma
100
AcDbLine
 10
2504.848964818027
 20
865.8994778670614
 30
0.0
 11
2506.348964818027
 21
865.8994778670614
 31
0.0
  0
LINE
  5
1356
330
1F
100
AcDbEntity
  8
2.2. Barne Horma
100
AcDbLine
 10
2504.848964818027
 20
865.9994778670613
 30
0.0
 11
2506.348964818027
 21
865.9994778670613
 31
0.0
  0
LINE
  5
1357
102
{ACAD_REACTORS
330
5DAE
102
}
330
1F
100
AcDbEntity
  8
2.2. Barne Horma
100
AcDbLine
 10
2504.848964818027
 20
866.9594778670612
 30
0.0
 11
2506.598964818027
 21
866.9594778670612
 31
0.0
  0
LINE
  5
1358
102
{ACAD_REACTORS
330
5D7A
102
}
330
1F
100
AcDbEntity
  8
2.2. Barne Horma
100
AcDbLine
 10
2504.848964818027
 20
867.0594778670613
 30
0.0
 11
2506.598964818027
 21
867.0594778670613
 31
0.0
  0
LINE
  5
1359
102
{ACAD_REACTORS
330
5D7A
102
}
330
1F
100
AcDbEntity
  8
2.2. Barne Horma
100
AcDbLine
 10
2504.848964818027
 20
867.9694778670613
 30
0.0
 11
2506.598964818027
 21
867.9694778670613
 31
0.0
  0
LINE
  5
135A
102
{ACAD_REACTORS
330
5D46
102
}
330
1F
100
AcDbEntity
  8
2.2. Barne Horma
100
AcDbLine
 10
2504.848964818027
 20
868.0694778670613
 30
0.0
 11
2506.598964818027
 21
868.0694778670613
 31
0.0
  0
LINE
  5
135B
102
{ACAD_REACTORS
330
5D46
102
}
330
1F
100
AcDbEntity
  8
2.2. Barne Horma
100
AcDbLine
 10
2504.848964818027
 20
869.0094778670614
 30
0.0
 11
2506.598964818027
 21
869.0094778670614
 31
0.0
  0
LINE
  5
135C
330
1F
100
AcDbEntity
  8
2.2. Barne Horma
100
AcDbLine
 10
2504.633964818026
 20
869.1094778670613
 30
0.0
 11
2506.598964818027
 21
869.1094778670613
 31
0.0
  0
LINE
  5
135D
330
1F
100
AcDbEntity
  8
2.3. Mehelina
100
AcDbLine
 10
2503.698964818027
 20
865.8994778670614
 30
0.0
 11
2503.698964818027
 21
869.1094778670613
 31
0.0
  0
LINE
  5
135E
330
1F
100
AcDbEntity
  8
2.3. Mehelina
100
AcDbLine
 10
2503.498964818027
 20
866.0994778670612
 30
0.0
 11
2503.498964818027
 21
868.9094778670613
 31
0.0
  0
LINE
  5
135F
102
{ACAD_REACTORS
330
5E32
102
}
330
1F
100
AcDbEntity
  8
2.2. Barne Horma
100
AcDbLine
 10
2504.748964818027
 20
863.1494778670614
 30
0.0
 11
2504.748964818027
 21
864.6994778670613
 31
0.0
  0
LINE
  5
1360
102
{ACAD_REACTORS
330
3D2A
102
}
330
1F
100
AcDbEntity
  8
2.2. Barne Horma
100
AcDbLine
 10
2504.748964818027
 20
865.5194778670614
 30
0.0
 11
2504.748964818027
 21
866.1844778670612
 31
0.0
  0
LINE
  5
1361
330
1F
100
AcDbEntity
  8
2.2. Barne Horma
100
AcDbLine
 10
2504.748964818027
 20
866.8244778670613
 30
0.0
 11
2504.748964818027
 21
867.1944778670612
 31
0.0
  0
LINE
  5
1362
330
1F
100
AcDbEntity
  8
2.2. Barne Horma
100
AcDbLine
 10
2504.748964818027
 20
867.8344778670611
 30
0.0
 11
2504.748964818027
 21
868.2194778670613
 31
0.0
  0
LINE
  5
1363
330
1F
100
AcDbEntity
  8
2.2. Barne Horma
100
AcDbLine
 10
2504.748964818027
 20
868.8594778670612
 30
0.0
 11
2504.748964818027
 21
869.0094778670614
 31
0.0
  0
LINE
  5
1364
102
{ACAD_REACTORS
330
5E0A
102
}
330
1F
100
AcDbEntity
  8
2.2. Barne Horma
100
AcDbLine
 10
2504.848964818027
 20
863.1494778670614
 30
0.0
 11
2504.848964818027
 21
864.6994778670613
 31
0.0
  0
LINE
  5
1365
330
1F
100
AcDbEntity
  8
2.2. Barne Horma
100
AcDbLine
 10
2504.848964818027
 20
865.5194778670614
 30
0.0
 11
2504.848964818027
 21
865.8994778670614
 31
0.0
  0
LINE
  5
1366
102
{ACAD_REACTORS
330
1A89
102
}
330
1F
100
AcDbEntity
  8
2.3. Mehelina
100
AcDbLine
 10
2506.348964818027
 20
865.6494778670614
 30
0.0
 11
2506.348964818027
 21
866.0494778670614
 31
0.0
  0
LINE
  5
1369
102
{ACAD_REACTORS
330
1A89
102
}
330
1F
100
AcDbEntity
  8
2.3. Mehelina
100
AcDbLine
 10
2506.598964818027
 20
866.0494778670614
 30
0.0
 11
2506.598964818027
 21
873.0394778670612
 31
0.0
  0
LINE
  5
136A
102
{ACAD_REACTORS
330
1A89
330
5D12
330
5D46
330
5D7A
330
5DAE
330
5DC6
102
}
330
1F
100
AcDbEntity
  8
2.3. Mehelina
100
AcDbLine
 10
2506.798964818027
 20
862.8994778670614
 30
0.0
 11
2506.798964818027
 21
873.2091500622761
 31
0.0
  0
LINE
  5
136B
102
{ACAD_REACTORS
330
3D2A
330
5EDB
102
}
330
1F
100
AcDbEntity
  8
2.3. Mehelina
100
AcDbLine
 10
2503.698964818027
 20
865.8994778670614
 30
0.0
 11
2502.618964818027
 21
865.8994778670614
 31
0.0
  0
LINE
  5
136C
330
1F
100
AcDbEntity
  8
2.3. Mehelina
100
AcDbLine
 10
2503.498964818027
 20
866.0994778670612
 30
0.0
 11
2501.958964818027
 21
866.0994778670612
 31
0.0
  0
LINE
  5
136D
330
1F
100
AcDbEntity
  8
2.3. Mehelina
100
AcDbLine
 10
2502.618964818027
 20
865.8994778670614
 30
0.0
 11
2502.618964818027
 21
865.6494778670614
 31
0.0
  0
LINE
  5
136E
330
1F
100
AcDbEntity
  8
2.3. Mehelina
100
AcDbLine
 10
2502.618964818027
 20
865.6494778670614
 30
0.0
 11
2502.158964818027
 21
865.6494778670614
 31
0.0
  0
LINE
  5
136F
102
{ACAD_REACTORS
330
5E32
102
}
330
1F
100
AcDbEntity
  8
2.3. Mehelina
100
AcDbLine
 10
2502.158964818027
 20
865.6494778670614
 30
0.0
 11
2502.158964818027
 21
862.8994778670614
 31
0.0
  0
LINE
  5
1370
330
1F
100
AcDbEntity
  8
2.3. Mehelina
100
AcDbLine
 10
2501.958964818027
 20
866.0994778670612
 30
0.0
 11
2501.958964818027
 21
862.8994778670614
 31
0.0
  0
LINE
  5
1372
330
1F
100
AcDbEntity
  8
2.1. Kanpo Horma
100
AcDbLine
 10
2503.108964818026
 20
862.5494778670613
 30
0.0
 11
2503.108964818026
 21
863.1494778670614
 31
0.0
  0
LINE
  5
1373
330
1F
100
AcDbEntity
  8
2.1. Kanpo Horma
100
AcDbLine
 10
2503.108964818026
 20
863.1494778670614
 30
0.0
 11
2503.698964818027
 21
863.1494778670614
 31
0.0
  0
LINE
  5
1374
330
1F
100
AcDbEntity
  8
2.1. Kanpo Horma
100
AcDbLine
 10
2503.698964818027
 20
863.1494778670614
 30
0.0
 11
2503.698964818027
 21
862.5494778670613
 31
0.0
  0
LINE
  5
1375
330
1F
100
AcDbEntity
  8
2.1. Kanpo Horma
100
AcDbLine
 10
2501.958964818027
 20
862.5494778670613
 30
0.0
 11
2502.158964818027
 21
862.5494778670613
 31
0.0
  0
LINE
  5
1376
330
1F
100
AcDbEntity
  8
2.1. Kanpo Horma
100
AcDbLine
 10
2503.108964818026
 20
862.5494778670613
 30
0.0
 11
2503.698964818027
 21
862.5494778670613
 31
0.0
  0
LINE
  5
1377
330
1F
100
AcDbEntity
  8
2.1. Kanpo Horma
100
AcDbLine
 10
2503.698964818027
 20
863.1494778670614
 30
0.0
 11
2503.108964818026
 21
863.1494778670614
 31
0.0
  0
LINE
  5
1378
330
1F
100
AcDbEntity
  8
2.2. Barne Horma
100
AcDbLine
 10
2504.848964818027
 20
864.6994778670613
 30
0.0
 11
2504.748964818027
 21
864.6994778670613
 31
0.0
  0
LINE
  5
1379
102
{ACAD_REACTORS
330
1A89
102
}
330
1F
100
AcDbEntity
  8
2.3. Mehelina
100
AcDbLine
 10
2506.348964818027
 20
865.6494778670614
 30
0.0
 11
2506.598964818027
 21
865.6494778670614
 31
0.0
  0
LINE
  5
137A
330
1F
100
AcDbEntity
  8
2.2. Barne Horma
100
AcDbLine
 10
2504.848964818027
 20
865.9994778670613
 30
0.0
 11
2504.848964818026
 21
866.1844778670612
 31
0.0
  0
LINE
  5
137B
330
1F
100
AcDbEntity
  8
2.2. Barne Horma
100
AcDbLine
 10
2504.848964818026
 20
866.8244778670613
 30
0.0
 11
2504.848964818027
 21
866.9594778670612
 31
0.0
  0
LINE
  5
137C
330
1F
100
AcDbEntity
  8
2.2. Barne Horma
100
AcDbLine
 10
2504.848964818027
 20
867.0594778670613
 30
0.0
 11
2504.848964818027
 21
867.1944778670614
 31
0.0
  0
LINE
  5
137D
330
1F
100
AcDbEntity
  8
2.2. Barne Horma
100
AcDbLine
 10
2504.848964818027
 20
867.8344778670611
 30
0.0
 11
2504.848964818027
 21
867.9694778670613
 31
0.0
  0
LINE
  5
137E
330
1F
100
AcDbEntity
  8
2.2. Barne Horma
100
AcDbLine
 10
2504.848964818027
 20
868.0694778670613
 30
0.0
 11
2504.848964818027
 21
868.2194778670613
 31
0.0
  0
LINE
  5
137F
330
1F
100
AcDbEntity
  8
2.2. Barne Horma
100
AcDbLine
 10
2504.848964818027
 20
868.8594778670612
 30
0.0
 11
2504.848964818027
 21
869.0094778670614
 31
0.0
  0
LINE
  5
1381
102
{ACAD_REACTORS
330
1A89
330
5E0A
102
}
330
1F
100
AcDbEntity
  8
2.3. Mehelina
100
AcDbLine
 10
2506.598964818027
 20
865.6494778670614
 30
0.0
 11
2506.598964818027
 21
863.1494778670614
 31
0.0
  0
LINE
  5
1382
102
{ACAD_REACTORS
330
1A89
102
}
330
1F
100
AcDbEntity
  8
2.1. Kanpo Horma
100
AcDbLine
 10
2506.148964818026
 20
862.5494778670613
 30
0.0
 11
2506.148964818026
 21
862.8994778670614
 31
0.0
  0
LINE
  5
1383
330
1F
100
AcDbEntity
  8
2.1. Kanpo Horma
100
AcDbLine
 10
2504.898964818027
 20
862.5494778670613
 30
0.0
 11
2504.898964818027
 21
863.1494778670614
 31
0.0
  0
LINE
  5
1384
102
{ACAD_REACTORS
330
1A89
102
}
330
1F
100
AcDbEntity
  8
2.1. Kanpo Horma
100
AcDbLine
 10
2506.198964818027
 20
863.1494778670614
 30
0.0
 11
2506.598964818027
 21
863.1494778670614
 31
0.0
  0
LWPOLYLINE
  5
1385
102
{ACAD_REACTORS
330
5FA6
102
}
330
1F
100
AcDbEntity
  8
3.1. Atea
100
AcDbPolyline
 90
        6
 70
     0
 43
0.0
 10
2503.698964818027
 20
862.8994778670614
 10
2503.723964818027
 20
862.8994778670614
 10
2503.723964818027
 20
862.8744778670613
 10
2503.758964818027
 20
862.8744778670613
 10
2503.758964818027
 20
862.7994778670613
 10
2503.698964818027
 20
862.7994778670613
  0
LWPOLYLINE
  5
1386
102
{ACAD_REACTORS
330
5FA6
102
}
330
1F
100
AcDbEntity
  8
3.1. Atea
100
AcDbPolyline
 90
        6
 70
     0
 43
0.0
 10
2504.578964818027
 20
862.8994778670614
 10
2504.553964818027
 20
862.8994778670614
 10
2504.553964818027
 20
862.8744778670613
 10
2504.518964818027
 20
862.8744778670613
 10
2504.518964818027
 20
862.7994778670613
 10
2504.578964818027
 20
862.7994778670613
  0
LWPOLYLINE
  5
1387
102
{ACAD_REACTORS
330
5FA6
102
}
330
1F
100
AcDbEntity
  8
3.1. Atea
100
AcDbPolyline
 90
        4
 70
     1
 43
0.0
 10
2504.528964818027
 20
863.7294778670614
 10
2504.553964818027
 20
863.7294778670614
 10
2504.553964818027
 20
862.8994778670614
 10
2504.528964818027
 20
862.8994778670614
  0
ARC
  5
1388
102
{ACAD_REACTORS
330
5FA6
102
}
330
1F
100
AcDbEntity
  8
3.1. Atea
100
AcDbCircle
 10
2504.55463205877
 20
862.8992072299546
 30
0.0
 40
0.8306672848313191
100
AcDbArc
 50
91.77069533705413
 51
179.9813326411722
  0
LINE
  5
1389
330
1F
100
AcDbEntity
  8
2.1. Kanpo Horma
100
AcDbLine
 10
2504.578964818027
 20
863.1494778670614
 30
0.0
 11
2504.578964818027
 21
862.5494778670613
 31
0.0
  0
LINE
  5
138A
330
1F
100
AcDbEntity
  8
2.1. Kanpo Horma
100
AcDbLine
 10
2504.578964818027
 20
863.1494778670614
 30
0.0
 11
2504.898964818027
 21
863.1494778670614
 31
0.0
  0
LINE
  5
138B
330
1F
100
AcDbEntity
  8
2.1. Kanpo Horma
100
AcDbLine
 10
2504.578964818027
 20
862.5494778670613
 30
0.0
 11
2504.898964818027
 21
862.5494778670613
 31
0.0
  0
LINE
  5
138C
102
{ACAD_REACTORS
330
3D8A
102
}
330
1F
100
AcDbEntity
  8
3.1. Atea
100
AcDbLine
 10
2503.698964818027
 20
862.5494778670613
 30
0.0
 11
2504.578964818027
 21
862.5494778670613
 31
0.0
  0
LINE
  5
138D
102
{ACAD_REACTORS
330
1A89
330
3DD6
102
}
330
1F
100
AcDbEntity
  8
2.1. Kanpo Horma
100
AcDbLine
 10
2506.148964818026
 20
862.5494778670613
 30
0.0
 11
2506.798964818027
 21
862.5494778670613
 31
0.0
  0
LINE
  5
138E
102
{ACAD_REACTORS
330
1A89
102
}
330
1F
100
AcDbEntity
  8
2.1. Kanpo Horma
100
AcDbLine
 10
2506.798964818027
 20
862.5494778670613
 30
0.0
 11
2506.798964818027
 21
862.8994778670614
 31
0.0
  0
LINE
  5
138F
330
1F
100
AcDbEntity
  8
2.1. Kanpo Horma
100
AcDbLine
 10
2501.958964818027
 20
862.5494778670613
 30
0.0
 11
2501.958964818027
 21
862.8994778670614
 31
0.0
  0
LINE
  5
1390
102
{ACAD_REACTORS
330
3D42
330
3D5A
330
3DD6
102
}
330
1F
100
AcDbEntity
  8
2.1. Kanpo Horma
100
AcDbLine
 10
2502.158964818027
 20
862.8994778670614
 30
0.0
 11
2502.158964818027
 21
862.5494778670613
 31
0.0
  0
LINE
  5
1391
330
1F
100
AcDbEntity
  8
3.2. Leihoa
100
AcDbLine
 10
2504.898964818027
 20
862.8344778670612
 30
0.0
 11
2506.148964818026
 21
862.8344778670612
 31
0.0
  0
LINE
  5
1392
330
1F
100
AcDbEntity
  8
3.2. Leihoa
100
AcDbLine
 10
2506.098964818027
 20
862.8494778670612
 30
0.0
 11
2504.948964818027
 21
862.8494778670612
 31
0.0
  0
LINE
  5
1393
330
1F
100
AcDbEntity
  8
3.2. Leihoa
100
AcDbLine
 10
2506.148964818026
 20
862.8994778670614
 30
0.0
 11
2504.898964818027
 21
862.8994778670614
 31
0.0
  0
LINE
  5
1394
330
1F
100
AcDbEntity
  8
3.2. Leihoa
100
AcDbLine
 10
2506.098964818027
 20
862.8344778670612
 30
0.0
 11
2506.098964818027
 21
862.8994778670614
 31
0.0
  0
LINE
  5
1395
330
1F
100
AcDbEntity
  8
3.2. Leihoa
100
AcDbLine
 10
2506.058964818027
 20
862.8494778670612
 30
0.0
 11
2506.058964818027
 21
862.8994778670614
 31
0.0
  0
LINE
  5
1397
330
1F
100
AcDbEntity
  8
3.2. Leihoa
100
AcDbLine
 10
2504.948964818027
 20
862.8344778670612
 30
0.0
 11
2504.948964818027
 21
862.8994778670614
 31
0.0
  0
LINE
  5
1398
330
1F
100
AcDbEntity
  8
3.2. Leihoa
100
AcDbLine
 10
2504.988964818027
 20
862.8494778670612
 30
0.0
 11
2504.988964818027
 21
862.8994778670614
 31
0.0
  0
LINE
  5
139A
330
1F
100
AcDbEntity
  8
3.2. Leihoa
100
AcDbLine
 10
2506.058964818027
 20
862.8744778670613
 30
0.0
 11
2504.988964818027
 21
862.8744778670613
 31
0.0
  0
LINE
  5
139B
102
{ACAD_REACTORS
330
1A89
102
}
330
1F
100
AcDbEntity
  8
2.1. Kanpo Horma
100
AcDbLine
 10
2506.148964818026
 20
862.8994778670614
 30
0.0
 11
2506.198964818027
 21
862.8994778670614
 31
0.0
  0
LINE
  5
139C
102
{ACAD_REACTORS
330
1A89
102
}
330
1F
100
AcDbEntity
  8
2.1. Kanpo Horma
100
AcDbLine
 10
2506.198964818027
 20
862.8994778670614
 30
0.0
 11
2506.198964818027
 21
863.1494778670614
 31
0.0
  0
LINE
  5
139D
102
{ACAD_REACTORS
330
3D42
330
3DBE
102
}
330
1F
100
AcDbEntity
  8
3.2. Leihoa
100
AcDbLine
 10
2504.898964818027
 20
862.5494778670613
 30
0.0
 11
2506.148964818026
 21
862.5494778670613
 31
0.0
  0
LINE
  5
139E
330
1F
100
AcDbEntity
  8
3.2. Leihoa
100
AcDbLine
 10
2502.158964818027
 20
862.8344778670612
 30
0.0
 11
2503.108964818026
 21
862.8344778670612
 31
0.0
  0
LINE
  5
139F
330
1F
100
AcDbEntity
  8
3.2. Leihoa
100
AcDbLine
 10
2503.058964818027
 20
862.8494778670612
 30
0.0
 11
2502.208964818027
 21
862.8494778670612
 31
0.0
  0
LINE
  5
13A1
330
1F
100
AcDbEntity
  8
3.2. Leihoa
100
AcDbLine
 10
2503.108964818026
 20
862.8994778670614
 30
0.0
 11
2502.158964818027
 21
862.8994778670614
 31
0.0
  0
LINE
  5
13A3
330
1F
100
AcDbEntity
  8
3.2. Leihoa
100
AcDbLine
 10
2503.058964818027
 20
862.8344778670612
 30
0.0
 11
2503.058964818027
 21
862.8994778670614
 31
0.0
  0
LINE
  5
13A4
330
1F
100
AcDbEntity
  8
3.2. Leihoa
100
AcDbLine
 10
2503.018964818027
 20
862.8494778670612
 30
0.0
 11
2503.018964818027
 21
862.8994778670614
 31
0.0
  0
LINE
  5
13A5
330
1F
100
AcDbEntity
  8
3.2. Leihoa
100
AcDbLine
 10
2502.208964818027
 20
862.8344778670612
 30
0.0
 11
2502.208964818027
 21
862.8994778670614
 31
0.0
  0
LINE
  5
13A6
330
1F
100
AcDbEntity
  8
3.2. Leihoa
100
AcDbLine
 10
2502.248964818027
 20
862.8494778670612
 30
0.0
 11
2502.248964818027
 21
862.8994778670614
 31
0.0
  0
LWPOLYLINE
  5
13A7
102
{ACAD_REACTORS
330
5CFA
102
}
330
1F
100
AcDbEntity
  8
3.1. Atea
100
AcDbPolyline
 90
        6
 70
     0
 43
0.0
 10
2504.633964818026
 20
869.1094778670613
 10
2504.608964818026
 20
869.1094778670613
 10
2504.608964818026
 20
869.0844778670612
 10
2504.573964818027
 20
869.0844778670612
 10
2504.573964818027
 20
869.0094778670614
 10
2504.633964818026
 20
869.0094778670614
  0
LINE
  5
13A8
330
1F
100
AcDbEntity
  8
3.2. Leihoa
100
AcDbLine
 10
2503.018964818027
 20
862.8744778670613
 30
0.0
 11
2502.248964818027
 21
862.8744778670613
 31
0.0
  0
LINE
  5
13A9
102
{ACAD_REACTORS
330
3D5A
102
}
330
1F
100
AcDbEntity
  8
3.2. Leihoa
100
AcDbLine
 10
2502.158964818027
 20
862.5494778670613
 30
0.0
 11
2503.108964818026
 21
862.5494778670613
 31
0.0
  0
LINE
  5
13AA
330
1F
100
AcDbEntity
  8
2.3. Mehelina
100
AcDbLine
 10
2503.698964818027
 20
869.1094778670613
 30
0.0
 11
2502.618964818027
 21
869.1094778670613
 31
0.0
  0
LINE
  5
13AB
102
{ACAD_REACTORS
330
5E4A
102
}
330
1F
100
AcDbEntity
  8
2.3. Mehelina
100
AcDbLine
 10
2503.498964818027
 20
868.9094778670613
 30
0.0
 11
2498.217380620203
 21
868.9094778670613
 31
0.0
  0
LINE
  5
13AC
330
1F
100
AcDbEntity
  8
2.3. Mehelina
100
AcDbLine
 10
2502.618964818027
 20
869.1094778670613
 30
0.0
 11
2502.618964818027
 21
869.4594778670612
 31
0.0
  0
LINE
  5
13AD
330
1F
100
AcDbEntity
  8
2.3. Mehelina
100
AcDbLine
 10
2502.618964818027
 20
869.4594778670612
 30
0.0
 11
2502.278964818027
 21
869.4594778670612
 31
0.0
  0
LINE
  5
13AE
330
1F
100
AcDbEntity
  8
2.3. Mehelina
100
AcDbLine
 10
2502.278964818027
 20
869.4594778670612
 30
0.0
 11
2502.278964818027
 21
869.1094778670613
 31
0.0
  0
LINE
  5
13AF
102
{ACAD_REACTORS
330
5EAA
102
}
330
1F
100
AcDbEntity
  8
2.3. Mehelina
100
AcDbLine
 10
2502.278964818027
 20
869.1094778670613
 30
0.0
 11
2498.278964818027
 21
869.1094778670613
 31
0.0
  0
LINE
  5
13B0
330
1F
100
AcDbEntity
  8
2.1. Kanpo Horma
100
AcDbLine
 10
2498.278964818027
 20
869.1094778670613
 30
0.0
 11
2498.50430516008
 21
869.8412900851824
 31
0.0
  0
LWPOLYLINE
  5
13B9
330
1F
100
AcDbEntity
  8
3.1. Atea
100
AcDbPolyline
 90
        6
 70
     0
 43
0.0
 10
2504.848964818027
 20
868.8594778670612
 10
2504.848964818027
 20
868.8344778670613
 10
2504.823964818027
 20
868.8344778670613
 10
2504.823964818027
 20
868.7994778670613
 10
2504.748964818027
 20
868.7994778670613
 10
2504.748964818027
 20
868.8594778670612
  0
LWPOLYLINE
  5
13BA
330
1F
100
AcDbEntity
  8
3.1. Atea
100
AcDbPolyline
 90
        6
 70
     0
 43
0.0
 10
2504.848964818027
 20
868.2194778670613
 10
2504.848964818027
 20
868.2444778670612
 10
2504.823964818027
 20
868.2444778670612
 10
2504.823964818027
 20
868.2794778670611
 10
2504.748964818027
 20
868.2794778670611
 10
2504.748964818027
 20
868.2194778670613
  0
LWPOLYLINE
  5
13BB
330
1F
100
AcDbEntity
  8
3.1. Atea
100
AcDbPolyline
 90
        4
 70
     1
 43
0.0
 10
2505.438964818027
 20
868.2694778670612
 10
2505.438964818027
 20
868.2444778670612
 10
2504.848964818027
 20
868.2444778670612
 10
2504.848964818027
 20
868.2694778670612
  0
LINE
  5
13BD
330
1F
100
AcDbEntity
  8
2.2. Barne Horma
100
AcDbLine
 10
2504.748964818027
 20
868.8594778670612
 30
0.0
 11
2504.848964818027
 21
868.8594778670612
 31
0.0
  0
LINE
  5
13BE
330
1F
100
AcDbEntity
  8
2.1. Kanpo Horma
100
AcDbLine
 10
2499.729293153886
 20
873.8195443682469
 30
0.0
 11
2499.632661121408
 21
873.5057234989549
 31
0.0
  0
LINE
  5
13BF
102
{ACAD_REACTORS
330
1A89
102
}
330
1F
100
AcDbEntity
  8
2.3. Mehelina
100
AcDbLine
 10
2502.790577026883
 20
873.6685902833002
 30
0.0
 11
2502.733533154944
 21
873.3232701467976
 31
0.0
  0
LINE
  5
13C0
330
1F
100
AcDbEntity
  8
2.2. Barne Horma
100
AcDbLine
 10
2504.748964818027
 20
868.2194778670613
 30
0.0
 11
2504.848964818027
 21
868.2194778670613
 31
0.0
  0
LINE
  5
13C1
102
{ACAD_REACTORS
330
1A89
102
}
330
1F
100
AcDbEntity
  8
2.1. Kanpo Horma
100
AcDbLine
 10
2499.729293153886
 20
873.8195443682469
 30
0.0
 11
2500.222607634604
 21
873.7380531226202
 31
0.0
  0
LINE
  5
13C2
102
{ACAD_REACTORS
330
1A89
102
}
330
1F
100
AcDbEntity
  8
2.1. Kanpo Horma
100
AcDbLine
 10
2500.222607634604
 20
873.7380531226202
 30
0.0
 11
2500.279651506543
 21
874.0833732591228
 31
0.0
  0
LINE
  5
13C3
330
1F
100
AcDbEntity
  8
2.2. Barne Horma
100
AcDbLine
 10
2504.633964818026
 20
869.1094778670613
 30
0.0
 11
2504.633964818026
 21
869.0094778670614
 31
0.0
  0
LWPOLYLINE
  5
13C4
102
{ACAD_REACTORS
330
5CFA
102
}
330
1F
100
AcDbEntity
  8
3.1. Atea
100
AcDbPolyline
 90
        6
 70
     0
 43
0.0
 10
2503.813964818027
 20
869.1094778670613
 10
2503.838964818026
 20
869.1094778670613
 10
2503.838964818026
 20
869.0844778670612
 10
2503.873964818027
 20
869.0844778670612
 10
2503.873964818027
 20
869.0094778670614
 10
2503.813964818027
 20
869.0094778670614
  0
LWPOLYLINE
  5
13C5
330
1F
100
AcDbEntity
  8
3.1. Atea
100
AcDbPolyline
 90
        4
 70
     1
 43
0.0
 10
2504.583964818027
 20
869.8794778670613
 10
2504.608964818026
 20
869.8794778670613
 10
2504.608964818026
 20
869.1094778670613
 10
2504.583964818027
 20
869.1094778670613
  0
LINE
  5
13C6
330
1F
100
AcDbEntity
  8
2.1. Kanpo Horma
100
AcDbLine
 10
2498.50430516008
 20
869.8412900851824
 30
0.0
 11
2498.997619640798
 21
869.7597988395555
 31
0.0
  0
LINE
  5
13C7
330
1F
100
AcDbEntity
  8
2.2. Barne Horma
100
AcDbLine
 10
2503.813964818027
 20
869.1094778670613
 30
0.0
 11
2503.813964818027
 21
869.0094778670614
 31
0.0
  0
LINE
  5
13C8
330
1F
100
AcDbEntity
  8
2.1. Kanpo Horma
100
AcDbLine
 10
2498.997619640798
 20
869.7597988395555
 30
0.0
 11
2499.074221411687
 21
870.2235144514306
 31
0.0
  0
LINE
  5
13C9
330
1F
100
AcDbEntity
  8
2.1. Kanpo Horma
100
AcDbLine
 10
2499.074221411687
 20
870.2235144514306
 30
0.0
 11
2498.643889278719
 21
870.2946015630388
 31
0.0
  0
ARC
  5
13CA
330
1F
100
AcDbEntity
  8
3.1. Atea
100
AcDbCircle
 10
2504.609698290446
 20
869.1091740528378
 30
0.0
 40
0.7707335322990144
100
AcDbArc
 50
91.9133635415846
 51
179.9774146673431
  0
LWPOLYLINE
  5
13CB
330
1F
100
AcDbEntity
  8
3.1. Atea
100
AcDbPolyline
 90
        4
 70
     1
 43
0.0
 10
2505.618964818026
 20
865.4694778670615
 10
2505.618964818026
 20
865.4944778670614
 10
2504.848964818027
 20
865.4944778670614
 10
2504.848964818027
 20
865.4694778670615
  0
LINE
  5
13CC
330
1F
100
AcDbEntity
  8
2.2. Barne Horma
100
AcDbLine
 10
2503.813964818027
 20
869.1094778670613
 30
0.0
 11
2503.698964818027
 21
869.1094778670613
 31
0.0
  0
LINE
  5
13CD
330
1F
100
AcDbEntity
  8
2.2. Barne Horma
100
AcDbLine
 10
2504.633964818026
 20
869.0094778670614
 30
0.0
 11
2504.748964818027
 21
869.0094778670614
 31
0.0
  0
LINE
  5
13CE
330
1F
100
AcDbEntity
  8
2.2. Barne Horma
100
AcDbLine
 10
2503.813964818027
 20
869.0094778670614
 30
0.0
 11
2503.698964818027
 21
869.0094778670614
 31
0.0
  0
LWPOLYLINE
  5
13CF
102
{ACAD_REACTORS
330
5FD0
102
}
330
1F
100
AcDbEntity
  8
3.1. Atea
100
AcDbPolyline
 90
        6
 70
     0
 43
0.0
 10
2504.848964818027
 20
864.6994778670613
 10
2504.848964818027
 20
864.7244778670613
 10
2504.823964818027
 20
864.7244778670613
 10
2504.823964818027
 20
864.7594778670613
 10
2504.748964818027
 20
864.7594778670613
 10
2504.748964818027
 20
864.6994778670613
  0
LWPOLYLINE
  5
13D0
102
{ACAD_REACTORS
330
5FD0
102
}
330
1F
100
AcDbEntity
  8
3.1. Atea
100
AcDbPolyline
 90
        6
 70
     0
 43
0.0
 10
2504.848964818027
 20
865.5194778670614
 10
2504.848964818027
 20
865.4944778670614
 10
2504.823964818027
 20
865.4944778670614
 10
2504.823964818027
 20
865.4594778670613
 10
2504.748964818027
 20
865.4594778670613
 10
2504.748964818027
 20
865.5194778670614
  0
ARC
  5
13D1
330
1F
100
AcDbEntity
  8
3.1. Atea
100
AcDbCircle
 10
2504.848661003803
 20
865.4952113394802
 30
0.0
 40
0.7707335322990144
100
AcDbArc
 50
270.0225853326634
 51
358.0866364584149
  0
LINE
  5
13D2
330
1F
100
AcDbEntity
  8
2.2. Barne Horma
100
AcDbLine
 10
2504.848964818027
 20
865.5194778670614
 30
0.0
 11
2504.748964818027
 21
865.5194778670614
 31
0.0
  0
LINE
  5
13D3
102
{ACAD_REACTORS
330
1A89
330
5DAE
102
}
330
1F
100
AcDbEntity
  8
2.3. Mehelina
100
AcDbLine
 10
2506.348964818027
 20
866.0494778670614
 30
0.0
 11
2506.598964818027
 21
866.0494778670614
 31
0.0
  0
LINE
  5
13D4
102
{ACAD_REACTORS
330
1A89
102
}
330
1F
100
AcDbEntity
  8
2.3. Mehelina
100
AcDbLine
 10
2502.733533154944
 20
873.3232701467976
 30
0.0
 11
2503.059120712218
 21
873.2694859246839
 31
0.0
  0
LINE
  5
13D5
102
{ACAD_REACTORS
330
1A89
102
}
330
1F
100
AcDbEntity
  8
2.3. Mehelina
100
AcDbLine
 10
2503.059120712218
 20
873.2694859246839
 30
0.0
 11
2503.116164584157
 21
873.6148060611865
 31
0.0
  0
LINE
  5
13D6
102
{ACAD_REACTORS
330
1A89
102
}
330
1F
100
AcDbEntity
  8
2.1. Kanpo Horma
100
AcDbLine
 10
2499.603543064888
 20
874.6004813697906
 30
0.0
 11
2499.952033768738
 21
874.5429137478048
 31
0.0
  0
LINE
  5
13D7
102
{ACAD_REACTORS
330
1A89
102
}
330
1F
100
AcDbEntity
  8
2.3. Mehelina
100
AcDbLine
 10
2499.892636271444
 20
874.3500152465895
 30
0.0
 11
2506.798964818027
 21
873.2091500622761
 31
0.0
  0
LINE
  5
13D8
102
{ACAD_REACTORS
330
1A89
330
5EAA
102
}
330
1F
100
AcDbEntity
  8
2.1. Kanpo Horma
100
AcDbLine
 10
2499.603543064888
 20
874.6004813697906
 30
0.0
 11
2499.284170417557
 21
873.5632911209407
 31
0.0
  0
LINE
  5
13DA
102
{ACAD_REACTORS
330
1A89
330
5DDE
102
}
330
1F
100
AcDbEntity
  8
2.3. Mehelina
100
AcDbLine
 10
2503.116164584157
 20
873.6148060611865
 30
0.0
 11
2506.598964818027
 21
873.0394778670612
 31
0.0
  0
LINE
  5
13DC
102
{ACAD_REACTORS
330
1A89
330
5E62
102
}
330
1F
100
AcDbEntity
  8
2.1. Kanpo Horma
100
AcDbLine
 10
2499.892636271444
 20
874.3500152465895
 30
0.0
 11
2499.952033768738
 21
874.5429137478048
 31
0.0
  0
LINE
  5
13DE
330
1F
100
AcDbEntity
  8
2.1. Kanpo Horma
100
AcDbLine
 10
2497.851163637249
 20
868.9094778670613
 30
0.0
 11
2498.217380620203
 21
868.9094778670613
 31
0.0
  0
LINE
  5
13EB
330
1F
100
AcDbEntity
  8
2.1. Kanpo Horma
100
AcDbLine
 10
2499.094467855662
 20
871.7578943974499
 30
0.0
 11
2499.278714576944
 21
872.3562515338356
 31
0.0
  0
LINE
  5
13EC
102
{ACAD_REACTORS
330
1A89
102
}
330
1F
100
AcDbEntity
  8
2.1. Kanpo Horma
100
AcDbLine
 10
2499.632661121408
 20
873.5057234989549
 30
0.0
 11
2499.729293153886
 21
873.8195443682469
 31
0.0
  0
LINE
  5
13ED
330
1F
100
AcDbEntity
  8
3.2. Leihoa
100
AcDbLine
 10
2499.567941419264
 20
873.5164146287521
 30
0.0
 11
2499.2139948748
 21
872.366942663633
 31
0.0
  0
LINE
  5
13EE
330
1F
100
AcDbEntity
  8
3.2. Leihoa
100
AcDbLine
 10
2499.246446924077
 20
872.4213625840466
 30
0.0
 11
2499.396532526646
 21
872.9087785377263
 31
0.0
  0
LINE
  5
13EF
330
1F
100
AcDbEntity
  8
3.2. Leihoa
100
AcDbLine
 10
2499.420075366265
 20
872.9852359422251
 30
0.0
 11
2499.570160968834
 21
873.4726518959048
 31
0.0
  0
LINE
  5
13F0
330
1F
100
AcDbEntity
  8
3.2. Leihoa
100
AcDbLine
 10
2499.467861244077
 20
872.9705216674634
 30
0.0
 11
2499.632661121408
 21
873.5057234989549
 31
0.0
  0
LINE
  5
13F1
330
1F
100
AcDbEntity
  8
3.2. Leihoa
100
AcDbLine
 10
2499.232111160734
 20
872.4257768664752
 30
0.0
 11
2499.294232801889
 21
872.4066483092849
 31
0.0
  0
LINE
  5
13F2
330
1F
100
AcDbEntity
  8
3.2. Leihoa
100
AcDbLine
 10
2499.258218343886
 20
872.4595912862961
 30
0.0
 11
2499.306004221698
 21
872.4448770115342
 31
0.0
  0
LINE
  5
13F3
330
1F
100
AcDbEntity
  8
3.2. Leihoa
100
AcDbLine
 10
2499.555825205491
 20
873.4770661783331
 30
0.0
 11
2499.617946846646
 21
873.457937621143
 31
0.0
  0
LINE
  5
13F4
330
1F
100
AcDbEntity
  8
3.2. Leihoa
100
AcDbLine
 10
2499.558389549025
 20
873.4344231936553
 30
0.0
 11
2499.606175426837
 21
873.4197089188937
 31
0.0
  0
LINE
  5
13F5
330
1F
100
AcDbEntity
  8
3.2. Leihoa
100
AcDbLine
 10
2499.282111282793
 20
872.4522341489151
 30
0.0
 11
2499.420425465552
 21
872.9014214003454
 31
0.0
  0
LINE
  5
13F6
330
1F
100
AcDbEntity
  8
3.2. Leihoa
100
AcDbLine
 10
2499.443968305171
 20
872.9778788048443
 30
0.0
 11
2499.582282487931
 21
873.4270660562744
 31
0.0
  0
LWPOLYLINE
  5
13F7
330
1F
100
AcDbEntity
  8
3.2. Leihoa
100
AcDbPolyline
 90
        4
 70
     1
 43
0.0
 10
2499.467861244077
 20
872.9705216674634
 10
2499.444318404458
 20
872.8940642629646
 10
2499.396532526646
 20
872.9087785377263
 10
2499.420075366265
 20
872.9852359422251
  0
LINE
  5
13F8
330
1F
100
AcDbEntity
  8
3.2. Leihoa
100
AcDbLine
 10
2499.444318404458
 20
872.8940642629646
 30
0.0
 11
2499.278714576944
 21
872.3562515338356
 31
0.0
  0
LINE
  5
13F9
330
1F
100
AcDbEntity
  8
3.2. Leihoa
100
AcDbLine
 10
2499.412423943389
 20
872.960387285763
 30
0.0
 11
2499.436316882295
 21
872.9530301483821
 31
0.0
  0
LINE
  5
13FA
330
1F
100
AcDbEntity
  8
3.2. Leihoa
100
AcDbLine
 10
2499.436316882295
 20
872.9530301483821
 30
0.0
 11
2499.428076888428
 21
872.9262700568074
 31
0.0
  0
LINE
  5
13FB
330
1F
100
AcDbEntity
  8
3.2. Leihoa
100
AcDbLine
 10
2499.428076888428
 20
872.9262700568074
 30
0.0
 11
2499.451969827334
 21
872.9189129194267
 31
0.0
  0
LINE
  5
13FC
102
{ACAD_REACTORS
330
1A89
102
}
330
1F
100
AcDbEntity
  8
2.1. Kanpo Horma
100
AcDbLine
 10
2499.284170417557
 20
873.5632911209407
 30
0.0
 11
2499.632661121408
 21
873.5057234989549
 31
0.0
  0
LINE
  5
13FD
330
1F
100
AcDbEntity
  8
2.1. Kanpo Horma
100
AcDbLine
 10
2499.278714576944
 20
872.3562515338356
 30
0.0
 11
2498.930223873094
 21
872.4138191558216
 31
0.0
  0
LINE
  5
13FE
102
{ACAD_REACTORS
330
5E92
102
}
330
1F
100
AcDbEntity
  8
3.2. Leihoa
100
AcDbLine
 10
2498.930223873094
 20
872.4138191558216
 30
0.0
 11
2499.284170417557
 21
873.5632911209407
 31
0.0
  0
LINE
  5
13FF
330
1F
100
AcDbEntity
  8
2.1. Kanpo Horma
100
AcDbLine
 10
2499.094467855662
 20
871.7578943974499
 30
0.0
 11
2498.745977151811
 21
871.8154620194358
 31
0.0
  0
LINE
  5
1400
330
1F
100
AcDbEntity
  8
3.2. Leihoa
100
AcDbLine
 10
2499.029748153518
 20
871.7685855272472
 30
0.0
 11
2498.675801609055
 21
870.6191135621283
 31
0.0
  0
LINE
  5
1401
330
1F
100
AcDbEntity
  8
3.2. Leihoa
100
AcDbLine
 10
2498.708253658331
 20
870.6735334825419
 30
0.0
 11
2498.858339260901
 21
871.1609494362214
 31
0.0
  0
LINE
  5
1402
330
1F
100
AcDbEntity
  8
3.2. Leihoa
100
AcDbLine
 10
2498.88188210052
 20
871.2374068407202
 30
0.0
 11
2499.031967703089
 21
871.7248227943999
 31
0.0
  0
LINE
  5
1403
330
1F
100
AcDbEntity
  8
3.2. Leihoa
100
AcDbLine
 10
2498.929667978331
 20
871.2226925659585
 30
0.0
 11
2499.094467855662
 21
871.7578943974499
 31
0.0
  0
LINE
  5
1404
330
1F
100
AcDbEntity
  8
3.2. Leihoa
100
AcDbLine
 10
2498.693917894988
 20
870.6779477649703
 30
0.0
 11
2498.756039536143
 21
870.6588192077802
 31
0.0
  0
LINE
  5
1405
330
1F
100
AcDbEntity
  8
3.2. Leihoa
100
AcDbLine
 10
2498.720025078141
 20
870.7117621847912
 30
0.0
 11
2498.767810955953
 21
870.6970479100295
 31
0.0
  0
LINE
  5
1406
330
1F
100
AcDbEntity
  8
3.2. Leihoa
100
AcDbLine
 10
2499.017631939745
 20
871.7292370768284
 30
0.0
 11
2499.0797535809
 21
871.7101085196382
 31
0.0
  0
LINE
  5
1407
330
1F
100
AcDbEntity
  8
3.2. Leihoa
100
AcDbLine
 10
2499.020196283279
 20
871.6865940921506
 30
0.0
 11
2499.067982161091
 21
871.6718798173888
 31
0.0
  0
LINE
  5
1408
330
1F
100
AcDbEntity
  8
3.2. Leihoa
100
AcDbLine
 10
2498.743918017046
 20
870.7044050474104
 30
0.0
 11
2498.882232199806
 21
871.1535922988407
 31
0.0
  0
LINE
  5
1409
330
1F
100
AcDbEntity
  8
3.2. Leihoa
100
AcDbLine
 10
2498.905775039425
 20
871.2300497033394
 30
0.0
 11
2499.044089222185
 21
871.6792369547697
 31
0.0
  0
LWPOLYLINE
  5
140A
330
1F
100
AcDbEntity
  8
3.2. Leihoa
100
AcDbPolyline
 90
        4
 70
     1
 43
0.0
 10
2498.929667978331
 20
871.2226925659585
 10
2498.906125138712
 20
871.1462351614597
 10
2498.858339260901
 20
871.1609494362214
 10
2498.88188210052
 20
871.2374068407202
  0
LINE
  5
140B
330
1F
100
AcDbEntity
  8
3.2. Leihoa
100
AcDbLine
 10
2498.906125138712
 20
871.1462351614597
 30
0.0
 11
2498.740521311198
 21
870.6084224323308
 31
0.0
  0
LINE
  5
140C
330
1F
100
AcDbEntity
  8
3.2. Leihoa
100
AcDbLine
 10
2498.874230677643
 20
871.2125581842583
 30
0.0
 11
2498.898123616549
 21
871.2052010468774
 31
0.0
  0
LINE
  5
140D
330
1F
100
AcDbEntity
  8
3.2. Leihoa
100
AcDbLine
 10
2498.898123616549
 20
871.2052010468774
 30
0.0
 11
2498.889883622683
 21
871.1784409553027
 31
0.0
  0
LINE
  5
140E
330
1F
100
AcDbEntity
  8
3.2. Leihoa
100
AcDbLine
 10
2498.889883622683
 20
871.1784409553027
 30
0.0
 11
2498.913776561588
 21
871.171083817922
 31
0.0
  0
LINE
  5
140F
102
{ACAD_REACTORS
330
600F
102
}
330
1F
100
AcDbEntity
  8
2.1. Kanpo Horma
100
AcDbLine
 10
2498.745977151811
 20
871.8154620194358
 30
0.0
 11
2499.094467855662
 21
871.7578943974499
 31
0.0
  0
LINE
  5
1410
330
1F
100
AcDbEntity
  8
2.1. Kanpo Horma
100
AcDbLine
 10
2498.740521311198
 20
870.6084224323308
 30
0.0
 11
2498.392030607348
 21
870.6659900543169
 31
0.0
  0
LINE
  5
1411
102
{ACAD_REACTORS
330
5E7A
330
5EAA
102
}
330
1F
100
AcDbEntity
  8
2.1. Kanpo Horma
100
AcDbLine
 10
2497.851163637249
 20
868.9094778670613
 30
0.0
 11
2498.392030607348
 21
870.6659900543169
 31
0.0
  0
LINE
  5
1412
102
{ACAD_REACTORS
330
5E7A
330
5E92
102
}
330
1F
100
AcDbEntity
  8
2.1. Kanpo Horma
100
AcDbLine
 10
2498.745977151811
 20
871.8154620194358
 30
0.0
 11
2498.930223873094
 21
872.4138191558216
 31
0.0
  0
LINE
  5
1413
330
1F
100
AcDbEntity
  8
2.1. Kanpo Horma
100
AcDbLine
 10
2498.643889278719
 20
870.2946015630388
 30
0.0
 11
2498.740521311198
 21
870.6084224323308
 31
0.0
  0
LINE
  5
191B
330
1F
100
AcDbEntity
  8
5.1. Komuneko altzaria
100
AcDbLine
 10
2505.988964818027
 20
866.5044778670615
 30
0.0
 11
2505.988964818027
 21
866.6244778670614
 31
0.0
  0
ARC
  5
191C
330
1F
100
AcDbEntity
  8
5.1. Komuneko altzaria
100
AcDbCircle
 10
2506.063964818026
 20
866.5994778670613
 30
0.0
 40
0.05
100
AcDbArc
 50
90.0
 51
180.0
  0
LINE
  5
191D
330
1F
100
AcDbEntity
  8
5.1. Komuneko altzaria
100
AcDbLine
 10
2506.588964818027
 20
866.7044778670613
 30
0.0
 11
2506.588964818027
 21
866.3044778670611
 31
0.0
  0
LINE
  5
191E
330
1F
100
AcDbEntity
  8
5.1. Komuneko altzaria
100
AcDbLine
 10
2506.458964818027
 20
866.3044778670611
 30
0.0
 11
2506.458964818027
 21
866.7044778670613
 31
0.0
  0
LINE
  5
191F
330
1F
100
AcDbEntity
  8
5.1. Komuneko altzaria
100
AcDbLine
 10
2506.038964818027
 20
866.3344778670614
 30
0.0
 11
2506.458964818027
 21
866.3344778670614
 31
0.0
  0
LINE
  5
1920
330
1F
100
AcDbEntity
  8
5.1. Komuneko altzaria
100
AcDbLine
 10
2506.063964818026
 20
866.359477867061
 30
0.0
 11
2506.458964818027
 21
866.3594778670612
 31
0.0
  0
LINE
  5
1921
330
1F
100
AcDbEntity
  8
5.1. Komuneko altzaria
100
AcDbLine
 10
2506.588964818027
 20
866.3044778670611
 30
0.0
 11
2506.458964818027
 21
866.3044778670611
 31
0.0
  0
ARC
  5
1922
330
1F
100
AcDbEntity
  8
5.1. Komuneko altzaria
100
AcDbCircle
 10
2506.038964818027
 20
866.3844778670611
 30
0.0
 40
0.05
100
AcDbArc
 50
180.0
 51
270.0
  0
LINE
  5
1923
330
1F
100
AcDbEntity
  8
5.1. Komuneko altzaria
100
AcDbLine
 10
2505.988964818027
 20
866.5044778670615
 30
0.0
 11
2505.988964818027
 21
866.3844778670611
 31
0.0
  0
LINE
  5
1924
330
1F
100
AcDbEntity
  8
5.1. Komuneko altzaria
100
AcDbLine
 10
2506.013964818026
 20
866.5044778670615
 30
0.0
 11
2506.013964818026
 21
866.5994778670613
 31
0.0
  0
ARC
  5
1925
330
1F
100
AcDbEntity
  8
5.1. Komuneko altzaria
100
AcDbCircle
 10
2506.063964818026
 20
866.4094778670612
 30
0.0
 40
0.05
100
AcDbArc
 50
180.0
 51
270.0
  0
LINE
  5
1926
330
1F
100
AcDbEntity
  8
5.1. Komuneko altzaria
100
AcDbLine
 10
2506.013964818026
 20
866.5044778670615
 30
0.0
 11
2506.013964818026
 21
866.4094778670612
 31
0.0
  0
LINE
  5
1927
330
1F
100
AcDbEntity
  8
5.1. Komuneko altzaria
100
AcDbLine
 10
2506.038964818027
 20
866.6744778670611
 30
0.0
 11
2506.458964818027
 21
866.674477867061
 31
0.0
  0
LINE
  5
1928
330
1F
100
AcDbEntity
  8
5.1. Komuneko altzaria
100
AcDbLine
 10
2506.063964818026
 20
866.6494778670614
 30
0.0
 11
2506.458964818027
 21
866.6494778670614
 31
0.0
  0
LINE
  5
1929
330
1F
100
AcDbEntity
  8
5.1. Komuneko altzaria
100
AcDbLine
 10
2506.458964818027
 20
866.7044778670613
 30
0.0
 11
2506.588964818027
 21
866.7044778670613
 31
0.0
  0
ARC
  5
192A
330
1F
100
AcDbEntity
  8
5.1. Komuneko altzaria
100
AcDbCircle
 10
2506.038964818027
 20
866.6244778670614
 30
0.0
 40
0.05
100
AcDbArc
 50
90.0
 51
180.0
  0
ARC
  5
192C
330
1F
100
AcDbEntity
  8
5.1. Komuneko altzaria
100
AcDbCircle
 10
2506.063964818026
 20
867.6094778670613
 30
0.0
 40
0.05
100
AcDbArc
 50
90.0
 51
180.0
  0
LINE
  5
192D
330
1F
100
AcDbEntity
  8
5.1. Komuneko altzaria
100
AcDbLine
 10
2506.588964818027
 20
867.7144778670612
 30
0.0
 11
2506.588964818027
 21
867.3144778670613
 31
0.0
  0
LINE
  5
192E
330
1F
100
AcDbEntity
  8
5.1. Komuneko altzaria
100
AcDbLine
 10
2506.458964818027
 20
867.3144778670613
 30
0.0
 11
2506.458964818027
 21
867.7144778670612
 31
0.0
  0
LINE
  5
192F
330
1F
100
AcDbEntity
  8
5.1. Komuneko altzaria
100
AcDbLine
 10
2506.038964818027
 20
867.3444778670614
 30
0.0
 11
2506.458964818027
 21
867.3444778670614
 31
0.0
  0
LINE
  5
1930
330
1F
100
AcDbEntity
  8
5.1. Komuneko altzaria
100
AcDbLine
 10
2506.063964818026
 20
867.369477867061
 30
0.0
 11
2506.458964818027
 21
867.3694778670611
 31
0.0
  0
LINE
  5
1931
330
1F
100
AcDbEntity
  8
5.1. Komuneko altzaria
100
AcDbLine
 10
2506.588964818027
 20
867.3144778670613
 30
0.0
 11
2506.458964818027
 21
867.3144778670613
 31
0.0
  0
ARC
  5
1932
330
1F
100
AcDbEntity
  8
5.1. Komuneko altzaria
100
AcDbCircle
 10
2506.038964818027
 20
867.3944778670611
 30
0.0
 40
0.05
100
AcDbArc
 50
180.0
 51
270.0
  0
LINE
  5
1933
330
1F
100
AcDbEntity
  8
5.1. Komuneko altzaria
100
AcDbLine
 10
2505.988964818026
 20
867.6344778670614
 30
0.0
 11
2505.988964818027
 21
867.3944778670611
 31
0.0
  0
LINE
  5
1934
330
1F
100
AcDbEntity
  8
5.1. Komuneko altzaria
100
AcDbLine
 10
2506.013964818026
 20
867.5144778670615
 30
0.0
 11
2506.013964818026
 21
867.6094778670613
 31
0.0
  0
ARC
  5
1935
330
1F
100
AcDbEntity
  8
5.1. Komuneko altzaria
100
AcDbCircle
 10
2506.063964818026
 20
867.4194778670612
 30
0.0
 40
0.05
100
AcDbArc
 50
180.0
 51
270.0
  0
LINE
  5
1936
330
1F
100
AcDbEntity
  8
5.1. Komuneko altzaria
100
AcDbLine
 10
2506.013964818026
 20
867.5144778670615
 30
0.0
 11
2506.013964818026
 21
867.4194778670612
 31
0.0
  0
LINE
  5
1937
330
1F
100
AcDbEntity
  8
5.1. Komuneko altzaria
100
AcDbLine
 10
2506.038964818027
 20
867.6844778670611
 30
0.0
 11
2506.458964818027
 21
867.6844778670609
 31
0.0
  0
LINE
  5
1938
330
1F
100
AcDbEntity
  8
5.1. Komuneko altzaria
100
AcDbLine
 10
2506.063964818026
 20
867.6594778670615
 30
0.0
 11
2506.458964818027
 21
867.6594778670613
 31
0.0
  0
LINE
  5
1939
330
1F
100
AcDbEntity
  8
5.1. Komuneko altzaria
100
AcDbLine
 10
2506.458964818027
 20
867.7144778670612
 30
0.0
 11
2506.588964818027
 21
867.7144778670612
 31
0.0
  0
ARC
  5
193A
330
1F
100
AcDbEntity
  8
5.1. Komuneko altzaria
100
AcDbCircle
 10
2506.038964818027
 20
867.6344778670614
 30
0.0
 40
0.05
100
AcDbArc
 50
90.0
 51
180.0
  0
LINE
  5
1945
330
1F
100
AcDbEntity
  8
5.1. Komuneko altzaria
100
AcDbLine
 10
2505.888487567002
 20
867.5494778670612
 30
0.0
 11
2505.388487567002
 21
867.5494778670612
 31
0.0
  0
LWPOLYLINE
  5
1948
330
1F
100
AcDbEntity
  8
5.1. Komuneko altzaria
100
AcDbPolyline
 90
        4
 70
     1
 43
0.0
 10
2505.648616179461
 20
867.949755620698
 10
2505.628358954542
 20
867.949755620698
 10
2505.628358954542
 20
867.7659853901317
 10
2505.648616179461
 20
867.7659853901317
  0
LWPOLYLINE
  5
1949
330
1F
100
AcDbEntity
  8
5.1. Komuneko altzaria
100
AcDbPolyline
 90
        4
 70
     1
 43
0.0
 10
2505.651172995287
 20
867.9358606756448
 10
2505.703022587959
 20
867.9358606756448
 10
2505.703022587959
 20
867.8840694576622
 10
2505.651172995287
 20
867.8840694576622
  0
LWPOLYLINE
  5
194A
330
1F
100
AcDbEntity
  8
5.1. Komuneko altzaria
100
AcDbPolyline
 90
        4
 70
     1
 43
0.0
 10
2505.626285037783
 20
867.8840694576622
 10
2505.568213455734
 20
867.8840694576622
 10
2505.568213455734
 20
867.9358606756448
 10
2505.626285037783
 20
867.9358606756448
  0
CIRCLE
  5
194B
330
1F
100
AcDbEntity
  8
5.1. Komuneko altzaria
100
AcDbCircle
 10
2505.635930751176
 20
867.7108057147858
 30
0.0
 40
0.0183990299208858
  0
LINE
  5
194C
330
1F
100
AcDbEntity
  8
5.1. Komuneko altzaria
100
AcDbLine
 10
2505.888487567002
 20
867.5494778670612
 30
0.0
 11
2505.888487567001
 21
867.9594778670614
 31
0.0
  0
ARC
  5
1966
330
1F
100
AcDbEntity
  8
3.1. Atea
100
AcDbCircle
 10
2504.848561087251
 20
868.2435031747468
 30
0.0
 40
0.5909748302212226
100
AcDbArc
 50
2.519091760216405
 51
89.96085777239542
  0
LWPOLYLINE
  5
1983
330
1F
100
AcDbEntity
  8
3.1. Atea
100
AcDbPolyline
 90
        6
 70
     0
 43
0.0
 10
2504.848964818027
 20
867.8344778670611
 10
2504.848964818027
 20
867.8094778670612
 10
2504.823964818027
 20
867.8094778670612
 10
2504.823964818027
 20
867.7744778670613
 10
2504.748964818027
 20
867.7744778670613
 10
2504.748964818027
 20
867.8344778670611
  0
LWPOLYLINE
  5
1984
330
1F
100
AcDbEntity
  8
3.1. Atea
100
AcDbPolyline
 90
        6
 70
     0
 43
0.0
 10
2504.848964818027
 20
867.1944778670612
 10
2504.848964818027
 20
867.2194778670611
 10
2504.823964818027
 20
867.2194778670611
 10
2504.823964818027
 20
867.254477867061
 10
2504.748964818027
 20
867.254477867061
 10
2504.748964818027
 20
867.1944778670612
  0
LWPOLYLINE
  5
1985
330
1F
100
AcDbEntity
  8
3.1. Atea
100
AcDbPolyline
 90
        4
 70
     1
 43
0.0
 10
2505.438964818027
 20
867.2444778670611
 10
2505.438964818027
 20
867.2194778670611
 10
2504.848964818027
 20
867.2194778670611
 10
2504.848964818027
 20
867.2444778670611
  0
LINE
  5
1986
330
1F
100
AcDbEntity
  8
2.2. Barne Horma
100
AcDbLine
 10
2504.748964818027
 20
867.8344778670611
 30
0.0
 11
2504.848964818027
 21
867.8344778670611
 31
0.0
  0
LINE
  5
1987
330
1F
100
AcDbEntity
  8
2.2. Barne Horma
100
AcDbLine
 10
2504.748964818027
 20
867.1944778670612
 30
0.0
 11
2504.848964818027
 21
867.1944778670612
 31
0.0
  0
ARC
  5
1988
330
1F
100
AcDbEntity
  8
3.1. Atea
100
AcDbCircle
 10
2504.848561087251
 20
867.2185031747467
 30
0.0
 40
0.5909748302212226
100
AcDbArc
 50
2.519091760216404
 51
89.96085777239542
  0
LWPOLYLINE
  5
198A
330
1F
100
AcDbEntity
  8
3.1. Atea
100
AcDbPolyline
 90
        6
 70
     0
 43
0.0
 10
2504.848964818027
 20
866.8244778670613
 10
2504.848964818027
 20
866.7994778670614
 10
2504.823964818027
 20
866.7994778670614
 10
2504.823964818027
 20
866.7644778670613
 10
2504.748964818027
 20
866.7644778670613
 10
2504.748964818027
 20
866.8244778670613
  0
LWPOLYLINE
  5
198B
330
1F
100
AcDbEntity
  8
3.1. Atea
100
AcDbPolyline
 90
        6
 70
     0
 43
0.0
 10
2504.848964818027
 20
866.1844778670612
 10
2504.848964818027
 20
866.2094778670613
 10
2504.823964818027
 20
866.2094778670613
 10
2504.823964818027
 20
866.2444778670613
 10
2504.748964818027
 20
866.2444778670613
 10
2504.748964818027
 20
866.1844778670612
  0
LWPOLYLINE
  5
198C
330
1F
100
AcDbEntity
  8
3.1. Atea
100
AcDbPolyline
 90
        4
 70
     1
 43
0.0
 10
2505.438964818027
 20
866.2344778670613
 10
2505.438964818027
 20
866.2094778670613
 10
2504.848964818027
 20
866.2094778670613
 10
2504.848964818027
 20
866.2344778670613
  0
LINE
  5
198D
330
1F
100
AcDbEntity
  8
2.2. Barne Horma
100
AcDbLine
 10
2504.748964818027
 20
866.8244778670613
 30
0.0
 11
2504.848964818027
 21
866.8244778670613
 31
0.0
  0
LINE
  5
198E
330
1F
100
AcDbEntity
  8
2.2. Barne Horma
100
AcDbLine
 10
2504.748964818027
 20
866.1844778670612
 30
0.0
 11
2504.848964818027
 21
866.1844778670612
 31
0.0
  0
ARC
  5
198F
330
1F
100
AcDbEntity
  8
3.1. Atea
100
AcDbCircle
 10
2504.848561087252
 20
866.2085031747468
 30
0.0
 40
0.5909748302212226
100
AcDbArc
 50
2.519091760216404
 51
89.96085777239542
  0
LINE
  5
1998
330
1F
100
AcDbEntity
  8
5.1. Komuneko altzaria
100
AcDbLine
 10
2505.388487567002
 20
867.9594778670614
 30
0.0
 11
2505.888487567001
 21
867.9594778670614
 31
0.0
  0
LINE
  5
1999
330
1F
100
AcDbEntity
  8
5.1. Komuneko altzaria
100
AcDbLine
 10
2505.388487567002
 20
867.5494778670607
 30
0.0
 11
2505.388487567002
 21
867.9594778670606
 31
0.0
  0
LINE
  5
199A
330
1F
100
AcDbEntity
  8
5.1. Komuneko altzaria
100
AcDbLine
 10
2505.648616179461
 20
867.8620930860283
 30
0.0
 11
2505.838487567002
 21
867.8620930860283
 31
0.0
  0
LINE
  5
199B
330
1F
100
AcDbEntity
  8
5.1. Komuneko altzaria
100
AcDbLine
 10
2505.838487567002
 20
867.8620930860283
 30
0.0
 11
2505.838487567002
 21
867.5994778670613
 31
0.0
  0
LINE
  5
199C
330
1F
100
AcDbEntity
  8
5.1. Komuneko altzaria
100
AcDbLine
 10
2505.838487567002
 20
867.5994778670613
 30
0.0
 11
2505.438487567002
 21
867.5994778670613
 31
0.0
  0
LINE
  5
199D
330
1F
100
AcDbEntity
  8
5.1. Komuneko altzaria
100
AcDbLine
 10
2505.438487567002
 20
867.5994778670613
 30
0.0
 11
2505.438487567002
 21
867.8620930860283
 31
0.0
  0
LINE
  5
199E
330
1F
100
AcDbEntity
  8
5.1. Komuneko altzaria
100
AcDbLine
 10
2505.438487567002
 20
867.8620930860283
 30
0.0
 11
2505.628358954542
 21
867.8620930860283
 31
0.0
  0
LINE
  5
199F
330
1F
100
AcDbEntity
  8
5.1. Komuneko altzaria
100
AcDbLine
 10
2505.888487567002
 20
866.5394778670615
 30
0.0
 11
2505.388487567003
 21
866.5394778670615
 31
0.0
  0
LINE
  5
19A0
330
1F
100
AcDbEntity
  8
5.1. Komuneko altzaria
100
AcDbLine
 10
2505.648616179461
 20
866.8520930860285
 30
0.0
 11
2505.838487567003
 21
866.8520930860285
 31
0.0
  0
LINE
  5
19A1
330
1F
100
AcDbEntity
  8
5.1. Komuneko altzaria
100
AcDbLine
 10
2505.838487567003
 20
866.8520930860285
 30
0.0
 11
2505.838487567003
 21
866.5894778670615
 31
0.0
  0
LINE
  5
19A2
330
1F
100
AcDbEntity
  8
5.1. Komuneko altzaria
100
AcDbLine
 10
2505.838487567003
 20
866.5894778670615
 30
0.0
 11
2505.438487567002
 21
866.5894778670615
 31
0.0
  0
LINE
  5
19A3
330
1F
100
AcDbEntity
  8
5.1. Komuneko altzaria
100
AcDbLine
 10
2505.438487567002
 20
866.5894778670615
 30
0.0
 11
2505.438487567002
 21
866.8520930860285
 31
0.0
  0
LINE
  5
19A4
330
1F
100
AcDbEntity
  8
5.1. Komuneko altzaria
100
AcDbLine
 10
2505.438487567002
 20
866.8520930860285
 30
0.0
 11
2505.628358954543
 21
866.8520930860285
 31
0.0
  0
LWPOLYLINE
  5
19A5
330
1F
100
AcDbEntity
  8
5.1. Komuneko altzaria
100
AcDbPolyline
 90
        4
 70
     1
 43
0.0
 10
2505.648616179461
 20
866.9397556206982
 10
2505.628358954543
 20
866.9397556206982
 10
2505.628358954543
 20
866.7559853901321
 10
2505.648616179461
 20
866.7559853901321
  0
LWPOLYLINE
  5
19A6
330
1F
100
AcDbEntity
  8
5.1. Komuneko altzaria
100
AcDbPolyline
 90
        4
 70
     1
 43
0.0
 10
2505.651172995288
 20
866.925860675645
 10
2505.70302258796
 20
866.925860675645
 10
2505.70302258796
 20
866.8740694576625
 10
2505.651172995288
 20
866.8740694576625
  0
LWPOLYLINE
  5
19A7
330
1F
100
AcDbEntity
  8
5.1. Komuneko altzaria
100
AcDbPolyline
 90
        4
 70
     1
 43
0.0
 10
2505.626285037783
 20
866.8740694576625
 10
2505.568213455735
 20
866.8740694576625
 10
2505.568213455735
 20
866.925860675645
 10
2505.626285037783
 20
866.925860675645
  0
CIRCLE
  5
19A8
330
1F
100
AcDbEntity
  8
5.1. Komuneko altzaria
100
AcDbCircle
 10
2505.635930751176
 20
866.700805714786
 30
0.0
 40
0.0183990299208858
  0
LINE
  5
19A9
330
1F
100
AcDbEntity
  8
5.1. Komuneko altzaria
100
AcDbLine
 10
2505.888487567002
 20
866.5394778670615
 30
0.0
 11
2505.888487567002
 21
866.9494778670616
 31
0.0
  0
LINE
  5
19AA
330
1F
100
AcDbEntity
  8
5.1. Komuneko altzaria
100
AcDbLine
 10
2505.388487567003
 20
866.5394778670609
 30
0.0
 11
2505.388487567002
 21
866.9494778670609
 31
0.0
  0
LINE
  5
19AB
330
1F
100
AcDbEntity
  8
5.1. Komuneko altzaria
100
AcDbLine
 10
2505.388487567002
 20
866.9494778670616
 30
0.0
 11
2505.888487567002
 21
866.9494778670616
 31
0.0
  0
HATCH
  5
1A18
330
1F
100
AcDbEntity
  8
2.5. Horma itzala
100
AcDbHatch
 10
0.0
 20
0.0
 30
0.0
210
0.0
220
0.0
230
1.0
  2
SOLID
 70
     1
 71
     0
 91
        1
 92
        7
 72
     0
 73
     1
 93
       16
 10
2503.698964818027
 20
869.1094778670613
 10
2502.618964818027
 20
869.1094778670613
 10
2502.618964818027
 20
869.4594778670612
 10
2502.278964818027
 20
869.4594778670612
 10
2502.278964818027
 20
869.1094778670613
 10
2498.278964818027
 20
869.1094778670613
 10
2498.217380620203
 20
868.9094778670613
 10
2503.498964818027
 20
868.9094778670613
 10
2503.498964818027
 20
866.0994778670612
 10
2501.958964818027
 20
866.0994778670612
 10
2501.958964818027
 20
862.8994778670614
 10
2502.158964818027
 20
862.8994778670614
 10
2502.158964818027
 20
865.6494778670614
 10
2502.618964818027
 20
865.6494778670614
 10
2502.618964818027
 20
865.8994778670614
 10
2503.698964818027
 20
865.8994778670614
 97
        0
 75
     1
 76
     1
 47
0.0206309935434404
 98
        1
 10
2502.472711819189
 20
869.0137174236889
450
        0
451
        0
460
0.0
461
0.0
452
        0
462
1.0
453
        2
463
0.0
 63
     5
421
      255
463
1.0
 63
     2
421
 16776960
470
LINEAR
1001
GradientColor1ACI
1070
     5
1001
GradientColor2ACI
1070
     2
1001
ACAD
1010
0.0
1020
0.0
1030
0.0
  0
HATCH
  5
1A5C
330
1F
100
AcDbEntity
  8
2.5. Horma itzala
100
AcDbHatch
 10
0.0
 20
0.0
 30
0.0
210
0.0
220
0.0
230
1.0
  2
SOLID
 70
     1
 71
     0
 91
        2
 92
        7
 72
     0
 73
     1
 93
        4
 10
2499.278714576944
 20
872.3562515338356
 10
2498.930223873094
 20
872.4138191558216
 10
2498.745977151811
 20
871.8154620194358
 10
2499.094467855662
 20
871.7578943974499
 97
        0
 92
        7
 72
     0
 73
     1
 93
        8
 10
2499.074221411687
 20
870.2235144514306
 10
2498.643889278719
 20
870.2946015630388
 10
2498.740521311198
 20
870.6084224323308
 10
2498.392030607348
 20
870.6659900543169
 10
2497.851163637249
 20
868.9094778670613
 10
2498.217380620203
 20
868.9094778670613
 10
2498.50430516008
 20
869.8412900851824
 10
2498.997619640798
 20
869.7597988395555
 97
        0
 75
     1
 76
     1
 47
0.0206309935434404
 98
        2
 10
2499.107940288357
 20
872.1702595497854
 10
2498.447371651341
 20
870.0040054880407
450
        0
451
        0
460
0.0
461
0.0
452
        0
462
1.0
453
        2
463
0.0
 63
     5
421
      255
463
1.0
 63
     2
421
 16776960
470
LINEAR
1001
GradientColor1ACI
1070
     5
1001
GradientColor2ACI
1070
     2
1001
ACAD
1010
0.0
1020
0.0
1030
0.0
  0
HATCH
  5
1A6D
330
1F
100
AcDbEntity
  8
2.5. Horma itzala
100
AcDbHatch
 10
0.0
 20
0.0
 30
0.0
210
0.0
220
0.0
230
1.0
  2
SOLID
 70
     1
 71
     0
 91
        3
 92
        7
 72
     0
 73
     1
 93
        4
 10
2503.698964818027
 20
863.1494778670614
 10
2503.108964818026
 20
863.1494778670614
 10
2503.108964818026
 20
862.5494778670613
 10
2503.698964818027
 20
862.5494778670613
 97
        0
 92
        7
 72
     0
 73
     1
 93
        4
 10
2504.898964818027
 20
863.1494778670614
 10
2504.578964818027
 20
863.1494778670614
 10
2504.578964818027
 20
862.5494778670613
 10
2504.898964818027
 20
862.5494778670613
 97
        0
 92
        7
 72
     0
 73
     1
 93
        4
 10
2502.158964818027
 20
862.8994778670614
 10
2501.958964818027
 20
862.8994778670614
 10
2501.958964818027
 20
862.5494778670613
 10
2502.158964818027
 20
862.5494778670613
 97
        0
 75
     1
 76
     1
 47
0.0050800352549131
 98
        3
 10
2503.436008078956
 20
862.7694939579361
 10
2504.833816182208
 20
862.8558546309442
 10
2502.043284385817
 20
862.7237736828819
450
        0
451
        0
460
0.0
461
0.0
452
        0
462
1.0
453
        2
463
0.0
 63
     5
421
      255
463
1.0
 63
     2
421
 16776960
470
LINEAR
1001
GradientColor1ACI
1070
     5
1001
GradientColor2ACI
1070
     2
1001
ACAD
1010
0.0
1020
0.0
1030
0.0
  0
HATCH
  5
1A89
330
1F
100
AcDbEntity
  8
2.5. Horma itzala
100
AcDbHatch
 10
0.0
 20
0.0
 30
0.0
210
0.0
220
0.0
230
1.0
  2
SOLID
 70
     1
 71
     1
 91
        1
 92
        7
 72
     0
 73
     1
 93
       25
 10
2499.892636271444
 20
874.3500152465895
 10
2499.952033768738
 20
874.5429137478048
 10
2499.603543064888
 20
874.6004813697906
 10
2499.284170417557
 20
873.5632911209407
 10
2499.632661121408
 20
873.5057234989549
 10
2499.729293153886
 20
873.8195443682469
 10
2500.222607634604
 20
873.7380531226202
 10
2500.279651506543
 20
874.0833732591228
 10
2502.790577026883
 20
873.6685902833002
 10
2502.733533154944
 20
873.3232701467976
 10
2503.059120712218
 20
873.2694859246839
 10
2503.116164584157
 20
873.6148060611865
 10
2506.598964818027
 20
873.0394778670612
 10
2506.598964818027
 20
866.0494778670614
 10
2506.348964818027
 20
866.0494778670614
 10
2506.348964818027
 20
865.6494778670614
 10
2506.598964818027
 20
865.6494778670614
 10
2506.598964818027
 20
863.1494778670614
 10
2506.198964818027
 20
863.1494778670614
 10
2506.198964818027
 20
862.8994778670614
 10
2506.148964818026
 20
862.8994778670614
 10
2506.148964818026
 20
862.5494778670613
 10
2506.798964818027
 20
862.5494778670613
 10
2506.798964818027
 20
862.8994778670614
 10
2506.798964818027
 20
873.2091500622761
 97
       25
330
13DC
330
13D6
330
13D8
330
13FC
330
13EC
330
13C1
330
13C2
330
124F
330
13BF
330
13D4
330
13D5
330
13DA
330
1369
330
13D3
330
1366
330
1379
330
1381
330
1384
330
139C
330
139B
330
1382
330
138D
330
138E
330
136A
330
13D7
 75
     1
 76
     1
 47
0.0211841154544418
 98
        1
 10
2505.896470577812
 20
873.2223810991396
450
        0
451
        0
460
0.0
461
0.0
452
        0
462
1.0
453
        2
463
0.0
 63
     5
421
      255
463
1.0
 63
     2
421
 16776960
470
LINEAR
1001
GradientColor1ACI
1070
     5
1001
GradientColor2ACI
1070
     2
1001
ACAD
1010
0.0
1020
0.0
1030
0.0
  0
LWPOLYLINE
  5
286F
330
1F
100
AcDbEntity
  8
0
100
AcDbPolyline
 90
        4
 70
     1
 43
0.0
 10
2482.798025050736
 20
914.1884716347794
 10
2482.798025050736
 20
914.4854716347795
 10
2482.588025050736
 20
914.4854716347795
 10
2482.588025050736
 20
914.1884716347794
  0
MTEXT
  5
2870
330
1F
100
AcDbEntity
  8
1.4. Idatzia
100
AcDbMText
 10
2482.72893283598
 20
914.2077145283399
 30
0.0
 40
0.0018
 41
0.0172399289914779
 46
0.0
 71
     1
 72
     5
  1
{\fCalibri Light|b1|i0|c0|p34;E:\fCalibri Light|b0|i0|c0|p34; 1/175}
 73
     1
 44
1.0
  0
MTEXT
  5
2871
330
1F
100
AcDbEntity
  8
1.4. Idatzia
100
AcDbMText
 10
2482.623742080563
 20
914.2106389316996
 30
0.0
 40
0.0025
 41
0.1852149973614974
 46
0.0
 71
     1
 72
     5
  1
{\fCalibri Light|b1|i0|c0|p34;Katastro zk.\fCalibri Light|b0|i0|c0|p34;: 7791227}
 73
     1
 44
1.0
  0
MTEXT
  5
2872
330
1F
100
AcDbEntity
  8
1.4. Idatzia
100
AcDbMText
 10
2482.623740961779
 20
914.2184779286512
 30
0.0
 40
0.0025
 41
0.1852149973614974
 46
0.0
 71
     1
 72
     5
  1
{\fCalibri Light|b1|i0|c0|p34;Kokapena\fCalibri Light|b0|i0|c0|p34;: NAGUSI KALEA, 5. 20170 USURBIL}
 73
     1
 44
1.0
  0
MTEXT
  5
287E
330
1F
100
AcDbEntity
  8
1.4. Idatzia
100
AcDbMText
 10
2482.685109248312
 20
914.2025773488285
 30
0.0
 40
0.0025
 41
0.0273770814300611
 46
0.0
 71
     1
 72
     5
  1
{\fCalibri Light|b0|i0|c0|p34;Martxoak 2019}
 73
     1
 44
1.0
  0
MTEXT
  5
287F
330
1F
100
AcDbEntity
  8
1.4. Idatzia
100
AcDbMText
 10
2482.730307789231
 20
914.2164237968495
 30
0.0
 40
0.0025
 41
0.0373092422454125
 46
0.0
 71
     1
 72
     5
  1
{\fCalibri Light|b1|i0|c0|p34;Planoa:\fCalibri Light|b0|i0|c0|p34; BEHE OINA}
 73
     1
 44
1.0
  0
MTEXT
  5
2880
330
1F
100
AcDbEntity
  8
1.4. Idatzia
100
AcDbMText
 10
2482.623936857097
 20
914.2289601593706
 30
0.0
 40
0.004
 41
0.1447549525279904
 46
0.0
 71
     1
 72
     5
  1
{\fLucida Sans Unicode|b1|i0|c0|p34;MERKATARITZA LOKAL HUTSAK}
 73
     1
 44
1.0
  0
LINE
  5
2881
330
1F
100
AcDbEntity
  8
1.6. Marra2
100
AcDbLine
 10
2482.59866938756
 20
914.2045864718511
 30
0.0
 11
2482.59866938756
 21
914.1990041602129
 31
0.0
  0
IMAGE
  5
2882
330
1F
100
AcDbEntity
  8
1.1. Armarria
 62
     7
420
 16777215
160
               140
310
8C00000001000000840000000600000005000000082A80D33265A340E48B1FE2A5918C400000000000000000082A80D33265A3409813B2EED8918C4000000000000000001673B9B63D65A3409813B2EED8918C4000000000000000001673B9B63D65A340E48B1FE2A5918C400000000000000000082A80D33265A340E48B1F
310
E2A5918C400000000000000000
100
AcDbRasterImage
 90
        0
 10
2482.599269871837
 20
914.2059977020803
 30
0.0
 11
0.0001408266873892
 21
0.0
 31
0.0
 12
0.0
 22
0.0001408266873892
 32
0.0
 13
151.0
 23
177.0
340
2E2
 70
     7
280
     0
281
    50
282
    50
283
     0
290
     0
360
2883
 71
     1
 91
        2
 14
-0.5
 24
-0.5
 14
150.5
 24
176.5
  0
LINE
  5
2884
330
1F
100
AcDbEntity
  8
1.6. Marra2
100
AcDbLine
 10
2482.718881051557
 20
914.1990041602129
 30
0.0
 11
2482.718881051557
 21
914.2045864718511
 31
0.0
  0
MTEXT
  5
2885
330
1F
100
AcDbEntity
  8
1.4. Idatzia
100
AcDbMText
 10
2482.623706193843
 20
914.2031155655173
 30
0.0
 40
0.0025
 41
0.0410971974865084
 46
0.0
 71
     1
 72
     5
  1
{\fCalibri Light|b1|i0|c0|p34;Eraikuntza urtea\fCalibri Light|b0|i0|c0|p34;: 1900}
 73
     1
 44
1.0
  0
LWPOLYLINE
  5
2886
330
1F
100
AcDbEntity
  8
1.5. Marra1
100
AcDbPolyline
 90
        2
 70
     0
 43
0.0004
 10
2482.621886518022
 20
914.2231231799696
 10
2482.716645427453
 20
914.2231231799661
  0
LWPOLYLINE
  5
2887
330
1F
100
AcDbEntity
  8
1.5. Marra1
100
AcDbPolyline
 90
        3
 70
     0
 43
0.0003531510107016
 10
2482.728895785074
 20
914.2159186777206
 10
2482.728895785074
 20
914.2127992172376
 10
2482.768895785076
 20
914.2127992172376
  0
LWPOLYLINE
  5
2888
330
1F
100
AcDbEntity
  8
1.5. Marra1
100
AcDbPolyline
 90
        3
 70
     0
 43
0.0003531510107016
 10
2482.728895785074
 20
914.2200037194864
 10
2482.728895785074
 20
914.2231231799696
 10
2482.768895785076
 20
914.2231231799696
  0
LWPOLYLINE
  5
2889
330
1F
100
AcDbEntity
  8
1.6. Marra2
100
AcDbPolyline
 90
        2
 70
     0
 43
0.0002683175052431
 10
2482.721992695323
 20
914.1984716347794
 10
2482.721992695323
 20
914.2231231799678
  0
LWPOLYLINE
  5
288A
330
1F
100
AcDbEntity
  8
1.6. Marra2
100
AcDbPolyline
 90
        2
 70
     0
 43
0.0002683175052431
 10
2482.72043687344
 20
914.1984716347794
 10
2482.72043687344
 20
914.2231231799678
  0
LWPOLYLINE
  5
288B
330
1F
100
AcDbEntity
  8
1.6. Marra2
100
AcDbPolyline
 90
        2
 70
     0
 43
0.0002683175052431
 10
2482.721258817076
 20
914.1984716347794
 10
2482.721258817076
 20
914.2231231799678
  0
LWPOLYLINE
  5
288C
330
1F
100
AcDbEntity
  8
1.6. Marra2
100
AcDbPolyline
 90
        2
 70
     0
 43
0.0002683175052431
 10
2482.718881051557
 20
914.1984716347794
 10
2482.718881051557
 20
914.2231231799678
  0
LWPOLYLINE
  5
288D
330
1F
100
AcDbEntity
  8
1.6. Marra2
100
AcDbPolyline
 90
        2
 70
     0
 43
0.0002683175052431
 10
2482.719702995193
 20
914.1984716347794
 10
2482.719702995193
 20
914.2231231799678
  0
LWPOLYLINE
  5
288E
330
1F
100
AcDbEntity
  8
1.6. Marra2
100
AcDbPolyline
 90
        2
 70
     0
 43
0.0002683175052431
 10
2482.725104339087
 20
914.1984716347794
 10
2482.725104339087
 20
914.2231231799678
  0
LWPOLYLINE
  5
288F
330
1F
100
AcDbEntity
  8
1.6. Marra2
100
AcDbPolyline
 90
        2
 70
     0
 43
0.0002683175052431
 10
2482.723548517205
 20
914.1984716347794
 10
2482.723548517205
 20
914.2231231799678
  0
LWPOLYLINE
  5
2890
330
1F
100
AcDbEntity
  8
1.6. Marra2
100
AcDbPolyline
 90
        2
 70
     0
 43
0.0002683175052431
 10
2482.724370460841
 20
914.1984716347794
 10
2482.724370460841
 20
914.2231231799678
  0
LWPOLYLINE
  5
2891
330
1F
100
AcDbEntity
  8
1.6. Marra2
100
AcDbPolyline
 90
        2
 70
     0
 43
0.0002683175052431
 10
2482.722814638958
 20
914.1984716347794
 10
2482.722814638958
 20
914.2231231799678
  0
LWPOLYLINE
  5
2892
330
1F
100
AcDbEntity
  8
1.6. Marra2
100
AcDbPolyline
 90
        2
 70
     0
 43
0.0002683175052431
 10
2482.726660160969
 20
914.1984716347794
 10
2482.726660160969
 20
914.2231231799678
  0
LWPOLYLINE
  5
2893
330
1F
100
AcDbEntity
  8
1.6. Marra2
100
AcDbPolyline
 90
        2
 70
     0
 43
0.0002683175052431
 10
2482.725926282723
 20
914.1984716347794
 10
2482.725926282723
 20
914.2231231799678
  0
LINE
  5
2894
330
1F
100
AcDbEntity
  8
1.6. Marra2
100
AcDbLine
 10
2482.716503286038
 20
914.1990041602129
 30
0.0
 11
2482.716503286038
 21
914.2045864718511
 31
0.0
  0
LWPOLYLINE
  5
2895
330
1F
100
AcDbEntity
  8
1.6. Marra2
100
AcDbPolyline
 90
        2
 70
     0
 43
0.0002683175052431
 10
2482.718059107921
 20
914.1984716347794
 10
2482.718059107921
 20
914.2045864718511
  0
LWPOLYLINE
  5
2896
330
1F
100
AcDbEntity
  8
1.6. Marra2
100
AcDbPolyline
 90
        2
 70
     0
 43
0.0002683175052431
 10
2482.716503286038
 20
914.1984716347794
 10
2482.716503286038
 20
914.2045864718511
  0
LWPOLYLINE
  5
2897
330
1F
100
AcDbEntity
  8
1.6. Marra2
100
AcDbPolyline
 90
        2
 70
     0
 43
0.0002683175052431
 10
2482.717325229675
 20
914.1984716347794
 10
2482.717325229675
 20
914.2045864718511
  0
LINE
  5
2898
330
1F
100
AcDbEntity
  8
1.6. Marra2
100
AcDbLine
 10
2482.714125520519
 20
914.1990041602129
 30
0.0
 11
2482.714125520519
 21
914.2045864718511
 31
0.0
  0
LWPOLYLINE
  5
2899
330
1F
100
AcDbEntity
  8
1.6. Marra2
100
AcDbPolyline
 90
        2
 70
     0
 43
0.0002683175052431
 10
2482.715681342402
 20
914.1984716347794
 10
2482.715681342402
 20
914.2045864718511
  0
LWPOLYLINE
  5
289A
330
1F
100
AcDbEntity
  8
1.6. Marra2
100
AcDbPolyline
 90
        2
 70
     0
 43
0.0002683175052431
 10
2482.71412552052
 20
914.1984716347794
 10
2482.71412552052
 20
914.2045864718511
  0
LWPOLYLINE
  5
289B
330
1F
100
AcDbEntity
  8
1.6. Marra2
100
AcDbPolyline
 90
        2
 70
     0
 43
0.0002683175052431
 10
2482.714947464156
 20
914.1984716347794
 10
2482.714947464156
 20
914.2045864718511
  0
LINE
  5
289C
330
1F
100
AcDbEntity
  8
1.6. Marra2
100
AcDbLine
 10
2482.601047153079
 20
914.1990041602129
 30
0.0
 11
2482.601047153079
 21
914.2045864718511
 31
0.0
  0
LWPOLYLINE
  5
289D
330
1F
100
AcDbEntity
  8
1.6. Marra2
100
AcDbPolyline
 90
        2
 70
     0
 43
0.0002683175052431
 10
2482.602602974961
 20
914.1984716347794
 10
2482.602602974961
 20
914.2045864718511
  0
LWPOLYLINE
  5
289E
330
1F
100
AcDbEntity
  8
1.6. Marra2
100
AcDbPolyline
 90
        2
 70
     0
 43
0.0002683175052431
 10
2482.601047153079
 20
914.1984716347794
 10
2482.601047153079
 20
914.2045864718511
  0
LWPOLYLINE
  5
289F
330
1F
100
AcDbEntity
  8
1.6. Marra2
100
AcDbPolyline
 90
        2
 70
     0
 43
0.0002683175052431
 10
2482.601869096715
 20
914.1984716347794
 10
2482.601869096715
 20
914.2045864718511
  0
LWPOLYLINE
  5
28A0
330
1F
100
AcDbEntity
  8
1.6. Marra2
100
AcDbPolyline
 90
        2
 70
     0
 43
0.0002683175052431
 10
2482.600225209442
 20
914.1984716347794
 10
2482.600225209442
 20
914.2045864718511
  0
LWPOLYLINE
  5
28A1
330
1F
100
AcDbEntity
  8
1.6. Marra2
100
AcDbPolyline
 90
        2
 70
     0
 43
0.0002683175052431
 10
2482.599491331196
 20
914.1984716347794
 10
2482.599491331196
 20
914.2045864718511
  0
LWPOLYLINE
  5
28A2
330
1F
100
AcDbEntity
  8
1.6. Marra2
100
AcDbPolyline
 90
        2
 70
     0
 43
0.0002683175052431
 10
2482.59875745295
 20
914.1984716347794
 10
2482.59875745295
 20
914.2045864718511
  0
LINE
  5
28A3
330
1F
100
AcDbEntity
  8
1.6. Marra2
100
AcDbLine
 10
2482.60489267509
 20
914.1990041602129
 30
0.0
 11
2482.60489267509
 21
914.2045864718511
 31
0.0
  0
LWPOLYLINE
  5
28A4
330
1F
100
AcDbEntity
  8
1.6. Marra2
100
AcDbPolyline
 90
        2
 70
     0
 43
0.0002683175052431
 10
2482.606448496973
 20
914.1984716347794
 10
2482.606448496973
 20
914.2045864718511
  0
LWPOLYLINE
  5
28A5
330
1F
100
AcDbEntity
  8
1.6. Marra2
100
AcDbPolyline
 90
        2
 70
     0
 43
0.0002683175052431
 10
2482.60489267509
 20
914.1984716347794
 10
2482.60489267509
 20
914.2045864718511
  0
LWPOLYLINE
  5
28A6
330
1F
100
AcDbEntity
  8
1.6. Marra2
100
AcDbPolyline
 90
        2
 70
     0
 43
0.0002683175052431
 10
2482.605714618726
 20
914.1984716347794
 10
2482.605714618726
 20
914.2045864718511
  0
LWPOLYLINE
  5
28A7
330
1F
100
AcDbEntity
  8
1.6. Marra2
100
AcDbPolyline
 90
        2
 70
     0
 43
0.0002683175052431
 10
2482.604070731455
 20
914.1984716347794
 10
2482.604070731455
 20
914.2045864718511
  0
LWPOLYLINE
  5
28A8
330
1F
100
AcDbEntity
  8
1.6. Marra2
100
AcDbPolyline
 90
        2
 70
     0
 43
0.0002683175052431
 10
2482.603336853208
 20
914.1984716347794
 10
2482.603336853208
 20
914.2045864718511
  0
LINE
  5
28A9
330
1F
100
AcDbEntity
  8
1.6. Marra2
100
AcDbLine
 10
2482.608738197102
 20
914.1990041602129
 30
0.0
 11
2482.608738197102
 21
914.2045864718511
 31
0.0
  0
LWPOLYLINE
  5
28AA
330
1F
100
AcDbEntity
  8
1.6. Marra2
100
AcDbPolyline
 90
        2
 70
     0
 43
0.0002683175052431
 10
2482.610294018985
 20
914.1984716347794
 10
2482.610294018985
 20
914.2045864718511
  0
LWPOLYLINE
  5
28AB
330
1F
100
AcDbEntity
  8
1.6. Marra2
100
AcDbPolyline
 90
        2
 70
     0
 43
0.0002683175052431
 10
2482.608738197102
 20
914.1984716347794
 10
2482.608738197102
 20
914.2045864718511
  0
LWPOLYLINE
  5
28AC
330
1F
100
AcDbEntity
  8
1.6. Marra2
100
AcDbPolyline
 90
        2
 70
     0
 43
0.0002683175052431
 10
2482.609560140739
 20
914.1984716347794
 10
2482.609560140739
 20
914.2045864718511
  0
LWPOLYLINE
  5
28AD
330
1F
100
AcDbEntity
  8
1.6. Marra2
100
AcDbPolyline
 90
        2
 70
     0
 43
0.0002683175052431
 10
2482.607916253466
 20
914.1984716347794
 10
2482.607916253466
 20
914.2045864718511
  0
LWPOLYLINE
  5
28AE
330
1F
100
AcDbEntity
  8
1.6. Marra2
100
AcDbPolyline
 90
        2
 70
     0
 43
0.0002683175052431
 10
2482.60718237522
 20
914.1984716347794
 10
2482.60718237522
 20
914.2045864718511
  0
LINE
  5
28AF
330
1F
100
AcDbEntity
  8
1.6. Marra2
100
AcDbLine
 10
2482.612583719114
 20
914.1990041602129
 30
0.0
 11
2482.612583719114
 21
914.2045864718511
 31
0.0
  0
LWPOLYLINE
  5
28B0
330
1F
100
AcDbEntity
  8
1.6. Marra2
100
AcDbPolyline
 90
        2
 70
     0
 43
0.0002683175052431
 10
2482.614139540997
 20
914.1984716347794
 10
2482.614139540997
 20
914.2045864718511
  0
LWPOLYLINE
  5
28B1
330
1F
100
AcDbEntity
  8
1.6. Marra2
100
AcDbPolyline
 90
        2
 70
     0
 43
0.0002683175052431
 10
2482.612583719114
 20
914.1984716347794
 10
2482.612583719114
 20
914.2045864718511
  0
LWPOLYLINE
  5
28B2
330
1F
100
AcDbEntity
  8
1.6. Marra2
100
AcDbPolyline
 90
        2
 70
     0
 43
0.0002683175052431
 10
2482.61340566275
 20
914.1984716347794
 10
2482.61340566275
 20
914.2045864718511
  0
LWPOLYLINE
  5
28B3
330
1F
100
AcDbEntity
  8
1.6. Marra2
100
AcDbPolyline
 90
        2
 70
     0
 43
0.0002683175052431
 10
2482.611761775479
 20
914.1984716347794
 10
2482.611761775479
 20
914.2045864718511
  0
LWPOLYLINE
  5
28B4
330
1F
100
AcDbEntity
  8
1.6. Marra2
100
AcDbPolyline
 90
        2
 70
     0
 43
0.0002683175052431
 10
2482.611027897231
 20
914.1984716347794
 10
2482.611027897231
 20
914.2045864718511
  0
LINE
  5
28B5
330
1F
100
AcDbEntity
  8
1.6. Marra2
100
AcDbLine
 10
2482.614961484633
 20
914.1990041602129
 30
0.0
 11
2482.614961484633
 21
914.2045864718511
 31
0.0
  0
LWPOLYLINE
  5
28B6
330
1F
100
AcDbEntity
  8
1.6. Marra2
100
AcDbPolyline
 90
        2
 70
     0
 43
0.0002683175052431
 10
2482.616517306516
 20
914.1984716347794
 10
2482.616517306516
 20
914.2045864718511
  0
LWPOLYLINE
  5
28B7
330
1F
100
AcDbEntity
  8
1.6. Marra2
100
AcDbPolyline
 90
        2
 70
     0
 43
0.0002683175052431
 10
2482.614961484634
 20
914.1984716347794
 10
2482.614961484634
 20
914.2045864718511
  0
LWPOLYLINE
  5
28B8
330
1F
100
AcDbEntity
  8
1.6. Marra2
100
AcDbPolyline
 90
        2
 70
     0
 43
0.0002683175052431
 10
2482.615783428269
 20
914.1984716347794
 10
2482.615783428269
 20
914.2045864718511
  0
LINE
  5
28B9
330
1F
100
AcDbEntity
  8
1.6. Marra2
100
AcDbLine
 10
2482.617339250152
 20
914.1990041602129
 30
0.0
 11
2482.617339250152
 21
914.2045864718511
 31
0.0
  0
LWPOLYLINE
  5
28BA
330
1F
100
AcDbEntity
  8
1.6. Marra2
100
AcDbPolyline
 90
        2
 70
     0
 43
0.0002683175052431
 10
2482.618895072035
 20
914.1984716347794
 10
2482.618895072035
 20
914.2045864718511
  0
LWPOLYLINE
  5
28BB
330
1F
100
AcDbEntity
  8
1.6. Marra2
100
AcDbPolyline
 90
        2
 70
     0
 43
0.0002683175052431
 10
2482.617339250152
 20
914.1984716347794
 10
2482.617339250152
 20
914.2045864718511
  0
LWPOLYLINE
  5
28BC
330
1F
100
AcDbEntity
  8
1.6. Marra2
100
AcDbPolyline
 90
        2
 70
     0
 43
0.0002683175052431
 10
2482.618161193788
 20
914.1984716347794
 10
2482.618161193788
 20
914.2045864718511
  0
LWPOLYLINE
  5
28BD
330
1F
100
AcDbEntity
  8
1.6. Marra2
100
AcDbPolyline
 90
        2
 70
     0
 43
0.0002683175052431
 10
2482.620450893917
 20
914.1984716347794
 10
2482.620450893917
 20
914.2045864718511
  0
LWPOLYLINE
  5
28BE
330
1F
100
AcDbEntity
  8
1.6. Marra2
100
AcDbPolyline
 90
        2
 70
     0
 43
0.0002683175052431
 10
2482.61971701567
 20
914.1984716347794
 10
2482.61971701567
 20
914.2045864718511
  0
LINE
  5
28BF
330
1F
100
AcDbEntity
  8
1.7. Ventanas Gráficas
100
AcDbLine
 10
2482.793025050737
 20
914.2384716347795
 30
0.0
 11
2482.593025050736
 21
914.2384716347795
 31
0.0
  0
MTEXT
  5
28C9
330
1F
100
AcDbEntity
  8
1.4. Idatzia
100
AcDbMText
 10
2482.77672408396
 20
914.2025773488285
 30
0.0
 40
0.002
 41
0.0273770814300611
 46
0.0
 71
     1
 72
     5
  1
{\fCalibri Light|b0|i0|c0|p34;Lokal zk.}
 73
     1
 44
1.0
  0
MTEXT
  5
28CA
330
1F
100
AcDbEntity
  8
1.4. Idatzia
100
AcDbMText
 10
2482.772483353765
 20
914.2202441030674
 30
0.0
 40
0.012
 41
0.0273770814300611
 46
0.0
 71
     1
 72
     5
  1
{\fMicrosoft Sans Serif|b0|i0|c0|p34;45}
 73
     1
 44
1.0
  0
LWPOLYLINE
  5
28CB
330
1F
100
AcDbEntity
  8
1.7. Ventanas Gráficas
100
AcDbPolyline
 90
        4
 70
     1
 43
0.0
 10
2482.593025050736
 20
914.1934716347794
 10
2482.793025050737
 20
914.1934716347794
 10
2482.793025050737
 20
914.4754716347796
 10
2482.593025050736
 20
914.4754716347796
  0
MTEXT
  5
28CC
330
1F
100
AcDbEntity
  8
1.4. Idatzia
100
AcDbMText
 10
2482.685047357413
 20
914.2106389316992
 30
0.0
 40
0.0025
 41
0.1852149973614974
 46
0.0
 71
     1
 72
     5
  1
{\fCalibri Light|b1|i0|c0|p34;Finka zk.\fCalibri Light|b0|i0|c0|p34;: 5070235S}
 73
     1
 44
1.0
  0
CIRCLE
  5
3D11
330
1F
100
AcDbEntity
  8
8.1. Irisgarritasun boloa
 48
0.0005
100
AcDbCircle
 10
2503.848964818027
 20
864.6294778670615
 30
0.0
 40
0.9
  0
DIMENSION
  5
3D13
102
{ACAD_XDICTIONARY
360
3D20
102
}
102
{ACAD_REACTORS
330
3D2A
102
}
330
1F
100
AcDbEntity
  8
7.3. Kota
100
AcDbDimension
280
     0
  2
*D17
 10
2504.748964818027
 20
865.7783417640853
 30
0.0
 11
2504.223964818027
 21
865.9049277122434
 31
0.0
 70
    33
 71
     5
 42
1.050000000000181
 73
     0
 74
     0
 75
     0
  3
Guztion
100
AcDbAlignedDimension
 13
2503.698964818027
 23
865.8994778670614
 33
0.0
 14
2504.748964818027
 24
865.8994778670614
 34
0.0
  0
DIMENSION
  5
3D2B
102
{ACAD_XDICTIONARY
360
3D38
102
}
102
{ACAD_REACTORS
330
3D42
102
}
330
1F
100
AcDbEntity
  8
7.3. Kota
100
AcDbDimension
280
     0
  2
*D18
 10
2506.148964818026
 20
861.7297539456863
 30
0.0
 11
2504.153964818027
 21
861.8563910534625
 31
0.0
 70
    33
 71
     5
 42
3.989999999999781
 73
     0
 74
     0
 75
     0
  3
Guztion
100
AcDbAlignedDimension
 13
2502.158964818027
 23
862.5494778670613
 33
0.0
 14
2506.148964818026
 24
862.5494778670613
 34
0.0
  0
DIMENSION
  5
3D43
102
{ACAD_XDICTIONARY
360
3D50
102
}
102
{ACAD_REACTORS
330
3D5A
102
}
330
1F
100
AcDbEntity
  8
7.3. Kota
100
AcDbDimension
280
     0
  2
*D19
 10
2503.108964818026
 20
862.1969895780516
 30
0.0
 11
2502.633964818027
 21
862.3235755262099
 31
0.0
 70
    33
 71
     5
 42
0.9499999999998181
 73
     0
 74
     0
 75
     0
  3
Guztion
100
AcDbAlignedDimension
 13
2502.158964818027
 23
862.5494778670613
 33
0.0
 14
2503.108964818026
 24
862.5494778670613
 34
0.0
  0
DIMENSION
  5
3D73
102
{ACAD_XDICTIONARY
360
3D80
102
}
102
{ACAD_REACTORS
330
3D8A
102
}
330
1F
100
AcDbEntity
  8
7.3. Kota
100
AcDbDimension
280
     0
  2
*D20
 10
2504.578964818027
 20
862.1969895780516
 30
0.0
 11
2504.138964818027
 21
862.3235755262099
 31
0.0
 70
    32
 71
     5
 42
0.8800000000001091
 73
     0
 74
     0
 75
     0
  3
Guztion
100
AcDbAlignedDimension
 13
2503.698964818027
 23
862.5494778670613
 33
0.0
 14
2504.578964818027
 24
862.5494778670613
 34
0.0
 50
180.0
100
AcDbRotatedDimension
1001
ACAD
1000
DSTYLE
1002
{
1070
   279
1070
     1
1002
}
  0
DIMENSION
  5
3DA7
102
{ACAD_XDICTIONARY
360
3DB4
102
}
102
{ACAD_REACTORS
330
3DBE
102
}
330
1F
100
AcDbEntity
  8
7.3. Kota
100
AcDbDimension
280
     0
  2
*D21
 10
2506.148964818026
 20
862.1969895780516
 30
0.0
 11
2505.523964818026
 21
862.3235755262099
 31
0.0
 70
    32
 71
     5
 42
1.25
 73
     0
 74
     0
 75
     0
  3
Guztion
100
AcDbAlignedDimension
 13
2504.898964818027
 23
862.5494778670613
 33
0.0
 14
2506.148964818026
 24
862.5494778670613
 34
0.0
 50
180.0
100
AcDbRotatedDimension
1001
ACAD
1000
DSTYLE
1002
{
1070
   279
1070
     1
1002
}
  0
DIMENSION
  5
3DBF
102
{ACAD_XDICTIONARY
360
3DCC
102
}
102
{ACAD_REACTORS
330
3DD6
102
}
330
1F
100
AcDbEntity
  8
7.3. Kota
100
AcDbDimension
280
     0
  2
*D22
 10
2506.598964818027
 20
861.3020626358871
 30
0.0
 11
2504.378964818027
 21
861.4270626358871
 31
0.0
 70
    33
 71
     5
 42
4.440000000000509
 73
     0
 74
     0
 75
     0
  3
Guztion
100
AcDbAlignedDimension
 13
2502.158964818027
 23
862.5494778670613
 33
0.0
 14
2506.598964818027
 24
862.5494778670613
 34
0.0
  0
MTEXT
  5
5CB0
330
1F
100
AcDbEntity
  8
7.2. Idatzia
100
AcDbMText
 10
2501.376707906516
 20
860.7233398442796
 30
0.0
 40
0.25
 41
3.934541634584093
 46
0.0
 71
     1
 72
     5
  1
A{\H0.5x;erabilgarria }= 54.74 m²
 73
     1
 44
1.0
1001
ACAD
1000
ACAD_MTEXT_COLUMN_INFO_BEGIN
1070
    75
1070
     2
1070
    79
1070
     0
1070
    76
1070
     1
1070
    78
1070
     0
1070
    48
1040
3.934541634584093
1070
    49
1040
12.5
1070
    50
1070
     1
1040
0.0
1000
ACAD_MTEXT_COLUMN_INFO_END
  0
DIMENSION
  5
5CBE
330
1F
100
AcDbEntity
  8
7.3. Kota
100
AcDbDimension
280
     0
  2
*D140
 10
2504.644128300967
 20
866.2444778670613
 30
0.0
 11
2504.517542352809
 21
866.5044778670617
 31
0.0
 70
    33
 71
     5
 42
0.5200000000000955
 73
     0
 74
     0
 75
     0
  3
Guztion
100
AcDbAlignedDimension
 13
2504.671376282462
 23
866.7644778670613
 33
0.0
 14
2504.671376282461
 24
866.2444778670613
 34
0.0
  0
DIMENSION
  5
5CCB
330
1F
100
AcDbEntity
  8
7.3. Kota
100
AcDbDimension
280
     0
  2
*D141
 10
2504.662534059762
 20
867.7744778670613
 30
0.0
 11
2504.535948111604
 21
867.5144778670615
 31
0.0
 70
    33
 71
     5
 42
0.5200000000000955
 73
     0
 74
     0
 75
     0
  3
Guztion
100
AcDbAlignedDimension
 13
2504.644128300967
 23
867.254477867061
 33
0.0
 14
2504.644128300969
 24
867.7744778670613
 34
0.0
  0
DIMENSION
  5
5CD8
330
1F
100
AcDbEntity
  8
7.3. Kota
100
AcDbDimension
280
     0
  2
*D142
 10
2504.662534059762
 20
868.7994778670613
 30
0.0
 11
2504.535948111604
 21
868.5394778670616
 31
0.0
 70
    33
 71
     5
 42
0.5200000000000955
 73
     0
 74
     0
 75
     0
  3
Guztion
100
AcDbAlignedDimension
 13
2504.662534059762
 23
868.2794778670611
 33
0.0
 14
2504.662534059762
 24
868.7994778670613
 34
0.0
  0
DIMENSION
  5
5CE3
102
{ACAD_XDICTIONARY
360
5CF0
102
}
102
{ACAD_REACTORS
330
5CFA
102
}
330
1F
100
AcDbEntity
  8
7.3. Kota
100
AcDbDimension
280
     0
  2
*D143
 10
2504.573964818027
 20
868.9516879115512
 30
0.0
 11
2504.223964818027
 21
869.0782738597093
 31
0.0
 70
    33
 71
     5
 42
0.6999999999998181
 73
     0
 74
     0
 75
     0
  3
Guztion
100
AcDbAlignedDimension
 13
2503.873964818027
 23
869.0094778670614
 33
0.0
 14
2504.573964818027
 24
869.0094778670614
 34
0.0
  0
DIMENSION
  5
5CFB
102
{ACAD_XDICTIONARY
360
5D08
102
}
102
{ACAD_REACTORS
330
5D12
102
}
330
1F
100
AcDbEntity
  8
7.3. Kota
100
AcDbDimension
280
     0
  2
*D144
 10
2507.29102623946
 20
869.1094778670615
 30
0.0
 11
2507.164389131684
 21
871.0744778670619
 31
0.0
 70
    33
 71
     5
 42
3.929999999999836
 73
     0
 74
     0
 75
     0
  3
Guztion
100
AcDbAlignedDimension
 13
2506.798964818027
 23
873.0394778670612
 33
0.0
 14
2506.798964818027
 24
869.1094778670615
 34
0.0
  0
DIMENSION
  5
5D2F
102
{ACAD_XDICTIONARY
360
5D3C
102
}
102
{ACAD_REACTORS
330
5D46
102
}
330
1F
100
AcDbEntity
  8
7.3. Kota
100
AcDbDimension
280
     0
  2
*D145
 10
2507.29102623946
 20
868.0694778670613
 30
0.0
 11
2507.164440291302
 21
868.5394778670618
 31
0.0
 70
    32
 71
     5
 42
0.9400000000000545
 73
     0
 74
     0
 75
     0
  3
Guztion
100
AcDbAlignedDimension
 13
2506.798964818027
 23
869.0094778670614
 33
0.0
 14
2506.798964818027
 24
868.0694778670613
 34
0.0
 50
90.00000000000664
100
AcDbRotatedDimension
1001
ACAD
1000
DSTYLE
1002
{
1070
   279
1070
     1
1002
}
  0
DIMENSION
  5
5D63
102
{ACAD_XDICTIONARY
360
5D70
102
}
102
{ACAD_REACTORS
330
5D7A
102
}
330
1F
100
AcDbEntity
  8
7.3. Kota
100
AcDbDimension
280
     0
  2
*D146
 10
2507.29102623946
 20
867.0594778670613
 30
0.0
 11
2507.164440291302
 21
867.5144778670619
 31
0.0
 70
    32
 71
     5
 42
0.9099999999999681
 73
     0
 74
     0
 75
     0
  3
Guztion
100
AcDbAlignedDimension
 13
2506.798964818027
 23
867.9694778670613
 33
0.0
 14
2506.798964818027
 24
867.0594778670613
 34
0.0
 50
90.00000000000664
100
AcDbRotatedDimension
1001
ACAD
1000
DSTYLE
1002
{
1070
   279
1070
     1
1002
}
  0
DIMENSION
  5
5D97
102
{ACAD_XDICTIONARY
360
5DA4
102
}
102
{ACAD_REACTORS
330
5DAE
102
}
330
1F
100
AcDbEntity
  8
7.3. Kota
100
AcDbDimension
280
     0
  2
*D147
 10
2507.29102623946
 20
866.0494778670614
 30
0.0
 11
2507.164440291302
 21
866.5044778670617
 31
0.0
 70
    32
 71
     5
 42
0.9099999999999681
 73
     0
 74
     0
 75
     0
  3
Guztion
100
AcDbAlignedDimension
 13
2506.798964818027
 23
866.9594778670612
 33
0.0
 14
2506.798964818027
 24
866.0494778670614
 34
0.0
 50
90.00000000000664
100
AcDbRotatedDimension
1001
ACAD
1000
DSTYLE
1002
{
1070
   279
1070
     1
1002
}
  0
DIMENSION
  5
5DAF
102
{ACAD_XDICTIONARY
360
5DBC
102
}
102
{ACAD_REACTORS
330
5DC6
102
}
330
1F
100
AcDbEntity
  8
7.3. Kota
100
AcDbDimension
280
     0
  2
*D148
 10
2507.29102623946
 20
863.1494778670614
 30
0.0
 11
2507.164440291302
 21
864.3994778670618
 31
0.0
 70
    33
 71
     5
 42
2.499999999999886
 73
     0
 74
     0
 75
     0
  3
Guztion
100
AcDbAlignedDimension
 13
2506.798964818027
 23
865.6494778670614
 33
0.0
 14
2506.798964818026
 24
863.1494778670614
 34
0.0
  0
DIMENSION
  5
5DC7
102
{ACAD_XDICTIONARY
360
5DD4
102
}
102
{ACAD_REACTORS
330
5DDE
102
}
330
1F
100
AcDbEntity
  8
7.3. Kota
100
AcDbDimension
280
     0
  2
*D149
 10
2507.814140377977
 20
873.0394778670612
 30
0.0
 11
2507.687554429819
 21
867.9694778670619
 31
0.0
 70
    33
 71
     5
 42
10.13999999999987
 73
     0
 74
     0
 75
     0
  3
Guztion
100
AcDbAlignedDimension
 13
2506.598964818027
 23
862.8994778670614
 33
0.0
 14
2506.598964818027
 24
873.0394778670612
 34
0.0
  0
DIMENSION
  5
5DF7
102
{ACAD_XDICTIONARY
360
5E02
102
}
102
{ACAD_REACTORS
330
5E0A
102
}
330
1F
100
AcDbEntity
  8
7.3. Kota
100
AcDbDimension
280
     0
  2
*D150
 10
2506.598964818027
 20
863.9244778670613
 30
0.0
 11
2505.723964818027
 21
864.0510638152194
 31
0.0
 70
    33
 71
     5
 42
1.75
 73
     0
 74
     0
 75
     0
  3
Guztion
100
AcDbAlignedDimension
 13
2504.848964818027
 23
863.9244778670613
 33
0.0
 14
2506.598964818027
 24
863.9244778670613
 34
0.0
  0
DIMENSION
  5
5E1F
102
{ACAD_XDICTIONARY
360
5E2A
102
}
102
{ACAD_REACTORS
330
5E32
102
}
330
1F
100
AcDbEntity
  8
7.3. Kota
100
AcDbDimension
280
     0
  2
*D151
 10
2502.158964818027
 20
863.9244778670613
 30
0.0
 11
2503.453964818027
 21
864.0510638152194
 31
0.0
 70
    32
 71
     5
 42
2.590000000000145
 73
     0
 74
     0
 75
     0
  3
Guztion
100
AcDbAlignedDimension
 13
2504.748964818027
 23
863.9244778670613
 33
0.0
 14
2502.158964818027
 24
863.9244778670613
 34
0.0
 50
180.0
100
AcDbRotatedDimension
1001
ACAD
1000
DSTYLE
1002
{
1070
   279
1070
     1
1002
}
  0
DIMENSION
  5
5E33
102
{ACAD_XDICTIONARY
360
5E40
102
}
102
{ACAD_REACTORS
330
5E4A
102
}
330
1F
100
AcDbEntity
  8
7.3. Kota
100
AcDbDimension
280
     0
  2
*D152
 10
2498.278964818027
 20
868.5636386052035
 30
0.0
 11
2500.888964818027
 21
868.6902245533616
 31
0.0
 70
    33
 71
     5
 42
5.220000000000254
 73
     0
 74
     0
 75
     0
  3
Guztion
100
AcDbAlignedDimension
 13
2503.498964818027
 23
868.9094778670613
 33
0.0
 14
2498.278964818027
 24
868.9094778670614
 34
0.0
  0
DIMENSION
  5
5E4B
102
{ACAD_XDICTIONARY
360
5E58
102
}
102
{ACAD_REACTORS
330
5E62
102
}
330
1F
100
AcDbEntity
  8
7.3. Kota
100
AcDbDimension
280
     0
  2
*D153
 10
2499.948061661837
 20
874.6855377615572
 30
0.0
 11
2503.338163815565
 21
874.2538758060614
 31
0.0
 70
    33
 71
     5
 42
6.830252615961853
 73
     0
 74
     0
 75
     0
  3
Guztion
100
AcDbAlignedDimension
 13
2506.631561316277
 23
873.2368036593486
 33
0.0
 14
2499.892636271444
 24
874.3500152465895
 34
0.0
  0
DIMENSION
  5
5E63
102
{ACAD_XDICTIONARY
360
5E70
102
}
102
{ACAD_REACTORS
330
5E7A
102
}
330
1F
100
AcDbEntity
  8
7.3. Kota
100
AcDbDimension
280
     0
  2
*D154
 10
2497.950549852337
 20
870.8019312450762
 30
0.0
 11
2498.006542711542
 21
871.4139196360797
 31
0.0
 70
    33
 71
     5
 42
1.202731871587502
 73
     0
 74
     0
 75
     0
  3
Guztion
100
AcDbAlignedDimension
 13
2498.745977151811
 23
871.8154620194358
 33
0.0
 14
2498.392030607348
 24
870.6659900543169
 34
0.0
  0
DIMENSION
  5
5E7B
102
{ACAD_XDICTIONARY
360
5E88
102
}
102
{ACAD_REACTORS
330
5E92
102
}
330
1F
100
AcDbEntity
  8
7.3. Kota
100
AcDbDimension
280
     0
  2
*D155
 10
2498.842689662546
 20
873.6992323117002
 30
0.0
 11
2498.544735977287
 21
873.1617487375848
 31
0.0
 70
    33
 71
     5
 42
1.202731871587502
 73
     0
 74
     0
 75
     0
  3
Guztion
100
AcDbAlignedDimension
 13
2498.930223873094
 23
872.4138191558216
 33
0.0
 14
2499.284170417557
 24
873.5632911209407
 34
0.0
  0
DIMENSION
  5
5E93
102
{ACAD_XDICTIONARY
360
5EA0
102
}
102
{ACAD_REACTORS
330
5EAA
102
}
330
1F
100
AcDbEntity
  8
7.3. Kota
100
AcDbDimension
280
     0
  2
*D156
 10
2497.073569840047
 20
869.3678783853368
 30
0.0
 11
2497.738540650487
 21
871.9577490994629
 31
0.0
 70
    33
 71
     5
 42
5.341752348269437
 73
     0
 74
     0
 75
     0
  3
Guztion
100
AcDbAlignedDimension
 13
2499.4847480703
 23
874.21468436736
 33
0.0
 14
2497.912747835073
 24
869.1094778670613
 34
0.0
  0
DIMENSION
  5
5EAB
330
1F
100
AcDbEntity
  8
7.3. Kota
100
AcDbDimension
280
     0
  2
*D157
 10
2503.365437563884
 20
869.4594778670614
 30
0.0
 11
2503.238800456108
 21
871.3380823372547
 31
0.0
 70
    33
 71
     5
 42
3.757208940386021
 73
     0
 74
     0
 75
     0
  3
Guztion
100
AcDbAlignedDimension
 13
2503.378744849774
 23
873.2166868074473
 33
0.0
 14
2503.378744849777
 24
869.4594778670614
 34
0.0
  0
DIMENSION
  5
5EC4
102
{ACAD_XDICTIONARY
360
5ED1
102
}
102
{ACAD_REACTORS
330
5EDB
102
}
330
1F
100
AcDbEntity
  8
7.3. Kota
100
AcDbDimension
280
     0
  2
*D158
 10
2503.148776937633
 20
865.8994778670614
 30
0.0
 11
2503.022139829857
 21
867.4544778670618
 31
0.0
 70
    33
 71
     5
 42
3.110000000000013
 73
     0
 74
     0
 75
     0
  3
Guztion
100
AcDbAlignedDimension
 13
2503.498964818027
 23
869.0094778670614
 33
0.0
 14
2503.498964818027
 24
865.8994778670614
 34
0.0
  0
HATCH
  5
5F9B
330
1F
100
AcDbEntity
  8
4.1. Zeramika-baldosa
100
AcDbHatch
 10
0.0
 20
0.0
 30
0.0
210
0.0
220
0.0
230
1.0
  2
ANSI37
 70
     0
 71
     0
 91
        6
 92
        7
 72
     1
 73
     1
 93
       33
 10
2506.598964818027
 20
873.0394778670612
 42
0.0
 10
2503.116164584157
 20
873.6148060611865
 42
0.0
 10
2503.059120712218
 20
873.2694859246839
 42
0.0
 10
2502.733533154944
 20
873.3232701467976
 42
0.0
 10
2502.790577026883
 20
873.6685902833002
 42
0.0
 10
2500.279651506543
 20
874.0833732591228
 42
0.0
 10
2500.222607634604
 20
873.7380531226202
 42
0.0
 10
2499.729293153886
 20
873.8195443682469
 42
0.0
 10
2499.632661121408
 20
873.5057234989549
 42
0.0
 10
2499.467861244077
 20
872.9705216674634
 42
0.0
 10
2499.444318404458
 20
872.8940642629646
 42
0.0
 10
2499.278714576944
 20
872.3562515338356
 42
0.0
 10
2499.094467855662
 20
871.7578943974499
 42
0.0
 10
2498.929667978331
 20
871.2226925659585
 42
0.0
 10
2498.906125138712
 20
871.1462351614597
 42
0.0
 10
2498.740521311198
 20
870.6084224323308
 42
0.0
 10
2498.643889278719
 20
870.2946015630388
 42
0.0
 10
2499.074221411687
 20
870.2235144514306
 42
0.0
 10
2498.997619640798
 20
869.7597988395555
 42
0.0
 10
2498.50430516008
 20
869.8412900851824
 42
0.0
 10
2498.278964818027
 20
869.1094778670613
 42
0.0
 10
2502.278964818027
 20
869.1094778670613
 42
0.0
 10
2502.278964818027
 20
869.4594778670612
 42
0.0
 10
2502.618964818027
 20
869.4594778670612
 42
0.0
 10
2502.618964818027
 20
869.1094778670613
 42
0.0
 10
2503.698964818027
 20
869.1094778670613
 42
0.0
 10
2503.813964818027
 20
869.1094778670613
 42
0.0
 10
2503.838964818026
 20
869.1094778670613
 42
-0.4043513591526099
 10
2504.583964818027
 20
869.8794778670613
 42
0.0
 10
2504.608964818026
 20
869.8794778670613
 42
0.0
 10
2504.608964818026
 20
869.1094778670613
 42
0.0
 10
2504.633964818026
 20
869.1094778670613
 42
0.0
 10
2506.598964818027
 20
869.1094778670613
 42
0.0
 97
        0
 92
        7
 72
     1
 73
     1
 93
       78
 10
2504.848157356142
 20
868.8344778670613
 42
0.0
 10
2504.823964818027
 20
868.8344778670613
 42
0.0
 10
2504.823964818027
 20
868.7994778670613
 42
0.0
 10
2504.748964818027
 20
868.7994778670613
 42
0.0
 10
2504.748964818027
 20
868.8594778670612
 42
0.0
 10
2504.748964818027
 20
869.0094778670614
 42
0.0
 10
2504.633964818026
 20
869.0094778670614
 42
0.0
 10
2504.573964818027
 20
869.0094778670614
 42
0.0
 10
2504.573964818027
 20
869.0844778670612
 42
0.0
 10
2504.608964818026
 20
869.0844778670612
 42
0.0
 10
2504.608964818026
 20
869.1094778670613
 42
0.0
 10
2504.583964818027
 20
869.1094778670613
 42
0.0
 10
2504.583964818027
 20
869.8794778670613
 42
0.4045806965488622
 10
2503.838964818026
 20
869.1088702386142
 42
0.0
 10
2503.838964818026
 20
869.0844778670612
 42
0.0
 10
2503.873964818027
 20
869.0844778670612
 42
0.0
 10
2503.873964818027
 20
869.0094778670614
 42
0.0
 10
2503.813964818027
 20
869.0094778670614
 42
0.0
 10
2503.698964818027
 20
869.0094778670614
 42
0.0
 10
2503.698964818027
 20
865.8994778670614
 42
0.0
 10
2502.618964818027
 20
865.8994778670614
 42
0.0
 10
2502.618964818027
 20
865.6494778670614
 42
0.0
 10
2502.158964818027
 20
865.6494778670614
 42
0.0
 10
2502.158964818027
 20
862.8994778670614
 42
0.0
 10
2503.108964818026
 20
862.8994778670614
 42
0.0
 10
2503.108964818026
 20
863.1494778670614
 42
0.0
 10
2503.698964818027
 20
863.1494778670614
 42
0.0
 10
2503.698964818027
 20
862.8994778670614
 42
0.0
 10
2503.723964818027
 20
862.8994778670614
 42
-0.4050957297108199
 10
2504.528964818027
 20
863.7294778670614
 42
0.0
 10
2504.553964818027
 20
863.7294778670614
 42
0.0
 10
2504.553964818027
 20
862.8994778670614
 42
0.0
 10
2504.578964818027
 20
862.8994778670614
 42
0.0
 10
2504.578964818027
 20
863.1494778670614
 42
0.0
 10
2504.748964818027
 20
863.1494778670614
 42
0.0
 10
2504.748964818027
 20
864.6994778670613
 42
0.0
 10
2504.748964818027
 20
864.7594778670613
 42
0.0
 10
2504.823964818027
 20
864.7594778670613
 42
0.0
 10
2504.823964818027
 20
864.7244778670613
 42
0.0
 10
2504.848964818027
 20
864.7244778670613
 42
0.4043513591526246
 10
2505.618964818026
 20
865.4694778670615
 42
0.0
 10
2504.848964818027
 20
865.4694778670615
 42
0.0
 10
2504.848964818027
 20
865.4944778670614
 42
0.0
 10
2504.823964818027
 20
865.4944778670614
 42
0.0
 10
2504.823964818027
 20
865.4594778670613
 42
0.0
 10
2504.748964818027
 20
865.4594778670613
 42
0.0
 10
2504.748964818027
 20
865.5194778670614
 42
0.0
 10
2504.748964818027
 20
866.1844778670612
 42
0.0
 10
2504.748964818027
 20
866.2444778670613
 42
0.0
 10
2504.823964818027
 20
866.2444778670613
 42
0.0
 10
2504.823964818027
 20
866.2094778670613
 42
0.0
 10
2504.848964818027
 20
866.2094778670613
 42
0.0
 10
2504.848964818027
 20
866.2344778670613
 42
0.0
 10
2505.438964818027
 20
866.2344778670613
 42
0.4015922596985188
 10
2504.848157356143
 20
866.7994778670614
 42
0.0
 10
2504.823964818027
 20
866.7994778670614
 42
0.0
 10
2504.823964818027
 20
866.7644778670613
 42
0.0
 10
2504.748964818027
 20
866.7644778670613
 42
0.0
 10
2504.748964818027
 20
866.8244778670613
 42
0.0
 10
2504.748964818027
 20
867.1944778670612
 42
0.0
 10
2504.748964818027
 20
867.254477867061
 42
0.0
 10
2504.823964818027
 20
867.254477867061
 42
0.0
 10
2504.823964818027
 20
867.2194778670611
 42
0.0
 10
2504.848964818027
 20
867.2194778670611
 42
0.0
 10
2504.848964818027
 20
867.2444778670611
 42
0.0
 10
2505.438964818027
 20
867.2444778670611
 42
0.4015922596985188
 10
2504.848157356142
 20
867.8094778670612
 42
0.0
 10
2504.823964818027
 20
867.8094778670612
 42
0.0
 10
2504.823964818027
 20
867.7744778670613
 42
0.0
 10
2504.748964818027
 20
867.7744778670613
 42
0.0
 10
2504.748964818027
 20
867.8344778670611
 42
0.0
 10
2504.748964818027
 20
868.2194778670613
 42
0.0
 10
2504.748964818027
 20
868.2794778670611
 42
0.0
 10
2504.823964818027
 20
868.2794778670611
 42
0.0
 10
2504.823964818027
 20
868.2444778670612
 42
0.0
 10
2504.848964818027
 20
868.2444778670612
 42
0.0
 10
2504.848964818027
 20
868.2694778670612
 42
0.0
 10
2505.438964818027
 20
868.2694778670612
 42
0.4015922596985659
 97
        0
 92
        7
 72
     1
 73
     1
 93
       10
 10
2506.598964818027
 20
869.0094778670614
 42
0.0
 10
2504.848964818027
 20
869.0094778670614
 42
0.0
 10
2504.848964818027
 20
868.8594778670612
 42
0.0
 10
2504.848964818027
 20
868.8344778670614
 42
-0.4011956447178756
 10
2505.438964818027
 20
868.2694778670612
 42
0.0
 10
2505.438964818027
 20
868.2444778670612
 42
0.0
 10
2504.848964818027
 20
868.2444778670612
 42
0.0
 10
2504.848964818027
 20
868.2194778670613
 42
0.0
 10
2504.848964818027
 20
868.0694778670613
 42
0.0
 10
2506.598964818027
 20
868.0694778670613
 42
0.0
 97
        0
 92
        7
 72
     1
 73
     1
 93
       10
 10
2506.598964818027
 20
867.9694778670613
 42
0.0
 10
2504.848964818027
 20
867.9694778670613
 42
0.0
 10
2504.848964818027
 20
867.8344778670611
 42
0.0
 10
2504.848964818027
 20
867.8094778670613
 42
-0.401195644717877
 10
2505.438964818027
 20
867.2444778670611
 42
0.0
 10
2505.438964818027
 20
867.2194778670611
 42
0.0
 10
2504.848964818027
 20
867.2194778670611
 42
0.0
 10
2504.848964818027
 20
867.1944778670612
 42
0.0
 10
2504.848964818027
 20
867.0594778670613
 42
0.0
 10
2506.598964818027
 20
867.0594778670613
 42
0.0
 97
        0
 92
        7
 72
     1
 73
     1
 93
       12
 10
2506.598964818027
 20
866.9594778670612
 42
0.0
 10
2504.848964818027
 20
866.9594778670612
 42
0.0
 10
2504.848964818026
 20
866.8244778670613
 42
0.0
 10
2504.848964818027
 20
866.7994778670616
 42
-0.401195644717877
 10
2505.438964818027
 20
866.2344778670613
 42
0.0
 10
2505.438964818027
 20
866.2094778670613
 42
0.0
 10
2504.848964818027
 20
866.2094778670613
 42
0.0
 10
2504.848964818027
 20
866.1844778670612
 42
0.0
 10
2504.848964818027
 20
865.9994778670613
 42
0.0
 10
2506.348964818027
 20
865.9994778670613
 42
0.0
 10
2506.348964818027
 20
866.0494778670614
 42
0.0
 10
2506.598964818027
 20
866.0494778670614
 42
0.0
 97
        0
 92
        7
 72
     1
 73
     1
 93
       17
 10
2506.598964818027
 20
865.6494778670614
 42
0.0
 10
2506.348964818027
 20
865.6494778670614
 42
0.0
 10
2506.348964818027
 20
865.8994778670614
 42
0.0
 10
2504.848964818027
 20
865.8994778670614
 42
0.0
 10
2504.848964818027
 20
865.5194778670614
 42
0.0
 10
2504.848964818027
 20
865.4944778670614
 42
0.0
 10
2505.618964818026
 20
865.4944778670614
 42
0.0
 10
2505.618964818026
 20
865.4694778670613
 42
-0.4043513591525331
 10
2504.848964818027
 20
864.7244778670613
 42
0.0
 10
2504.848964818027
 20
864.6994778670613
 42
0.0
 10
2504.848964818027
 20
863.1494778670614
 42
0.0
 10
2504.898964818027
 20
863.1494778670614
 42
0.0
 10
2504.898964818027
 20
862.8994778670614
 42
0.0
 10
2506.148964818026
 20
862.8994778670614
 42
0.0
 10
2506.198964818027
 20
862.8994778670614
 42
0.0
 10
2506.198964818027
 20
863.1494778670614
 42
0.0
 10
2506.598964818027
 20
863.1494778670614
 42
0.0
 97
        0
 75
     1
 76
     1
 52
45.0
 41
0.13
 77
     0
 78
     2
 53
90.0
 43
0.0
 44
0.0
 45
-0.41275
 46
0.0000000000000001
 79
     0
 53
180.0
 43
0.0
 44
0.0
 45
-0.0000000000000001
 46
-0.41275
 79
     0
 47
0.0219269166390627
 98
        6
 10
2503.685425924992
 20
871.0889195835592
 10
2504.299983301485
 20
868.4576897706078
 10
2506.143653795329
 20
868.5673244346469
 10
2505.946116970004
 20
867.6025398159
 10
2505.924168433856
 20
866.5061938835043
 10
2506.121705259181
 20
863.9188173697714
1001
GradientColor1ACI
1070
     5
1001
GradientColor2ACI
1070
     2
1001
ACAD
1010
0.0
1020
0.0
1030
0.0
  0
LINE
  5
5F9D
102
{ACAD_REACTORS
330
5FA6
102
}
330
1F
100
AcDbEntity
  8
3.1. Atea
100
AcDbLine
 10
2503.758964818027
 20
862.8744778670613
 30
0.0
 11
2504.518964818027
 21
862.8744778670613
 31
0.0
  0
HATCH
  5
5FA6
330
1F
100
AcDbEntity
  8
4.1. Zeramika-baldosa
100
AcDbHatch
 10
0.0
 20
0.0
 30
0.0
210
0.0
220
0.0
230
1.0
  2
ANSI37
 70
     0
 71
     1
 91
        1
 92
        7
 72
     1
 73
     1
 93
        8
 10
2504.528964818027
 20
863.7294778670614
 42
0.4052853785342002
 10
2503.723964818027
 20
862.8989365928481
 42
0.0
 10
2503.723964818027
 20
862.8744778670613
 42
0.0
 10
2503.758964818027
 20
862.8744778670613
 42
0.0
 10
2504.518964818027
 20
862.8744778670613
 42
0.0
 10
2504.553964818027
 20
862.8744778670613
 42
0.0
 10
2504.553964818027
 20
862.8994778670614
 42
0.0
 10
2504.528964818027
 20
862.8994778670614
 42
0.0
 97
        5
330
1388
330
1385
330
5F9D
330
1386
330
1387
 75
     1
 76
     1
 52
45.0
 41
0.13
 77
     0
 78
     2
 53
90.0
 43
0.0
 44
0.0
 45
-0.41275
 46
0.0000000000000001
 79
     0
 53
180.0
 43
0.0
 44
0.0
 45
-0.0000000000000001
 46
-0.41275
 79
     0
 47
0.0057514347673183
 98
        1
 10
2504.179231186602
 20
863.047435888782
1001
GradientColor1ACI
1070
     5
1001
GradientColor2ACI
1070
     2
1001
ACAD
1010
0.0
1020
0.0
1030
0.0
  0
DIMENSION
  5
5FB9
102
{ACAD_XDICTIONARY
360
5FC6
102
}
102
{ACAD_REACTORS
330
5FD0
102
}
330
1F
100
AcDbEntity
  8
7.3. Kota
100
AcDbDimension
280
     0
  2
*D159
 10
2504.644128300967
 20
864.7594778670613
 30
0.0
 11
2504.517542352809
 21
865.1094778670618
 31
0.0
 70
    33
 71
     5
 42
0.6999999999999318
 73
     0
 74
     0
 75
     0
  3
Guztion
100
AcDbAlignedDimension
 13
2504.748964818027
 23
865.4594778670613
 33
0.0
 14
2504.748964818027
 24
864.7594778670613
 34
0.0
  0
LWPOLYLINE
  5
5FD1
102
{ACAD_REACTORS
330
600F
102
}
330
1F
100
AcDbEntity
  8
7.1. Azalera erabilgarria
100
AcDbPolyline
 90
       76
 70
     1
 43
0.0
 10
2502.158964818027
 20
862.8994778670614
 10
2503.108964818026
 20
862.8994778670614
 10
2503.108964818026
 20
863.1494778670612
 10
2503.698964818027
 20
863.1494778670614
 10
2503.698964818027
 20
862.8994778670614
 10
2504.578964818027
 20
862.8994778670614
 10
2504.578964818027
 20
863.1494778670614
 10
2504.748964818027
 20
863.1494778670614
 10
2504.748964818027
 20
864.6994778670613
 10
2504.848964818027
 20
864.6994778670613
 10
2504.848964818027
 20
863.1494778670614
 10
2504.898964818027
 20
863.1494778670614
 10
2504.898964818027
 20
862.8994778670614
 10
2506.198964818027
 20
862.8994778670614
 10
2506.198964818027
 20
863.1494778670614
 10
2506.598964818027
 20
863.1494778670614
 10
2506.598964818027
 20
865.6494778670614
 10
2506.348964818027
 20
865.6494778670614
 10
2506.348964818027
 20
865.8994778670614
 10
2504.848964818027
 20
865.8994778670614
 10
2504.848964818027
 20
865.5194778670614
 10
2504.748964818027
 20
865.5194778670614
 10
2504.748964818027
 20
866.1844778670612
 10
2504.848964818026
 20
866.1844778670612
 10
2504.848964818027
 20
865.9994778670613
 10
2506.348964818027
 20
865.9994778670613
 10
2506.348964818027
 20
866.0494778670614
 10
2506.598964818027
 20
866.0494778670614
 10
2506.598964818027
 20
866.9594778670612
 10
2504.848964818027
 20
866.9594778670612
 10
2504.848964818027
 20
866.8244778670613
 10
2504.748964818027
 20
866.8244778670613
 10
2504.748964818027
 20
867.1944778670612
 10
2504.848964818027
 20
867.1944778670614
 10
2504.848964818027
 20
867.0594778670613
 10
2506.598964818027
 20
867.0594778670611
 10
2506.598964818027
 20
867.9694778670612
 10
2504.848964818027
 20
867.9694778670613
 10
2504.848964818027
 20
867.8344778670611
 10
2504.748964818027
 20
867.8344778670611
 10
2504.748964818027
 20
868.2194778670613
 10
2504.848964818027
 20
868.2194778670613
 10
2504.848964818027
 20
868.0694778670613
 10
2506.598964818027
 20
868.0694778670613
 10
2506.598964818027
 20
869.0094778670614
 10
2504.848964818027
 20
869.0094778670614
 10
2504.848964818027
 20
868.8594778670612
 10
2504.748964818027
 20
868.8594778670612
 10
2504.748964818027
 20
869.0094778670614
 10
2504.633964818026
 20
869.0094778670614
 10
2504.633964818026
 20
869.1094778670613
 10
2506.598964818027
 20
869.1094778670613
 10
2506.598964818027
 20
873.0394778670612
 10
2503.116164584157
 20
873.6148060611862
 10
2503.059120712219
 20
873.2694859246839
 10
2502.733533154944
 20
873.3232701467976
 10
2502.790577026882
 20
873.6685902833002
 10
2500.279651506543
 20
874.0833732591223
 10
2500.222607634604
 20
873.7380531226202
 10
2499.729293153886
 20
873.8195443682469
 10
2498.643889278719
 20
870.2946015630388
 10
2499.074221411687
 20
870.2235144514306
 10
2498.997619640798
 20
869.7597988395555
 10
2498.50430516008
 20
869.8412900851824
 10
2498.278964818027
 20
869.1094778670613
 10
2502.278964818027
 20
869.1094778670613
 10
2502.278964818027
 20
869.4594778670612
 10
2502.618964818027
 20
869.4594778670612
 10
2502.618964818027
 20
869.1094778670613
 10
2503.813964818027
 20
869.1094778670613
 10
2503.813964818027
 20
869.0094778670614
 10
2503.698964818027
 20
869.0094778670614
 10
2503.698964818027
 20
865.8994778670614
 10
2502.618964818027
 20
865.8994778670614
 10
2502.618964818027
 20
865.6494778670614
 10
2502.158964818027
 20
865.6494778670614
  0
MTEXT
  5
5FD2
330
1F
100
AcDbEntity
  8
7.2. Idatzia
100
AcDbMText
 10
2500.938446208064
 20
871.25210151295
 30
0.0
 40
0.25
 41
3.934541634584093
 46
0.0
 71
     1
 72
     5
  1
H=2.35m
 73
     1
 44
1.0
1001
ACAD
1000
ACAD_MTEXT_COLUMN_INFO_BEGIN
1070
    75
1070
     2
1070
    79
1070
     0
1070
    76
1070
     1
1070
    78
1070
     0
1070
    48
1040
3.934541634584093
1070
    49
1040
12.5
1070
    50
1070
     1
1040
0.0
1000
ACAD_MTEXT_COLUMN_INFO_END
  0
MTEXT
  5
5FDF
330
1F
100
AcDbEntity
  8
7.2. Idatzia
100
AcDbMText
 10
2502.817794727021
 20
864.785528277213
 30
0.0
 40
0.25
 41
3.934541634584093
 46
0.0
 71
     1
 72
     5
  1
H=2.67m
 73
     1
 44
1.0
1001
ACAD
1000
ACAD_MTEXT_COLUMN_INFO_BEGIN
1070
    75
1070
     2
1070
    79
1070
     0
1070
    76
1070
     1
1070
    78
1070
     0
1070
    48
1040
3.934541634584093
1070
    49
1040
12.5
1070
    50
1070
     1
1040
0.0
1000
ACAD_MTEXT_COLUMN_INFO_END
  0
DIMENSION
  5
5FFC
102
{ACAD_XDICTIONARY
360
6007
102
}
102
{ACAD_REACTORS
330
600F
102
}
330
1F
100
AcDbEntity
  8
7.3. Kota
100
AcDbDimension
280
     0
  2
*D160
 10
2506.598964818027
 20
871.7578943974499
 30
0.0
 11
2502.846716336844
 21
871.8844803456081
 31
0.0
 70
    33
 71
     5
 42
7.504496962364555
 73
     0
 74
     0
 75
     0
  3
Guztion
100
AcDbAlignedDimension
 13
2499.094467855662
 23
871.7578943974499
 33
0.0
 14
2506.598964818027
 24
871.7578943974499
 34
0.0
  0
HATCH
  5
75F5
330
1F
100
AcDbEntity
  8
1.3. Eskala grafikoa
100
AcDbHatch
 10
0.0
 20
0.0
 30
0.0
210
0.0
220
0.0
230
1.0
  2
SOLID
 70
     1
 71
     0
 91
        1
 92
        1
 93
        4
 72
     1
 10
2482.735562346087
 20
914.2026533942106
 11
2482.735562346087
 21
914.2021796171347
 72
     1
 10
2482.735562346087
 20
914.2021796171347
 11
2482.742228907099
 21
914.2021796171347
 72
     1
 10
2482.742228907099
 20
914.2021796171347
 11
2482.742228907099
 21
914.2026533942106
 72
     1
 10
2482.742228907099
 20
914.2026533942106
 11
2482.735562346087
 21
914.2026533942106
 97
        0
 75
     1
 76
     1
 98
        1
 10
2482.736395785075
 20
914.2024165056726
450
        0
451
        0
460
0.0
461
0.0
452
        0
462
1.0
453
        2
463
0.0
 63
     5
421
      255
463
1.0
 63
     2
421
 16776960
470
LINEAR
1001
GradientColor1ACI
1070
     5
1001
GradientColor2ACI
1070
     2
1001
ACAD
1010
0.0
1020
0.0
1030
0.0
  0
HATCH
  5
75F6
330
1F
100
AcDbEntity
  8
1.3. Eskala grafikoa
100
AcDbHatch
 10
0.0
 20
0.0
 30
0.0
210
0.0
220
0.0
230
1.0
  2
SOLID
 70
     1
 71
     0
 91
        1
 92
        1
 93
        4
 72
     1
 10
2482.755562029125
 20
914.2021796171347
 11
2482.742228907099
 21
914.2021796171347
 72
     1
 10
2482.742228907099
 20
914.2021796171347
 11
2482.742228907099
 21
914.2017058400588
 72
     1
 10
2482.742228907099
 20
914.2017058400588
 11
2482.755562029124
 21
914.2017058400588
 72
     1
 10
2482.755562029124
 20
914.2017058400588
 11
2482.755562029125
 21
914.2021796171347
 97
        0
 75
     1
 76
     1
 98
        1
 10
2482.743283664341
 20
914.2018764442974
450
        0
451
        0
460
0.0
461
0.0
452
        0
462
1.0
453
        2
463
0.0
 63
     5
421
      255
463
1.0
 63
     2
421
 16776960
470
LINEAR
1001
GradientColor1ACI
1070
     5
1001
GradientColor2ACI
1070
     2
1001
ACAD
1010
0.0
1020
0.0
1030
0.0
  0
HATCH
  5
75F7
330
1F
100
AcDbEntity
  8
1.3. Eskala grafikoa
100
AcDbHatch
 10
0.0
 20
0.0
 30
0.0
210
0.0
220
0.0
230
1.0
  2
SOLID
 70
     1
 71
     0
 91
        1
 92
        1
 93
        4
 72
     1
 10
2482.768895785075
 20
914.2026533942109
 11
2482.755562029124
 21
914.2026533942109
 72
     1
 10
2482.755562029124
 20
914.2026533942109
 11
2482.755562029124
 21
914.2021796171347
 72
     1
 10
2482.755562029124
 20
914.2021796171347
 11
2482.768895785075
 21
914.2021796171347
 72
     1
 10
2482.768895785075
 20
914.2021796171347
 11
2482.768895785075
 21
914.2026533942109
 97
        0
 75
     1
 76
     1
 98
        1
 10
2482.765667078798
 20
914.2024933251626
450
        0
451
        0
460
0.0
461
0.0
452
        0
462
1.0
453
        2
463
0.0
 63
     5
421
      255
463
1.0
 63
     2
421
 16776960
470
LINEAR
1001
GradientColor1ACI
1070
     5
1001
GradientColor2ACI
1070
     2
1001
ACAD
1010
0.0
1020
0.0
1030
0.0
  0
HATCH
  5
75F8
330
1F
100
AcDbEntity
  8
1.3. Eskala grafikoa
100
AcDbHatch
 10
0.0
 20
0.0
 30
0.0
210
0.0
220
0.0
230
1.0
  2
SOLID
 70
     1
 71
     0
 91
        1
 92
        1
 93
        4
 72
     1
 10
2482.728895785074
 20
914.2021796171347
 11
2482.728895785074
 21
914.2017058400586
 72
     1
 10
2482.728895785074
 20
914.2017058400586
 11
2482.735562346087
 21
914.2017058400586
 72
     1
 10
2482.735562346087
 20
914.2017058400586
 11
2482.735562346087
 21
914.2021796171347
 72
     1
 10
2482.735562346087
 20
914.2021796171347
 11
2482.728895785074
 21
914.2021796171347
 97
        0
 75
     1
 76
     1
 98
        1
 10
2482.731395785075
 20
914.2019427285967
450
        0
451
        0
460
0.0
461
0.0
452
        0
462
1.0
453
        2
463
0.0
 63
     5
421
      255
463
1.0
 63
     2
421
 16776960
470
LINEAR
1001
GradientColor1ACI
1070
     5
1001
GradientColor2ACI
1070
     2
1001
ACAD
1010
0.0
1020
0.0
1030
0.0
  0
LINE
  5
75F9
330
1F
100
AcDbEntity
  8
1.3. Eskala grafikoa
 48
0.01
100
AcDbLine
 10
2482.728895785074
 20
914.2017058400586
 30
0.0
 11
2482.768895785076
 21
914.2017058400586
 31
0.0
  0
LINE
  5
75FA
330
1F
100
AcDbEntity
  8
1.3. Eskala grafikoa
 48
0.01
100
AcDbLine
 10
2482.728895785074
 20
914.2026533942106
 30
0.0
 11
2482.728895785074
 21
914.2017058400586
 31
0.0
  0
LINE
  5
75FB
330
1F
100
AcDbEntity
  8
1.3. Eskala grafikoa
 48
0.01
100
AcDbLine
 10
2482.768895785075
 20
914.2026533942106
 30
0.0
 11
2482.768895785075
 21
914.2017058400586
 31
0.0
  0
MTEXT
  5
75FC
330
1F
100
AcDbEntity
  8
1.3. Eskala grafikoa
100
AcDbMText
 10
2482.728698439628
 20
914.2013298625535
 30
0.0
 40
0.001
 41
0.0010406224438389
 46
0.0
 71
     1
 72
     5
  1
{\fCalibri Light|b0|i0|c0|p34;0}
 73
     1
 44
1.0
  0
LINE
  5
75FD
330
1F
100
AcDbEntity
  8
1.3. Eskala grafikoa
 48
0.01
100
AcDbLine
 10
2482.728895785074
 20
914.2026533942106
 30
0.0
 11
2482.768895785076
 21
914.2026533942106
 31
0.0
  0
LINE
  5
75FE
330
1F
100
AcDbEntity
  8
1.3. Eskala grafikoa
 48
0.01
100
AcDbLine
 10
2482.728895785074
 20
914.2026533942106
 30
0.0
 11
2482.768895785076
 21
914.2026533942106
 31
0.0
  0
LINE
  5
75FF
330
1F
100
AcDbEntity
  8
1.3. Eskala grafikoa
 48
0.01
100
AcDbLine
 10
2482.728895785074
 20
914.2021796171347
 30
0.0
 11
2482.768895785076
 21
914.2021796171345
 31
0.0
  0
MTEXT
  5
7600
330
1F
100
AcDbEntity
  8
1.3. Eskala grafikoa
100
AcDbMText
 10
2482.741971267516
 20
914.2013298625535
 30
0.0
 40
0.001
 41
0.0010406224438389
 46
0.0
 71
     1
 72
     5
  1
{\fCalibri Light|b0|i0|c0|p34;1}
 73
     1
 44
1.0
  0
MTEXT
  5
7601
330
1F
100
AcDbEntity
  8
1.3. Eskala grafikoa
100
AcDbMText
 10
2482.75522657487
 20
914.2013298625535
 30
0.0
 40
0.001
 41
0.0010406224438389
 46
0.0
 71
     1
 72
     5
  1
{\fCalibri Light|b0|i0|c0|p34;2}
 73
     1
 44
1.0
  0
MTEXT
  5
7602
330
1F
100
AcDbEntity
  8
1.3. Eskala grafikoa
100
AcDbMText
 10
2482.768626041223
 20
914.2013298625535
 30
0.0
 40
0.001
 41
0.0010406224438389
 46
0.0
 71
     1
 72
     5
  1
{\fCalibri Light|b0|i0|c0|p34;3m}
 73
     1
 44
1.0
  0
MTEXT
  5
7603
330
1F
100
AcDbEntity
  8
1.3. Eskala grafikoa
100
AcDbMText
 10
2482.734637402403
 20
914.2013298625535
 30
0.0
 40
0.001
 41
0.0010406224438389
 46
0.0
 71
     1
 72
     5
  1
{\fCalibri Light|b0|i0|c0|p34;0.5}
 73
     1
 44
1.0
  0
LINE
  5
7604
330
1F
100
AcDbEntity
  8
1.3. Eskala grafikoa
100
AcDbLine
 10
2482.742228907099
 20
914.2026533942106
 30
0.0
 11
2482.742228907099
 21
914.2017058400586
 31
0.0
  0
LINE
  5
7605
330
1F
100
AcDbEntity
  8
1.3. Eskala grafikoa
100
AcDbLine
 10
2482.735562346087
 20
914.2026533942106
 30
0.0
 11
2482.735562346087
 21
914.2017058400586
 31
0.0
  0
LINE
  5
7606
330
1F
100
AcDbEntity
  8
1.3. Eskala grafikoa
100
AcDbLine
 10
2482.755562029124
 20
914.2026533942106
 30
0.0
 11
2482.755562029124
 21
914.2017058400586
 31
0.0
  0
DIMENSION
  5
90EA
330
1F
100
AcDbEntity
  8
7.3. Kota
100
AcDbDimension
280
     0
  2
*D274
 10
2504.518964818027
 20
862.6309296549816
 30
0.0
 11
2504.138964818027
 21
862.7575156031397
 31
0.0
 70
    33
 71
     5
 42
0.7600000000002183
 73
     0
 74
     0
 75
     0
  3
Guztion
100
AcDbAlignedDimension
 13
2503.758964818027
 23
862.724773397953
 33
0.0
 14
2504.518964818027
 24
862.7247733979533
 34
0.0
  0
LWPOLYLINE
  5
9657
330
1F
100
AcDbEntity
  8
7.1.1. Azalera eraikia
100
AcDbPolyline
 90
        8
 70
     1
 43
0.0
 10
2502.058964818027
 20
862.5494778670613
 10
2506.698964818026
 20
862.5494778670613
 10
2506.698964818026
 20
873.1243139646666
 10
2499.514446818947
 20
874.3111336179678
 10
2497.881955736161
 20
869.0094778670614
 10
2503.598964818027
 20
869.0094778670614
 10
2503.598964818027
 20
865.9994778670613
 10
2502.058964818027
 20
865.9994778670613
  0
MTEXT
  5
9658
330
1F
100
AcDbEntity
  8
7.2. Idatzia
100
AcDbMText
 10
2504.808411200119
 20
860.7233398442796
 30
0.0
 40
0.25
 41
3.934541634584093
 46
0.0
 71
     1
 72
     5
  1
A{\H0.5x;eraikia }= 63.49 m²
 73
     1
 44
1.0
1001
ACAD
1000
ACAD_MTEXT_COLUMN_INFO_BEGIN
1070
    75
1070
     2
1070
    79
1070
     0
1070
    76
1070
     1
1070
    78
1070
     0
1070
    48
1040
3.934541634584093
1070
    49
1040
12.5
1070
    50
1070
     1
1040
0.0
1000
ACAD_MTEXT_COLUMN_INFO_END
  0
IMAGE
  5
98B2
330
1F
100
AcDbEntity
  8
1.1. Armarria
 62
     7
420
 16777215
160
               140
310
8C00000001000000840000000600000005000000082A80D33265A340500674CDA6918C400000000000000000082A80D33265A340048E06DAD9918C4000000000000000001673B9B63D65A340048E06DAD9918C4000000000000000001673B9B63D65A340500674CDA6918C400000000000000000082A80D33265A340500674
310
CDA6918C400000000000000000
100
AcDbRasterImage
 90
        0
 10
2482.599269871837
 20
914.2064465584208
 30
0.0
 11
0.0001408266873892
 21
0.0
 31
0.0
 12
0.0
 22
0.0001408266873892
 32
0.0
 13
151.0
 23
177.0
340
2E2
 70
     7
280
     0
281
    50
282
    50
283
     0
290
     0
360
98B3
 71
     1
 91
        2
 14
-0.5
 24
-0.5
 14
150.5
 24
176.5
  0
IMAGE
  5
98B4
330
1F
100
AcDbEntity
  8
1.1. Armarria
160
               140
310
8C000000010000008400000006000000050000005F41CB843265A340DCE88FE9A3918C4000000000000000005F41CB843265A340D829AA33D8918C4000000000000000004B54BDAB3D65A340D829AA33D8918C4000000000000000004B54BDAB3D65A340DCE88FE9A3918C4000000000000000005F41CB843265A340DCE88F
310
E9A3918C400000000000000000
100
AcDbRasterImage
 90
        0
 10
2482.59866938756
 20
914.2050353281915
 30
0.0
 11
0.0001442483864702
 21
0.0
 31
0.0
 12
0.0
 22
0.0001442483864702
 32
0.0
 13
151.0
 23
177.0
340
9835
 70
     7
280
     0
281
    50
282
    50
283
     0
290
     0
360
98B5
 71
     1
 91
        2
 14
-0.5
 24
-0.5
 14
150.5
 24
176.5
  0
VIEWPORT
  5
2B1D
102
{ACAD_XDICTIONARY
360
2B1E
102
}
330
2B1B
100
AcDbEntity
 67
     1
  8
0
100
AcDbViewport
 10
0.2081155782944609
 20
0.4317214318970315
 30
0.0
 40
0.9346654428836213
 41
0.3570305884307001
 68
     2
 69
     1
 12
0.2081155782944609
 22
0.4317214318970315
 13
0.0
 23
0.0
 14
10.0
 24
10.0
 15
10.0
 25
10.0
 16
0.0
 26
0.0
 36
1.0
 17
0.0
 27
0.0
 37
0.0
 42
50.0
 43
0.0
 44
0.0
 45
0.3570305884307001
 50
0.0
 51
0.0
 72
  1000
 90
   819232
  1

281
     0
 71
     1
 74
     0
110
0.0
120
0.0
130
0.0
111
1.0
121
0.0
131
0.0
112
0.0
122
1.0
132
0.0
 79
     0
146
0.0
170
     0
 61
     5
348
F5
292
     1
282
     1
141
0.0
142
0.0
 63
   250
421
  3355443
  0
VIEWPORT
  5
2B20
102
{ACAD_XDICTIONARY
360
2B21
102
}
330
2B1B
100
AcDbEntity
 67
     1
  8
0
100
AcDbViewport
 10
128.5
 20
97.5
 30
0.0
 40
205.6
 41
156.0
 68
    -1
 69
     2
 12
2430.557043024972
 22
927.4626459547476
 13
0.0
 23
0.0
 14
10.0
 24
10.0
 15
10.0
 25
10.0
 16
0.0
 26
0.0
 36
1.0
 17
0.0
 27
0.0
 37
0.0
 42
50.0
 43
0.0
 44
0.0
 45
103.1514029277946
 50
0.0
 51
0.0
 72
  1000
 90
   819296
  1

281
     0
 71
     1
 74
     0
110
0.0
120
0.0
130
0.0
111
1.0
121
0.0
131
0.0
112
0.0
122
1.0
132
0.0
 79
     0
146
0.0
170
     0
 61
     5
348
F5
292
     1
282
     1
141
0.0
142
0.0
 63
   250
421
  3355443
  0
LWPOLYLINE
  5
2B23
330
2B1B
100
AcDbEntity
 67
     1
  8
1.7. Ventanas Gráficas
100
AcDbPolyline
 90
        4
 70
     1
 43
0.0
 10
-0.0018762920232689
 20
0.2812602170592981
 10
0.2081237079767311
 20
0.2812602170592981
 10
0.2081237079767311
 20
0.5782602170592981
 10
-0.0018762920232689
 20
0.5782602170592981
  0
VIEWPORT
  5
2B24
102
{ACAD_XDICTIONARY
360
2B25
102
}
330
2B1B
100
AcDbEntity
 67
     1
  8
1.7. Ventanas Gráficas
100
AcDbViewport
 10
0.1031310771647043
 20
0.4297528240861653
 30
0.0
 40
0.1983417124039874
 41
0.275393485691211
 68
     1
 69
     3
 12
2482.694860355675
 22
914.3299815488346
 13
0.0
 23
0.0
 14
10.0
 24
10.0
 15
10.0
 25
10.0
 16
0.0
 26
0.0
 36
1.0
 17
0.0
 27
0.0
 37
0.0
 42
50.0
 43
0.0
 44
0.0
 45
0.2753932596629865
 50
0.0
 51
0.0
 72
  1000
 90
   819296
  1

281
     0
 71
     1
 74
     0
110
0.0
120
0.0
130
0.0
111
1.0
121
0.0
131
0.0
112
0.0
122
1.0
132
0.0
 79
     0
146
0.0
170
     0
 61
     5
348
F5
292
     1
282
     1
141
0.0
142
0.0
 63
   250
421
  3355443
  0
VIEWPORT
  5
5FAF
102
{ACAD_XDICTIONARY
360
5FB0
102
}
330
2B1B
100
AcDbEntity
 67
     1
  8
1.7. Ventanas Gráficas
100
AcDbViewport
 10
0.1034163719729122
 20
0.4521708714390656
 30
0.0
 40
0.1682096765038068
 41
0.203570336510694
 68
     3
 69
     4
 12
2502.934600747079
 22
867.7215046224969
 13
0.0
 23
0.0
 14
10.0
 24
10.0
 15
10.0
 25
10.0
 16
0.0
 26
0.0
 36
1.0
 17
0.0
 27
0.0
 37
0.0
 42
50.0
 43
0.0
 44
0.0
 45
15.26777471708223
 50
0.0
 51
0.0
 72
  1000
 90
   819296
  1

281
     0
 71
     1
 74
     0
110
0.0
120
0.0
130
0.0
111
1.0
121
0.0
131
0.0
112
0.0
122
1.0
132
0.0
 79
     0
146
0.0
170
     0
 61
     5
348
F5
292
     1
282
     1
141
0.0
142
0.0
 63
   250
421
  3355443
  0
ENDSEC
  0
SECTION
  2
OBJECTS
  0
DICTIONARY
  5
C
330
0
100
AcDbDictionary
281
     1
  3
ACAD_BACKGROUND
350
222A
  3
ACAD_CIP_PREVIOUS_PRODUCT_INFO
350
216
  3
ACAD_COLOR
350
6B
  3
ACAD_DETAILVIEWSTYLE
350
21B
  3
ACAD_GROUP
350
D
  3
ACAD_IMAGE_DICT
350
2E0
  3
ACAD_IMAGE_VARS
350
2E1
  3
ACAD_LAYOUT
350
1A
  3
ACAD_MATERIAL
350
6A
  3
ACAD_MLEADERSTYLE
350
12D
  3
ACAD_MLINESTYLE
350
17
  3
ACAD_PLOTSETTINGS
350
19
  3
ACAD_PLOTSTYLENAME
350
E
  3
ACAD_SCALELIST
350
10C
  3
ACAD_SECTIONVIEWSTYLE
350
219
  3
ACAD_TABLESTYLE
350
7E
  3
ACAD_VISUALSTYLE
350
EF
  3
ACDB_RECOMPOSE_DATA
350
9A08
  3
AcDbVariableDictionary
350
5E
  3
AEC_PROPERTY_SET_DEFS
350
18A3
  0
DICTIONARY
  5
1FF
330
2
100
AcDbDictionary
280
     1
281
     1
  3
ACAD_LAYERFILTERS
360
9234
  3
ACAD_LAYERSTATES
360
200
  3
ACLYDICTIONARY
360
9233
  0
DICTIONARY
  5
13C
330
10
100
AcDbDictionary
280
     1
281
     1
  0
DICTIONARY
  5
6C7
330
6C6
100
AcDbDictionary
280
     1
281
     1
  0
DICTIONARY
  5
916A
330
9169
100
AcDbDictionary
280
     1
281
     1
  0
DICTIONARY
  5
1CE
330
1F
100
AcDbDictionary
280
     1
281
     1
  3
ACAD_SORTENTS
360
254
  0
DICTIONARY
  5
2645
330
2643
100
AcDbDictionary
280
     1
281
     1
  3
ACAD_SORTENTS
360
2646
  0
DICTIONARY
  5
9170
330
916E
100
AcDbDictionary
280
     1
281
     1
  3
ACAD_SORTENTS
360
9171
  0
DICTIONARY
  5
2AF4
330
2AF3
100
AcDbDictionary
280
     1
281
     1
  3
ASDK_XREC_ANNOTATION_SCALE_INFO
360
2AF5
  0
DICTIONARY
  5
2AF8
330
2AF7
100
AcDbDictionary
280
     1
281
     1
  3
ASDK_XREC_ANNOTATION_SCALE_INFO
360
2AF9
  0
IMAGEDEF_REACTOR
  5
2883
330
2882
100
AcDbRasterImageDefReactor
 90
        2
330
2882
  0
DICTIONARY
  5
3D20
330
3D13
100
AcDbDictionary
280
     1
281
     1
  3
ACAD_DIMASSOC
360
3D2A
  0
DICTIONARY
  5
3D38
330
3D2B
100
AcDbDictionary
280
     1
281
     1
  3
ACAD_DIMASSOC
360
3D42
  0
DICTIONARY
  5
3D50
330
3D43
100
AcDbDictionary
280
     1
281
     1
  3
ACAD_DIMASSOC
360
3D5A
  0
DICTIONARY
  5
3D80
330
3D73
100
AcDbDictionary
280
     1
281
     1
  3
ACAD_DIMASSOC
360
3D8A
  0
DICTIONARY
  5
3DB4
330
3DA7
100
AcDbDictionary
280
     1
281
     1
  3
ACAD_DIMASSOC
360
3DBE
  0
DICTIONARY
  5
3DCC
330
3DBF
100
AcDbDictionary
280
     1
281
     1
  3
ACAD_DIMASSOC
360
3DD6
  0
DICTIONARY
  5
5CF0
330
5CE3
100
AcDbDictionary
280
     1
281
     1
  3
ACAD_DIMASSOC
360
5CFA
  0
DICTIONARY
  5
5D08
330
5CFB
100
AcDbDictionary
280
     1
281
     1
  3
ACAD_DIMASSOC
360
5D12
  0
DICTIONARY
  5
5D3C
330
5D2F
100
AcDbDictionary
280
     1
281
     1
  3
ACAD_DIMASSOC
360
5D46
  0
DICTIONARY
  5
5D70
330
5D63
100
AcDbDictionary
280
     1
281
     1
  3
ACAD_DIMASSOC
360
5D7A
  0
DICTIONARY
  5
5DA4
330
5D97
100
AcDbDictionary
280
     1
281
     1
  3
ACAD_DIMASSOC
360
5DAE
  0
DICTIONARY
  5
5DBC
330
5DAF
100
AcDbDictionary
280
     1
281
     1
  3
ACAD_DIMASSOC
360
5DC6
  0
DICTIONARY
  5
5DD4
330
5DC7
100
AcDbDictionary
280
     1
281
     1
  3
ACAD_DIMASSOC
360
5DDE
  0
DICTIONARY
  5
5E02
330
5DF7
100
AcDbDictionary
280
     1
281
     1
  3
ACAD_DIMASSOC
360
5E0A
  0
DICTIONARY
  5
5E2A
330
5E1F
100
AcDbDictionary
280
     1
281
     1
  3
ACAD_DIMASSOC
360
5E32
  0
DICTIONARY
  5
5E40
330
5E33
100
AcDbDictionary
280
     1
281
     1
  3
ACAD_DIMASSOC
360
5E4A
  0
DICTIONARY
  5
5E58
330
5E4B
100
AcDbDictionary
280
     1
281
     1
  3
ACAD_DIMASSOC
360
5E62
  0
DICTIONARY
  5
5E70
330
5E63
100
AcDbDictionary
280
     1
281
     1
  3
ACAD_DIMASSOC
360
5E7A
  0
DICTIONARY
  5
5E88
330
5E7B
100
AcDbDictionary
280
     1
281
     1
  3
ACAD_DIMASSOC
360
5E92
  0
DICTIONARY
  5
5EA0
330
5E93
100
AcDbDictionary
280
     1
281
     1
  3
ACAD_DIMASSOC
360
5EAA
  0
DICTIONARY
  5
5ED1
330
5EC4
100
AcDbDictionary
280
     1
281
     1
  3
ACAD_DIMASSOC
360
5EDB
  0
DICTIONARY
  5
5FC6
330
5FB9
100
AcDbDictionary
280
     1
281
     1
  3
ACAD_DIMASSOC
360
5FD0
  0
DICTIONARY
  5
6007
330
5FFC
100
AcDbDictionary
280
     1
281
     1
  3
ACAD_DIMASSOC
360
600F
  0
IMAGEDEF_REACTOR
  5
98B3
330
98B2
100
AcDbRasterImageDefReactor
 90
        2
330
98B2
  0
IMAGEDEF_REACTOR
  5
98B5
330
98B4
100
AcDbRasterImageDefReactor
 90
        2
330
98B4
  0
DICTIONARY
  5
2B1E
330
2B1D
100
AcDbDictionary
280
     1
281
     1
  3
ASDK_XREC_ANNOTATION_SCALE_INFO
360
2B1F
  0
DICTIONARY
  5
2B21
330
2B20
100
AcDbDictionary
280
     1
281
     1
  3
ASDK_XREC_ANNOTATION_SCALE_INFO
360
2B22
  0
DICTIONARY
  5
2B25
330
2B24
100
AcDbDictionary
280
     1
281
     1
  3
ASDK_XREC_ANNOTATION_SCALE_INFO
360
2B26
  0
DICTIONARY
  5
5FB0
330
5FAF
100
AcDbDictionary
280
     1
281
     1
  3
ASDK_XREC_ANNOTATION_SCALE_INFO
360
5FB1
  0
DICTIONARY
  5
222A
102
{ACAD_REACTORS
330
C
102
}
330
C
100
AcDbDictionary
281
     1
  0
XRECORD
  5
216
102
{ACAD_REACTORS
330
C
102
}
330
C
100
AcDbXrecord
280
     1
300
ACD
300
2015
300
ACD_F_S
  0
DICTIONARY
  5
6B
102
{ACAD_REACTORS
330
C
102
}
330
C
100
AcDbDictionary
281
     1
  0
DICTIONARY
  5
21B
102
{ACAD_REACTORS
330
C
102
}
330
C
100
AcDbDictionary
281
     1
  3
Imperial24
350
188F
  3
Metric50
350
21C
  0
DICTIONARY
  5
D
102
{ACAD_REACTORS
330
C
102
}
330
C
100
AcDbDictionary
281
     1
  0
DICTIONARY
  5
2E0
102
{ACAD_REACTORS
330
C
102
}
330
C
100
AcDbDictionary
281
     1
  3
Andoain
350
883
  3
Astigarraga
350
A1D
  3
Hernani
350
A20
  3
Lasarte_Oria
350
A38
  3
Urnieta
350
A0E
  3
Usurbil
350
2E2
  3
Usurbil_1
350
9835
  0
RASTERVARIABLES
  5
2E1
102
{ACAD_REACTORS
330
C
102
}
330
C
100
AcDbRasterVariables
 90
        0
 70
     1
 71
     1
 72
     1
  0
DICTIONARY
  5
1A
102
{ACAD_REACTORS
330
C
102
}
330
C
100
AcDbDictionary
281
     1
  3
45
350
2B28
  3
Model
350
22
  3
Presentación2
350
D7
  0
DICTIONARY
  5
6A
102
{ACAD_REACTORS
330
C
102
}
330
C
100
AcDbDictionary
281
     1
  3
ByBlock
350
ED
  3
ByLayer
350
EC
  3
Global
350
EE
  0
DICTIONARY
  5
12D
102
{ACAD_REACTORS
330
C
102
}
330
C
100
AcDbDictionary
281
     1
  3
Anotativo
350
13B
  3
Standard
350
12E
  0
DICTIONARY
  5
17
102
{ACAD_REACTORS
330
C
102
}
330
C
100
AcDbDictionary
281
     1
  3
Standard
350
18
  0
DICTIONARY
  5
19
102
{ACAD_REACTORS
330
C
102
}
330
C
100
AcDbDictionary
281
     1
  0
ACDBDICTIONARYWDFLT
  5
E
102
{ACAD_REACTORS
330
C
102
}
330
C
100
AcDbDictionary
281
     1
  3
Normal
350
F
100
AcDbDictionaryWithDefault
340
F
  0
DICTIONARY
  5
10C
102
{ACAD_REACTORS
330
C
102
}
330
C
100
AcDbDictionary
281
     1
  3
A0
350
10D
  3
A1
350
4B1
  3
A2
350
4B2
  3
A3
350
4B3
  3
A4
350
4B4
  3
A5
350
4B5
  3
A6
350
4B6
  3
A7
350
4B7
  3
A8
350
4B8
  3
A9
350
4B9
  3
B0
350
4BA
  3
B1
350
4BB
  3
B2
350
1C8
  3
B3
350
4BC
  3
B4
350
4BD
  3
B5
350
4BE
  3
B6
350
4BF
  3
B7
350
4C0
  0
DICTIONARY
  5
219
102
{ACAD_REACTORS
330
C
102
}
330
C
100
AcDbDictionary
281
     1
  3
Imperial24
350
188E
  3
Metric50
350
21A
  0
DICTIONARY
  5
7E
102
{ACAD_REACTORS
330
C
102
}
330
C
100
AcDbDictionary
281
     1
  3
Standard
350
7F
  0
DICTIONARY
  5
EF
102
{ACAD_REACTORS
330
C
102
}
330
C
100
AcDbDictionary
281
     1
  3
2dWireframe
350
F5
  3
Basic
350
F4
  3
Brighten
350
FB
  3
ColorChange
350
FF
  3
Conceptual
350
F8
  3
Dim
350
FA
  3
EdgeColorOff
350
1E6
  3
Facepattern
350
FE
  3
Flat
350
F0
  3
FlatWithEdges
350
F1
  3
Gouraud
350
F2
  3
GouraudWithEdges
350
F3
  3
Hidden
350
F7
  3
JitterOff
350
1E4
  3
Linepattern
350
FD
  3
OverhangOff
350
1E5
  3
Realistic
350
F9
  3
Shaded
350
1F3
  3
Shaded with edges
350
1F2
  3
Shades of Gray
350
1EF
  3
Sketchy
350
1F0
  3
Thicken
350
FC
  3
Wireframe
350
F6
  3
X-Ray
350
1F1
  0
XRECORD
  5
9A08
102
{ACAD_REACTORS
330
C
102
}
330
C
100
AcDbXrecord
280
     1
 90
        1
330
7F
330
21A
330
21C
330
1353
330
188E
330
188F
330
5CB0
330
5FD2
330
5FDF
330
9658
  0
DICTIONARY
  5
5E
102
{ACAD_REACTORS
330
C
102
}
330
C
100
AcDbDictionary
281
     1
  3
CANNOSCALE
350
146
  3
CMLEADERSTYLE
350
145
  3
CTABLESTYLE
350
84
  3
CVIEWDETAILSTYLE
350
227
  3
CVIEWSECTIONSTYLE
350
228
  3
DIMASSOC
350
5F
  3
HIDETEXT
350
63
  3
LAYEREVAL
350
1AE
  3
LAYERNOTIFY
350
1AF
  0
DICTIONARY
  5
18A3
102
{ACAD_REACTORS
330
C
102
}
330
C
100
AcDbDictionary
281
     1
  0
DICTIONARY
  5
9234
102
{ACAD_REACTORS
330
1FF
102
}
330
1FF
100
AcDbDictionary
281
     1
  0
DICTIONARY
  5
200
102
{ACAD_REACTORS
330
1FF
102
}
330
1FF
100
AcDbDictionary
281
     1
  0
DICTIONARY
  5
9233
102
{ACAD_REACTORS
330
1FF
102
}
330
1FF
100
AcDbDictionary
281
     1
  3
*A1
350
9235
  3
*A2
350
9236
  3
*A3
350
9237
  3
*A4
350
9238
  3
*A5
350
9239
  3
*A6
350
923A
  3
*A7
350
923B
  3
*A8
350
923C
1001
ACAD
1000
<All
  0
SORTENTSTABLE
  5
254
102
{ACAD_REACTORS
330
1CE
102
}
330
1CE
100
AcDbSortentsTable
330
1F
331
191D
  5
235B
331
19AB
  5
2482
331
2870
  5
295D
331
137F
  5
14AF
331
136A
  5
1498
331
28B4
  5
299E
331
289F
  5
2988
331
2884
  5
2965
331
13C6
  5
18C3
331
138B
  5
162D
331
75FB
  5
76A6
331
191C
  5
235A
331
19AA
  5
2481
331
137E
  5
14AE
331
5E33
  5
6623
331
13F7
  5
191B
331
1369
  5
1497
331
28B3
  5
299C
331
13DA
  5
18F6
331
139F
  5
17D3
331
5D2F
  5
661C
331
289E
  5
2987
331
13C5
  5
18C2
331
1357
  5
1485
331
138A
  5
162C
331
75FA
  5
76A5
331
9658
  5
9670
331
191B
  5
2359
331
19A9
  5
247C
331
13B0
  5
18B6
331
137D
  5
14AD
331
13F6
  5
1907
331
198F
  5
2454
331
28B2
  5
299B
331
2897
  5
2980
331
139E
  5
17D1
331
5FB9
  5
662B
331
192F
  5
23A2
331
289D
  5
2986
331
2882
  5
2964
331
13C4
  5
18C1
331
1356
  5
1484
331
1389
  5
162B
331
75F9
  5
76A4
331
5CBE
  5
6617
331
9657
  5
966D
331
140F
  5
1934
331
19A8
  5
247B
331
137C
  5
14AC
331
13F5
  5
1906
331
3DBF
  5
5E1F
331
198E
  5
2453
331
28B1
  5
299A
331
2896
  5
297F
331
13D8
  5
18F5
331
139D
  5
16A5
331
5E1F
  5
6622
331
192E
  5
23A1
331
1A5C
  5
70C
331
289C
  5
2985
331
2881
  5
2963
331
13C3
  5
18C0
331
1355
  5
1483
331
1388
  5
1628
331
75F8
  5
12F1
331
3D43
  5
5DC7
331
140E
  5
1933
331
5FA6
  5
12B5
331
194C
  5
23FC
331
137B
  5
14AB
331
286F
  5
295C
331
13F4
  5
1905
331
198D
  5
2452
331
28B0
  5
2999
331
2895
  5
297E
331
13D7
  5
18F4
331
139C
  5
16A4
331
192D
  5
239F
331
289B
  5
2984
331
2880
  5
2962
331
13C2
  5
18BF
331
1354
  5
1482
331
1387
  5
1622
331
140D
  5
1932
331
194B
  5
23FB
331
137A
  5
14AA
331
28CC
  5
29AD
331
13F3
  5
1904
331
5FD2
  5
662D
331
198C
  5
2451
331
28AF
  5
2998
331
2894
  5
297D
331
13D6
  5
18F2
331
139B
  5
1699
331
192C
  5
239E
331
289A
  5
2983
331
1386
  5
1621
331
13C1
  5
18BE
331
1353
  5
1481
331
5E4B
  5
6624
331
140C
  5
1931
331
194A
  5
23FA
331
1379
  5
14A9
331
28CB
  5
29AC
331
13AF
  5
18B5
331
13F2
  5
1903
331
5FD1
  5
662C
331
198B
  5
2450
331
28AE
  5
2997
331
2893
  5
297C
331
139A
  5
1698
331
13D5
  5
18F1
331
2899
  5
2982
331
1385
  5
1602
331
13C0
  5
18BD
331
5D63
  5
661D
331
140B
  5
1930
331
1949
  5
23F9
331
19A7
  5
2478
331
1378
  5
14A8
331
28CA
  5
29AB
331
13AE
  5
18B4
331
13F1
  5
1902
331
5CE3
  5
661A
331
198A
  5
2437
331
28AD
  5
2996
331
2892
  5
297B
331
13D4
  5
18F0
331
1366
  5
1496
331
192A
  5
239B
331
2898
  5
2981
331
1384
  5
1559
331
75F7
  5
12F0
331
5FFC
  5
662F
331
140A
  5
192F
331
1948
  5
23F7
331
19A6
  5
245F
331
28C9
  5
29AA
331
13AD
  5
18B2
331
13F0
  5
1901
331
28AC
  5
2995
331
2891
  5
297A
331
1398
  5
1697
331
13D3
  5
18EF
331
1365
  5
1495
331
1929
  5
2389
331
1383
  5
14C0
331
287F
  5
2961
331
75F6
  5
12EF
331
1409
  5
192E
331
19A5
  5
245D
331
13AC
  5
18B1
331
13EF
  5
18FF
331
1988
  5
2436
331
28AB
  5
2994
331
2890
  5
2979
331
1397
  5
1692
331
13D2
  5
18EE
331
1364
  5
1494
331
1928
  5
2388
331
3DA7
  5
5DAF
331
1382
  5
14B1
331
124F
  5
136B
331
287E
  5
2960
331
75F5
  5
12EE
331
1408
  5
192D
331
19A4
  5
245C
331
28BF
  5
29A9
331
13AB
  5
18AF
331
13EE
  5
18FE
331
1987
  5
2435
331
28AA
  5
2993
331
13D1
  5
18ED
331
1363
  5
1493
331
5CCB
  5
6618
331
5E63
  5
6625
331
5DC7
  5
6620
331
1927
  5
237B
331
1381
  5
14B0
331
124E
  5
136A
331
13BF
  5
18BC
331
1407
  5
192C
331
19A3
  5
245B
331
28BE
  5
29A8
331
13AA
  5
18AE
331
1377
  5
14A7
331
13ED
  5
18FB
331
1986
  5
2434
331
1A89
  5
6F2
331
28A9
  5
2992
331
1395
  5
1691
331
13D0
  5
18EC
331
1362
  5
1491
331
1926
  5
237A
331
13BE
  5
18BB
331
5CFB
  5
661B
331
5E93
  5
6627
331
1406
  5
192A
331
19A2
  5
2459
331
28BD
  5
29A7
331
13A9
  5
18AD
331
1376
  5
14A6
331
13EC
  5
18FA
331
1985
  5
2433
331
193A
  5
23D3
331
28A8
  5
2991
331
1394
  5
168F
331
1361
  5
1490
331
1925
  5
2377
331
13BD
  5
18BA
331
1405
  5
1929
331
5F9D
  5
662A
331
19A1
  5
2458
331
28BC
  5
29A6
331
13A8
  5
18AC
331
1375
  5
14A5
331
13EB
  5
18F9
331
1984
  5
2424
331
1939
  5
23D1
331
1393
  5
168E
331
1360
  5
148F
331
288F
  5
2978
331
7606
  5
7746
331
1924
  5
2376
331
13FF
  5
1923
331
1404
  5
1928
331
19A0
  5
2457
331
28BB
  5
29A5
331
13A7
  5
18AB
331
1374
  5
14A2
331
1983
  5
2423
331
1938
  5
23CD
331
1392
  5
1688
331
135F
  5
148E
331
288E
  5
2977
331
7605
  5
7732
331
1923
  5
2375
331
13BB
  5
18B9
331
13FE
  5
1922
331
1403
  5
1927
331
5F9B
  5
12AC
331
199F
  5
2456
331
28BA
  5
29A4
331
13A6
  5
18AA
331
1373
  5
14A1
331
5E7B
  5
6626
331
1937
  5
23CB
331
1391
  5
1687
331
135E
  5
148D
331
288D
  5
2976
331
13CF
  5
18DC
331
7604
  5
76F1
331
1922
  5
2373
331
13FD
  5
1921
331
13BA
  5
18B8
331
1402
  5
1926
331
199E
  5
23F6
331
28B9
  5
29A3
331
13A5
  5
18A9
331
1372
  5
14A0
331
1936
  5
23C9
331
1390
  5
1681
331
135D
  5
148C
331
28A7
  5
2990
331
288C
  5
296D
331
13CE
  5
18DB
331
7603
  5
76F0
331
5EAB
  5
6628
331
1921
  5
2372
331
90EA
  5
919D
331
13FC
  5
1920
331
13B9
  5
18B7
331
1401
  5
1925
331
5DAF
  5
661F
331
3D73
  5
5DF7
331
199D
  5
23F5
331
28B8
  5
29A2
331
13A4
  5
1877
331
1935
  5
23C8
331
135C
  5
148A
331
28A6
  5
298F
331
288B
  5
296C
331
13CD
  5
18DA
331
7602
  5
76EA
331
1920
  5
2371
331
13FB
  5
191F
331
5DF7
  5
6621
331
1400
  5
1924
331
199C
  5
23F4
331
13A3
  5
1839
331
1370
  5
149F
331
5CD8
  5
6619
331
3D13
  5
5D2F
331
1934
  5
23AC
331
1A6D
  5
70B
331
135B
  5
1489
331
28A5
  5
298E
331
288A
  5
296B
331
13CC
  5
18D9
331
7601
  5
76D1
331
1A18
  5
70A
331
13FA
  5
191E
331
199B
  5
23D9
331
136F
  5
149E
331
1933
  5
23AB
331
135A
  5
1488
331
28A4
  5
298D
331
2889
  5
296A
331
13CB
  5
18CB
331
7600
  5
76CF
331
1413
  5
1938
331
13F9
  5
191D
331
5CB0
  5
6616
331
199A
  5
23D8
331
13A1
  5
17F2
331
136E
  5
149D
331
3D11
  5
5D63
331
5D97
  5
661E
331
5EC4
  5
6629
331
1932
  5
23AA
331
1359
  5
1487
331
28A3
  5
298C
331
2888
  5
2969
331
138F
  5
1680
331
13CA
  5
18C9
331
75FF
  5
76AA
331
1412
  5
1937
331
13F8
  5
191C
331
1999
  5
2421
331
136D
  5
149B
331
28B7
  5
29A1
331
13DE
  5
18F8
331
1931
  5
23A7
331
1358
  5
1486
331
28A2
  5
298B
331
2887
  5
2968
331
13C9
  5
18C8
331
138E
  5
167F
331
75FE
  5
76A9
331
1411
  5
1936
331
191F
  5
2362
331
2872
  5
295F
331
1945
  5
23D7
331
1998
  5
2455
331
136C
  5
149A
331
28B6
  5
29A0
331
1930
  5
23A4
331
1966
  5
2422
331
28A1
  5
298A
331
2886
  5
2967
331
13C8
  5
18C5
331
138D
  5
1670
331
75FD
  5
76A8
331
1410
  5
1935
331
191E
  5
235F
331
2871
  5
295E
331
3D2B
  5
5D97
331
136B
  5
1499
331
28B5
  5
299F
331
13DC
  5
18F7
331
28A0
  5
2989
331
2885
  5
2966
331
13C7
  5
18C4
331
138C
  5
1634
331
75FC
  5
76A7
  0
SORTENTSTABLE
  5
2646
102
{ACAD_REACTORS
330
2645
102
}
330
2645
100
AcDbSortentsTable
330
2643
  0
SORTENTSTABLE
  5
9171
102
{ACAD_REACTORS
330
9170
102
}
330
9170
100
AcDbSortentsTable
330
916E
  0
XRECORD
  5
2AF5
102
{ACAD_REACTORS
330
2AF4
102
}
330
2AF4
100
AcDbXrecord
280
     1
 90
        1
340
10D
  0
XRECORD
  5
2AF9
102
{ACAD_REACTORS
330
2AF8
102
}
330
2AF8
100
AcDbXrecord
280
     1
 90
        1
340
10D
  0
DIMASSOC
  5
3D2A
102
{ACAD_REACTORS
330
3D20
102
}
330
3D20
100
AcDbDimAssoc
330
3D13
 90
        3
 70
     0
 71
     0
  1
AcDbOsnapPointRef
 72
    13
331
136B
 73
     2
 91
        0
 40
0.0
 10
0.0
 20
0.0
 30
2.000000000000000E+50
 75
     0
  1
AcDbOsnapPointRef
 72
     8
331
1360
 73
     2
 91
        0
 40
0.5714285714286937
 10
0.0
 20
0.0
 30
0.0
 75
     1
  1
AcDbOsnapPointRef
 72
    13
331
136B
 73
     2
 91
        0
 40
0.0
 10
0.0
 20
0.0
 30
2.000000000000000E+50
 75
     0
  0
DIMASSOC
  5
3D42
102
{ACAD_REACTORS
330
3D38
102
}
330
3D38
100
AcDbDimAssoc
330
3D2B
 90
        3
 70
     0
 71
     0
  1
AcDbOsnapPointRef
 72
     1
331
1390
 73
     2
 91
        0
 40
1.0
 10
0.0
 20
0.0
 30
2.000000000000000E+50
 75
     0
  1
AcDbOsnapPointRef
 72
     1
331
139D
 73
     2
 91
        0
 40
1.0
 10
0.0
 20
0.0
 30
2.000000000000000E+50
 75
     0
  0
DIMASSOC
  5
3D5A
102
{ACAD_REACTORS
330
3D50
102
}
330
3D50
100
AcDbDimAssoc
330
3D43
 90
        3
 70
     0
 71
     0
  1
AcDbOsnapPointRef
 72
     1
331
1390
 73
     2
 91
        0
 40
1.0
 10
0.0
 20
0.0
 30
2.000000000000000E+50
 75
     0
  1
AcDbOsnapPointRef
 72
     1
331
13A9
 73
     2
 91
        0
 40
1.0
 10
0.0
 20
0.0
 30
2.000000000000000E+50
 75
     0
  0
DIMASSOC
  5
3D8A
102
{ACAD_REACTORS
330
3D80
102
}
330
3D80
100
AcDbDimAssoc
330
3D73
 90
        3
 70
     0
 71
     0
  1
AcDbOsnapPointRef
 72
    13
331
138C
 73
     2
 91
        0
 40
0.0
 10
0.0
 20
0.0
 30
2.000000000000000E+50
 75
     0
  1
AcDbOsnapPointRef
 72
     1
331
138C
 73
     2
 91
        0
 40
1.0
 10
0.0
 20
0.0
 30
2.000000000000000E+50
 75
     0
  0
DIMASSOC
  5
3DBE
102
{ACAD_REACTORS
330
3DB4
102
}
330
3DB4
100
AcDbDimAssoc
330
3DA7
 90
        3
 70
     0
 71
     0
  1
AcDbOsnapPointRef
 72
    13
331
139D
 73
     2
 91
        0
 40
0.0
 10
0.0
 20
0.0
 30
2.000000000000000E+50
 75
     0
  1
AcDbOsnapPointRef
 72
     1
331
139D
 73
     2
 91
        0
 40
1.0
 10
0.0
 20
0.0
 30
2.000000000000000E+50
 75
     0
  0
DIMASSOC
  5
3DD6
102
{ACAD_REACTORS
330
3DCC
102
}
330
3DCC
100
AcDbDimAssoc
330
3DBF
 90
        3
 70
     0
 71
     0
  1
AcDbOsnapPointRef
 72
     1
331
1390
 73
     2
 91
        0
 40
1.0
 10
0.0
 20
0.0
 30
2.000000000000000E+50
 75
     0
  1
AcDbOsnapPointRef
 72
     2
331
138D
 73
     2
 91
        0
 40
0.6923076923087148
 10
0.0
 20
0.0
 30
0.0
 75
     0
  0
DIMASSOC
  5
5CFA
102
{ACAD_REACTORS
330
5CF0
102
}
330
5CF0
100
AcDbDimAssoc
330
5CE3
 90
        3
 70
     0
 71
     0
  1
AcDbOsnapPointRef
 72
     1
331
13C4
 73
     2
 91
        4
 40
1.0
 10
0.0
 20
0.0
 30
2.000000000000000E+50
 75
     0
  1
AcDbOsnapPointRef
 72
     1
331
13A7
 73
     2
 91
        4
 40
1.0
 10
0.0
 20
0.0
 30
2.000000000000000E+50
 75
     0
  0
DIMASSOC
  5
5D12
102
{ACAD_REACTORS
330
5D08
102
}
330
5D08
100
AcDbDimAssoc
330
5CFB
 90
        2
 70
     0
 71
     0
  1
AcDbOsnapPointRef
 72
     2
331
136A
 73
     2
 91
        0
 40
0.6023469885766641
 10
0.0
 20
0.0
 30
0.0
 75
     0
  0
DIMASSOC
  5
5D46
102
{ACAD_REACTORS
330
5D3C
102
}
330
5D3C
100
AcDbDimAssoc
330
5D2F
 90
        3
 70
     0
 71
     0
  1
AcDbOsnapPointRef
 72
     6
331
135B
 73
     2
 91
        0
 40
1.11428571428561
 10
0.0
 20
0.0
 30
0.0
332
136A
 74
     2
 92
        0
 75
     0
  1
AcDbOsnapPointRef
 72
     6
331
135A
 73
     2
 91
        0
 40
1.11428571428561
 10
0.0
 20
0.0
 30
0.0
332
136A
 74
     2
 92
        0
 75
     0
  0
DIMASSOC
  5
5D7A
102
{ACAD_REACTORS
330
5D70
102
}
330
5D70
100
AcDbDimAssoc
330
5D63
 90
        3
 70
     0
 71
     0
  1
AcDbOsnapPointRef
 72
     6
331
1359
 73
     2
 91
        0
 40
1.11428571428561
 10
0.0
 20
0.0
 30
0.0
332
136A
 74
     2
 92
        0
 75
     0
  1
AcDbOsnapPointRef
 72
     6
331
1358
 73
     2
 91
        0
 40
1.11428571428561
 10
0.0
 20
0.0
 30
0.0
332
136A
 74
     2
 92
        0
 75
     0
  0
DIMASSOC
  5
5DAE
102
{ACAD_REACTORS
330
5DA4
102
}
330
5DA4
100
AcDbDimAssoc
330
5D97
 90
        3
 70
     0
 71
     0
  1
AcDbOsnapPointRef
 72
     6
331
1357
 73
     2
 91
        0
 40
1.11428571428561
 10
0.0
 20
0.0
 30
0.0
332
136A
 74
     2
 92
        0
 75
     0
  1
AcDbOsnapPointRef
 72
     6
331
13D3
 73
     2
 91
        0
 40
1.799999999999272
 10
0.0
 20
0.0
 30
0.0
332
136A
 74
     2
 92
        0
 75
     0
  0
DIMASSOC
  5
5DC6
102
{ACAD_REACTORS
330
5DBC
102
}
330
5DBC
100
AcDbDimAssoc
330
5DAF
 90
        2
 70
     0
 71
     0
  1
AcDbOsnapPointRef
 72
    13
331
136A
 73
     2
 91
        0
 40
0.0242490736142079
 10
0.0
 20
0.0
 30
2.000000000000000E+50
 75
     0
  0
DIMASSOC
  5
5DDE
102
{ACAD_REACTORS
330
5DD4
102
}
330
5DD4
100
AcDbDimAssoc
330
5DC7
 90
        2
 70
     0
 71
     0
  1
AcDbOsnapPointRef
 72
     1
331
13DA
 73
     2
 91
        0
 40
0.9999999999999998
 10
0.0
 20
0.0
 30
2.000000000000000E+50
 75
     0
  0
DIMASSOC
  5
5E0A
102
{ACAD_REACTORS
330
5E02
102
}
330
5E02
100
AcDbDimAssoc
330
5DF7
 90
        3
 70
     0
 71
     0
  1
AcDbOsnapPointRef
 72
     2
331
1364
 73
     2
 91
        0
 40
0.5
 10
0.0
 20
0.0
 30
0.0
 75
     0
  1
AcDbOsnapPointRef
 72
     8
331
1381
 73
     2
 91
        0
 40
0.6900000000000091
 10
0.0
 20
0.0
 30
0.0
 75
     1
  1
AcDbOsnapPointRef
 72
     2
331
1364
 73
     2
 91
        0
 40
0.5
 10
0.0
 20
0.0
 30
0.0
 75
     0
  0
DIMASSOC
  5
5E32
102
{ACAD_REACTORS
330
5E2A
102
}
330
5E2A
100
AcDbDimAssoc
330
5E1F
 90
        3
 70
     0
 71
     0
  1
AcDbOsnapPointRef
 72
     2
331
135F
 73
     2
 91
        0
 40
0.5
 10
0.0
 20
0.0
 30
0.0
 75
     0
  1
AcDbOsnapPointRef
 72
     8
331
136F
 73
     2
 91
        0
 40
0.6272727272727355
 10
0.0
 20
0.0
 30
0.0
 75
     1
  1
AcDbOsnapPointRef
 72
     0
 40
0.0
 10
2504.748964818027
 20
863.9244778670613
 30
0.0
 75
     0
  0
DIMASSOC
  5
5E4A
102
{ACAD_REACTORS
330
5E40
102
}
330
5E40
100
AcDbDimAssoc
330
5E33
 90
        1
 70
     0
 71
     0
  1
AcDbOsnapPointRef
 72
    13
331
13AB
 73
     2
 91
        0
 40
0.0
 10
0.0
 20
0.0
 30
2.000000000000000E+50
 75
     0
  0
DIMASSOC
  5
5E62
102
{ACAD_REACTORS
330
5E58
102
}
330
5E58
100
AcDbDimAssoc
330
5E4B
 90
        2
 70
     0
 71
     0
  1
AcDbOsnapPointRef
 72
    13
331
13DC
 73
     2
 91
        0
 40
0.0
 10
0.0
 20
0.0
 30
2.000000000000000E+50
 75
     0
  0
DIMASSOC
  5
5E7A
102
{ACAD_REACTORS
330
5E70
102
}
330
5E70
100
AcDbDimAssoc
330
5E63
 90
        3
 70
     0
 71
     0
  1
AcDbOsnapPointRef
 72
    13
331
1412
 73
     2
 91
        0
 40
0.0
 10
0.0
 20
0.0
 30
2.000000000000000E+50
 75
     0
  1
AcDbOsnapPointRef
 72
     1
331
1411
 73
     2
 91
        0
 40
1.0
 10
0.0
 20
0.0
 30
2.000000000000000E+50
 75
     0
  0
DIMASSOC
  5
5E92
102
{ACAD_REACTORS
330
5E88
102
}
330
5E88
100
AcDbDimAssoc
330
5E7B
 90
        3
 70
     0
 71
     0
  1
AcDbOsnapPointRef
 72
     1
331
1412
 73
     2
 91
        0
 40
1.0
 10
0.0
 20
0.0
 30
2.000000000000000E+50
 75
     0
  1
AcDbOsnapPointRef
 72
     1
331
13FE
 73
     2
 91
        0
 40
1.0
 10
0.0
 20
0.0
 30
2.000000000000000E+50
 75
     0
  0
DIMASSOC
  5
5EAA
102
{ACAD_REACTORS
330
5EA0
102
}
330
5EA0
100
AcDbDimAssoc
330
5E93
 90
        3
 70
     0
 71
     0
  1
AcDbOsnapPointRef
 72
     6
331
124F
 73
     2
 91
        0
 40
1.316577863343262
 10
0.0
 20
0.0
 30
0.0
332
13D8
 74
     2
 92
        0
 75
     0
  1
AcDbOsnapPointRef
 72
     6
331
13AF
 73
     2
 91
        0
 40
1.091554245738393
 10
0.0
 20
0.0
 30
0.0
332
1411
 74
     2
 92
        0
 75
     0
  0
DIMASSOC
  5
5EDB
102
{ACAD_REACTORS
330
5ED1
102
}
330
5ED1
100
AcDbDimAssoc
330
5EC4
 90
        2
 70
     0
 71
     0
  1
AcDbOsnapPointRef
 72
     8
331
136B
 73
     2
 91
        0
 40
0.1851851851850292
 10
0.0
 20
0.0
 30
0.0
 75
     1
  1
AcDbOsnapPointRef
 72
     0
 40
0.0
 10
2503.498964818027
 20
869.0094778670614
 30
0.0
 75
     0
  0
DIMASSOC
  5
5FD0
102
{ACAD_REACTORS
330
5FC6
102
}
330
5FC6
100
AcDbDimAssoc
330
5FB9
 90
        3
 70
     0
 71
     0
  1
AcDbOsnapPointRef
 72
     1
331
13D0
 73
     2
 91
        4
 40
1.0
 10
0.0
 20
0.0
 30
2.000000000000000E+50
 75
     0
  1
AcDbOsnapPointRef
 72
     1
331
13CF
 73
     2
 91
        4
 40
1.0
 10
0.0
 20
0.0
 30
2.000000000000000E+50
 75
     0
  0
DIMASSOC
  5
600F
102
{ACAD_REACTORS
330
6007
102
}
330
6007
100
AcDbDimAssoc
330
5FFC
 90
        3
 70
     0
 71
     0
  1
AcDbOsnapPointRef
 72
     1
331
140F
 73
     2
 91
        0
 40
0.9999999999999998
 10
0.0
 20
0.0
 30
2.000000000000000E+50
 75
     0
  1
AcDbOsnapPointRef
 72
     8
331
5FD1
 73
     2
 91
       52
 40
0.6738973359767375
 10
0.0
 20
0.0
 30
0.0
 75
     1
  1
AcDbOsnapPointRef
 72
     1
331
140F
 73
     2
 91
        0
 40
0.9999999999999998
 10
0.0
 20
0.0
 30
2.000000000000000E+50
 75
     0
  0
XRECORD
  5
2B1F
102
{ACAD_REACTORS
330
2B1E
102
}
330
2B1E
100
AcDbXrecord
280
     1
 90
        1
340
10D
  0
XRECORD
  5
2B22
102
{ACAD_REACTORS
330
2B21
102
}
330
2B21
100
AcDbXrecord
280
     1
 90
        1
340
10D
  0
XRECORD
  5
2B26
102
{ACAD_REACTORS
330
2B25
102
}
330
2B25
100
AcDbXrecord
280
     1
 90
        1
340
4B1
  0
XRECORD
  5
5FB1
102
{ACAD_REACTORS
330
5FB0
102
}
330
5FB0
100
AcDbXrecord
280
     1
 90
        1
340
10D
  0
ACDBDETAILVIEWSTYLE
  5
188F
102
{ACAD_XDICTIONARY
360
22E2
102
}
102
{ACAD_REACTORS
330
21B
102
}
330
21B
100
AcDbModelDocViewStyle
 70
     0
  3
Imperial24
290
     0
100
AcDbDetailViewStyle
 70
     0
 71
     0
 90
        3
 71
     1
340
11
 62
   256
 40
0.24
340
0
 62
   256
 40
0.24
300

 40
0.36
280
     3
 71
     2
340
16
 90
       25
 62
   256
 71
     3
340
11
 62
   256
 40
0.24
 90
        1
 40
0.75
 90
        1
300
%<\AcVar ViewType \f "%tc1">% %<\AcVar ViewDetailId>%\PESCALA %<\AcVar ViewScale \f "%sn">%
 71
     4
340
16
 90
       25
 62
   256
340
16
 90
       25
 62
   256
280
     0
  0
ACDBDETAILVIEWSTYLE
  5
21C
102
{ACAD_XDICTIONARY
360
236
102
}
102
{ACAD_REACTORS
330
21B
102
}
330
21B
100
AcDbModelDocViewStyle
 70
     0
  3
Metric50
290
     0
100
AcDbDetailViewStyle
 70
     0
 71
     0
 90
        3
 71
     1
340
11
 62
   256
 40
5.0
340
0
 62
   256
 40
5.0
300

 40
0.0
280
     1
 71
     2
340
16
 90
       25
 62
   256
 71
     3
340
11
 62
   256
 40
5.0
 90
        0
 40
15.0
 90
        1
300
%<\AcVar ViewDetailId>% (%<\AcVar ViewScale \f "%sn">%)
 71
     4
340
16
 90
       25
 62
   256
340
16
 90
       25
 62
   256
280
     0
  0
IMAGEDEF
  5
883
102
{ACAD_REACTORS
330
2E0
102
}
330
2E0
100
AcDbRasterImageDef
 90
        0
  1
\\zerbitzaria\pertsonalak$\guztion1\Downloads\Andoain.jpg
 10
400.0
 20
400.0
 11
0.2645833333333333
 21
0.2645833333333333
280
     1
281
     5
  0
IMAGEDEF
  5
A1D
102
{ACAD_REACTORS
330
2E0
102
}
330
2E0
100
AcDbRasterImageDef
 90
        0
  1
\\zerbitzaria\pertsonalak$\guztion1\Downloads\Astigarraga.jpg
 10
306.0
 20
278.0
 11
0.2645833333333333
 21
0.2645833333333333
280
     1
281
     5
  0
IMAGEDEF
  5
A20
102
{ACAD_REACTORS
330
2E0
102
}
330
2E0
100
AcDbRasterImageDef
 90
        0
  1
\\zerbitzaria\pertsonalak$\guztion1\Downloads\Hernani.jpg
 10
512.0
 20
512.0
 11
0.2645833333333333
 21
0.2645833333333333
280
     1
281
     5
  0
IMAGEDEF
  5
A38
102
{ACAD_REACTORS
330
2E0
102
}
330
2E0
100
AcDbRasterImageDef
 90
        0
  1
\\zerbitzaria\pertsonalak$\guztion1\Downloads\Lasarte_Oria.jpg
 10
306.0
 20
278.0
 11
0.2645833333333333
 21
0.2645833333333333
280
     1
281
     5
  0
IMAGEDEF
  5
A0E
102
{ACAD_REACTORS
330
2E0
102
}
330
2E0
100
AcDbRasterImageDef
 90
        0
  1
\\zerbitzaria\pertsonalak$\guztion1\Downloads\Urnieta.jpg
 10
512.0
 20
686.0
 11
0.2645833333333333
 21
0.2645833333333333
280
     1
281
     5
  0
IMAGEDEF
  5
2E2
102
{ACAD_REACTORS
330
2E0
330
2883
330
98B3
102
}
330
2E0
100
AcDbRasterImageDef
 90
        0
  1
\\zerbitzaria\pertsonalak$\guztion1\Downloads\Usurbil.jpg
 10
151.0
 20
177.0
 11
0.2645833333333333
 21
0.2645833333333333
280
     1
281
     5
  0
IMAGEDEF
  5
9835
102
{ACAD_REACTORS
330
2E0
330
98B5
102
}
330
2E0
100
AcDbRasterImageDef
 90
        0
  1
G:\Udalerriak\US_Usurbil\Usurbil.jpg
 10
151.0
 20
177.0
 11
0.2645833333333333
 21
0.2645833333333333
280
     1
281
     5
  0
LAYOUT
  5
2B28
102
{ACAD_REACTORS
330
1A
102
}
330
1A
100
AcDbPlotSettings
  1

  2
DWG To PDF.pc3
  4
UserDefinedMetric (210.00 x 297.00mm)
  6

 40
0.0
 41
0.0
 42
0.0
 43
0.0
 44
210.0
 45
297.0
 46
0.0
 47
0.0000000000000284
 48
-0.0018762920232689
 49
0.2812602170592981
140
0.2081237079767311
141
0.5782602170592981
142
1000.0
143
1.0
 70
   676
 72
     1
 73
     0
 74
     4
  7
Guztion_Planoak_pdf.ctb
 75
     0
147
1000.0
 76
     0
 77
     2
 78
   300
148
0.0018762920232689
149
-0.2812602170592981
100
AcDbLayout
  1
45
 70
     1
 71
     1
 10
-0.0018762920232689
 20
0.2812602170592981
 11
0.2081237079767311
 21
0.5782602170592981
 12
0.0
 22
0.0
 32
0.0
 14
-0.0018762920232689
 24
0.2812602170592981
 34
0.0
 15
231.3
 25
175.5
 35
0.0
146
0.0
 13
0.0
 23
0.0
 33
0.0
 16
1.0
 26
0.0
 36
0.0
 17
0.0
 27
1.0
 37
0.0
 76
     0
330
2B1B
331
2B24
1001
ACAD_PSEXT
1000
DWG To PDF.pc3
1000
DWG To PDF
1000
Archivo
1000

1070
     0
  0
LAYOUT
  5
22
102
{ACAD_XDICTIONARY
360
205
102
}
102
{ACAD_REACTORS
330
1A
102
}
330
1A
100
AcDbPlotSettings
  1

  2
DWG To PDF.pc3
  4
UserDefinedMetric (210.00 x 297.00mm)
  6

 40
0.0
 41
0.0
 42
0.0
 43
0.0
 44
210.0
 45
297.0
 46
0.0
 47
87.12725628375705
 48
-64.87770755501651
 49
-10.86078803921714
140
-49.28250067704721
141
-1.74535342089905
142
1.0
143
0.0742628898950919
 70
 11956
 72
     1
 73
     0
 74
     4
  7
Guztion_Planoak_pdf.ctb
 75
     0
147
13.46567580944747
 76
     0
 77
     2
 78
   300
148
64.87770755501651
149
10.86078803921714
100
AcDbLayout
  1
Model
 70
     1
 71
     0
 10
0.0
 20
0.0
 11
12.0
 21
9.0
 12
0.0
 22
0.0
 32
0.0
 14
0.0
 24
0.0
 34
0.0
 15
0.0
 25
0.0
 35
0.0
146
0.0
 13
0.0
 23
0.0
 33
0.0
 16
1.0
 26
0.0
 36
0.0
 17
0.0
 27
1.0
 37
0.0
 76
     0
330
1F
331
EA
1001
ACAD_PSEXT
1000
DWG To PDF.pc3
1000
DWG To PDF
1000
Archivo
1000

1070
     0
  0
LAYOUT
  5
D7
102
{ACAD_REACTORS
330
1A
102
}
330
1A
100
AcDbPlotSettings
  1

  2
none_device
  4
ISO_A4_(210.00_x_297.00_MM)
  6

 40
7.5
 41
20.0
 42
7.5
 43
20.0
 44
210.0
 45
297.0
 46
0.0
 47
0.0
 48
0.0
 49
0.0
140
0.0
141
0.0
142
1.0
143
1.0
 70
   688
 72
     1
 73
     1
 74
     5
  7
Guztion_Planoak_pdf.ctb
 75
    16
147
1.0
 76
     0
 77
     2
 78
   300
148
0.0
149
0.0
100
AcDbLayout
  1
Presentación2
 70
     1
 71
     2
 10
-20.0
 20
-7.5
 11
277.0
 21
202.5
 12
0.0
 22
0.0
 32
0.0
 14
25.69999999999999
 24
19.5
 34
0.0
 15
231.3
 25
175.5
 35
0.0
146
0.0
 13
0.0
 23
0.0
 33
0.0
 16
1.0
 26
0.0
 36
0.0
 17
0.0
 27
1.0
 37
0.0
 76
     0
330
D6
331
2AF3
1001
ACAD_PSEXT
1000
Ninguno
1000
Ninguno
1000
No aplicable
1000
La presentación no se trazará a menos que se seleccione un nuevo nombre de configuración de trazador.
1070
     0
  0
MATERIAL
  5
ED
102
{ACAD_XDICTIONARY
360
1F9
102
}
102
{ACAD_REACTORS
330
6A
102
}
330
6A
100
AcDbMaterial
  1
ByBlock
 94
       63
  0
MATERIAL
  5
EC
102
{ACAD_XDICTIONARY
360
1F7
102
}
102
{ACAD_REACTORS
330
6A
102
}
330
6A
100
AcDbMaterial
  1
ByLayer
 94
       63
  0
MATERIAL
  5
EE
102
{ACAD_XDICTIONARY
360
173
102
}
102
{ACAD_REACTORS
330
6A
102
}
330
6A
100
AcDbMaterial
  1
Global
 43
0.0007999999797903
 43
0.0
 43
0.0
 43
0.0
 43
0.0
 43
0.0007999999797903
 43
0.0
 43
0.0
 43
0.0
 43
0.0
 43
1.0
 43
0.0
 43
0.0
 43
0.0
 43
0.0
 43
1.0
 49
0.0007999999797903
 49
0.0
 49
0.0
 49
0.0
 49
0.0
 49
0.0007999999797903
 49
0.0
 49
0.0
 49
0.0
 49
0.0
 49
1.0
 49
0.0
 49
0.0
 49
0.0
 49
0.0
 49
1.0
142
0.0007999999797903
142
0.0
142
0.0
142
0.0
142
0.0
142
0.0007999999797903
142
0.0
142
0.0
142
0.0
142
0.0
142
1.0
142
0.0
142
0.0
142
0.0
142
0.0
142
1.0
144
0.0007999999797903
144
0.0
144
0.0
144
0.0
144
0.0
144
0.0007999999797903
144
0.0
144
0.0
144
0.0
144
0.0
144
1.0
144
0.0
144
0.0
144
0.0
144
0.0
144
1.0
 94
       63
1001
ACAD
1070
    -1
1070
     3
1070
     0
1000

1071
        0
1070
     0
  0
MLEADERSTYLE
  5
13B
102
{ACAD_REACTORS
330
12D
102
}
330
12D
100
AcDbMLeaderStyle
179
     2
170
     2
171
     1
172
     0
 90
        2
 40
0.0
 41
0.0
173
     1
 91
-1056964608
340
14
 92
       -2
290
     1
 42
2.0
291
     1
 43
8.0
  3
Standard
 44
4.0
300

342
11
174
     1
178
     1
175
     1
176
     0
 93
-1056964608
 45
4.0
292
     0
297
     0
 46
4.0
 94
-1056964608
 47
1.0
 49
1.0
140
1.0
293
     1
141
0.0
294
     1
177
     0
142
1.0
295
     0
296
     1
143
3.75
271
     0
272
     9
273
     9
298
     0
  0
MLEADERSTYLE
  5
12E
102
{ACAD_REACTORS
330
12D
102
}
330
12D
100
AcDbMLeaderStyle
179
     2
170
     2
171
     1
172
     0
 90
        2
 40
0.0
 41
0.0
173
     1
 91
-1056964608
340
14
 92
       -2
290
     1
 42
2.0
291
     1
 43
8.0
  3
Standard
 44
4.0
300

342
11
174
     1
178
     1
175
     1
176
     0
 93
-1056964608
 45
4.0
292
     0
297
     0
 46
4.0
 94
-1056964608
 47
1.0
 49
1.0
140
1.0
293
     1
141
0.0
294
     1
177
     0
142
1.0
295
     0
296
     0
143
3.75
271
     0
272
     9
273
     9
298
     0
  0
MLINESTYLE
  5
18
102
{ACAD_REACTORS
330
17
102
}
330
17
100
AcDbMlineStyle
  2
STANDARD
 70
     0
  3

 62
   256
 51
90.0
 52
90.0
 71
     2
 49
0.5
 62
   256
  6
BYLAYER
 49
-0.5
 62
   256
  6
BYLAYER
  0
ACDBPLACEHOLDER
  5
F
102
{ACAD_REACTORS
330
E
102
}
330
E
  0
SCALE
  5
10D
102
{ACAD_REACTORS
330
10C
102
}
330
10C
100
AcDbScale
 70
     0
300
1:1
140
1.0
141
1.0
290
     1
  0
SCALE
  5
4B1
102
{ACAD_REACTORS
330
10C
102
}
330
10C
100
AcDbScale
 70
     0
300
1/100 eskala
140
1000.0
141
1.0
290
     0
  0
SCALE
  5
4B2
102
{ACAD_REACTORS
330
10C
102
}
330
10C
100
AcDbScale
 70
     0
300
1:2
140
1.0
141
2.0
290
     0
  0
SCALE
  5
4B3
102
{ACAD_REACTORS
330
10C
102
}
330
10C
100
AcDbScale
 70
     0
300
1:4
140
1.0
141
4.0
290
     0
  0
SCALE
  5
4B4
102
{ACAD_REACTORS
330
10C
102
}
330
10C
100
AcDbScale
 70
     0
300
1:5
140
1.0
141
5.0
290
     0
  0
SCALE
  5
4B5
102
{ACAD_REACTORS
330
10C
102
}
330
10C
100
AcDbScale
 70
     0
300
1:8
140
1.0
141
8.0
290
     0
  0
SCALE
  5
4B6
102
{ACAD_REACTORS
330
10C
102
}
330
10C
100
AcDbScale
 70
     0
300
1:10
140
1.0
141
10.0
290
     0
  0
SCALE
  5
4B7
102
{ACAD_REACTORS
330
10C
102
}
330
10C
100
AcDbScale
 70
     0
300
1:16
140
1.0
141
16.0
290
     0
  0
SCALE
  5
4B8
102
{ACAD_REACTORS
330
10C
102
}
330
10C
100
AcDbScale
 70
     0
300
1:20
140
1.0
141
20.0
290
     0
  0
SCALE
  5
4B9
102
{ACAD_REACTORS
330
10C
102
}
330
10C
100
AcDbScale
 70
     0
300
1:30
140
1.0
141
30.0
290
     0
  0
SCALE
  5
4BA
102
{ACAD_REACTORS
330
10C
102
}
330
10C
100
AcDbScale
 70
     0
300
1:40
140
1.0
141
40.0
290
     0
  0
SCALE
  5
4BB
102
{ACAD_REACTORS
330
10C
102
}
330
10C
100
AcDbScale
 70
     0
300
1:50
140
1.0
141
50.0
290
     0
  0
SCALE
  5
1C8
102
{ACAD_REACTORS
330
10C
102
}
330
10C
100
AcDbScale
 70
     0
300
1:100
140
1.0
141
100.0
290
     0
  0
SCALE
  5
4BC
102
{ACAD_REACTORS
330
10C
102
}
330
10C
100
AcDbScale
 70
     0
300
2:1
140
2.0
141
1.0
290
     0
  0
SCALE
  5
4BD
102
{ACAD_REACTORS
330
10C
102
}
330
10C
100
AcDbScale
 70
     0
300
4:1
140
4.0
141
1.0
290
     0
  0
SCALE
  5
4BE
102
{ACAD_REACTORS
330
10C
102
}
330
10C
100
AcDbScale
 70
     0
300
8:1
140
8.0
141
1.0
290
     0
  0
SCALE
  5
4BF
102
{ACAD_REACTORS
330
10C
102
}
330
10C
100
AcDbScale
 70
     0
300
10:1
140
10.0
141
1.0
290
     0
  0
SCALE
  5
4C0
102
{ACAD_REACTORS
330
10C
102
}
330
10C
100
AcDbScale
 70
     0
300
100:1
140
100.0
141
1.0
290
     0
  0
ACDBSECTIONVIEWSTYLE
  5
188E
102
{ACAD_XDICTIONARY
360
22E0
102
}
102
{ACAD_REACTORS
330
219
102
}
330
219
100
AcDbModelDocViewStyle
 70
     0
  3
Imperial24
290
     0
100
AcDbSectionViewStyle
 70
     0
 71
     0
 90
       78
 71
     1
340
11
 62
   256
 40
0.24
340
0
340
0
 62
   256
 40
0.24
300
I, O, Q, S, X, Z
 40
0.48
 90
        3
 40
0.18
 90
        1
 71
     2
340
16
 90
       25
 62
   256
340
16
 90
       50
 62
   256
 40
0.24
 40
0.0
 40
0.24
 71
     3
340
11
 62
   256
 40
0.24
 90
        1
 40
0.75
 90
        1
300
%<\AcVar ViewType \f "%tc1">% %<\AcVar ViewSectionStartId>%-%<\AcVar ViewSectionEndId>%\PESCALA %<\AcVar ViewScale \f "%sn">%
 71
     4
 62
   256
 62
   257
300
ANSI31
 40
1.0
 90
        0
290
     0
290
     0
 90
        6
 40
0.0
 40
1.570796326794896
 40
0.2617993877991494
 40
1.308996938995747
 40
-0.2617993877991494
 40
1.832595714594046
  0
ACDBSECTIONVIEWSTYLE
  5
21A
102
{ACAD_XDICTIONARY
360
234
102
}
102
{ACAD_REACTORS
330
219
102
}
330
219
100
AcDbModelDocViewStyle
 70
     0
  3
Metric50
290
     0
100
AcDbSectionViewStyle
 70
     0
 71
     0
 90
      102
 71
     1
340
11
 62
   256
 40
5.0
340
0
340
0
 62
   256
 40
5.0
300
I, O, Q, S, X, Z
 40
10.0
 90
        0
 40
2.5
 90
        0
 71
     2
340
16
 90
       25
 62
   256
340
16
 90
       50
 62
   256
 40
5.0
 40
2.5
 40
5.0
 71
     3
340
11
 62
   256
 40
5.0
 90
        0
 40
15.0
 90
        1
300
%<\AcVar ViewSectionStartId>%-%<\AcVar ViewSectionEndId>% (%<\AcVar ViewScale \f "%sn">%)
 71
     4
 62
   256
 62
   257
300
ANSI31
 40
1.0
 90
        0
290
     0
290
     0
 90
        6
 40
0.0
 40
1.570796326794896
 40
0.2617993877991494
 40
1.308996938995747
 40
-0.2617993877991494
 40
1.832595714594046
  0
TABLESTYLE
  5
7F
102
{ACAD_XDICTIONARY
360
162
102
}
102
{ACAD_REACTORS
330
7E
102
}
330
7E
100
AcDbTableStyle
280
     0
  3
Standard
 70
     0
 71
     0
 40
1.5
 41
1.5
280
     0
281
     0
  7
Standard
140
4.5
170
     2
 62
     0
 63
     7
283
     0
 90
      512
 91
        0
  1

274
    -2
284
     1
 64
     0
275
    -2
285
     1
 65
     0
276
    -2
286
     1
 66
     0
277
    -2
287
     1
 67
     0
278
    -2
288
     1
 68
     0
279
    -2
289
     1
 69
     0
  7
Standard
140
6.0
170
     5
 62
     0
 63
     7
283
     0
 90
      512
 91
        0
  1

274
    -2
284
     1
 64
     0
275
    -2
285
     1
 65
     0
276
    -2
286
     1
 66
     0
277
    -2
287
     1
 67
     0
278
    -2
288
     1
 68
     0
279
    -2
289
     1
 69
     0
  7
Standard
140
4.5
170
     5
 62
     0
 63
     7
283
     0
 90
      512
 91
        0
  1

274
    -2
284
     1
 64
     0
275
    -2
285
     1
 65
     0
276
    -2
286
     1
 66
     0
277
    -2
287
     1
 67
     0
278
    -2
288
     1
 68
     0
279
    -2
289
     1
 69
     0
  0
VISUALSTYLE
  5
F5
102
{ACAD_REACTORS
330
EF
102
}
330
EF
100
AcDbVisualStyle
  2
2dWireframe
 70
     4
177
     3
291
     0
 70
    58
 90
        0
176
     1
 90
        2
176
     1
 90
        1
176
     1
 90
        0
176
     1
 40
0.6
176
     1
 40
30.0
176
     1
 62
     7
420
 16777215
176
     1
 90
        1
176
     1
 90
        4
176
     1
 62
     7
176
     1
 62
   257
176
     1
 90
        1
176
     1
 90
        1
176
     1
 40
1.0
176
     1
 90
        0
176
     1
 62
   257
176
     1
 40
1.0
176
     1
 90
        1
176
     1
 90
        6
176
     1
 90
        2
176
     1
 62
     7
176
     1
 90
        5
176
     1
 90
        0
176
     1
 90
        0
176
     1
290
     0
176
     1
 90
        1
176
     1
 40
0.0
176
     1
 90
        0
176
     1
290
     1
176
     1
290
     1
176
     1
290
     0
176
     1
290
     0
176
     1
290
     0
176
     1
290
     0
176
     1
290
     0
176
     1
290
     0
176
     1
290
     0
176
     1
 90
       50
176
     1
 40
0.0
176
     1
 40
1.0
176
     1
 90
        0
176
     1
 62
    18
420
        0
176
     1
 90
       50
176
     1
 90
        3
176
     1
 62
     5
420
      255
176
     1
290
     0
176
     1
 90
       50
176
     1
 90
       50
176
     1
 90
       50
176
     1
290
     0
176
     1
 90
       50
176
     1
 62
   256
176
     0
 40
1.0
176
     0
 90
        2
176
     1
  1
strokes_ogs.tif
176
     1
290
     0
176
     1
 40
1.0
176
     1
 40
1.0
176
     1
  0
VISUALSTYLE
  5
F4
102
{ACAD_REACTORS
330
EF
102
}
330
EF
100
AcDbVisualStyle
  2
Basic
 70
     7
177
     3
291
     1
 70
    58
 90
        1
176
     1
 90
        0
176
     1
 90
        1
176
     1
 90
        0
176
     1
 40
0.6
176
     1
 40
30.0
176
     1
 62
     7
420
 16777215
176
     1
 90
        0
176
     1
 90
        4
176
     1
 62
     7
176
     1
 62
   257
176
     1
 90
        1
176
     1
 90
        1
176
     1
 40
1.0
176
     1
 90
        8
176
     1
 62
     7
176
     1
 40
1.0
176
     1
 90
        1
176
     1
 90
        6
176
     1
 90
        2
176
     1
 62
     7
176
     1
 90
        5
176
     1
 90
        0
176
     1
 90
        0
176
     1
290
     0
176
     1
 90
        1
176
     1
 40
0.0
176
     1
 90
        0
176
     1
290
     0
176
     1
290
     1
176
     1
290
     1
176
     1
290
     0
176
     1
290
     0
176
     1
290
     0
176
     1
290
     0
176
     1
290
     0
176
     1
290
     0
176
     1
 90
       50
176
     1
 40
0.0
176
     1
 40
1.0
176
     1
 90
        0
176
     1
 62
    18
420
        0
176
     1
 90
       50
176
     1
 90
        3
176
     1
 62
     5
420
      255
176
     1
290
     0
176
     1
 90
       50
176
     1
 90
       50
176
     1
 90
       50
176
     1
290
     0
176
     1
 90
       50
176
     1
 62
   256
176
     0
 40
1.0
176
     0
 90
        2
176
     1
  1
strokes_ogs.tif
176
     1
290
     0
176
     1
 40
1.0
176
     1
 40
1.0
176
     1
  0
VISUALSTYLE
  5
FB
102
{ACAD_REACTORS
330
EF
102
}
330
EF
100
AcDbVisualStyle
  2
Brighten
 70
    12
177
     3
291
     1
 70
    58
 90
        2
176
     1
 90
        2
176
     1
 90
        1
176
     1
 90
        0
176
     1
 40
0.6
176
     1
 40
30.0
176
     1
 62
     7
420
 16777215
176
     1
 90
        1
176
     1
 90
        4
176
     1
 62
     7
176
     1
 62
   257
176
     1
 90
        1
176
     1
 90
        1
176
     1
 40
1.0
176
     1
 90
        8
176
     1
 62
     7
176
     1
 40
1.0
176
     1
 90
        1
176
     1
 90
        6
176
     1
 90
        2
176
     1
 62
     7
176
     1
 90
        5
176
     1
 90
        0
176
     1
 90
        0
176
     1
290
     0
176
     1
 90
        1
176
     1
 40
50.0
176
     1
 90
        0
176
     1
290
     0
176
     1
290
     1
176
     1
290
     1
176
     1
290
     0
176
     1
290
     0
176
     1
290
     0
176
     1
290
     0
176
     1
290
     0
176
     1
290
     0
176
     1
 90
       50
176
     1
 40
0.0
176
     1
 40
1.0
176
     1
 90
        0
176
     1
 62
    18
420
        0
176
     1
 90
       50
176
     1
 90
        3
176
     1
 62
     5
420
      255
176
     1
290
     0
176
     1
 90
       50
176
     1
 90
       50
176
     1
 90
       50
176
     1
290
     0
176
     1
 90
       50
176
     1
 62
   256
176
     0
 40
1.0
176
     0
 90
        2
176
     1
  1
strokes_ogs.tif
176
     1
290
     0
176
     1
 40
1.0
176
     1
 40
1.0
176
     1
  0
VISUALSTYLE
  5
FF
102
{ACAD_REACTORS
330
EF
102
}
330
EF
100
AcDbVisualStyle
  2
ColorChange
 70
    16
177
     3
291
     1
 70
    58
 90
        2
176
     1
 90
        2
176
     1
 90
        3
176
     1
 90
        0
176
     1
 40
0.6
176
     1
 40
30.0
176
     1
 62
     8
420
  8421504
176
     1
 90
        1
176
     1
 90
        4
176
     1
 62
     7
176
     1
 62
   257
176
     1
 90
        1
176
     1
 90
        1
176
     1
 40
1.0
176
     1
 90
        8
176
     1
 62
     8
420
  8421504
176
     1
 40
1.0
176
     1
 90
        1
176
     1
 90
        6
176
     1
 90
        2
176
     1
 62
     7
176
     1
 90
        5
176
     1
 90
        0
176
     1
 90
        0
176
     1
290
     0
176
     1
 90
        1
176
     1
 40
0.0
176
     1
 90
        0
176
     1
290
     0
176
     1
290
     1
176
     1
290
     1
176
     1
290
     0
176
     1
290
     0
176
     1
290
     0
176
     1
290
     0
176
     1
290
     0
176
     1
290
     0
176
     1
 90
       50
176
     1
 40
0.0
176
     1
 40
1.0
176
     1
 90
        0
176
     1
 62
    18
420
        0
176
     1
 90
       50
176
     1
 90
        3
176
     1
 62
     5
420
      255
176
     1
290
     0
176
     1
 90
       50
176
     1
 90
       50
176
     1
 90
       50
176
     1
290
     0
176
     1
 90
       50
176
     1
 62
   256
176
     0
 40
1.0
176
     0
 90
        2
176
     1
  1
strokes_ogs.tif
176
     1
290
     0
176
     1
 40
1.0
176
     1
 40
1.0
176
     1
  0
VISUALSTYLE
  5
F8
102
{ACAD_REACTORS
330
EF
102
}
330
EF
100
AcDbVisualStyle
  2
Conceptual
 70
     9
177
     3
291
     0
 70
    58
 90
        3
176
     1
 90
        2
176
     1
 90
        1
176
     1
 90
        0
176
     1
 40
0.6
176
     1
 40
30.0
176
     1
 62
     7
420
 16777215
176
     1
 90
        2
176
     1
 90
        2
176
     1
 62
     7
176
     1
 62
   257
176
     1
 90
        1
176
     1
 90
        1
176
     1
 40
40.0
176
     1
 90
        8
176
     1
 62
     7
176
     1
 40
1.0
176
     1
 90
        1
176
     1
 90
        6
176
     1
 90
        2
176
     1
 62
     7
176
     1
 90
        3
176
     1
 90
        0
176
     1
 90
        0
176
     1
290
     0
176
     1
 90
        1
176
     1
 40
0.0
176
     1
 90
        0
176
     1
290
     0
176
     1
290
     1
176
     1
290
     1
176
     1
290
     0
176
     1
290
     0
176
     1
290
     0
176
     1
290
     0
176
     1
290
     0
176
     1
290
     0
176
     1
 90
       50
176
     1
 40
0.0
176
     1
 40
1.0
176
     1
 90
        0
176
     1
 62
    18
420
        0
176
     1
 90
       50
176
     1
 90
        3
176
     1
 62
     5
420
      255
176
     1
290
     0
176
     1
 90
       50
176
     1
 90
       50
176
     1
 90
       50
176
     1
290
     0
176
     1
 90
       50
176
     1
 62
   256
176
     0
 40
1.0
176
     0
 90
        2
176
     1
  1
strokes_ogs.tif
176
     1
290
     0
176
     1
 40
1.0
176
     1
 40
1.0
176
     1
  0
VISUALSTYLE
  5
FA
102
{ACAD_REACTORS
330
EF
102
}
330
EF
100
AcDbVisualStyle
  2
Dim
 70
    11
177
     3
291
     1
 70
    58
 90
        2
176
     1
 90
        2
176
     1
 90
        1
176
     1
 90
        0
176
     1
 40
0.6
176
     1
 40
30.0
176
     1
 62
     7
420
 16777215
176
     1
 90
        1
176
     1
 90
        4
176
     1
 62
     7
176
     1
 62
   257
176
     1
 90
        1
176
     1
 90
        1
176
     1
 40
1.0
176
     1
 90
        8
176
     1
 62
     7
176
     1
 40
1.0
176
     1
 90
        1
176
     1
 90
        6
176
     1
 90
        2
176
     1
 62
     7
176
     1
 90
        5
176
     1
 90
        0
176
     1
 90
        0
176
     1
290
     0
176
     1
 90
        1
176
     1
 40
-50.0
176
     1
 90
        0
176
     1
290
     0
176
     1
290
     1
176
     1
290
     1
176
     1
290
     0
176
     1
290
     0
176
     1
290
     0
176
     1
290
     0
176
     1
290
     0
176
     1
290
     0
176
     1
 90
       50
176
     1
 40
0.0
176
     1
 40
1.0
176
     1
 90
        0
176
     1
 62
    18
420
        0
176
     1
 90
       50
176
     1
 90
        3
176
     1
 62
     5
420
      255
176
     1
290
     0
176
     1
 90
       50
176
     1
 90
       50
176
     1
 90
       50
176
     1
290
     0
176
     1
 90
       50
176
     1
 62
   256
176
     0
 40
1.0
176
     0
 90
        2
176
     1
  1
strokes_ogs.tif
176
     1
290
     0
176
     1
 40
1.0
176
     1
 40
1.0
176
     1
  0
VISUALSTYLE
  5
1E6
102
{ACAD_REACTORS
330
EF
102
}
330
EF
100
AcDbVisualStyle
  2
EdgeColorOff
 70
    22
177
     3
291
     1
 70
    58
 90
        2
176
     0
 90
        2
176
     0
 90
        0
176
     0
 90
        0
176
     0
 40
0.6
176
     0
 40
30.0
176
     0
 62
     7
420
 16777215
176
     0
 90
        1
176
     0
 90
        4
176
     0
 62
     7
176
     0
 62
   257
176
     0
 90
        1
176
     0
 90
        1
176
     0
 40
1.0
176
     0
 90
        8
176
     2
 62
     7
176
     0
 40
1.0
176
     0
 90
        1
176
     0
 90
        6
176
     0
 90
        2
176
     0
 62
     7
176
     0
 90
        5
176
     0
 90
        0
176
     0
 90
        0
176
     0
290
     0
176
     0
 90
        1
176
     0
 40
0.0
176
     0
 90
        0
176
     0
290
     0
176
     1
290
     1
176
     1
290
     1
176
     1
290
     0
176
     1
290
     0
176
     1
290
     0
176
     1
290
     0
176
     1
290
     0
176
     1
290
     0
176
     1
 90
       50
176
     1
 40
0.0
176
     1
 40
1.0
176
     1
 90
        0
176
     1
 62
    18
420
        0
176
     1
 90
       50
176
     1
 90
        3
176
     1
 62
     5
420
      255
176
     1
290
     0
176
     1
 90
       50
176
     1
 90
       50
176
     1
 90
       50
176
     1
290
     0
176
     1
 90
       50
176
     1
 62
   256
176
     0
 40
1.0
176
     0
 90
        2
176
     1
  1
strokes_ogs.tif
176
     1
290
     0
176
     1
 40
1.0
176
     1
 40
1.0
176
     1
  0
VISUALSTYLE
  5
FE
102
{ACAD_REACTORS
330
EF
102
}
330
EF
100
AcDbVisualStyle
  2
Facepattern
 70
    15
177
     3
291
     1
 70
    58
 90
        2
176
     1
 90
        2
176
     1
 90
        1
176
     1
 90
        0
176
     1
 40
0.6
176
     1
 40
30.0
176
     1
 62
     7
420
 16777215
176
     1
 90
        1
176
     1
 90
        4
176
     1
 62
     7
176
     1
 62
   257
176
     1
 90
        1
176
     1
 90
        1
176
     1
 40
1.0
176
     1
 90
        8
176
     1
 62
     7
176
     1
 40
1.0
176
     1
 90
        1
176
     1
 90
        6
176
     1
 90
        2
176
     1
 62
     7
176
     1
 90
        5
176
     1
 90
        0
176
     1
 90
        0
176
     1
290
     0
176
     1
 90
        1
176
     1
 40
0.0
176
     1
 90
        0
176
     1
290
     0
176
     1
290
     1
176
     1
290
     1
176
     1
290
     0
176
     1
290
     0
176
     1
290
     0
176
     1
290
     0
176
     1
290
     0
176
     1
290
     0
176
     1
 90
       50
176
     1
 40
0.0
176
     1
 40
1.0
176
     1
 90
        0
176
     1
 62
    18
420
        0
176
     1
 90
       50
176
     1
 90
        3
176
     1
 62
     5
420
      255
176
     1
290
     0
176
     1
 90
       50
176
     1
 90
       50
176
     1
 90
       50
176
     1
290
     0
176
     1
 90
       50
176
     1
 62
   256
176
     0
 40
1.0
176
     0
 90
        2
176
     1
  1
strokes_ogs.tif
176
     1
290
     0
176
     1
 40
1.0
176
     1
 40
1.0
176
     1
  0
VISUALSTYLE
  5
F0
102
{ACAD_REACTORS
330
EF
102
}
330
EF
100
AcDbVisualStyle
  2
Flat
 70
     0
177
     3
291
     1
 70
    58
 90
        2
176
     1
 90
        1
176
     1
 90
        1
176
     1
 90
        2
176
     1
 40
0.6
176
     1
 40
30.0
176
     1
 62
     7
420
 16777215
176
     1
 90
        0
176
     1
 90
        0
176
     1
 62
     7
176
     1
 62
   257
176
     1
 90
        1
176
     1
 90
        1
176
     1
 40
1.0
176
     1
 90
        8
176
     1
 62
     7
176
     1
 40
1.0
176
     1
 90
        1
176
     1
 90
        6
176
     1
 90
        2
176
     1
 62
     7
176
     1
 90
        5
176
     1
 90
        0
176
     1
 90
        0
176
     1
290
     0
176
     1
 90
       13
176
     1
 40
0.0
176
     1
 90
        0
176
     1
290
     0
176
     1
290
     1
176
     1
290
     1
176
     1
290
     0
176
     1
290
     0
176
     1
290
     0
176
     1
290
     0
176
     1
290
     0
176
     1
290
     0
176
     1
 90
       50
176
     1
 40
0.0
176
     1
 40
1.0
176
     1
 90
        0
176
     1
 62
    18
420
        0
176
     1
 90
       50
176
     1
 90
        3
176
     1
 62
     5
420
      255
176
     1
290
     0
176
     1
 90
       50
176
     1
 90
       50
176
     1
 90
       50
176
     1
290
     0
176
     1
 90
       50
176
     1
 62
   256
176
     0
 40
1.0
176
     0
 90
        2
176
     1
  1
strokes_ogs.tif
176
     1
290
     0
176
     1
 40
1.0
176
     1
 40
1.0
176
     1
  0
VISUALSTYLE
  5
F1
102
{ACAD_REACTORS
330
EF
102
}
330
EF
100
AcDbVisualStyle
  2
FlatWithEdges
 70
     1
177
     3
291
     1
 70
    58
 90
        2
176
     1
 90
        1
176
     1
 90
        1
176
     1
 90
        2
176
     1
 40
0.6
176
     1
 40
30.0
176
     1
 62
     7
420
 16777215
176
     1
 90
        1
176
     1
 90
        0
176
     1
 62
     7
176
     1
 62
   257
176
     1
 90
        1
176
     1
 90
        1
176
     1
 40
1.0
176
     1
 90
        0
176
     1
 62
   257
176
     1
 40
1.0
176
     1
 90
        1
176
     1
 90
        6
176
     1
 90
        2
176
     1
 62
     7
176
     1
 90
        5
176
     1
 90
        0
176
     1
 90
        0
176
     1
290
     0
176
     1
 90
       13
176
     1
 40
0.0
176
     1
 90
        0
176
     1
290
     0
176
     1
290
     1
176
     1
290
     1
176
     1
290
     0
176
     1
290
     0
176
     1
290
     0
176
     1
290
     0
176
     1
290
     0
176
     1
290
     0
176
     1
 90
       50
176
     1
 40
0.0
176
     1
 40
1.0
176
     1
 90
        0
176
     1
 62
    18
420
        0
176
     1
 90
       50
176
     1
 90
        3
176
     1
 62
     5
420
      255
176
     1
290
     0
176
     1
 90
       50
176
     1
 90
       50
176
     1
 90
       50
176
     1
290
     0
176
     1
 90
       50
176
     1
 62
   256
176
     0
 40
1.0
176
     0
 90
        2
176
     1
  1
strokes_ogs.tif
176
     1
290
     0
176
     1
 40
1.0
176
     1
 40
1.0
176
     1
  0
VISUALSTYLE
  5
F2
102
{ACAD_REACTORS
330
EF
102
}
330
EF
100
AcDbVisualStyle
  2
Gouraud
 70
     2
177
     3
291
     1
 70
    58
 90
        2
176
     1
 90
        2
176
     1
 90
        1
176
     1
 90
        2
176
     1
 40
0.6
176
     1
 40
30.0
176
     1
 62
     7
420
 16777215
176
     1
 90
        0
176
     1
 90
        0
176
     1
 62
     7
176
     1
 62
   257
176
     1
 90
        1
176
     1
 90
        1
176
     1
 40
1.0
176
     1
 90
        0
176
     1
 62
     7
176
     1
 40
1.0
176
     1
 90
        1
176
     1
 90
        6
176
     1
 90
        2
176
     1
 62
     7
176
     1
 90
        5
176
     1
 90
        0
176
     1
 90
        0
176
     1
290
     0
176
     1
 90
       13
176
     1
 40
0.0
176
     1
 90
        0
176
     1
290
     0
176
     1
290
     1
176
     1
290
     1
176
     1
290
     0
176
     1
290
     0
176
     1
290
     0
176
     1
290
     0
176
     1
290
     0
176
     1
290
     0
176
     1
 90
       50
176
     1
 40
0.0
176
     1
 40
1.0
176
     1
 90
        0
176
     1
 62
    18
420
        0
176
     1
 90
       50
176
     1
 90
        3
176
     1
 62
     5
420
      255
176
     1
290
     0
176
     1
 90
       50
176
     1
 90
       50
176
     1
 90
       50
176
     1
290
     0
176
     1
 90
       50
176
     1
 62
   256
176
     0
 40
1.0
176
     0
 90
        2
176
     1
  1
strokes_ogs.tif
176
     1
290
     0
176
     1
 40
1.0
176
     1
 40
1.0
176
     1
  0
VISUALSTYLE
  5
F3
102
{ACAD_REACTORS
330
EF
102
}
330
EF
100
AcDbVisualStyle
  2
GouraudWithEdges
 70
     3
177
     3
291
     1
 70
    58
 90
        2
176
     1
 90
        2
176
     1
 90
        1
176
     1
 90
        2
176
     1
 40
0.6
176
     1
 40
30.0
176
     1
 62
     7
420
 16777215
176
     1
 90
        1
176
     1
 90
        0
176
     1
 62
     7
176
     1
 62
   257
176
     1
 90
        1
176
     1
 90
        1
176
     1
 40
1.0
176
     1
 90
        0
176
     1
 62
   257
176
     1
 40
1.0
176
     1
 90
        1
176
     1
 90
        6
176
     1
 90
        2
176
     1
 62
     7
176
     1
 90
        5
176
     1
 90
        0
176
     1
 90
        0
176
     1
290
     0
176
     1
 90
       13
176
     1
 40
0.0
176
     1
 90
        0
176
     1
290
     0
176
     1
290
     1
176
     1
290
     1
176
     1
290
     0
176
     1
290
     0
176
     1
290
     0
176
     1
290
     0
176
     1
290
     0
176
     1
290
     0
176
     1
 90
       50
176
     1
 40
0.0
176
     1
 40
1.0
176
     1
 90
        0
176
     1
 62
    18
420
        0
176
     1
 90
       50
176
     1
 90
        3
176
     1
 62
     5
420
      255
176
     1
290
     0
176
     1
 90
       50
176
     1
 90
       50
176
     1
 90
       50
176
     1
290
     0
176
     1
 90
       50
176
     1
 62
   256
176
     0
 40
1.0
176
     0
 90
        2
176
     1
  1
strokes_ogs.tif
176
     1
290
     0
176
     1
 40
1.0
176
     1
 40
1.0
176
     1
  0
VISUALSTYLE
  5
F7
102
{ACAD_REACTORS
330
EF
102
}
330
EF
100
AcDbVisualStyle
  2
Hidden
 70
     6
177
     3
291
     0
 70
    58
 90
        1
176
     1
 90
        2
176
     1
 90
        2
176
     1
 90
        0
176
     1
 40
0.6
176
     1
 40
30.0
176
     1
 62
     7
420
 16777215
176
     1
 90
        2
176
     1
 90
        2
176
     1
 62
     7
176
     1
 62
   257
176
     1
 90
        2
176
     1
 90
        1
176
     1
 40
40.0
176
     1
 90
        0
176
     1
 62
   257
176
     1
 40
1.0
176
     1
 90
        1
176
     1
 90
        6
176
     1
 90
        2
176
     1
 62
     7
176
     1
 90
        3
176
     1
 90
        0
176
     1
 90
        0
176
     1
290
     0
176
     1
 90
        1
176
     1
 40
0.0
176
     1
 90
        0
176
     1
290
     0
176
     1
290
     1
176
     1
290
     1
176
     1
290
     0
176
     1
290
     0
176
     1
290
     0
176
     1
290
     0
176
     1
290
     0
176
     1
290
     0
176
     1
 90
       50
176
     1
 40
0.0
176
     1
 40
1.0
176
     1
 90
        0
176
     1
 62
    18
420
        0
176
     1
 90
       50
176
     1
 90
        3
176
     1
 62
     5
420
      255
176
     1
290
     0
176
     1
 90
       50
176
     1
 90
       50
176
     1
 90
       50
176
     1
290
     0
176
     1
 90
       50
176
     1
 62
   256
176
     0
 40
1.0
176
     0
 90
        2
176
     1
  1
strokes_ogs.tif
176
     1
290
     0
176
     1
 40
1.0
176
     1
 40
1.0
176
     1
  0
VISUALSTYLE
  5
1E4
102
{ACAD_REACTORS
330
EF
102
}
330
EF
100
AcDbVisualStyle
  2
JitterOff
 70
    20
177
     3
291
     1
 70
    58
 90
        2
176
     0
 90
        2
176
     0
 90
        0
176
     0
 90
        0
176
     0
 40
0.6
176
     0
 40
30.0
176
     0
 62
     7
420
 16777215
176
     0
 90
        1
176
     0
 90
        4
176
     0
 62
     7
176
     0
 62
   257
176
     0
 90
        1
176
     0
 90
        1
176
     0
 40
1.0
176
     0
 90
       10
176
     2
 62
     7
176
     0
 40
1.0
176
     0
 90
        1
176
     0
 90
        6
176
     0
 90
        2
176
     0
 62
     7
176
     0
 90
        5
176
     0
 90
        0
176
     0
 90
        0
176
     0
290
     0
176
     0
 90
        1
176
     0
 40
0.0
176
     0
 90
        0
176
     0
290
     0
176
     1
290
     1
176
     1
290
     1
176
     1
290
     0
176
     1
290
     0
176
     1
290
     0
176
     1
290
     0
176
     1
290
     0
176
     1
290
     0
176
     1
 90
       50
176
     1
 40
0.0
176
     1
 40
1.0
176
     1
 90
        0
176
     1
 62
    18
420
        0
176
     1
 90
       50
176
     1
 90
        3
176
     1
 62
     5
420
      255
176
     1
290
     0
176
     1
 90
       50
176
     1
 90
       50
176
     1
 90
       50
176
     1
290
     0
176
     1
 90
       50
176
     1
 62
   256
176
     0
 40
1.0
176
     0
 90
        2
176
     1
  1
strokes_ogs.tif
176
     1
290
     0
176
     1
 40
1.0
176
     1
 40
1.0
176
     1
  0
VISUALSTYLE
  5
FD
102
{ACAD_REACTORS
330
EF
102
}
330
EF
100
AcDbVisualStyle
  2
Linepattern
 70
    14
177
     3
291
     1
 70
    58
 90
        2
176
     1
 90
        2
176
     1
 90
        1
176
     1
 90
        0
176
     1
 40
0.6
176
     1
 40
30.0
176
     1
 62
     7
420
 16777215
176
     1
 90
        1
176
     1
 90
        4
176
     1
 62
     7
176
     1
 62
   257
176
     1
 90
        7
176
     1
 90
        7
176
     1
 40
1.0
176
     1
 90
        8
176
     1
 62
     7
176
     1
 40
1.0
176
     1
 90
        1
176
     1
 90
        6
176
     1
 90
        2
176
     1
 62
     7
176
     1
 90
        5
176
     1
 90
        0
176
     1
 90
        0
176
     1
290
     0
176
     1
 90
        1
176
     1
 40
0.0
176
     1
 90
        0
176
     1
290
     0
176
     1
290
     1
176
     1
290
     1
176
     1
290
     0
176
     1
290
     0
176
     1
290
     0
176
     1
290
     0
176
     1
290
     0
176
     1
290
     0
176
     1
 90
       50
176
     1
 40
0.0
176
     1
 40
1.0
176
     1
 90
        0
176
     1
 62
    18
420
        0
176
     1
 90
       50
176
     1
 90
        3
176
     1
 62
     5
420
      255
176
     1
290
     0
176
     1
 90
       50
176
     1
 90
       50
176
     1
 90
       50
176
     1
290
     0
176
     1
 90
       50
176
     1
 62
   256
176
     0
 40
1.0
176
     0
 90
        2
176
     1
  1
strokes_ogs.tif
176
     1
290
     0
176
     1
 40
1.0
176
     1
 40
1.0
176
     1
  0
VISUALSTYLE
  5
1E5
102
{ACAD_REACTORS
330
EF
102
}
330
EF
100
AcDbVisualStyle
  2
OverhangOff
 70
    21
177
     3
291
     1
 70
    58
 90
        2
176
     0
 90
        2
176
     0
 90
        0
176
     0
 90
        0
176
     0
 40
0.6
176
     0
 40
30.0
176
     0
 62
     7
420
 16777215
176
     0
 90
        1
176
     0
 90
        4
176
     0
 62
     7
176
     0
 62
   257
176
     0
 90
        1
176
     0
 90
        1
176
     0
 40
1.0
176
     0
 90
        9
176
     2
 62
     7
176
     0
 40
1.0
176
     0
 90
        1
176
     0
 90
        6
176
     0
 90
        2
176
     0
 62
     7
176
     0
 90
        5
176
     0
 90
        0
176
     0
 90
        0
176
     0
290
     0
176
     0
 90
        1
176
     0
 40
0.0
176
     0
 90
        0
176
     0
290
     0
176
     1
290
     1
176
     1
290
     1
176
     1
290
     0
176
     1
290
     0
176
     1
290
     0
176
     1
290
     0
176
     1
290
     0
176
     1
290
     0
176
     1
 90
       50
176
     1
 40
0.0
176
     1
 40
1.0
176
     1
 90
        0
176
     1
 62
    18
420
        0
176
     1
 90
       50
176
     1
 90
        3
176
     1
 62
     5
420
      255
176
     1
290
     0
176
     1
 90
       50
176
     1
 90
       50
176
     1
 90
       50
176
     1
290
     0
176
     1
 90
       50
176
     1
 62
   256
176
     0
 40
1.0
176
     0
 90
        2
176
     1
  1
strokes_ogs.tif
176
     1
290
     0
176
     1
 40
1.0
176
     1
 40
1.0
176
     1
  0
VISUALSTYLE
  5
F9
102
{ACAD_REACTORS
330
EF
102
}
330
EF
100
AcDbVisualStyle
  2
Realistic
 70
     8
177
     3
291
     0
 70
    58
 90
        2
176
     1
 90
        3
176
     1
 90
        0
176
     1
 90
        2
176
     1
 40
0.6
176
     1
 40
30.0
176
     1
 62
     7
420
 16777215
176
     1
 90
        0
176
     1
 90
        0
176
     1
 62
     7
176
     1
 62
   257
176
     1
 90
        1
176
     1
 90
        1
176
     1
 40
1.0
176
     1
 90
        8
176
     1
 62
   257
176
     1
 40
1.0
176
     1
 90
        1
176
     1
 90
        6
176
     1
 90
        2
176
     1
 62
     7
176
     1
 90
        3
176
     1
 90
        0
176
     1
 90
        0
176
     1
290
     0
176
     1
 90
       13
176
     1
 40
0.0
176
     1
 90
        0
176
     1
290
     0
176
     1
290
     1
176
     1
290
     1
176
     1
290
     0
176
     1
290
     0
176
     1
290
     0
176
     1
290
     0
176
     1
290
     0
176
     1
290
     0
176
     1
 90
       50
176
     1
 40
0.0
176
     1
 40
1.0
176
     1
 90
        0
176
     1
 62
    18
420
        0
176
     1
 90
       50
176
     1
 90
        3
176
     1
 62
     5
420
      255
176
     1
290
     0
176
     1
 90
       50
176
     1
 90
       50
176
     1
 90
       50
176
     1
290
     0
176
     1
 90
       50
176
     1
 62
   256
176
     0
 40
1.0
176
     0
 90
        2
176
     1
  1
strokes_ogs.tif
176
     1
290
     0
176
     1
 40
1.0
176
     1
 40
1.0
176
     1
  0
VISUALSTYLE
  5
1F3
102
{ACAD_REACTORS
330
EF
102
}
330
EF
100
AcDbVisualStyle
  2
Shaded
 70
    27
177
     3
291
     0
 70
    58
 90
        2
176
     1
 90
        2
176
     1
 90
        1
176
     1
 90
        2
176
     1
 40
0.6
176
     1
 40
30.0
176
     1
 62
     7
420
 16777215
176
     1
 90
        0
176
     1
 90
        4
176
     1
 62
     7
176
     1
 62
   257
176
     1
 90
        1
176
     1
 90
        1
176
     1
 40
1.0
176
     1
 90
        8
176
     1
 62
   257
176
     1
 40
1.0
176
     1
 90
        1
176
     1
 90
        6
176
     1
 90
        2
176
     1
 62
     8
420
  7895160
176
     1
 90
        3
176
     1
 90
        0
176
     1
 90
        0
176
     1
290
     0
176
     1
 90
        5
176
     1
 40
0.0
176
     1
 90
        0
176
     1
290
     0
176
     1
290
     1
176
     1
290
     1
176
     1
290
     0
176
     1
290
     0
176
     1
290
     0
176
     1
290
     0
176
     1
290
     0
176
     1
290
     0
176
     1
 90
       50
176
     1
 40
0.0
176
     1
 40
1.0
176
     1
 90
        0
176
     1
 62
    18
420
        0
176
     1
 90
       50
176
     1
 90
        3
176
     1
 62
     5
420
      255
176
     1
290
     0
176
     1
 90
       50
176
     1
 90
       50
176
     1
 90
       50
176
     1
290
     0
176
     1
 90
       50
176
     1
 62
   256
176
     0
 40
1.0
176
     0
 90
        2
176
     1
  1
strokes_ogs.tif
176
     1
290
     0
176
     1
 40
1.0
176
     1
 40
1.0
176
     1
  0
VISUALSTYLE
  5
1F2
102
{ACAD_REACTORS
330
EF
102
}
330
EF
100
AcDbVisualStyle
  2
Shaded with edges
 70
    26
177
     3
291
     0
 70
    58
 90
        2
176
     1
 90
        2
176
     1
 90
        1
176
     1
 90
        2
176
     1
 40
0.6
176
     1
 40
30.0
176
     1
 62
     7
420
 16777215
176
     1
 90
        1
176
     1
 90
       10
176
     1
 62
     7
176
     1
 62
   257
176
     1
 90
        2
176
     1
 90
        1
176
     1
 40
1.0
176
     1
 90
        8
176
     1
 62
   257
176
     1
 40
1.0
176
     1
 90
        1
176
     1
 90
        6
176
     1
 90
        2
176
     1
 62
     7
176
     1
 90
        3
176
     1
 90
        0
176
     1
 90
        0
176
     1
290
     0
176
     1
 90
        5
176
     1
 40
0.0
176
     1
 90
        0
176
     1
290
     0
176
     1
290
     1
176
     1
290
     1
176
     1
290
     0
176
     1
290
     0
176
     1
290
     0
176
     1
290
     0
176
     1
290
     0
176
     1
290
     0
176
     1
 90
       50
176
     1
 40
0.0
176
     1
 40
1.0
176
     1
 90
        0
176
     1
 62
    18
420
        0
176
     1
 90
       50
176
     1
 90
        3
176
     1
 62
     5
420
      255
176
     1
290
     0
176
     1
 90
       50
176
     1
 90
       50
176
     1
 90
       50
176
     1
290
     0
176
     1
 90
       50
176
     1
 62
   256
176
     0
 40
1.0
176
     0
 90
        2
176
     1
  1
strokes_ogs.tif
176
     1
290
     0
176
     1
 40
1.0
176
     1
 40
1.0
176
     1
  0
VISUALSTYLE
  5
1EF
102
{ACAD_REACTORS
330
EF
102
}
330
EF
100
AcDbVisualStyle
  2
Shades of Gray
 70
    23
177
     3
291
     0
 70
    58
 90
        2
176
     1
 90
        2
176
     1
 90
        3
176
     1
 90
        0
176
     1
 40
0.6
176
     1
 40
30.0
176
     1
 62
     7
420
 16777215
176
     1
 90
        2
176
     1
 90
        2
176
     1
 62
     7
176
     1
 62
     7
176
     1
 90
        1
176
     1
 90
        1
176
     1
 40
40.0
176
     1
 90
        8
176
     1
 62
     7
176
     1
 40
1.0
176
     1
 90
        1
176
     1
 90
        6
176
     1
 90
        2
176
     1
 62
     7
176
     1
 90
        3
176
     1
 90
        0
176
     1
 90
        0
176
     1
290
     0
176
     1
 90
        1
176
     1
 40
0.0
176
     1
 90
        0
176
     1
290
     0
176
     1
290
     1
176
     1
290
     1
176
     1
290
     0
176
     1
290
     0
176
     1
290
     0
176
     1
290
     0
176
     1
290
     0
176
     1
290
     0
176
     1
 90
       50
176
     1
 40
0.0
176
     1
 40
1.0
176
     1
 90
        0
176
     1
 62
    18
420
        0
176
     1
 90
       50
176
     1
 90
        3
176
     1
 62
     5
420
      255
176
     1
290
     0
176
     1
 90
       50
176
     1
 90
       50
176
     1
 90
       50
176
     1
290
     0
176
     1
 90
       50
176
     1
 62
   256
176
     0
 40
1.0
176
     0
 90
        2
176
     1
  1
strokes_ogs.tif
176
     1
290
     0
176
     1
 40
1.0
176
     1
 40
1.0
176
     1
  0
VISUALSTYLE
  5
1F0
102
{ACAD_REACTORS
330
EF
102
}
330
EF
100
AcDbVisualStyle
  2
Sketchy
 70
    24
177
     3
291
     0
 70
    58
 90
        1
176
     1
 90
        2
176
     1
 90
        2
176
     1
 90
        0
176
     1
 40
0.6
176
     1
 40
30.0
176
     1
 62
     7
420
 16777215
176
     1
 90
        2
176
     1
 90
        2
176
     1
 62
     7
176
     1
 62
     7
176
     1
 90
        1
176
     1
 90
        1
176
     1
 40
40.0
176
     1
 90
       11
176
     1
 62
     7
176
     1
 40
1.0
176
     1
 90
        1
176
     1
 90
        6
176
     1
 90
        2
176
     1
 62
     7
176
     1
 90
        6
176
     1
 90
        0
176
     1
 90
        0
176
     1
290
     0
176
     1
 90
        1
176
     1
 40
0.0
176
     1
 90
        0
176
     1
290
     0
176
     1
290
     1
176
     1
290
     1
176
     1
290
     0
176
     1
290
     0
176
     1
290
     0
176
     1
290
     0
176
     1
290
     0
176
     1
290
     0
176
     1
 90
       50
176
     1
 40
0.0
176
     1
 40
1.0
176
     1
 90
        0
176
     1
 62
    18
420
        0
176
     1
 90
       50
176
     1
 90
        3
176
     1
 62
     5
420
      255
176
     1
290
     0
176
     1
 90
       50
176
     1
 90
       50
176
     1
 90
       50
176
     1
290
     0
176
     1
 90
       50
176
     1
 62
   256
176
     0
 40
1.0
176
     0
 90
        2
176
     1
  1
strokes_ogs.tif
176
     1
290
     0
176
     1
 40
1.0
176
     1
 40
1.0
176
     1
  0
VISUALSTYLE
  5
FC
102
{ACAD_REACTORS
330
EF
102
}
330
EF
100
AcDbVisualStyle
  2
Thicken
 70
    13
177
     3
291
     1
 70
    58
 90
        2
176
     1
 90
        2
176
     1
 90
        1
176
     1
 90
        0
176
     1
 40
0.6
176
     1
 40
30.0
176
     1
 62
     7
420
 16777215
176
     1
 90
        1
176
     1
 90
        4
176
     1
 62
     7
176
     1
 62
   257
176
     1
 90
        1
176
     1
 90
        1
176
     1
 40
1.0
176
     1
 90
       12
176
     1
 62
     7
176
     1
 40
1.0
176
     1
 90
        1
176
     1
 90
        6
176
     1
 90
        2
176
     1
 62
     7
176
     1
 90
        5
176
     1
 90
        0
176
     1
 90
        0
176
     1
290
     0
176
     1
 90
        1
176
     1
 40
0.0
176
     1
 90
        0
176
     1
290
     0
176
     1
290
     1
176
     1
290
     1
176
     1
290
     0
176
     1
290
     0
176
     1
290
     0
176
     1
290
     0
176
     1
290
     0
176
     1
290
     0
176
     1
 90
       50
176
     1
 40
0.0
176
     1
 40
1.0
176
     1
 90
        0
176
     1
 62
    18
420
        0
176
     1
 90
       50
176
     1
 90
        3
176
     1
 62
     5
420
      255
176
     1
290
     0
176
     1
 90
       50
176
     1
 90
       50
176
     1
 90
       50
176
     1
290
     0
176
     1
 90
       50
176
     1
 62
   256
176
     0
 40
1.0
176
     0
 90
        2
176
     1
  1
strokes_ogs.tif
176
     1
290
     0
176
     1
 40
1.0
176
     1
 40
1.0
176
     1
  0
VISUALSTYLE
  5
F6
102
{ACAD_REACTORS
330
EF
102
}
330
EF
100
AcDbVisualStyle
  2
Wireframe
 70
     5
177
     3
291
     0
 70
    58
 90
        0
176
     1
 90
        2
176
     1
 90
        0
176
     1
 90
        0
176
     1
 40
0.6
176
     1
 40
30.0
176
     1
 62
     7
420
 16777215
176
     1
 90
        1
176
     1
 90
        4
176
     1
 62
     7
176
     1
 62
   257
176
     1
 90
        1
176
     1
 90
        1
176
     1
 40
1.0
176
     1
 90
        0
176
     1
 62
   257
176
     1
 40
1.0
176
     1
 90
        1
176
     1
 90
        6
176
     1
 90
        2
176
     1
 62
     7
176
     1
 90
        3
176
     1
 90
        0
176
     1
 90
        0
176
     1
290
     0
176
     1
 90
        1
176
     1
 40
0.0
176
     1
 90
        0
176
     1
290
     0
176
     1
290
     1
176
     1
290
     1
176
     1
290
     0
176
     1
290
     0
176
     1
290
     0
176
     1
290
     0
176
     1
290
     0
176
     1
290
     0
176
     1
 90
       50
176
     1
 40
0.0
176
     1
 40
1.0
176
     1
 90
        0
176
     1
 62
    18
420
        0
176
     1
 90
       50
176
     1
 90
        3
176
     1
 62
     5
420
      255
176
     1
290
     0
176
     1
 90
       50
176
     1
 90
       50
176
     1
 90
       50
176
     1
290
     0
176
     1
 90
       50
176
     1
 62
   256
176
     0
 40
1.0
176
     0
 90
        2
176
     1
  1
strokes_ogs.tif
176
     1
290
     0
176
     1
 40
1.0
176
     1
 40
1.0
176
     1
  0
VISUALSTYLE
  5
1F1
102
{ACAD_REACTORS
330
EF
102
}
330
EF
100
AcDbVisualStyle
  2
X-Ray
 70
    25
177
     3
291
     0
 70
    58
 90
        2
176
     1
 90
        2
176
     1
 90
        1
176
     1
 90
        1
176
     1
 40
0.5
176
     1
 40
30.0
176
     1
 62
     7
420
 16777215
176
     1
 90
        1
176
     1
 90
        0
176
     1
 62
     7
176
     1
 62
   257
176
     1
 90
        1
176
     1
 90
        1
176
     1
 40
1.0
176
     1
 90
        8
176
     1
 62
     7
176
     1
 40
1.0
176
     1
 90
        1
176
     1
 90
        6
176
     1
 90
        2
176
     1
 62
     7
176
     1
 90
        3
176
     1
 90
        0
176
     1
 90
        0
176
     1
290
     0
176
     1
 90
       13
176
     1
 40
0.0
176
     1
 90
        0
176
     1
290
     0
176
     1
290
     1
176
     1
290
     1
176
     1
290
     0
176
     1
290
     0
176
     1
290
     0
176
     1
290
     0
176
     1
290
     0
176
     1
290
     0
176
     1
 90
       50
176
     1
 40
0.0
176
     1
 40
1.0
176
     1
 90
        0
176
     1
 62
    18
420
        0
176
     1
 90
       50
176
     1
 90
        3
176
     1
 62
     5
420
      255
176
     1
290
     0
176
     1
 90
       50
176
     1
 90
       50
176
     1
 90
       50
176
     1
290
     0
176
     1
 90
       50
176
     1
 62
   256
176
     0
 40
1.0
176
     0
 90
        2
176
     1
  1
strokes_ogs.tif
176
     1
290
     0
176
     1
 40
1.0
176
     1
 40
1.0
176
     1
  0
DICTIONARYVAR
  5
146
102
{ACAD_REACTORS
330
5E
102
}
330
5E
100
DictionaryVariables
280
     0
  1
1:1
  0
DICTIONARYVAR
  5
145
102
{ACAD_REACTORS
330
5E
102
}
330
5E
100
DictionaryVariables
280
     0
  1
STANDARD
  0
DICTIONARYVAR
  5
84
102
{ACAD_REACTORS
330
5E
102
}
330
5E
100
DictionaryVariables
280
     0
  1
STANDARD
  0
DICTIONARYVAR
  5
227
102
{ACAD_REACTORS
330
5E
102
}
330
5E
100
DictionaryVariables
280
     0
  1
Metric50
  0
DICTIONARYVAR
  5
228
102
{ACAD_REACTORS
330
5E
102
}
330
5E
100
DictionaryVariables
280
     0
  1
Metric50
  0
DICTIONARYVAR
  5
5F
102
{ACAD_REACTORS
330
5E
102
}
330
5E
100
DictionaryVariables
280
     0
  1
2
  0
DICTIONARYVAR
  5
63
102
{ACAD_REACTORS
330
5E
102
}
330
5E
100
DictionaryVariables
280
     0
  1
1
  0
DICTIONARYVAR
  5
1AE
102
{ACAD_REACTORS
330
5E
102
}
330
5E
100
DictionaryVariables
280
     0
  1
0
  0
DICTIONARYVAR
  5
1AF
102
{ACAD_REACTORS
330
5E
102
}
330
5E
100
DictionaryVariables
280
     0
  1
0
  0
XRECORD
  5
9235
102
{ACAD_REACTORS
330
9233
102
}
330
9233
100
AcDbXrecord
280
     1
  1
AcLyLayerGroup
 90
        1
300
1. Inskripzio-laukia
330
485
330
6C6
330
659
330
7AC
330
7AE
330
7AD
  0
XRECORD
  5
9236
102
{ACAD_REACTORS
330
9233
102
}
330
9233
100
AcDbXrecord
280
     1
  1
AcLyLayerGroup
 90
        1
300
2. Egitura
330
FC8
330
FC5
330
FC4
330
FC3
330
150C
330
24FF
  0
XRECORD
  5
9237
102
{ACAD_REACTORS
330
9233
102
}
330
9233
100
AcDbXrecord
280
     1
  1
AcLyLayerGroup
 90
        1
300
3. Arotzeria
330
FC9
330
FC7
330
FC6
  0
XRECORD
  5
9238
102
{ACAD_REACTORS
330
9233
102
}
330
9233
100
AcDbXrecord
280
     1
  1
AcLyLayerGroup
 90
        1
300
4. Zorua
330
8D45
330
45C5
330
4035
  0
XRECORD
  5
9239
102
{ACAD_REACTORS
330
9233
102
}
330
9233
100
AcDbXrecord
280
     1
  1
AcLyLayerGroup
 90
        1
300
5. Altzariak
330
1874
  0
XRECORD
  5
923A
102
{ACAD_REACTORS
330
9233
102
}
330
9233
100
AcDbXrecord
280
     1
  1
AcLyLayerGroup
 90
        1
300
6. Elementuak
330
253B
  0
XRECORD
  5
923B
102
{ACAD_REACTORS
330
9233
102
}
330
9233
100
AcDbXrecord
280
     1
  1
AcLyLayerGroup
 90
        1
300
7. Datuak
330
14FC
330
4129
330
3AB1
330
9232
  0
XRECORD
  5
923C
102
{ACAD_REACTORS
330
9233
102
}
330
9233
100
AcDbXrecord
280
     1
  1
AcLyLayerGroup
 90
        1
300
8. Irisgarritasuna
330
3B73
  0
DICTIONARY
  5
22E2
330
188F
100
AcDbDictionary
280
     1
281
     1
  3
ACAD_XREC_ROUNDTRIP
360
9A07
  0
DICTIONARY
  5
236
330
21C
100
AcDbDictionary
280
     1
281
     1
  3
ACAD_XREC_ROUNDTRIP
360
9A05
  0
DICTIONARY
  5
205
330
22
100
AcDbDictionary
280
     1
281
     1
  0
DICTIONARY
  5
1F9
330
ED
100
AcDbDictionary
280
     1
281
     1
  3
FBXASSET
360
1FA
  0
DICTIONARY
  5
1F7
330
EC
100
AcDbDictionary
280
     1
281
     1
  3
FBXASSET
360
1F8
  0
DICTIONARY
  5
173
330
EE
100
AcDbDictionary
280
     1
281
     1
  3
BUMPTILE
360
175
  3
DIFFUSETILE
360
174
  3
FBXASSET
360
1FB
  3
OPACITYTILE
360
176
  3
REFLECTIONTILE
360
177
  0
DICTIONARY
  5
22E0
330
188E
100
AcDbDictionary
280
     1
281
     1
  3
ACAD_XREC_ROUNDTRIP
360
9A06
  0
DICTIONARY
  5
234
330
21A
100
AcDbDictionary
280
     1
281
     1
  3
ACAD_XREC_ROUNDTRIP
360
9A04
  0
DICTIONARY
  5
162
330
7F
100
AcDbDictionary
280
     1
281
     1
  3
ACAD_ROUNDTRIP_2008_TABLESTYLE_CELLSTYLEMAP
360
9A03
  0
XRECORD
  5
9A07
102
{ACAD_REACTORS
330
22E2
102
}
330
22E2
100
AcDbXrecord
280
     1
102
DISPLAYNAME
  1
Imperial24
102
FLAGS
 90
        0
  0
XRECORD
  5
9A05
102
{ACAD_REACTORS
330
236
102
}
330
236
100
AcDbXrecord
280
     1
102
DISPLAYNAME
  1
Metric50
102
FLAGS
 90
        0
  0
XRECORD
  5
1FA
102
{ACAD_REACTORS
330
1F9
102
}
330
1F9
100
AcDbXrecord
280
     1
 70
     1
 90
429727718
  1
D62C5603-E3A1-4AEA-B7FB-FE5D8D0755AF
310
504B03040A0000080000CC70623B3DEE336E79000000790000001B0000006175746F6465736B2D64657369676E2D7061636B6167652E786D6C3C3F786D6C2076657273696F6E3D22312E302220656E636F64696E673D227574662D3822203F3E3C666F726D6174733E3C666F726D61743E687474703A2F2F736368656D612E
310
6175746F6465736B2E636F6D2F64657369676E2D7061636B6167652F323030393C2F666F726D61743E3C2F666F726D6174733E504B0304140006080800CC70623BD486FD9CA0000000F4000000130000005B436F6E74656E745F54797065735D2E786D6C7D8EC10E82300C865F65E91D8A1E8C310C0EEA1BF002731658846E
310
D98AC1B77784ABF1D8FE5FBFBF75BBCE937A534CCEB38643598122B6FEE978D0B0485F9C41B54DDD7D022595594E1A469170414C76A4D9A4D207E29CF43ECE46F218070CC6BECC4078ACAA135ACF422C856C0E68EA1BF5669944DDD7BCDE7B1F8E415D77AECB980613C2E4AC91FC167A2B244592486606FC29C8FD7F045B9A
310
EF7053A7E60B504B0304140006080800CC70623B853B8169EB0000007C01000008000000636F72652E786D6C8D90416EC3201045AF62CDB6C206821CC7C244919D9CA01740401C94182C03558F5F9C3852BBEB6A467FFE9B197D7EFC9E1EC5975982F5AE035262288C535E5B377690E21535501C055FBC8FBF6C503839990E
310
5619041F179FE64D52DE45E362569DD7661365082642A11EB9E920A89B99642953CC8E702F67A9EE7234257977194EC9EAE275C4EABCCF5EAD5940D4AC6F0E35A568B8F43562CD7046CD199FD07E60174276A7BE677B5EADB0E0D14EEFFB6A31321A0D82627C4084204C3F096B71DD52F6819B16635EADF63F509AF53FA164
310
5DDCD1EDDD17164090FCC8732078B56691CB33A85CD7DCC40F504B0304140006080800CC70623B55019EA25F0000007C00000007000000636E782E786D6C4DCB3B0E80201045D1AD90E915ED2CF8AC45050C11660C8261F98AB1B07AC9C97D42D718D865D3E909258CFD00CCE24AC6E326A164D74DC0B4128928FF32603847
310
2BA13128B1252AC747C6BAB984FC68F0B87FE8960A5C09FE86CFB69FBA01504B0304140006080800CC70623BDBABAAF470010000D40300000C0000006662782F636F72652E786D6CC553D16E823014FD95A6AF4B694182CC941A83FA05FB810A9511A125A5257EFE2E82712ECEB8A7F100CD39F7F69E734AF9FADC366850B6
310
AF8DCE7018308C942E4C59EB2AC3DE1D498AD15A706B8CFB56869196ADCAF00863C12B6B7C374385D14E6907A836A59A41D9F7CA615434B0C8705F7CAA5606D23BA8E84F41278B93AC54100640439DE0BDB320004D43C63716C7C399D30917DCFBBA9CD9BA8469F5B156168B24CED3F7248AC8769F27244EB73B92EED8862C
310
B7F13E0C179B3C8F979C8ECD82BBBABDAA2BAC924E9558448CBD9330242CFA08E3154B5651FCC6D215639C8EE5774DBE2B5F6CF2B5768B68963BB5F5588420E442FC700B1139D4CB01F450C1E918227C2E09DF070D8140C84E1E9AAB8F1340832A9CB13130A5F1376A908D57309505ECF2A0DF179C4E9D30F5B239B87E3823
310
7A79C6F31DE1A8A5AEC08474B03C7837EAE4938639B44E5932B833D2C6B6B279CDC613877FA26EE21F4A2A4C63EC7F29A2F301D1F9F7A0E37D145F504B0304140006080800CC70623B9C113CC27E0000009D0000000B0000006662782F636E782E786D6C4DCCDF0A83201C86E15B91DFB94BFB330DD428C8FB886521330DA7
310
6397BF1A1DECE883878F57749FCDA1B7892F1BBC047A23808C7F84D9FA55424E0BE6803A256208E9EF06C84F9B91703228B1C690F78B66B34CD9A5439DF5CF0BFBF65E35BCA1B8D6A5C6F540381E886698B5741C695F9503EBA150A2F8958E3DC3EA0B504B0304140006080800CC70623B7DF2F77C2A010000120200003100
310
00006662782F41393633353835312D344632462D344230382D423046372D3739314545314133324237412F636F72652E786D6C8D51DB8EC22014FC15C2939B0D2DB4B45643319AE817EC0F6041255A68B86CFCFC856D4D76DF7CE190393373060EDB3DC707F856CE6B6B7A480A0C81328395DA5C7B18C3057510EC3873D686
310
3F34088C18550F330C39BB3A1BA7051AAC09CA84841A2BD5020AEF55806078A44B0FFD7053A328440C89E1EFC52486BBB8AA8214A99D789CF9E05200300FC927E4FB4D5B375D43103D5527440FB843077C5AA3F5861C8F645F5787F59E95B390B318B55CE45AA638FAA2957BD7248B390B7A7CC51F9C124149C82B8C378810
310
84AB2F42B7B8DD56F413775B8C5999E9FF4471926F8AA236A1AE96B8B3CC434E5839373893369E1FAF30EA395917409EB7F26AF8801C171837A4A6AC9C89E9F9C9B1A58BA30FD6A5EF5DDDCF894B9AD9B6A59C957943A9FCAE2FD5BC4DFE03504B0304140006080800CC70623BAD7543B64E01000033030000300000006662
310
782F41393633353835312D344632462D344230382D423046372D3739314545314133324237412F636E782E786D6CD593CD6EC32010845F0571AD6CE3D48AD20813A9873E410FBD12D82434182C7EAAE6EDBB2424CD25871E7B41D6EC30B3FA84F9E67BB2E40B4234DE8DB46F1925E094D7C6ED479AD3AE5951B2113C789FEE
310
6C943839C1488B4C05DF079FE72A69D8C96C13AAD6B8631503449F83828872B949AC57D26200B826A308D316B4064D6E46FCDA41C05550DC9E483A00797BFD207EFB092A45DE9514C1BBD22178396BD39D891265658C238DEA00936C654E5E433CB65A26D9F6EDB5EBC14EBF49A45CB856E66048291F6939A9A81BB5C89177
310
38143CA680F4AA299D66A042CEB3354A2684DC9D8D178FE0D9B8B41CAAD720F880EE7EF93C0C18769E099ECC04D5A102C8049A8A05632F4DDF376CF1DE0F6BB65C2F8627B65A33C6BB62177CEBBDAD973006829F89F22E814B54F4BC2BE347F8AA8F681390B50FA73F804400B5F542E796F19FF974E7F78DB802FE05E20750
310
4B0304140006080800CC70623BE75B7789680500003C100000340000006662782F41393633353835312D344632462D344230382D423046372D3739314545314133324237412F6F626A656374732E786D6CAD575B8F9B3818FD2B887D06C22499CB8AA1CA655245D5B455A356FB305264C061D8018C6C3393D95FBFC7600890
310
A4CD5EF210B0B1BFEBF98E3F7B1FF6596ABC522E1296DF9BAE3D320D9A872C4AF2F8DE2CE5CEBA358D0FBEC719939D65A691938CDE9B6ADAF4BD98B3B2D05311DD91329583D9D5FC0F438434A7A611A644887B5384CF34233629258BA878B12322891DEFF6B66BD70BFB62634E8AE781D082709A4B588AF91C528CDA28B73F
310
1C998EEF39EABBEFA97FBD6A7C7E9553F9D3D79FE442923C3C523610337627CB87ABE99D359D4CC6D6E4FACAB5E6ABF9D2726FC6A3C5F56271377BB88362213924694B38DD99FE47C48627A1E7D49F5A8BB5E1A74C0A599ED3B0F21F1E56366B89112D681E218F0915D0D6F17AD41FBA2A369DCF6335D62ABBD39779D5DDD1
310
11D4D8DE3CBB96B2E04FB8202E41051754A1AA8E8F76B4C6DFE810B580B1547F4B84911149794252234D024EF8BBE963A95AE27B3D310A9D5C215C7960FAEE415ED75694C6AFB17BCACA5D99A60A9AA65F217B0BFC53292ACB92BF283FAD0D3621576592CB5BED907C2FA8E9DF794E35E97BEA31BED21FEB401ABB94C44839
310
DCACBF0E1C5DA8DA5B2F4DFFD32AD86F543D9E565E7056502E157C00AD2671CD534549AB752FCA9CDA00677A313F04E51B22FF19E57B300579E3C97EB29F682D92935CEC18CF901B7B54FD8C51F362B56FC72FE0B3C1EAE335EDCCBF5AEC39ADB17DC238973F804BA5E6F6BFE7AF1FB32E523BE9F3BD571418E3631DCA4D48
310
5250CF639223210A9446CA30052EDF057BD35F8329C1ECD84552BF0DC8D18BE7BCE23BFE6BD960AB4A7DE79923A103BEBD80F911CBAA2C60DB19B01CF164A5583B772EE6D3FFA56666CBCDA74DC97724A48F9A58967497E489C4D979006FD7A05E227A1EBDD0F737C623387A9C844D3709995625106D157315F8B8392CD4E0
310
A0B9A720C4BE9829CEF37EA1E13111214D53925356365ADA634861B52519DD27A00AEB808EAF0628E6F435519D446F45CF2C9CF5214F0A15B2F6D06B79DA3EE3CBF7F56780D2F4E7EF73A0F5E5B02A38D07DC852C6B7C1FBB6664213E0C39E3EBA7FF4E1AD23EA2829407C85E586727488B751B2DB9502BC7B228A3FD68B6E
310
A65A22397E690AA8D158D7E404EC8CDA235CC3B7D1898680131CEC2CDF2638C65196279577750F15884AEE19F94199155B92B13297978469D4F8D358DF0AEF7631E28DC8F0D9F437D5D39A83B2231A1D52D543813A824EF8D44BCFF2FA6A31BD1E8DAD87F1CCB526B3879935BF59CDADD5C37479BB1CDD4CA7B3556B516589
310
EF352754B706114D9C885EC9131DE6EFEB43D99AFE2391C2F958179413D7CFEF6B1B6DB1E7600F00DE6E5C67454A339A4BA2E0FBA85ED26F045D454F463DBFCE484C2F90F2E5E3666003662ED8F755951A7D1BECD5B30B550B2785C8E7320B7292A4838DDA71BBC863ED7613CAF659337A3354231D4FF4A182A54904C2898C
310
98B28C4AD0CE056CCF332A80986E571EE9DBC305BB5FEB7E509220A58D25CF042D712A806AC0AD0C657FDEF80D2D9CEAA2EE4D1C76F60BFE74219A06527D6F82DF6412526107381E55E353090704D085B52408A8913C4ED159D79BDA71BB4BC506F4831350EB6F975CD22D69BF7AC49B91A2C0A9DDA3D5CA36AD20FC478E37
310
E61844E2352865EBCB61A275A65283CAAA9DD27703B4102F5AF51EF5F573B75CBB5AD38BC845F7A49F82A0966A49C2E3EA5EA0ECD326CD965F1DB402C6FA8B51A4658C5C5E2EC9E214602E55810345408596591009A82E7E7FFACA19EEA299B14A0081A705CB3296EBC14CDF658DCD336EA6D1136881AAEB87B81AB9EE53D5
310
F5EB8BC8362082DA24122F98680A4E7930C01A0079749CEA14382A0783E5EBA5A10F8C098456A03D6A4AEB6BB881E2513747552A5DB22C7EDAF83BD5528081A365F7FF06504B0304140006080000CC70623B000000000000000000000000350000006662782F41393633353835312D344632462D344230382D423046372D37
310
39314545314133324237412F76657274696365732E62696E504B0304140006080800CC70623BF270F1330600000004000000360000006662782F41393633353835312D344632462D344230382D423046372D3739314545314133324237412F747269616E676C65732E62696E636660600000504B0304140006080000CC7062
310
3B000000000000000000000000370000006662782F41393633353835312D344632462D344230382D423046372D3739314545314133324237412F617474726962757465732E62696E504B0304140006080800CC70623B08DA0BD19000000041010000360000006662782F41393633353835312D344632462D344230382D4230
310
46372D3739314545314133324237412F6469726563746F72792E786D6C858F410AC3201045AF22B36F53E9A60B35CBEEBAE80D244E44489C6234F4F835464A48035D0DF398FF9F8AF63D0E6CC63039F212F8F9020C7D47C6792B21C5FE7403D62A1188E2E60C98D7234A5830286103A55745067B9D86B8A3CF9C7F90C11DE6
310
07FB144396D7B6A82D282E9A152AD114D5EF2CB866EEE831B8EEA07A7BB5A8D7D61A2BAAEB7FD5F70921FF497D00504B0304140006080800CC70623BEDD1DC58FD000000A00100003B0000006662782F41393633353835312D344632462D344230382D423046372D3739314545314133324237412F7265736F75726365732F
310
636F72652E786D6C8D504B6E833010BD0A9A6D65B00922041947112427E8052C33A156828DFCA97AFC9A40A576D7CDCCE87D344F8F9FBFE667F689CE6B6B3A6039850C8DB2A336530731DC4903D95970676DF82583CCC8193B5861107C72362E3BA4AC096842428D1D7107A5F7182053CF7474E0D507CE32973124857FE48B
310
540F3961CEF244279DE03EB81420DB9EAC1384436FA353E879B1B182C7A8C75DA3C7F453DF353A1075D537A7BA6464B8F535A99AE14A9A2BBD90E350DD183B5CFABE3AF262350B1EF4FC9351399401471025A527C218A1E53BAB5A5AB765F5469B96525EACF23FA6B88CFF34456DC2A1DCE36E360F82A5202F42F062ED2BAD
310
579969AFDD8A6F504B010214000A0000080000CC70623B3DEE336E79000000790000001B00000000000000000000000000000000006175746F6465736B2D64657369676E2D7061636B6167652E786D6C504B01021400140006080800CC70623BD486FD9CA0000000F40000001300000000000000000000000000B20000005B
310
436F6E74656E745F54797065735D2E786D6C504B01021400140006080800CC70623B853B8169EB0000007C010000080000000000000000000000000083010000636F72652E786D6C504B01021400140006080800CC70623B55019EA25F0000007C000000070000000000000000000000000094020000636E782E786D6C504B
310
01021400140006080800CC70623BDBABAAF470010000D40300000C00000000000000000000000000180300006662782F636F72652E786D6C504B01021400140006080800CC70623B9C113CC27E0000009D0000000B00000000000000000000000000B20400006662782F636E782E786D6C504B01021400140006080800CC70
310
623B7DF2F77C2A010000120200003100000000000000000000000000590500006662782F41393633353835312D344632462D344230382D423046372D3739314545314133324237412F636F72652E786D6C504B01021400140006080800CC70623BAD7543B64E010000330300003000000000000000000000000000D2060000
310
6662782F41393633353835312D344632462D344230382D423046372D3739314545314133324237412F636E782E786D6C504B01021400140006080800CC70623BE75B7789680500003C10000034000000000000000000000000006E0800006662782F41393633353835312D344632462D344230382D423046372D3739314545
310
314133324237412F6F626A656374732E786D6C504B01021400140006080000CC70623B0000000000000000000000003500000000000000000000000000280E00006662782F41393633353835312D344632462D344230382D423046372D3739314545314133324237412F76657274696365732E62696E504B01021400140006
310
080800CC70623BF270F133060000000400000036000000000000000000000000007B0E00006662782F41393633353835312D344632462D344230382D423046372D3739314545314133324237412F747269616E676C65732E62696E504B01021400140006080000CC70623B0000000000000000000000003700000000000000
310
000000000000D50E00006662782F41393633353835312D344632462D344230382D423046372D3739314545314133324237412F617474726962757465732E62696E504B01021400140006080800CC70623B08DA0BD1900000004101000036000000000000000000000000002A0F00006662782F41393633353835312D344632
310
462D344230382D423046372D3739314545314133324237412F6469726563746F72792E786D6C504B01021400140006080800CC70623BEDD1DC58FD000000A00100003B000000000000000000000000000E1000006662782F41393633353835312D344632462D344230382D423046372D3739314545314133324237412F7265
310
736F75726365732F636F72652E786D6C504B0506000000000E000E0080040000641100000000
  0
XRECORD
  5
1F8
102
{ACAD_REACTORS
330
1F7
102
}
330
1F7
100
AcDbXrecord
280
     1
 70
     1
 90
429727718
  1
30362254-06B7-45E0-A893-8CFA70E3D6BC
310
504B03040A0000080000CC70623B3DEE336E79000000790000001B0000006175746F6465736B2D64657369676E2D7061636B6167652E786D6C3C3F786D6C2076657273696F6E3D22312E302220656E636F64696E673D227574662D3822203F3E3C666F726D6174733E3C666F726D61743E687474703A2F2F736368656D612E
310
6175746F6465736B2E636F6D2F64657369676E2D7061636B6167652F323030393C2F666F726D61743E3C2F666F726D6174733E504B0304140006080800CC70623BD486FD9CA0000000F4000000130000005B436F6E74656E745F54797065735D2E786D6C7D8EC10E82300C865F65E91D8A1E8C310C0EEA1BF002731658846E
310
D98AC1B77784ABF1D8FE5FBFBF75BBCE937A534CCEB38643598122B6FEE978D0B0485F9C41B54DDD7D022595594E1A469170414C76A4D9A4D207E29CF43ECE46F218070CC6BECC4078ACAA135ACF422C856C0E68EA1BF5669944DDD7BCDE7B1F8E415D77AECB980613C2E4AC91FC167A2B244592486606FC29C8FD7F045B9A
310
EF7053A7E60B504B0304140006080800CC70623B1EC5D7A3EB0000007C01000008000000636F72652E786D6C8D90416EC3201045AF82665B6103C6756C6122AB4D4ED00B204C5C94182C03558F5F9C3852BBEB6A467FFE9B197D71FC9E6FE8CBACC17AD7032D0820E3B41FAD9B7A48F1820F808E52ACDEC75F36404ECDA687
310
4D0629A6D5A76597B477D1B89855E747B38B2A041301E95B6E7A08FAD3CCAA50296647B8168BD2573599823EBB0CA76447F43862C7BCCF5EAC59410E4DDD9C7973C2755553CCCFA4C603E3040F1565ED3B1FDE4E432BCA0D9622DAF9795FAF464533826484B498524CD807E51D79ED187F21878E10516EF63F505AC67F42C9
310
BA58B1FDDD071640D2FCC87D2045B96591CB3DA85CB7DCE40F504B0304140006080800CC70623B55019EA25F0000007C00000007000000636E782E786D6C4DCB3B0E80201045D1AD90E915ED2CF8AC45050C11660C8261F98AB1B07AC9C97D42D718D865D3E909258CFD00CCE24AC6E326A164D74DC0B4128928FF32603847
310
2BA13128B1252AC747C6BAB984FC68F0B87FE8960A5C09FE86CFB69FBA01504B0304140006080800CC70623B8C9102E971010000D40300000C0000006662782F636F72652E786D6CC5535B6E833010BC8AE5DF0A6C08340F1947A84D4ED00B38C6A128602363A31CBFCB234A53A551FA553EC09AD9F5CE8C31DB9E9B1AF5CA
310
7695D1198E428A91D2D214952E33ECDD315861B4E5CC1AE3BE9561A445A3323CC098B3D21ADFCE9034DA29ED00D5A6503328BA4E398C640D8B0C77F253352214DE4145770A5B214FA2546114020D759C75CE8200340D19DE981F0F6746269C33EFAB6266AB02A655C74A59CCF365BADC27CB5D902ED22848F6340DF238A141
310
BE88E2F57B92BFEDF23523433367AE6A2EEAA455C2A902F398D2751045018D3FA264435F3771F242571B4A1919CA6F9A7C5B3CD9E42BED16F12C776AEB308F40C848FC700B1139D4891EF410CEC810227CC6846F8386402064270EF5C5C709A05E49676C024C61FC95EA45ED154CA5211D1FF4FB8291A913A68E9B83EBBB33
310
E2A7673CDE118E5AE8124C0807CB8377834E366998436B950D7A7746DAD846D4CFD978E0F04FD455FC5D49D2D4C6FE9722321F10997F0F32DC47FE05504B0304140006080800CC70623BFFEA85907E0000009D0000000B0000006662782F636E782E786D6C4DCCD10A83201886E15B91FFDC95D95A811AB6F23E625948A6C3
310
E9D8E5AF46073BFAE0E1E365ED67B3E8ADC3CB78C7815C7240DA3DFC64DCC221C519D7805AC182F7F1EF06C88D9BE6703008B6049F9E274D7A1E938DBB5AE3D6131B2589BA0D3D965551E0B2EA732C9B9A624AAEB41E3A557677029960D9AFB4EF11165F504B0304140006080800CC70623B4FEEA4082C0100001202000031
310
0000006662782F39464131463745442D413632322D343644302D413938332D3331353338454246344243312F636F72652E786D6C8D515B6EC32010BC0AE2AB55850DD871ED0813254D72825EC00192A2C460F1A872FC42ED48ED5F7E00CDCECCCEB26C731F6FE05B39AFADE921293004CA082BB5B9F43086336A21D870E6AC
310
0D7F68109861543DCC30E4ECE26C9C164858139409093556AA051CBC570102714B8F1E7AF1A5C6A11862480C7F2DA6415C878B2A4891CA89C7990F2E050073937C42DE1DB7E4F87ED8A36D4329AA9B3D46DBAEAD504556557BD81DEBDD0761E52CE42C462D17B996298E3E6BE59E35C962CE821E1FF18553435012728A7187
310
0841987E927A8D9B35ADDF70BBC6989599FE4F1427F9A4286A132ABAC49D651EF234CD5CE04CDA78BA3DC2A8FB645D00B9DF8B57E215725C60BCA2A463E54C4CE327C7A65E1C7DB02E7DEFCBF594B864C5CA6CDBD49C957943E9FA5D5FBAF336F90F504B0304140006080800CC70623BAD7543B64E01000033030000300000
310
006662782F39464131463745442D413632322D343644302D413938332D3331353338454246344243312F636E782E786D6CD593CD6EC32010845F0571AD6CE3D48AD20813A9873E410FBD12D82434182C7EAAE6EDBB2424CD25871E7B41D6EC30B3FA84F9E67BB2E40B4234DE8DB46F1925E094D7C6ED479AD3AE5951B2113C
310
789FEE6C943839C1488B4C05DF079FE72A69D8C96C13AAD6B8631503449F83828872B949AC57D26200B826A308D316B4064D6E46FCDA41C05550DC9E483A00797BFD207EFB092A45DE9514C1BBD22178396BD39D891265658C238DEA00936C654E5E433CB65A26D9F6EDB5EBC14EBF49A45CB856E66048291F6939A9A81BB5
310
C8917738143CA680F4AA299D66A042CEB3354A2684DC9D8D178FE0D9B8B41CAAD720F880EE7EF93C0C18769E099ECC04D5A102C8049A8A05632F4DDF376CF1DE0F6BB65C2F8627B65A33C6BB62177CEBBDAD973006829F89F22E814B54F4BC2BE347F8AA8F681390B50FA73F804400B5F542E796F19FF974E7F78DB802FE05
310
E207504B0304140006080800CC70623B16AB87BA640500003C100000340000006662782F39464131463745442D413632322D343644302D413938332D3331353338454246344243312F6F626A656374732E786D6CAD575B6FA33818FD2B887DE6924B3BED8A326A92B68A663B534DD4D13E548A0C38942D60649B369D5FBFC7
310
600890A493BDE42160637FD7F31D7FF63E6FB3D478A55C242CBF3247B66B1A340F5994E4F19559CA8D75611A9F7D8F33263BCB4C232719BD32D5B4E97B316765A1A722BA21652A07B3B7B33F0D11D29C9A46981221AE4C113ED38CD8A4942CA2E2C58E882476BCD9DA23BB5ED8171B73523C0F841684D35CC252CCE79062D4
310
468DFA43D7747CCF51DF7D4FFDEB5593E3AB9CCA9FBEFE241792E4E19EB28198C968BAB8199F5D5A67D3E9C49A9E8F47D6EC76B6B0469F26EEFC7C3EBFBCBEB98462213924694B38DD98FE1D62C393D073EA4FADC5DAF04326852CCF6958F90F0F2B9BB5C48816348F90C7840A68EB78EDF68723159BCEE7891A6B95DDE9D3
310
BCEAEEE8086A6C6F9E5D4B59F0175C10A7A0820BAA5055C7473B5AE3CFDD452D602CD5DF12616444529E90D448938013FE6EFA58AA96F85E4F8C42275708571E98FE6827AF6B2B4AE3D7D83D64E5A64C53054DD3AF90BD06FEA9149565C94FCA0F6B834DC85599E4F2423B24DF0B6AFA979E534DFA9E7A4CC6FA631D486393
310
921829879BF5D781A373557BCB85E97FB90DB62B558F8795179C15944B051F40AB495CF35451D26A4727654E6D8033BD98EF82F21D91FF8AF2DD9982BCF1643BDD4EB516C9492E368C67C88DED563FC36D5EACF66DFF057C3658BDBFA69DF9578B3DA735B64F18C7F20770A9D45CFCF7FCF563D6456A277DBEF78A02637CA2
310
43B90A490AEAB94F72244481D24819A6C0E59B606BFA4B3025981DBB48EAB701D97BF19C577CC77F2D1B6C55A9EF3C732474C0B727303F625995056C3B02963D9EAC146BE78EC5FCEC7FA999EBC5EACBAAE41B12D27B4D2C0BBA49F244E2ECDC81B76B502F113D8F5EE8FB1BE3111CDD4FC2AA9B844CAB1288B68AB90A7CDC
310
1C166AB0D3DC5310625FCC14E779BFD0709F8890A629C9292B1B2DED31A4B0DA928CEE135085754027E3018A397D4D5427D15BD1330B677DC8934285AC3DF45A9EB68FF8F2B8FC0A509AFEECFD0FF2DE25CC6047F7214B195F07EFEB9A094D800F7BFAE8FED187B78EA8A3A400F115961BCAD1215E47C966530AF0EE8128FE
310
58CEBB996A8964FFA529A046635D9353B0336A8F700DDF46271A024E70B0B37C9DE01847591E54DED53D54202AB947E4076556AC49C6CA5C9E1226B7F1A7B1BE15DEED62C41B91E1B3E9AFAAA735036547343A925075041DF0A9979E893B391F8FCFA6967B3EFB644DCF6E5CEBFAE272625DCC6FAF3FB93793C5F90CE1EF57
310
407342756B10D1C489E8953CD1617E5CEECAD6F4EF8914CE5D5D504E5C3F1F9736DA62CFC11E00BCDDB8CC8A9466349744C1F75EBDA4DF09BA8A9E8C7A7E9991989E20E5DBDD6A6003664ED8F7A04A8DBE0DF6EAD9B9AA858342E47399053949D2C146EDB85DE4B176BB0965FBAC19BD19AA918E27FA50C1D22402E144464C
310
59462568E704B6E71915404CB72B8FF4EDE184DDAF753F284990D2C6926782963815403548A70C657FDEF80D2D9CEAA2AE4C1C76F60BFE74219A06527D6582DF6412526107381E55E353090704D085B52408D0933C4ED159D79BDA71BB4BC506F4831350EB6F979CD22D69BF7AC49B91A2C0A9DDA3D5CA36AD20FC478E37E6
310
1844E2352865EBCB6EA275A652E3836BE04EFB400BF1A2556F515F1FBB35B2AB35BD889C744FFA1004B5544B121E57F70215746DD2F5E2C1412B602CBF19455AC6C8E5E9922C4E01E65215385004546899059180EAFCF7A707CE7017CD8CDB0410789AB32C63B91E5CEBBBACB17AC6CD347A022D5075FD106377347AAABA7E
310
7D11590744509B44E205134DC1290F06580320F78E537D3D73540E06CB970B431F185308AD40BBD794D6D77003C5A36E8EAA54BA64597CD8F83BD552A080A365F7FF06504B0304140006080000CC70623B000000000000000000000000350000006662782F39464131463745442D413632322D343644302D413938332D3331
310
353338454246344243312F76657274696365732E62696E504B0304140006080800CC70623BF270F1330600000004000000360000006662782F39464131463745442D413632322D343644302D413938332D3331353338454246344243312F747269616E676C65732E62696E636660600000504B0304140006080000CC70623B
310
000000000000000000000000370000006662782F39464131463745442D413632322D343644302D413938332D3331353338454246344243312F617474726962757465732E62696E504B0304140006080800CC70623B08DA0BD19000000041010000360000006662782F39464131463745442D413632322D343644302D413938
310
332D3331353338454246344243312F6469726563746F72792E786D6C858F410AC3201045AF22B36F53E9A60B35CBEEBAE80D244E44489C6234F4F835464A48035D0DF398FF9F8AF63D0E6CC63039F212F8F9020C7D47C6792B21C5FE7403D62A1188E2E60C98D7234A5830286103A55745067B9D86B8A3CF9C7F90C11DE607
310
FB144396D7B6A82D282E9A152AD114D5EF2CB866EEE831B8EEA07A7BB5A8D7D61A2BAAEB7FD5F70921FF497D00504B0304140006080800CC70623B0D6EF93BFE000000A00100003B0000006662782F39464131463745442D413632322D343644302D413938332D3331353338454246344243312F7265736F75726365732F63
310
6F72652E786D6C8D50596E833010BD0A9ADFCA60B334011947A8694ED00B586642AC041B79A97AFC9A40A5F6AF3F33A3B7689E1E3F7DCD8FEC139DD7D6F4C0720A191A65476DA61E62B892236427C19DB5E1970C322367EC618541F0C9D9B8EC90B226A009093576C41D94DE63804C3DD2D18357379C652E63480A7FCF17A9
310
EE72C29CE5894E3AC17D702940B63D59270887DE46A7D0F36263058F518FBB468FE9A7BE6A7420864373B8D4873369AA8691FA421B3294352543C5CAF65C0F6FEF43CB8BD52C78D0F34F46E550061C419494B6843142CB0F5677F4B52BEB177AEC28E5C52AFF638ACBF84F53D42654E51E77B379102C05791282176B5F693D
310
CB4C7BED567C03504B010214000A0000080000CC70623B3DEE336E79000000790000001B00000000000000000000000000000000006175746F6465736B2D64657369676E2D7061636B6167652E786D6C504B01021400140006080800CC70623BD486FD9CA0000000F40000001300000000000000000000000000B20000005B
310
436F6E74656E745F54797065735D2E786D6C504B01021400140006080800CC70623B1EC5D7A3EB0000007C010000080000000000000000000000000083010000636F72652E786D6C504B01021400140006080800CC70623B55019EA25F0000007C000000070000000000000000000000000094020000636E782E786D6C504B
310
01021400140006080800CC70623B8C9102E971010000D40300000C00000000000000000000000000180300006662782F636F72652E786D6C504B01021400140006080800CC70623BFFEA85907E0000009D0000000B00000000000000000000000000B30400006662782F636E782E786D6C504B01021400140006080800CC70
310
623B4FEEA4082C0100001202000031000000000000000000000000005A0500006662782F39464131463745442D413632322D343644302D413938332D3331353338454246344243312F636F72652E786D6C504B01021400140006080800CC70623BAD7543B64E010000330300003000000000000000000000000000D5060000
310
6662782F39464131463745442D413632322D343644302D413938332D3331353338454246344243312F636E782E786D6C504B01021400140006080800CC70623B16AB87BA640500003C1000003400000000000000000000000000710800006662782F39464131463745442D413632322D343644302D413938332D3331353338
310
454246344243312F6F626A656374732E786D6C504B01021400140006080000CC70623B0000000000000000000000003500000000000000000000000000270E00006662782F39464131463745442D413632322D343644302D413938332D3331353338454246344243312F76657274696365732E62696E504B01021400140006
310
080800CC70623BF270F133060000000400000036000000000000000000000000007A0E00006662782F39464131463745442D413632322D343644302D413938332D3331353338454246344243312F747269616E676C65732E62696E504B01021400140006080000CC70623B0000000000000000000000003700000000000000
310
000000000000D40E00006662782F39464131463745442D413632322D343644302D413938332D3331353338454246344243312F617474726962757465732E62696E504B01021400140006080800CC70623B08DA0BD190000000410100003600000000000000000000000000290F00006662782F39464131463745442D413632
310
322D343644302D413938332D3331353338454246344243312F6469726563746F72792E786D6C504B01021400140006080800CC70623B0D6EF93BFE000000A00100003B000000000000000000000000000D1000006662782F39464131463745442D413632322D343644302D413938332D3331353338454246344243312F7265
310
736F75726365732F636F72652E786D6C504B0506000000000E000E0080040000641100000000
  0
XRECORD
  5
175
102
{ACAD_REACTORS
330
173
102
}
330
173
100
AcDbXrecord
280
     1
270
     1
271
     1
  0
XRECORD
  5
174
102
{ACAD_REACTORS
330
173
102
}
330
173
100
AcDbXrecord
280
     1
270
     1
271
     1
  0
XRECORD
  5
1FB
102
{ACAD_REACTORS
330
173
102
}
330
173
100
AcDbXrecord
280
     1
 70
     0
 90
1673772943
  1
ECE7A1D2-D628-4531-984C-D00F80459256
310
504B03040A0000080000CC70623B3DEE336E79000000790000001B0000006175746F6465736B2D64657369676E2D7061636B6167652E786D6C3C3F786D6C2076657273696F6E3D22312E302220656E636F64696E673D227574662D3822203F3E3C666F726D6174733E3C666F726D61743E687474703A2F2F736368656D612E
310
6175746F6465736B2E636F6D2F64657369676E2D7061636B6167652F323030393C2F666F726D61743E3C2F666F726D6174733E504B0304140006080800CC70623BD486FD9CA0000000F4000000130000005B436F6E74656E745F54797065735D2E786D6C7D8EC10E82300C865F65E91D8A1E8C310C0EEA1BF002731658846E
310
D98AC1B77784ABF1D8FE5FBFBF75BBCE937A534CCEB38643598122B6FEE978D0B0485F9C41B54DDD7D022595594E1A469170414C76A4D9A4D207E29CF43ECE46F218070CC6BECC4078ACAA135ACF422C856C0E68EA1BF5669944DDD7BCDE7B1F8E415D77AECB980613C2E4AC91FC167A2B244592486606FC29C8FD7F045B9A
310
EF7053A7E60B504B0304140006080800CC70623BD9DDAED0EC0000007C01000008000000636F72652E786D6C8D90416EC3201045AF82665B61836D9CD8C2444DD39CA01740405C94182C03558F5F9C3852BBEB6A467FFE9B197D7EF89E6EE8CB2CC17A37002D0820E394D7D68D03A478C17B4007C117EFE32F1B20272733C0
310
2A83E0E3E2D3BC49CABB685CCCAAF3DA6CA20CC14440EA969B0182FA34932C648AD911AEC52CD5558EA6A0CF2EC329598D1E47ACCEFBECC59A050463A7EA5833865FEBDD0E37353BE3EE8DBDE3F6786A48D375FBF6CC78B9C282473B3DEFABC5C86834888A900E538A49F5419B9EB47DD5BC907D4F082F57FB1F28CDFA9F50
310
B22ED6D5F6EE030B20687EE43E10BC5CB3C8E51E54AE6B6EE207504B0304140006080800CC70623B55019EA25F0000007C00000007000000636E782E786D6C4DCB3B0E80201045D1AD90E915ED2CF8AC45050C11660C8261F98AB1B07AC9C97D42D718D865D3E909258CFD00CCE24AC6E326A164D74DC0B4128928FF326038
310
472BA13128B1252AC747C6BAB984FC68F0B87FE8960A5C09FE86CFB69FBA01504B0304140006080800CC70623BA24EB22D72010000D40300000C0000006662782F636F72652E786D6CC5535B6E833010BC8AE5DF0A6C5E49888CA3A6694ED00B38E05014B091B1518EDFE511A5A9D228FD2A1F60CDEC7A67C6986DCE4D8D7A
310
69BA4AAB0C073EC548AA5C17952A33ECECD15B61B4E1CC686DBF9561A44423333CC098B3D268D7CE50AE9595CA02AA74216750749DB418E5352C32DCE59FB211BE70162ABA93DF8AFC244AE9073ED050C759670D0840D390E18DF9F1706664C23973AE2A66B62A605A75ACA4C13C4976E1364A12EF355A2EBD384AF65EFA96
310
BC7B8BED2EA6719AAE16FB8491A199335B351775B991C2CA02F390D2D40B028F861F41BCA68B7518BFD0D59A524686F29B26D7164F36B94AD9289CE54E6D1DE6010819891F6E21228B3AD1831EC219194284CF98F06DD01008846CC5A1BEF83801D4CBDC6A1303536877A57A513B0953A94FC707FDBE6064EA84A9E3E6E0FA
310
EE8CF0E9198F7784A316AA0413C2C2F2E0ECA0934D1AE6D05A69BCDE9E91D2A611F573361E38FC1375157F5752AE6B6DFE4B11990F88CCBF0719EE23FF02504B0304140006080800CC70623B408A7D3B7C0000009D0000000B0000006662782F636E782E786D6C4DCCD10A83201886E15B91FFDC552A92A0064DBC8F581632
310
D3703A76F9ABD1C18E3E78F878E5F0D9027ABBFCF2292AE86E2D20171F69F6715550CB827B40839639A5F2770314A7CD293819B45C73AAFB45B35BA61ACAA1C1C7E7855C58C15BC331339661262CC762340413D68D77DA5B42298546CBE6573AF60CEB2F504B0304140006080800CC70623B449FB9BD290100001202000031
310
0000006662782F36394639363044362D344446342D343946362D394244322D3234314243333846323333332F636F72652E786D6C8D515B6EC32010BC0AE22B55850D98B871848994463E412FE002495162B07854397EA176A4F62F3F2C9A9D991D587EB84F37F0AD7D30CEF6905418026DA553C65E7A98E219ED203808EE9D
310
8B7F6810D871D23D2C3014FCE25D9A57483A1BB58D19B54EE9151C43D0110279CB971E06F9A5A7B11A53CC8C70ADE6515EC78BAE4895DB992778883E0700CB907242D17643D7E2538BD869608875438BBAE38922CAC8F1BDD90DB4691A5E2F42C153326A951B95E398B3D1FE599322163C9AE9115F7A3D46ADA0A018778810
310
84E907617BDCEE297BC5BB3DC6BC2EF47FA234AB2745C9D8D8D035EE220B50105E2F0DC1954B9FB747187D9F9D8FA0CCDB042D5FA0C015C65B42DF78BD10F3F3B363CB56C7109DCFDFBBB97E662ED92EB62D13BC2E1BCAE5777DB9966D8A1F504B0304140006080800CC70623BAD7543B64E01000033030000300000006662
310
782F36394639363044362D344446342D343946362D394244322D3234314243333846323333332F636E782E786D6CD593CD6EC32010845F0571AD6CE3D48AD20813A9873E410FBD12D82434182C7EAAE6EDBB2424CD25871E7B41D6EC30B3FA84F9E67BB2E40B4234DE8DB46F1925E094D7C6ED479AD3AE5951B2113C789FEE
310
6C943839C1488B4C05DF079FE72A69D8C96C13AAD6B8631503449F83828872B949AC57D26200B826A308D316B4064D6E46FCDA41C05550DC9E483A00797BFD207EFB092A45DE9514C1BBD22178396BD39D891265658C238DEA00936C654E5E433CB65A26D9F6EDB5EBC14EBF49A45CB856E66048291F6939A9A81BB5C89177
310
38143CA680F4AA299D66A042CEB3354A2684DC9D8D178FE0D9B8B41CAAD720F880EE7EF93C0C18769E099ECC04D5A102C8049A8A05632F4DDF376CF1DE0F6BB65C2F8627B65A33C6BB62177CEBBDAD973006829F89F22E814B54F4BC2BE347F8AA8F681390B50FA73F804400B5F542E796F19FF974E7F78DB802FE05E20750
310
4B0304140006080800CC70623B8D05915C650500003B100000340000006662782F36394639363044362D344446342D343946362D394244322D3234314243333846323333332F6F626A656374732E786D6CAD575B6FA33814FE2B887D06429276DA1565D4266D158D3A339A6846FB502932E050B66023DB74D2FDF5FB190C01
310
9276B2973C046C8ECFF53B17071F77456EBD502133CEAE6CDF9DD81665314F32965ED995DA3A17B6F5310C04E7AA47665B8C14F4CAD6DB7618A48257A5D94AE89654B91AEDDEDDFC61C998326A5B714EA4BCB265FC440BE2924AF184CA6737218AB8E976E7FA6E4338649B0A523E8D98964450A6A029F619B8588D52FE7039
310
B1BD30F0F4F730D0FF866AF6369557DB33949F31A9088B0F848DD8CCFCF9F2767A76E99CCDE733677E3EF59D9BBB9BA5E37F984D16E78BC5E5F5ED25044B25C0C96822E8D60EEFE11B91C581D77CEA34368A1F5329E68CD1B8B61F16D63A1B8E092D294B10C78C4A48EB593D192E7DED9BDEE7995E1B91FDEDD3ACEA9FE831
310
6A756F9F7D4D79F4274C90A7A04248AA51D5F8C718DAE06FB2F75AC4796EBE65D22A88A22223B995679120E2D50E41AA49C260C046A35368846B0BECD0DFF3EBEB8AD4F835768F69B9ADF25C43D30E6B646F807FAA64AD59F61715C7A54127C4AACA98BA3006A9D792DAE165E0D59B61A01FB3A9F9D838D2DAE62445C86166
310
F37564E842E7DE6A69879FEEA2DD5AE7E371E1A5E025154AC307D06A03D73EB5978C58FFA4C8E9033066E0F3BD53BEC1F39F91BE7B55103791EDE6BBB991A2046172CB4581D8B893FA674DDA17A77B3B7C413D1B511FD2743BFF8A38F03A658705E3ADF8015C3A3417FF3D7E439FF591DA0B5F18BC20C1B8981957AE6392A3
310
F43C640C01D1A0B4728E2DD4F26DB4B3C3152A252A3B4E913CEC1C72F012782FF88EFF8637AA552DBEF76408E8A8DE9E50F9E1CB3A2DA0DB1B6039A893B56063DC5B3E3FFB5F72E67AB9FEB4AEC496C4F4C1149625DD662C53E89D7BF0F6151A046260D1337DFDC94502430F83B0EE07A130A224BCAD7DAE1D9FB6CD422FF6
310
920702629C4BB9AE79C12F243C6432A6794E18E5552BA56B431AAB5D91317302B2B071E86C3A42B1A02F999E24061403B5D0EB639195DA655DD3EBEAB4FB862DDF579F014AD0E73C22F99E28DA57FB98E75C6CA2D74D53086D600F4786E0FE3144B771A8A7B900F03594DB8A633CBC49B2EDB69228BB479CF863B5E807AAAB
310
23872F6DFEB4129B949CA33823F58830E86D65621E10047D9DB34D862E8EAC3C2ABC2F7B2C40D67CDFE01F5545B92105AF983AC54D93D69E56FB8E797F88913F898A9FEC705D3F9D1B54EC8426FB500D40A03BD0119B06E1B95DDC7EB8F6975367793EBD70E66733DFB9BC982F9CE564727731999F5D4ECFCE3B8D6A4DC2A0
310
6D50FD148437D110834A64C6CDDF57FBACB5C307A2A477DFE4939736CFEF2B175371E0E10CF0DD1D5C15654E0BCA14D1E87DD02FF93782A162C0A3D95F1524A52770F972BF1EE9809D13CE7DD599467F8ECE9ADD85CE85A34CD45355448C64F9E8A031DC2D596ACC6E5DD93D9B82DE2EF5CAF81363A8E47996A0DE24564A79
310
4115AACE09C55E14540231FDA13C319787134EBF34E3A022514E5B4D9E0826E25C02D5805B15ABE1BEF51B26383D445DD9E875EE33FE4C22DA16427D65A3BCA92CA6D28DD01DF5DC53330704308475351050232CCD31583787BA75774AFB06E5070DD0C8EF484E19968C5D83BA5B90B244D31E54D55A372320FE4786B7EA58
310
44E135AA5467CB7EA333A61683CC6A8C3257034C10CF46F40EF9F5BE59BE5BD30C3C72D235E95D10345C1D45445A5F0BB47E46A5EBE5570F9380B5FA629579952296A773720405982B9DE04011506178964401AA8BDF1FBF0A8EAB6861DD6580C0E38217056766716DAEB2D6FA0917D3E4116581EADB879C4E7CFFB11EFACD
310
3D641311495D92C8676CB409A72D18610D803CE8A626049E8EC1887CB5B44CC39883690DDA8399B4B9855B481E7D71D4A9D22F96E5BB73BF5793020C02137BF837504B0304140006080000CC70623B000000000000000000000000350000006662782F36394639363044362D344446342D343946362D394244322D32343142
310
43333846323333332F76657274696365732E62696E504B0304140006080800CC70623BF270F1330600000004000000360000006662782F36394639363044362D344446342D343946362D394244322D3234314243333846323333332F747269616E676C65732E62696E636660600000504B0304140006080000CC70623B0000
310
00000000000000000000370000006662782F36394639363044362D344446342D343946362D394244322D3234314243333846323333332F617474726962757465732E62696E504B0304140006080800CC70623B08DA0BD19000000041010000360000006662782F36394639363044362D344446342D343946362D394244322D
310
3234314243333846323333332F6469726563746F72792E786D6C858F410AC3201045AF22B36F53E9A60B35CBEEBAE80D244E44489C6234F4F835464A48035D0DF398FF9F8AF63D0E6CC63039F212F8F9020C7D47C6792B21C5FE7403D62A1188E2E60C98D7234A5830286103A55745067B9D86B8A3CF9C7F90C11DE607FB14
310
4396D7B6A82D282E9A152AD114D5EF2CB866EEE831B8EEA07A7BB5A8D7D61A2BAAEB7FD5F70921FF497D00504B0304140006080800CC70623BCA768048FE000000A00100003B0000006662782F36394639363044362D344446342D343946362D394244322D3234314243333846323333332F7265736F75726365732F636F72
310
652E786D6C8D50596E833010BD0A9ADFCA60D600328E9AA639412F609909B1126CE4A5EAF16B0295DABFFECC8CDEA2797AECF8353F924FB44E193D409E5248504B332A3D0D10FC95B4901C39B3C6F85F3248B49871801506CE266BC2B243D2688FDA47549B11775038871E12F988C7004EDE7016A9083E2ADC3D5D84BC8B09
310
D33C8D74D471E6BC8D0192EDC93A815B742658898E651BCB59086ADC356A8C3FD555A1055ED7E7E254D615792D0F075295F585746FF53B694EE78A565DD736979A65AB9933AFE69F8CD2A2F038022F28ED489E135A7CE4554F9BBEA85E68DB53CAB255FEC71496F19FA6A0B42F8B3DEE6673C0F318E4497096AD7DC5F52C33
310
EEB55BFE0D504B010214000A0000080000CC70623B3DEE336E79000000790000001B00000000000000000000000000000000006175746F6465736B2D64657369676E2D7061636B6167652E786D6C504B01021400140006080800CC70623BD486FD9CA0000000F40000001300000000000000000000000000B20000005B436F
310
6E74656E745F54797065735D2E786D6C504B01021400140006080800CC70623BD9DDAED0EC0000007C010000080000000000000000000000000083010000636F72652E786D6C504B01021400140006080800CC70623B55019EA25F0000007C000000070000000000000000000000000095020000636E782E786D6C504B0102
310
1400140006080800CC70623BA24EB22D72010000D40300000C00000000000000000000000000190300006662782F636F72652E786D6C504B01021400140006080800CC70623B408A7D3B7C0000009D0000000B00000000000000000000000000B50400006662782F636E782E786D6C504B01021400140006080800CC70623B
310
449FB9BD290100001202000031000000000000000000000000005A0500006662782F36394639363044362D344446342D343946362D394244322D3234314243333846323333332F636F72652E786D6C504B01021400140006080800CC70623BAD7543B64E010000330300003000000000000000000000000000D20600006662
310
782F36394639363044362D344446342D343946362D394244322D3234314243333846323333332F636E782E786D6C504B01021400140006080800CC70623B8D05915C650500003B10000034000000000000000000000000006E0800006662782F36394639363044362D344446342D343946362D394244322D32343142433338
310
46323333332F6F626A656374732E786D6C504B01021400140006080000CC70623B0000000000000000000000003500000000000000000000000000250E00006662782F36394639363044362D344446342D343946362D394244322D3234314243333846323333332F76657274696365732E62696E504B010214001400060808
310
00CC70623BF270F13306000000040000003600000000000000000000000000780E00006662782F36394639363044362D344446342D343946362D394244322D3234314243333846323333332F747269616E676C65732E62696E504B01021400140006080000CC70623B00000000000000000000000037000000000000000000
310
00000000D20E00006662782F36394639363044362D344446342D343946362D394244322D3234314243333846323333332F617474726962757465732E62696E504B01021400140006080800CC70623B08DA0BD190000000410100003600000000000000000000000000270F00006662782F36394639363044362D344446342D
310
343946362D394244322D3234314243333846323333332F6469726563746F72792E786D6C504B01021400140006080800CC70623BCA768048FE000000A00100003B000000000000000000000000000B1000006662782F36394639363044362D344446342D343946362D394244322D3234314243333846323333332F7265736F
310
75726365732F636F72652E786D6C504B0506000000000E000E0080040000621100000000
  0
XRECORD
  5
176
102
{ACAD_REACTORS
330
173
102
}
330
173
100
AcDbXrecord
280
     1
270
     1
271
     1
  0
XRECORD
  5
177
102
{ACAD_REACTORS
330
173
102
}
330
173
100
AcDbXrecord
280
     1
270
     1
271
     1
  0
XRECORD
  5
9A06
102
{ACAD_REACTORS
330
22E0
102
}
330
22E0
100
AcDbXrecord
280
     1
102
DISPLAYNAME
  1
Imperial24
102
FLAGS
 90
        0
  0
XRECORD
  5
9A04
102
{ACAD_REACTORS
330
234
102
}
330
234
100
AcDbXrecord
280
     1
102
DISPLAYNAME
  1
Metric50
102
FLAGS
 90
        0
  0
CELLSTYLEMAP
  5
9A03
102
{ACAD_REACTORS
330
162
102
}
330
162
100
AcDbCellStyleMap
 90
        3
300
CELLSTYLE
  1
TABLEFORMAT_BEGIN
 90
        5
170
     1
 91
        0
 92
    32768
 62
   257
 93
        1
300
CONTENTFORMAT
  1
CONTENTFORMAT_BEGIN
 90
        0
 91
        0
 92
      512
 93
        0
300

 40
0.0
140
1.0
 94
        5
 62
     0
340
11
144
6.0
309
CONTENTFORMAT_END
171
     1
301
MARGIN
  1
CELLMARGIN_BEGIN
 40
1.5
 40
1.5
 40
1.5
 40
1.5
 40
4.5
 40
4.5
309
CELLMARGIN_END
 94
        6
 95
        1
302
GRIDFORMAT
  1
GRIDFORMAT_BEGIN
 90
        0
 91
        1
 62
     0
 92
       -2
340
14
 93
        0
 40
1.125
309
GRIDFORMAT_END
 95
        2
302
GRIDFORMAT
  1
GRIDFORMAT_BEGIN
 90
        0
 91
        1
 62
     0
 92
       -2
340
14
 93
        0
 40
1.125
309
GRIDFORMAT_END
 95
        4
302
GRIDFORMAT
  1
GRIDFORMAT_BEGIN
 90
        0
 91
        1
 62
     0
 92
       -2
340
14
 93
        0
 40
1.125
309
GRIDFORMAT_END
 95
        8
302
GRIDFORMAT
  1
GRIDFORMAT_BEGIN
 90
        0
 91
        1
 62
     0
 92
       -2
340
14
 93
        0
 40
1.125
309
GRIDFORMAT_END
 95
       16
302
GRIDFORMAT
  1
GRIDFORMAT_BEGIN
 90
        0
 91
        1
 62
     0
 92
       -2
340
14
 93
        0
 40
1.125
309
GRIDFORMAT_END
 95
       32
302
GRIDFORMAT
  1
GRIDFORMAT_BEGIN
 90
        0
 91
        1
 62
     0
 92
       -2
340
14
 93
        0
 40
1.125
309
GRIDFORMAT_END
309
TABLEFORMAT_END
  1
CELLSTYLE_BEGIN
 90
        1
 91
        1
300
_TITLE
309
CELLSTYLE_END
300
CELLSTYLE
  1
TABLEFORMAT_BEGIN
 90
        5
170
     1
 91
        0
 92
        0
 62
   257
 93
        1
300
CONTENTFORMAT
  1
CONTENTFORMAT_BEGIN
 90
        0
 91
        0
 92
      512
 93
        0
300

 40
0.0
140
1.0
 94
        5
 62
     0
340
11
144
4.5
309
CONTENTFORMAT_END
171
     1
301
MARGIN
  1
CELLMARGIN_BEGIN
 40
1.5
 40
1.5
 40
1.5
 40
1.5
 40
4.5
 40
4.5
309
CELLMARGIN_END
 94
        6
 95
        1
302
GRIDFORMAT
  1
GRIDFORMAT_BEGIN
 90
        0
 91
        1
 62
     0
 92
       -2
340
14
 93
        0
 40
1.125
309
GRIDFORMAT_END
 95
        2
302
GRIDFORMAT
  1
GRIDFORMAT_BEGIN
 90
        0
 91
        1
 62
     0
 92
       -2
340
14
 93
        0
 40
1.125
309
GRIDFORMAT_END
 95
        4
302
GRIDFORMAT
  1
GRIDFORMAT_BEGIN
 90
        0
 91
        1
 62
     0
 92
       -2
340
14
 93
        0
 40
1.125
309
GRIDFORMAT_END
 95
        8
302
GRIDFORMAT
  1
GRIDFORMAT_BEGIN
 90
        0
 91
        1
 62
     0
 92
       -2
340
14
 93
        0
 40
1.125
309
GRIDFORMAT_END
 95
       16
302
GRIDFORMAT
  1
GRIDFORMAT_BEGIN
 90
        0
 91
        1
 62
     0
 92
       -2
340
14
 93
        0
 40
1.125
309
GRIDFORMAT_END
 95
       32
302
GRIDFORMAT
  1
GRIDFORMAT_BEGIN
 90
        0
 91
        1
 62
     0
 92
       -2
340
14
 93
        0
 40
1.125
309
GRIDFORMAT_END
309
TABLEFORMAT_END
  1
CELLSTYLE_BEGIN
 90
        2
 91
        1
300
_HEADER
309
CELLSTYLE_END
300
CELLSTYLE
  1
TABLEFORMAT_BEGIN
 90
        5
170
     1
 91
        0
 92
        0
 62
   257
 93
        1
300
CONTENTFORMAT
  1
CONTENTFORMAT_BEGIN
 90
        0
 91
        0
 92
      512
 93
        0
300

 40
0.0
140
1.0
 94
        2
 62
     0
340
11
144
4.5
309
CONTENTFORMAT_END
171
     1
301
MARGIN
  1
CELLMARGIN_BEGIN
 40
1.5
 40
1.5
 40
1.5
 40
1.5
 40
4.5
 40
4.5
309
CELLMARGIN_END
 94
        6
 95
        1
302
GRIDFORMAT
  1
GRIDFORMAT_BEGIN
 90
        0
 91
        1
 62
     0
 92
       -2
340
14
 93
        0
 40
1.125
309
GRIDFORMAT_END
 95
        2
302
GRIDFORMAT
  1
GRIDFORMAT_BEGIN
 90
        0
 91
        1
 62
     0
 92
       -2
340
14
 93
        0
 40
1.125
309
GRIDFORMAT_END
 95
        4
302
GRIDFORMAT
  1
GRIDFORMAT_BEGIN
 90
        0
 91
        1
 62
     0
 92
       -2
340
14
 93
        0
 40
1.125
309
GRIDFORMAT_END
 95
        8
302
GRIDFORMAT
  1
GRIDFORMAT_BEGIN
 90
        0
 91
        1
 62
     0
 92
       -2
340
14
 93
        0
 40
1.125
309
GRIDFORMAT_END
 95
       16
302
GRIDFORMAT
  1
GRIDFORMAT_BEGIN
 90
        0
 91
        1
 62
     0
 92
       -2
340
14
 93
        0
 40
1.125
309
GRIDFORMAT_END
 95
       32
302
GRIDFORMAT
  1
GRIDFORMAT_BEGIN
 90
        0
 91
        1
 62
     0
 92
       -2
340
14
 93
        0
 40
1.125
309
GRIDFORMAT_END
309
TABLEFORMAT_END
  1
CELLSTYLE_BEGIN
 90
        3
 91
        2
300
_DATA
309
CELLSTYLE_END
  0
ENDSEC
  0
SECTION
  2
ACDSDATA
 70
     2
 71
     8
  0
ACDSSCHEMA
 90
        0
  1
AcDb_Thumbnail_Schema
  2
AcDbDs::ID
280
    10
 91
        8
  2
Thumbnail_Data
280
    15
 91
        0
101
ACDSRECORD
 95
        0
 90
        1
  2
AcDbDs::TreatedAsObjectData
280
     1
291
     1
101
ACDSRECORD
 95
        0
 90
        2
  2
AcDbDs::Legacy
280
     1
291
     1
101
ACDSRECORD
  1
AcDbDs::ID
 90
        3
  2
AcDs:Indexable
280
     1
291
     1
101
ACDSRECORD
  1
AcDbDs::ID
 90
        4
  2
AcDbDs::HandleAttribute
280
     7
282
     1
  0
ACDSSCHEMA
 90
        1
  1
AcDbDs::TreatedAsObjectDataSchema
  2
AcDbDs::TreatedAsObjectData
280
     1
 91
        0
  0
ACDSSCHEMA
 90
        2
  1
AcDbDs::LegacySchema
  2
AcDbDs::Legacy
280
     1
 91
        0
  0
ACDSSCHEMA
 90
        3
  1
AcDbDs::IndexedPropertySchema
  2
AcDs:Indexable
280
     1
 91
        0
  0
ACDSSCHEMA
 90
        4
  1
AcDbDs::HandleAttributeSchema
  2
AcDbDs::HandleAttribute
280
     7
 91
        1
284
     1
  0
ACDSRECORD
 90
        0
  2
AcDbDs::ID
280
    10
320
2B28
  2
Thumbnail_Data
280
    15
 94
     2921
310
89504E470D0A1A0A0000000D49484452000000B5000001000803000000C2FDC7E900000300504C5445FFFFFF000000C8C8C80000000000000000000000000000000000000000000000000000330000660000990000CC0000FF0033000033330033660033990033CC0033FF0066000066330066660066990066CC0066FF0099
310
000099330099660099990099CC0099FF00CC0000CC3300CC6600CC9900CCCC00CCFF00FF0000FF3300FF6600FF9900FFCC00FFFF3300003300333300663300993300CC3300FF3333003333333333663333993333CC3333FF3366003366333366663366993366CC3366FF3399003399333399663399993399CC3399FF33CC00
310
33CC3333CC6633CC9933CCCC33CCFF33FF0033FF3333FF6633FF9933FFCC33FFFF6600006600336600666600996600CC6600FF6633006633336633666633996633CC6633FF6666006666336666666666996666CC6666FF6699006699336699666699996699CC6699FF66CC0066CC3366CC6666CC9966CCCC66CCFF66FF0066
310
FF3366FF6666FF9966FFCC66FFFF9900009900339900669900999900CC9900FF9933009933339933669933999933CC9933FF9966009966339966669966999966CC9966FF9999009999339999669999999999CC9999FF99CC0099CC3399CC6699CC9999CCCC99CCFF99FF0099FF3399FF6699FF9999FFCC99FFFFCC0000CC00
310
33CC0066CC0099CC00CCCC00FFCC3300CC3333CC3366CC3399CC33CCCC33FFCC6600CC6633CC6666CC6699CC66CCCC66FFCC9900CC9933CC9966CC9999CC99CCCC99FFCCCC00CCCC33CCCC66CCCC99CCCCCCCCCCFFCCFF00CCFF33CCFF66CCFF99CCFFCCCCFFFFFF0000FF0033FF0066FF0099FF00CCFF00FFFF3300FF3333
310
FF3366FF3399FF33CCFF33FFFF6600FF6633FF6666FF6699FF66CCFF66FFFF9900FF9933FF9966FF9999FF99CCFF99FFFFCC00FFCC33FFCC66FFCC99FFCCCCFFCCFFFFFF00FFFF33FFFF66FFFF99FFFFCCFFFFFF0000000D0D0D1A1A1A2828283535354343435050505D5D5D6B6B6B787878868686939393A1A1A1AEAEAEBB
310
BBBBC9C9C9D6D6D6E4E4E4F1F1F1FFFFFF000000000000000000000000000000000000000000000000000000000000B0E2D235000008244944415478DAED9DBD72DB3810C7317981A4D16BB8D235780C55D18BF89AA8E1DC53D00DD9DC75E72EA52BA74B273752296BE78609662E17F1010E24411200418A5FA01631762459
310
A229EBE7F51FBB8B2F9ABC77D0BE93F7DF9CB38C9A38679EDA537B6A4FFD76A9DD498B0AB5336EF6D49EDA537B6A4FEDA96F408D328B5FA7C6E85F4FEDA93D75AB818BD400E01A35A59C3A035F847D0AB5C4C728A32039DD32FB245FD770943106CD6FDA629F465DA939A70E82C0F88BCDCF3E4921B55232EACC82DC3AD8E7
310
F925E6A0E6CF98629DEC73787E1EEAD2D58C06413FF69B514B9F5C5313016B977D16EA0A3AA3CE0321B1CB3E1B35E5C61F4D029F9F7D1A75F159392BCDBED2CAD7A47E62C1EFE3A9A1AA3D2813D44486555FE57AEF1D6794BC6B813AFF1CAE0D4AAE51739F0BD81A9D74B0DBA386F219ED4DDD6CA946BF831D8580F2005A9E
310
315920EE0A6AD0C26E8D3AAB4C2B95B0EBBE1650A09ED0C26E8BBAD25E5FEAE25EBC8B997E2339CE8041EDD3A9A16A3142207DA989915A3CC8EC01911BCE4CD4A008840CA0BE76422612D0CC0E35EB6FBDCE0D4A5F83D6699A440DCA9F6F665F933C485A50881EF71CA4CEFE802E50432D36C7A88BC85B1422CC5A6B9C9D9A
310
88CAA9250023F575D921A82A27E4D45ADFCB496ACA187E5D9739B1A626F87D2DAA0211F71CA3AE7B8CA427755905DD825A2D9AB21E23301BD430776BD42B272BC6EC51D71D02FC914FEB311227A8EBBED7186AF1D61B524BA5357EEAD17DAF3C33C2AD72A32A6B93775F751BE56B598953B38CDE63748CBA4CEC83A887C410
310
5BD455870039B5DE636483AD7F6B9C975AEE31B6C73A4C59A6D96374805A9DADA3D435EAA2C7C86CEADA1AB513BED6A67329738CBA70356D9961444DADCC41A3A536CEF7A36F8DCA3A27077D6D58A5308EBA25BBDAA316AB14265097830D56A9F5B8D7BE4AA117753D86B510351D9917E5D608A24766BB3536072527641958
310
46D7D014486F6A31852ECF482F4F5D65F3DED4C50CB318F0130FCBC410757DE720596B8B2C6475C312355FB9BE93DFC6FA9A2CEA6BA917932F371C62F52A96DC56AB9508D6002B93058C49F3FEB3CCCB8C8D79AC4461AB55C9B420353708C619F03702976D3D52CDDDDEA190F9A8A718E44881D41A57A6A1BFC0D2AA9609D4
310
99AFE5898FEC6191350B9DD45D8B2055EABA7A02BB236632D9686B521358847ABC42C0E46BF4D4B942EA4068EC9959A29E1A431ABE26B080AFE7A1CE63C8AACE27B663C86CD4A43BCB98D70763A0EECEE898A86B139C4961B8A91B0A11D4CD3A042575D91239704258E288AE8B120472EA8425A5CF7152EB590612D510C56B
310
8161CC321576F6CA1DEAE29063D422A3BBA210793D7B991B51511BB34C55872CD0035BAE0EC14ABDCCC88215EAD63A042375351ED25287E06C8D554BCCD239CB6E4EB446518780A84310C6EBAE7E638236A3FF7AD478EB908E4AB51C0F7141D74A25E2546E0494195D1B75CFE73BBAEB90624AE4B6B931506738AA39B152D3
310
C622A4DC4B4A6E4D2D2638F28160A8E247A6902E6A726B6A69745DDBDEAA2B041D7573B0BAD91A036BBB8D075107D23C7A2360A06D8D813EC52512493107B65A6A7FE3506AC595A2D6207935DD22706CD479E15FBE4AEA49BB7AF105426A2E0C59C409931239626A7D1F4A4D0D041975DD0C9B8B018CCB1351F93A13759BAF
310
019DAF2B6AD2A44E5A6749B15267DC49EB3C3A0E5DEBDB51A49105C09B659A9B688A410594BD822BD4384727AF5127AB057654CDDC1A3153B72499FC507BCD87C5D72469F83A59A157885E8764AFB1B7C69CBA2EA4756A79280703F5A86DF4B7A606A5079668CF8DAB8201770F8C39A16B69B0BAD8C3E110B5B487C3316A10
310
B3E778A9DB37A0646BB19D180F51BAB66E29C4296A2AACEAE3E6AF54EAE210A6713EB12581827C40DBA740198E5177C9D72575E55865FB6F75E8E6E3D754A943CAD11B19512D4068F3D06CD79D9C4A2D1F685C7E8855BBC65B9CBD0835955F0885945731D6F8EADD38B4E367DE8A5AF62C4A6A4A15D5D2C601D085CD0F517A
310
5B6A4596603A00CD93AF6C5B588A5ABE88597D2531895AEDDA7AEAD1D47AE4550F188233026AE8D635E0D5F5C0933DF59CD4AD1BF31CA546D31A0799D7F562D40439F5958DB20E52836BADB1C77F6CF1BA5ECE3CB5A74642FDFAFA6A9A911E78CA02D4CAA7B62355CFD050775A8FD33CF52FAD101FF946513BF93FBB319BA7
310
F6D49EDA537B6A4FBD14B533E615E2A93DB5A7F6D4E472FCEF98DD8EEFF8FD921D39F5B0C659A6B759A43EC4F173143FC711BFC50757A8F77F45D1731846E153F4677474C7D751147E5ADFEFC2288A5F52577C1D46BFAFE17C3E7F8A4277147288EFD7E7BBF5F9BCDE44F19E1FB89BDDAACB9DF43AB90F75FA126DCE1F5ECF
310
EBD7F379634BD735F56CBEDEADCFDCD31FCEBFADD7F13EB5126FE7A77E8CB99B3F6E338DDC15BE76817ABFDBAC37DBED76B7F9B8891FFB2AA4433A1DD403404F158851D787388CEE3F6DB7F751F8DC5FD7B6A9F31F74EAF035A70EE3DDC7307A8A1E0EA955EABBBB9EEF3B916EEAF4C0699FA2DD2ECAB05F082AEAF21B265F
310
73EA78F7C703877E7EB11D43FA519F48EDEB530BF57318EDB6FFC4D193C88D36A97B6519451D66EA23A77D0EB71B5E873CC507BBBEEEDD1425EF9B6348FAF8257AE0A20EA32FF1FE7A7DDDFD492DEF181BF9DA7D9DA6C7E3FEEFAF8F5FF787634ADCA04E2F699A5E324BF37B8A899AB4C590F4DD8F1FFCC6EDE767FEF0EFE7
310
D426F5D81AB6E9EBCBE527BFBDFB7949B3AF97D4666B9C8BDABEC957619E893A3118398D92481FEA99FA32F351B79E3AE047D76FD23EEDB6D4A72A9649C94F147872EC783BD4A36C0035E9A2F6A3939EFA8DCE813949ED96796A4FEDA93DF5DBA4FEE69C65D40EDAF7FF012BB8E8EC616E5FB20000000049454E44AE426082
  0
ACDSRECORD
 90
        0
  2
AcDbDs::ID
280
    10
320
22
  2
Thumbnail_Data
280
    15
 94
     3695
310
89504E470D0A1A0A0000000D49484452000001000000007508030000009634CF9200000300504C5445FFFFFF000000C8C8C80000000000000000000000000000000000000000000000000000330000660000990000CC0000FF0033000033330033660033990033CC0033FF0066000066330066660066990066CC0066FF0099
310
000099330099660099990099CC0099FF00CC0000CC3300CC6600CC9900CCCC00CCFF00FF0000FF3300FF6600FF9900FFCC00FFFF3300003300333300663300993300CC3300FF3333003333333333663333993333CC3333FF3366003366333366663366993366CC3366FF3399003399333399663399993399CC3399FF33CC00
310
33CC3333CC6633CC9933CCCC33CCFF33FF0033FF3333FF6633FF9933FFCC33FFFF6600006600336600666600996600CC6600FF6633006633336633666633996633CC6633FF6666006666336666666666996666CC6666FF6699006699336699666699996699CC6699FF66CC0066CC3366CC6666CC9966CCCC66CCFF66FF0066
310
FF3366FF6666FF9966FFCC66FFFF9900009900339900669900999900CC9900FF9933009933339933669933999933CC9933FF9966009966339966669966999966CC9966FF9999009999339999669999999999CC9999FF99CC0099CC3399CC6699CC9999CCCC99CCFF99FF0099FF3399FF6699FF9999FFCC99FFFFCC0000CC00
310
33CC0066CC0099CC00CCCC00FFCC3300CC3333CC3366CC3399CC33CCCC33FFCC6600CC6633CC6666CC6699CC66CCCC66FFCC9900CC9933CC9966CC9999CC99CCCC99FFCCCC00CCCC33CCCC66CCCC99CCCCCCCCCCFFCCFF00CCFF33CCFF66CCFF99CCFFCCCCFFFFFF0000FF0033FF0066FF0099FF00CCFF00FFFF3300FF3333
310
FF3366FF3399FF33CCFF33FFFF6600FF6633FF6666FF6699FF66CCFF66FFFF9900FF9933FF9966FF9999FF99CCFF99FFFFCC00FFCC33FFCC66FFCC99FFCCCCFFCCFFFFFF00FFFF33FFFF66FFFF99FFFFCCFFFFFF0000000D0D0D1A1A1A2828283535354343435050505D5D5D6B6B6B787878868686939393A1A1A1AEAEAEBB
310
BBBBC9C9C9D6D6D6E4E4E4F1F1F1FFFFFF000000000000000000000000000000000000000000000000000000000000B0E2D235000001784944415478DAEDDDBDADC3300C46516D907DDE601C2FC3D060614043447FB6952E85833CFBBB4C20218D611D5014552525E21BF148CFD3E36204CF7FFF4000000000000000000000
310
0000000000000000000000000000000000000000000000000000000000000000F8D6FBBA7B9FD33CEDF3CD013CF9BCE2F2A37D6AB4F1EE00F332BD7FBD43B81FB9716B00DFB37D02F0910BC925B6806FE9EF7A5B80530000000000000000000000000000000000000000000000000000000000000000258088100688B012D1
310
42162067B3C1200850D75FC2A2317C4C70178092007F0D2047671004882904012CB27606D41DB02C4B0E4D8048A306AA66406D02C6211035072401B6181D915E23B41D00B50C08021CB9903533603A0F2D5632401540B8081E00AB36C09AA54F01B3D20D5B5606E85741F12298B58BA02917C1BD213EAFB100E05A9D60BC4D
310
72004B8D36CA02B4F1D4CBC5D52E433F7F20000000000000000000000000000000000000000000009CFBBEEAFF3879957801326E5C1F773A4BD50000000049454E44AE4260824260822C7C2244000210E03D02F0CF510000000000000000000000000000000077F409332C8DDB2F72862D0000000049454E44AE426082BAE2
310
2F006212C01DEBDD5B003F0EE6025873DAB7418083DD7B07A0B5E34ECDEB00BB6FA512F848F87B1C000000300FF00559576BED27DDECC10000000049454E44AE42608244AE426082FE432853001CCC80715BE1BAD64AD575AD0CB57DE86904FCD77B052D01FAE76BC36EB7FB56DBEDEB9DF64A00510DBABE33C37E7F9A55C0
310
1901D3B16DE3CA2DB16D2FA4FAFB6BC0770167A65F798AF68986BEBFEA8680FDF493EEA6EA790101372BA0D3EEF708B8A955C0D51F462000027C15E0FB3F4589EF19000110E0B1808F0D01000000000000000000000000000000000000000000805BE637198C5EF717517D810000000049454E44AE42608280000420000108
310
400002108000042000010840000210800004200001084000021080000420C01F03B83D13C77EEBE478CF7758180C0663E6F80650DD99FFE992B15F0000000049454E44AE426082F9A703B0F539C96DEEAD49E90F0078B83BE310F8E2C301000000000000000000000000000000000000000000000000000000000000000000
310
0000000000000000000000EC00B87CCBD4FEF0073EC07EB67F339B0B9C8253D1650000000049454E44AE4260825DA904610A406125C84B21BEE5674460B45FA8B4124CEB21CC07BD02E25EB2EA4AB0E4FA0A408C01A927A2BA126CD2019CB3404905E2D3E054013B1B9D1EC8E5510B80FC41BA02EC1400CFFAEEF2A9017C75
310
3A41C61FAC26B72BECA73E9000E47E8073ED5E39F0E7298807F04901C65727E760F0F0907E0083E766E343C4825D20CD9E9F77BCE791BF7E8A16F6C3EE121560F073923C2960FA2E2BA0D34D5523D091A2FDF06201ECFBF11D26FBA3B4E0C31B70FF17C8FCFC806F0460A40368353C0670D6B97800571B9FD7EF3FE6F9AF0B
310
FC0880C77EC1EF7581BBF62A40340059F60400FC4F44FEE19BBF2403C87FFE57639FE0DCFD6E110046F66F3FF02AE00D822F8017C00BE005F002F8BFF61704DAC6EF5724558A0000000049454E44AE426082C8AAF0763E298820C7663700D04C03D4FC80735FA05203EE9A2ABB39F5F96DCB2D5E6E05676C7E2FE07218BBF7
310
EDF29BAB89C5001873BE66ACD21B07E0EAE1C9C66EB381EDFC670BCFDAC0CFA85243C9144C6D6E2180651400E9C09D06A015610E00500A002C00E806C008E4FB40EE04CC59AD86AAAF60B2C6FBA524FB743DDF850F881FF7FDE7ADB94F4B008D863E1540241EC7EE8A184E0F0D067E009E0100CA01C01500A0863E1340C92B
310
45D3D91F99EE5D0FFB9C606F00BDA5ED57F80522211827B80DDECA0000000049454E44AE426082BB01740544660760FCBF641204F87700C0D7DAB6005C7D81C22200C0BD3CA7AE021F0080E4A536130348B7704E00A39DA156D1E1B05768AC2701312476F6454A649DE08A2A60105C7993D44F0008F9A4514552F301D099E3
310
CE3E3A12B76EA80ACA44E3B400CEF4D1485BEE01C4EAF3B925E0B88F0EA9DF255C55566CB0B804F4BC5011CBC7CC3309F8170030D7093707402A01B82480BE576A628983CE50321F3912B09004F4BC51128B579152550B6C4D00529E0580648F086C5509A0B71A1250E9F105301AC0206F7048C34E37F103007FDCC3FAA6A4
310
AE078B0000000049454E44AE42608204941542EAC209430780AEF77B8680DAD3C0507344BB466D262A4CCA021BB70EE846815C1B9CAC92484AFF9C8B003ED011B3A9D6CDDD50D7E4C190005D17BC0E005D16888E22B1871671E800CDB6BB5D2F785E882708B85750368BA5191C71352A2BA67049FA0000FAB20027008EDA08
310
0008180D409F754433BC104C7F621270134930E6101D6EC758BED60A6975C5A4C2B90A0ED1959EDB0E00A61DE00400B80000C400C05A286842308BE19CCFFB455EC8A5C3106735FD2A96FFE0328DEFC040E65B476E0F315E0815B880E829AD28FD5ABECF80A1F82DBD41BD8DD675F6C21EBBBAA614F4F34FCF1A80935E1275
310
333A5D6FF08DD79D37127D22EE8E7ED08900439BED804D01685B6B1FB285B657340F7557213D5BEE0F694D5F525A3D57E97A79A0751A33539766CFECF5324BEBFA99EE960FEC9A2CC6AC04159B099FAB6C9DEE6B5AEF5F689D71C7A8DECFCE15813B0C331AC3EC809ED123E33D0D1902BB1AC119C5CB18A60794E1F819ED2B
310
1CEF43E605CF50552176C9F2AF254DFF8999E3C459CF025C9F290007841EEF9E16688D0EA8AAF9D6485AA3E714B1771C3F2D7E5DA33D7AA9B3431ADED214D754007088539AA22AC6E88555D8E0C018CDCE7408EC43CC3989432601B734C6AC976BBC7C62ADB7AC35669CAD517558C47B54D3FDAF35034C48C0336552811ED0
310
7A875ED8B8408F283E4F002A8C1EB9D0578B3243EB94F57D384BD13AC40C8987E513668E316BCFF043865919735EF769B8BB7ACCB87CC4E8F7AC5C1E6629C3EBE13C017889774CEDEDD7777B3CC321DED7B74FE8AF347BBCAD9FD2789DC6748FAB678CE3B4CA30C64CDF89ADC535E318EFE27D7DC0192E99EE48EBDD990240
310
9985CBCCDD9A1FD4DCDCE5355ACB56B14D9C9F1267EAFF522A8D63791270C7885D7B5B89CFDF9DB931D8CEEDC614AFB5A82683D60ACED80E705876FAAD13342351BBB98276AF057AEE026094BA102807C6ED34462C98FC7E1D3EB79F437B7C0487DFDC77A7156B47F0AB3C653BC0A3EFC5B5A2BA66B448CD143976D41AFB45
310
9C6E2FEDF301E98083A40504FF3600665247E5436D546269C48A871959203BDCFA77C6C8E87087B22FD28C902B617F235EA886818D78B002801AD8B382A4A67810935D2700F46B7BFE6AC49B102D26AC258AD4CDE34AB0FE9500001300F25A00BE3AA9390F7DA7AF9D1830729A7A8FAAC3C14A0D28170824558D01AC2C90AE
310
03DE1F004D02ACF100D4CDE4C61820BADEB325A00540BF400F995B5920A0EBCDF707801812E0CC87EA89E216002BA4EF02C0BCC04C2E10F744F04100000D008D7332080018004047A8CBA4E8B24F9CEB2188352EDE090060A581ECE502B698D8635F5F57001CB960473E99987FC3D44D1F80C177651692D18DD304E07BE2FF
310
FB770C3C79F2E4C993274F9E3CFD185496EAD33EEC39EB6A608507C003E001F00078003C001E806F1C1E3277A39DFCAAF702C0B92FD2FE0DF6CD808DDD81F67D740778EFCD499B49D2A6E5FD0050F634EA777DD792D456F2B60DE8133BCB37B2F3ED9BD85BF76AEDBEE81D01B0DFEDBC90BEE753DFD661EEF41C07808E77C7
310
AD9A84001F0680DE032600E66DBF4D9937DAC06B2440DDA0637FD5C70040D4DB4B771DA3E5CD88EB6775BFEEAD00909EAFFA1000ACBD8244BFCDAC769B55D0A3F4AC8D52AF04C0DABC65FD57076F0778003C001E000F8007C003F02303F00FE5691FF69C7535B0E2FCC8E7053C79F2E4C993A71F97FE0FDD7D5BAF806EF9BC
310
0000000049454E44AE426082
  0
ACDSRECORD
 90
        0
  2
AcDbDs::ID
280
    10
320
D7
  2
Thumbnail_Data
280
    15
 94
     1439
310
89504E470D0A1A0A0000000D4948445200000100000000B408030000004C80028300000300504C5445FFFFFF000000C8C8C80000000000000000000000000000000000000000000000000000330000660000990000CC0000FF0033000033330033660033990033CC0033FF0066000066330066660066990066CC0066FF0099
310
000099330099660099990099CC0099FF00CC0000CC3300CC6600CC9900CCCC00CCFF00FF0000FF3300FF6600FF9900FFCC00FFFF3300003300333300663300993300CC3300FF3333003333333333663333993333CC3333FF3366003366333366663366993366CC3366FF3399003399333399663399993399CC3399FF33CC00
310
33CC3333CC6633CC9933CCCC33CCFF33FF0033FF3333FF6633FF9933FFCC33FFFF6600006600336600666600996600CC6600FF6633006633336633666633996633CC6633FF6666006666336666666666996666CC6666FF6699006699336699666699996699CC6699FF66CC0066CC3366CC6666CC9966CCCC66CCFF66FF0066
310
FF3366FF6666FF9966FFCC66FFFF9900009900339900669900999900CC9900FF9933009933339933669933999933CC9933FF9966009966339966669966999966CC9966FF9999009999339999669999999999CC9999FF99CC0099CC3399CC6699CC9999CCCC99CCFF99FF0099FF3399FF6699FF9999FFCC99FFFFCC0000CC00
310
33CC0066CC0099CC00CCCC00FFCC3300CC3333CC3366CC3399CC33CCCC33FFCC6600CC6633CC6666CC6699CC66CCCC66FFCC9900CC9933CC9966CC9999CC99CCCC99FFCCCC00CCCC33CCCC66CCCC99CCCCCCCCCCFFCCFF00CCFF33CCFF66CCFF99CCFFCCCCFFFFFF0000FF0033FF0066FF0099FF00CCFF00FFFF3300FF3333
310
FF3366FF3399FF33CCFF33FFFF6600FF6633FF6666FF6699FF66CCFF66FFFF9900FF9933FF9966FF9999FF99CCFF99FFFFCC00FFCC33FFCC66FFCC99FFCCCCFFCCFFFFFF00FFFF33FFFF66FFFF99FFFFCCFFFFFF0000000D0D0D1A1A1A2828283535354343435050505D5D5D6B6B6B787878868686939393A1A1A1AEAEAEBB
310
BBBBC9C9C9D6D6D6E4E4E4F1F1F1FFFFFF000000000000000000000000000000000000000000000000000000000000B0E2D2350000025A4944415478DAEDDD3192DA30140050DD80C3D1E4302953ED115CB117A1DA53A44A641AA7867E1708C9829191D79891F1FBCC52C86BA3797CA12F3183430C738EF83B009837400400
310
0040ABED18AD865B076E9E10C73A21BFAB5900CFFC86030000000000000A2100000000000000401F8038B518B0219257434DADE61B5A0A0300000000000000000000305780DC85C7D88B9A418BA19132208E982A5FDDB507F07580F0C40043364416E9B80058DC310A02481F6A01DCEFFD0700000000008F06884F0C100100
310
000000000000000000000000000000364400000000000000000A2100000000000000000000000000003077001B220000000000000080D90228850100000000000000000000000000C00C016C8800000000000000F30550090200000000000000000000F0B9F5297E58590600780CC0EE14B30508EBD5C763BB0B036F0937D5
310
EF0576DBD57AF37D551EC0901DA1A6599E476706ACEA4DBDD9EE9619D134AD4B2F0B05E83104FEBCD475FD2BEB33E000308D0C68BFC6218BAF67C0B7B7AA7B087401EC0FEFFF0A03B8E87C174055FDA8DE7A00B4DAE3E151F667403C76F37A06AC5F5EF7B340EE10485CBB2C80D06308FCAC3EE6C1709E0117397E6ADD0384
310
490C81D4B4D555086502A4A6C492BE17689273781BA03945DE006892D72EA912BCD2C9BF5DED0248953DFFDA5200C7E7A2009AD83AF56E00FFAFF9F91FAC066D882CDC6CAD1C8062EE375860063C340000000000000000230284FE85508971EF0D91270D00000000000000409935DF23CA48000000000000E0FACA3FB91590
310
3A70F38438D609F95D5508010000000080738099C73B55D119216D027E380000000049454E44AE426082
  0
ENDSEC
  0
EOF
