  0
SECTION
  2
HEADER
  9
$ACADVER
  1
AC1027
  9
$ACADMAINTVER
 70
    83
  9
$DWGCODEPAGE
  3
ANSI_1252
  9
$LASTSAVEDBY
  1
usuario
  9
$REQUIREDVERSIONS
160
                 0
  9
$INSBASE
 10
0.0
 20
0.0
 30
0.0
  9
$EXTMIN
 10
2864.153414778733
 20
847.9093292968554
 30
0.0
  9
$EXTMAX
 10
2912.532600308189
 20
914.832605090417
 30
0.0
  9
$LIMMIN
 10
0.0
 20
0.0
  9
$LIMMAX
 10
420.0
 20
297.0
  9
$ORTHOMODE
 70
     1
  9
$REGENMODE
 70
     1
  9
$FILLMODE
 70
     1
  9
$QTEXTMODE
 70
     0
  9
$MIRRTEXT
 70
     0
  9
$LTSCALE
 40
1.0
  9
$ATTMODE
 70
     1
  9
$TEXTSIZE
 40
2.5
  9
$TRACEWID
 40
1.0
  9
$TEXTSTYLE
  7
Standard
  9
$CLAYER
  8
-
  9
$CELTYPE
  6
ByLayer
  9
$CECOLOR
 62
   256
  9
$CELTSCALE
 40
1.0
  9
$DISPSILH
 70
     0
  9
$DIMSCALE
 40
1.0
  9
$DIMASZ
 40
0.1
  9
$DIMEXO
 40
0.1
  9
$DIMDLI
 40
3.75
  9
$DIMRND
 40
0.0
  9
$DIMDLE
 40
0.0
  9
$DIMEXE
 40
0.1
  9
$DIMTP
 40
0.0
  9
$DIMTM
 40
0.0
  9
$DIMTXT
 40
0.15
  9
$DIMCEN
 40
2.5
  9
$DIMTSZ
 40
0.0
  9
$DIMTOL
 70
     0
  9
$DIMLIM
 70
     0
  9
$DIMTIH
 70
     0
  9
$DIMTOH
 70
     0
  9
$DIMSE1
 70
     0
  9
$DIMSE2
 70
     0
  9
$DIMTAD
 70
     1
  9
$DIMZIN
 70
     1
  9
$DIMBLK
  1
ArchTick
  9
$DIMASO
 70
     1
  9
$DIMSHO
 70
     1
  9
$DIMPOST
  1

  9
$DIMAPOST
  1

  9
$DIMALT
 70
     0
  9
$DIMALTD
 70
     3
  9
$DIMALTF
 40
0.03937007874016
  9
$DIMLFAC
 40
1.0
  9
$DIMTOFL
 70
     1
  9
$DIMTVP
 40
0.0
  9
$DIMTIX
 70
     0
  9
$DIMSOXD
 70
     0
  9
$DIMSAH
 70
     0
  9
$DIMBLK1
  1

  9
$DIMBLK2
  1

  9
$DIMSTYLE
  2
Guztion
  9
$DIMCLRD
 70
   256
  9
$DIMCLRE
 70
   256
  9
$DIMCLRT
 70
   256
  9
$DIMTFAC
 40
1.0
  9
$DIMGAP
 40
0.05
  9
$DIMJUST
 70
     0
  9
$DIMSD1
 70
     0
  9
$DIMSD2
 70
     0
  9
$DIMTOLJ
 70
     0
  9
$DIMTZIN
 70
     8
  9
$DIMALTZ
 70
     0
  9
$DIMALTTZ
 70
     0
  9
$DIMUPT
 70
     0
  9
$DIMDEC
 70
     2
  9
$DIMTDEC
 70
     2
  9
$DIMALTU
 70
     2
  9
$DIMALTTD
 70
     3
  9
$DIMTXSTY
  7
Standard
  9
$DIMAUNIT
 70
     0
  9
$DIMADEC
 70
     0
  9
$DIMALTRND
 40
0.0
  9
$DIMAZIN
 70
     0
  9
$DIMDSEP
 70
    46
  9
$DIMATFIT
 70
     3
  9
$DIMFRAC
 70
     0
  9
$DIMLDRBLK
  1

  9
$DIMLUNIT
 70
     2
  9
$DIMLWD
 70
    -2
  9
$DIMLWE
 70
    -2
  9
$DIMTMOVE
 70
     0
  9
$DIMFXL
 40
1.0
  9
$DIMFXLON
 70
     0
  9
$DIMJOGANG
 40
0.7853981633974483
  9
$DIMTFILL
 70
     0
  9
$DIMTFILLCLR
 70
     0
  9
$DIMARCSYM
 70
     0
  9
$DIMLTYPE
  6

  9
$DIMLTEX1
  6

  9
$DIMLTEX2
  6

  9
$DIMTXTDIRECTION
 70
     0
  9
$LUNITS
 70
     2
  9
$LUPREC
 70
     4
  9
$SKETCHINC
 40
1.0
  9
$FILLETRAD
 40
0.0
  9
$AUNITS
 70
     0
  9
$AUPREC
 70
     0
  9
$MENU
  1
.
  9
$ELEVATION
 40
0.0
  9
$PELEVATION
 40
0.0
  9
$THICKNESS
 40
0.0
  9
$LIMCHECK
 70
     0
  9
$CHAMFERA
 40
0.0
  9
$CHAMFERB
 40
0.0
  9
$CHAMFERC
 40
0.0
  9
$CHAMFERD
 40
0.0
  9
$SKPOLY
 70
     0
  9
$TDCREATE
 40
2458543.388716400
  9
$TDUCREATE
 40
2458543.305383067
  9
$TDUPDATE
 40
2458624.825902292
  9
$TDUUPDATE
 40
2458624.742568959
  9
$TDINDWG
 40
2.8225926042
  9
$TDUSRTIMER
 40
2.8225902546
  9
$USRTIMER
 70
     1
  9
$ANGBASE
 50
0.0
  9
$ANGDIR
 70
     0
  9
$PDMODE
 70
     0
  9
$PDSIZE
 40
0.0
  9
$PLINEWID
 40
0.0
  9
$SPLFRAME
 70
     0
  9
$SPLINETYPE
 70
     6
  9
$SPLINESEGS
 70
     8
  9
$HANDSEED
  5
99F2
  9
$SURFTAB1
 70
     6
  9
$SURFTAB2
 70
     6
  9
$SURFTYPE
 70
     6
  9
$SURFU
 70
     6
  9
$SURFV
 70
     6
  9
$UCSBASE
  2

  9
$UCSNAME
  2

  9
$UCSORG
 10
0.0
 20
0.0
 30
0.0
  9
$UCSXDIR
 10
1.0
 20
0.0
 30
0.0
  9
$UCSYDIR
 10
0.0
 20
1.0
 30
0.0
  9
$UCSORTHOREF
  2

  9
$UCSORTHOVIEW
 70
     0
  9
$UCSORGTOP
 10
0.0
 20
0.0
 30
0.0
  9
$UCSORGBOTTOM
 10
0.0
 20
0.0
 30
0.0
  9
$UCSORGLEFT
 10
0.0
 20
0.0
 30
0.0
  9
$UCSORGRIGHT
 10
0.0
 20
0.0
 30
0.0
  9
$UCSORGFRONT
 10
0.0
 20
0.0
 30
0.0
  9
$UCSORGBACK
 10
0.0
 20
0.0
 30
0.0
  9
$PUCSBASE
  2

  9
$PUCSNAME
  2

  9
$PUCSORG
 10
0.0
 20
0.0
 30
0.0
  9
$PUCSXDIR
 10
1.0
 20
0.0
 30
0.0
  9
$PUCSYDIR
 10
0.0
 20
1.0
 30
0.0
  9
$PUCSORTHOREF
  2

  9
$PUCSORTHOVIEW
 70
     0
  9
$PUCSORGTOP
 10
0.0
 20
0.0
 30
0.0
  9
$PUCSORGBOTTOM
 10
0.0
 20
0.0
 30
0.0
  9
$PUCSORGLEFT
 10
0.0
 20
0.0
 30
0.0
  9
$PUCSORGRIGHT
 10
0.0
 20
0.0
 30
0.0
  9
$PUCSORGFRONT
 10
0.0
 20
0.0
 30
0.0
  9
$PUCSORGBACK
 10
0.0
 20
0.0
 30
0.0
  9
$USERI1
 70
     0
  9
$USERI2
 70
     0
  9
$USERI3
 70
     0
  9
$USERI4
 70
     0
  9
$USERI5
 70
     0
  9
$USERR1
 40
0.0
  9
$USERR2
 40
0.0
  9
$USERR3
 40
0.0
  9
$USERR4
 40
0.0
  9
$USERR5
 40
0.0
  9
$WORLDVIEW
 70
     1
  9
$SHADEDGE
 70
     3
  9
$SHADEDIF
 70
    70
  9
$TILEMODE
 70
     0
  9
$MAXACTVP
 70
    64
  9
$PINSBASE
 10
0.0
 20
0.0
 30
0.0
  9
$PLIMCHECK
 70
     0
  9
$PEXTMIN
 10
-0.0018762920232689
 20
0.2812602170592981
 30
0.0
  9
$PEXTMAX
 10
231.3
 20
175.5
 30
0.0
  9
$PLIMMIN
 10
-0.0018762920232689
 20
0.2812602170592981
  9
$PLIMMAX
 10
0.2081237079767311
 20
0.5782602170592981
  9
$UNITMODE
 70
     0
  9
$VISRETAIN
 70
     1
  9
$PLINEGEN
 70
     0
  9
$PSLTSCALE
 70
     1
  9
$TREEDEPTH
 70
  3020
  9
$CMLSTYLE
  2
Standard
  9
$CMLJUST
 70
     0
  9
$CMLSCALE
 40
20.0
  9
$PROXYGRAPHICS
 70
     1
  9
$MEASUREMENT
 70
     1
  9
$CELWEIGHT
370
    -1
  9
$ENDCAPS
280
     0
  9
$JOINSTYLE
280
     0
  9
$LWDISPLAY
290
     0
  9
$INSUNITS
 70
     4
  9
$HYPERLINKBASE
  1

  9
$STYLESHEET
  1
Guztion_Planoak_pdf.ctb
  9
$XEDIT
290
     1
  9
$CEPSNTYPE
380
     0
  9
$PSTYLEMODE
290
     1
  9
$FINGERPRINTGUID
  2
{454E2246-75CB-45FB-A2E0-00429C7F3A53}
  9
$VERSIONGUID
  2
{1C77D2F4-2333-4C07-8004-4AA9CA9CCC0F}
  9
$EXTNAMES
290
     1
  9
$PSVPSCALE
 40
0.0
  9
$OLESTARTUP
290
     0
  9
$SORTENTS
280
   127
  9
$INDEXCTL
280
     0
  9
$HIDETEXT
280
     1
  9
$XCLIPFRAME
280
     2
  9
$HALOGAP
280
     0
  9
$OBSCOLOR
 70
   257
  9
$OBSLTYPE
280
     0
  9
$INTERSECTIONDISPLAY
280
     0
  9
$INTERSECTIONCOLOR
 70
   257
  9
$DIMASSOC
280
     2
  9
$PROJECTNAME
  1

  9
$CAMERADISPLAY
290
     0
  9
$LENSLENGTH
 40
50.0
  9
$CAMERAHEIGHT
 40
0.0
  9
$STEPSPERSEC
 40
2.0
  9
$STEPSIZE
 40
6.0
  9
$3DDWFPREC
 40
2.0
  9
$PSOLWIDTH
 40
5.0
  9
$PSOLHEIGHT
 40
80.0
  9
$LOFTANG1
 40
1.570796326794896
  9
$LOFTANG2
 40
1.570796326794896
  9
$LOFTMAG1
 40
0.0
  9
$LOFTMAG2
 40
0.0
  9
$LOFTPARAM
 70
     7
  9
$LOFTNORMALS
280
     1
  9
$LATITUDE
 40
37.795
  9
$LONGITUDE
 40
-122.394
  9
$NORTHDIRECTION
 40
0.0
  9
$TIMEZONE
 70
 -8000
  9
$LIGHTGLYPHDISPLAY
280
     1
  9
$TILEMODELIGHTSYNCH
280
     1
  9
$CMATERIAL
347
EC
  9
$SOLIDHIST
280
     0
  9
$SHOWHIST
280
     1
  9
$DWFFRAME
280
     2
  9
$DGNFRAME
280
     0
  9
$REALWORLDSCALE
290
     1
  9
$INTERFERECOLOR
 62
     1
  9
$INTERFEREOBJVS
345
F9
  9
$INTERFEREVPVS
346
F6
  9
$CSHADOW
280
     0
  9
$SHADOWPLANELOCATION
 40
0.0
  0
ENDSEC
  0
SECTION
  2
CLASSES
  0
CLASS
  1
ACDBDICTIONARYWDFLT
  2
AcDbDictionaryWithDefault
  3
ObjectDBX Classes
 90
        0
 91
        1
280
     0
281
     0
  0
CLASS
  1
DICTIONARYVAR
  2
AcDbDictionaryVar
  3
ObjectDBX Classes
 90
        0
 91
        9
280
     0
281
     0
  0
CLASS
  1
TABLESTYLE
  2
AcDbTableStyle
  3
ObjectDBX Classes
 90
     4095
 91
        1
280
     0
281
     0
  0
CLASS
  1
MATERIAL
  2
AcDbMaterial
  3
ObjectDBX Classes
 90
     1153
 91
        3
280
     0
281
     0
  0
CLASS
  1
VISUALSTYLE
  2
AcDbVisualStyle
  3
ObjectDBX Classes
 90
     4095
 91
       24
280
     0
281
     0
  0
CLASS
  1
SCALE
  2
AcDbScale
  3
ObjectDBX Classes
 90
     1153
 91
       18
280
     0
281
     0
  0
CLASS
  1
MLEADERSTYLE
  2
AcDbMLeaderStyle
  3
ACDB_MLEADERSTYLE_CLASS
 90
     4095
 91
        2
280
     0
281
     0
  0
CLASS
  1
CELLSTYLEMAP
  2
AcDbCellStyleMap
  3
ObjectDBX Classes
 90
     1152
 91
        1
280
     0
281
     0
  0
CLASS
  1
EXACXREFPANELOBJECT
  2
ExAcXREFPanelObject
  3
EXAC_ESW
 90
     1025
 91
        0
280
     0
281
     0
  0
CLASS
  1
NPOCOLLECTION
  2
AcDbImpNonPersistentObjectsCollection
  3
ObjectDBX Classes
 90
     1153
 91
        0
280
     0
281
     0
  0
CLASS
  1
LAYER_INDEX
  2
AcDbLayerIndex
  3
ObjectDBX Classes
 90
        0
 91
        0
280
     0
281
     0
  0
CLASS
  1
SPATIAL_INDEX
  2
AcDbSpatialIndex
  3
ObjectDBX Classes
 90
        0
 91
        0
280
     0
281
     0
  0
CLASS
  1
IDBUFFER
  2
AcDbIdBuffer
  3
ObjectDBX Classes
 90
        0
 91
        0
280
     0
281
     0
  0
CLASS
  1
ACDBSECTIONVIEWSTYLE
  2
AcDbSectionViewStyle
  3
ObjectDBX Classes
 90
     1025
 91
        2
280
     0
281
     0
  0
CLASS
  1
ACDBDETAILVIEWSTYLE
  2
AcDbDetailViewStyle
  3
ObjectDBX Classes
 90
     1025
 91
        2
280
     0
281
     0
  0
CLASS
  1
SORTENTSTABLE
  2
AcDbSortentsTable
  3
ObjectDBX Classes
 90
        0
 91
        3
280
     0
281
     0
  0
CLASS
  1
RASTERVARIABLES
  2
AcDbRasterVariables
  3
ISM
 90
        0
 91
        1
280
     0
281
     0
  0
CLASS
  1
IMAGEDEF
  2
AcDbRasterImageDef
  3
ISM
 90
        0
 91
        7
280
     0
281
     0
  0
CLASS
  1
IMAGEDEF_REACTOR
  2
AcDbRasterImageDefReactor
  3
ISM
 90
        1
 91
        3
280
     0
281
     0
  0
CLASS
  1
IMAGE
  2
AcDbRasterImage
  3
ISM
 90
     2175
 91
        3
280
     0
281
     1
  0
CLASS
  1
DIMASSOC
  2
AcDbDimAssoc
  3
"AcDbDimAssoc|Product Desc:     AcDim ARX App For Dimension|Company:          Autodesk, Inc.|WEB Address:      www.autodesk.com"
 90
        0
 91
       29
280
     0
281
     0
  0
CLASS
  1
BREAKDATA
  2
AcDbBreakData
  3
ObjectDBX Classes
 90
     1024
 91
        0
280
     0
281
     0
  0
CLASS
  1
SOLID_BACKGROUND
  2
AcDbSolidBackground
  3
SCENEOE
 90
     4095
 91
        0
280
     0
281
     0
  0
ENDSEC
  0
SECTION
  2
TABLES
  0
TABLE
  2
VPORT
  5
8
330
0
100
AcDbSymbolTable
 70
     1
  0
VPORT
  5
EA
330
8
100
AcDbSymbolTableRecord
100
AcDbViewportTableRecord
  2
*Active
 70
     0
 10
0.0
 20
0.0
 11
1.0
 21
1.0
 12
268.6585575775075
 22
3.728714625197881
 13
0.0
 23
0.0
 14
10.0
 24
10.0
 15
10.0
 25
10.0
 16
0.0
 26
0.0
 36
0.6188922984979737
 17
2619.601320438711
 27
877.6296409676874
 37
0.0
 40
67.64758187212272
 41
2.182692307692307
 42
50.0
 43
0.0
 44
0.0
 50
0.0
 51
0.0
 71
     0
 72
  1000
 73
     1
 74
     3
 75
     0
 76
     0
 77
     0
 78
     1
281
     0
 65
     1
110
0.0
120
0.0
130
0.0
111
1.0
121
0.0
131
0.0
112
0.0
122
1.0
132
0.0
 79
     0
146
0.0
348
F5
 60
     3
 61
     5
292
     1
282
     1
141
0.0
142
0.0
 63
   250
421
  3355443
1001
ACAD_NAV_VCDISPLAY
1070
     3
  0
ENDTAB
  0
TABLE
  2
LTYPE
  5
5
330
0
100
AcDbSymbolTable
 70
     4
  0
LTYPE
  5
14
330
5
100
AcDbSymbolTableRecord
100
AcDbLinetypeTableRecord
  2
ByBlock
 70
     0
  3

 72
    65
 73
     0
 40
0.0
  0
LTYPE
  5
15
330
5
100
AcDbSymbolTableRecord
100
AcDbLinetypeTableRecord
  2
ByLayer
 70
     0
  3

 72
    65
 73
     0
 40
0.0
  0
LTYPE
  5
16
330
5
100
AcDbSymbolTableRecord
100
AcDbLinetypeTableRecord
  2
Continuous
 70
     0
  3
Solid line
 72
    65
 73
     0
 40
0.0
  0
LTYPE
  5
3B76
330
5
100
AcDbSymbolTableRecord
100
AcDbLinetypeTableRecord
  2
ACAD_ISO02W100
 70
     0
  3
 ISO trazo __ __ __ __ __ __ __ __ __ __ __ __ 
 72
    65
 73
     2
 40
15.0
 49
12.0
 74
     0
 49
-3.0
 74
     0
  0
LTYPE
  5
3B7A
330
5
100
AcDbSymbolTableRecord
100
AcDbLinetypeTableRecord
  2
ACAD_ISO04W100
 70
     0
  3
 ISO trazo largo, punto ____ . ____ . ____ . __
 72
    65
 73
     4
 40
30.0
 49
24.0
 74
     0
 49
-3.0
 74
     0
 49
0.0
 74
     0
 49
-3.0
 74
     0
  0
LTYPE
  5
9168
330
5
100
AcDbSymbolTableRecord
100
AcDbLinetypeTableRecord
  2
DISCONT
 70
     0
  3
- - - - - - -
 72
    65
 73
     2
 40
2.0
 49
1.0
 74
     0
 49
-1.0
 74
     0
  0
ENDTAB
  0
TABLE
  2
LAYER
  5
2
102
{ACAD_XDICTIONARY
360
1FF
102
}
330
0
100
AcDbSymbolTable
 70
    30
  0
LAYER
  5
10
102
{ACAD_XDICTIONARY
360
13C
102
}
330
2
100
AcDbSymbolTableRecord
100
AcDbLayerTableRecord
  2
0
 70
     0
 62
     7
  6
Continuous
370
    -3
390
F
347
EE
348
0
  0
LAYER
  5
485
330
2
100
AcDbSymbolTableRecord
100
AcDbLayerTableRecord
  2
1.7. Ventanas Gráficas
 70
     0
 62
     5
  6
Continuous
290
     0
370
    -3
390
F
347
EE
348
0
1001
AcAecLayerStandard
1000

1000

1001
AcCmTransparency
1071
        0
  0
LAYER
  5
659
330
2
100
AcDbSymbolTableRecord
100
AcDbLayerTableRecord
  2
1.5. Marra1
 70
     0
 62
   248
  6
Continuous
370
    -3
390
F
347
EE
348
0
1001
AcAecLayerStandard
1000

1000

1001
AcCmTransparency
1071
        0
  0
LAYER
  5
6C6
102
{ACAD_XDICTIONARY
360
6C7
102
}
330
2
100
AcDbSymbolTableRecord
100
AcDbLayerTableRecord
  2
1.6. Marra2
 70
     0
 62
   252
  6
Continuous
370
    -3
390
F
347
EE
348
0
1001
AcAecLayerStandard
1000

1000

  0
LAYER
  5
7AC
330
2
100
AcDbSymbolTableRecord
100
AcDbLayerTableRecord
  2
1.4. Idatzia
 70
     0
 62
     7
  6
Continuous
370
    -3
390
F
347
EE
348
0
1001
AcAecLayerStandard
1000

1000

1001
AcCmTransparency
1071
        0
  0
LAYER
  5
7AD
330
2
100
AcDbSymbolTableRecord
100
AcDbLayerTableRecord
  2
1.1. Armarria
 70
     0
 62
     7
420
 16777215
  6
Continuous
370
    -3
390
F
347
EE
348
0
1001
AcAecLayerStandard
1000

1000

1001
AcCmTransparency
1071
        0
  0
LAYER
  5
7AE
330
2
100
AcDbSymbolTableRecord
100
AcDbLayerTableRecord
  2
1.3. Eskala grafikoa
 70
     0
 62
     7
  6
Continuous
370
    -3
390
F
347
EE
348
0
1001
AcAecLayerStandard
1000

1000

1001
AcCmTransparency
1071
        0
  0
LAYER
  5
FC3
330
2
100
AcDbSymbolTableRecord
100
AcDbLayerTableRecord
  2
2.1. Kanpo Horma
 70
     0
 62
    74
  6
Continuous
370
    -3
390
F
347
EE
348
0
1001
AcAecLayerStandard
1000

1000

1001
AcCmTransparency
1071
        0
  0
LAYER
  5
FC4
330
2
100
AcDbSymbolTableRecord
100
AcDbLayerTableRecord
  2
2.2. Barne Horma
 70
     0
 62
   160
  6
Continuous
370
    -3
390
F
347
EE
348
0
1001
AcAecLayerStandard
1000

1000

1001
AcCmTransparency
1071
        0
  0
LAYER
  5
FC5
330
2
100
AcDbSymbolTableRecord
100
AcDbLayerTableRecord
  2
2.3. Mehelina
 70
     0
 62
    42
  6
Continuous
370
    -3
390
F
347
EE
348
0
1001
AcAecLayerStandard
1000

1000

1001
AcCmTransparency
1071
        0
  0
LAYER
  5
FC6
330
2
100
AcDbSymbolTableRecord
100
AcDbLayerTableRecord
  2
3.1. Atea
 70
     0
 62
   251
  6
Continuous
370
    -3
390
F
347
EE
348
0
1001
AcAecLayerStandard
1000

1000

1001
AcCmTransparency
1071
        0
  0
LAYER
  5
FC7
330
2
100
AcDbSymbolTableRecord
100
AcDbLayerTableRecord
  2
3.2. Leihoa
 70
     0
 62
   251
  6
Continuous
370
    -3
390
F
347
EE
348
0
1001
AcAecLayerStandard
1000

1000

1001
AcCmTransparency
1071
        0
  0
LAYER
  5
FC8
330
2
100
AcDbSymbolTableRecord
100
AcDbLayerTableRecord
  2
2.4. Terraza horma
 70
     0
 62
     9
  6
Continuous
370
    -3
390
F
347
EE
348
0
1001
AcAecLayerStandard
1000

1000

1001
AcCmTransparency
1071
        0
  0
LAYER
  5
FC9
330
2
100
AcDbSymbolTableRecord
100
AcDbLayerTableRecord
  2
3.3. Eskudela
 70
     0
 62
   251
  6
Continuous
370
    -3
390
F
347
EE
348
0
1001
AcAecLayerStandard
1000

1000

1001
AcCmTransparency
1071
        0
  0
LAYER
  5
14FC
330
2
100
AcDbSymbolTableRecord
100
AcDbLayerTableRecord
  2
7.3. Kota
 70
     0
 62
   251
  6
Continuous
370
    -3
390
F
347
EE
348
0
1001
AcAecLayerStandard
1000

1000

1001
AcCmTransparency
1071
        0
  0
LAYER
  5
150C
330
2
100
AcDbSymbolTableRecord
100
AcDbLayerTableRecord
  2
2.5. Horma itzala
 70
     0
 62
   253
  6
Continuous
370
    -3
390
F
347
EE
348
0
1001
AcAecLayerStandard
1000

1000

1001
AcCmTransparency
1071
        0
  0
LAYER
  5
1874
330
2
100
AcDbSymbolTableRecord
100
AcDbLayerTableRecord
  2
5.1. Komuneko altzaria
 70
     0
 62
   252
  6
Continuous
370
    -3
390
F
347
EE
348
0
1001
AcAecLayerStandard
1000

1000

1001
AcCmTransparency
1071
        0
  0
LAYER
  5
194D
330
2
100
AcDbSymbolTableRecord
100
AcDbLayerTableRecord
  2
-
 70
     0
 62
     7
  6
Continuous
370
    -3
390
F
347
EE
348
0
  0
LAYER
  5
1BDA
330
2
100
AcDbSymbolTableRecord
100
AcDbLayerTableRecord
  2
Defpoints
 70
     0
 62
     7
  6
Continuous
290
     0
370
    -3
390
F
347
EE
348
0
  0
LAYER
  5
24FF
330
2
100
AcDbSymbolTableRecord
100
AcDbLayerTableRecord
  2
2.6. Zorua
 70
     0
 62
   253
  6
Continuous
370
    -3
390
F
347
EE
348
0
1001
AcAecLayerStandard
1000

1000

1001
AcCmTransparency
1071
        0
  0
LAYER
  5
253B
330
2
100
AcDbSymbolTableRecord
100
AcDbLayerTableRecord
  2
6.1. Eskailerak
 70
     0
 62
   252
  6
Continuous
370
    -3
390
F
347
EE
348
0
1001
AcAecLayerStandard
1000

1000

1001
AcCmTransparency
1071
        0
  0
LAYER
  5
3AB1
330
2
100
AcDbSymbolTableRecord
100
AcDbLayerTableRecord
  2
7.1. Azalera erabilgarria
 70
     0
 62
   -12
  6
Continuous
290
     0
370
    -3
390
F
347
EE
348
0
1001
AcAecLayerStandard
1000

1000

1001
AcCmTransparency
1071
        0
  0
LAYER
  5
3B73
330
2
100
AcDbSymbolTableRecord
100
AcDbLayerTableRecord
  2
8.1. Irisgarritasun boloa
 70
     0
 62
   252
  6
ACAD_ISO02W100
370
    -3
390
F
347
EE
348
0
1001
AcAecLayerStandard
1000

1000

1001
AcCmTransparency
1071
        0
  0
LAYER
  5
4035
330
2
100
AcDbSymbolTableRecord
100
AcDbLayerTableRecord
  2
4.1. Zeramika-baldosa
 70
     0
 62
   253
  6
Continuous
370
    -3
390
F
347
EE
348
0
1001
AcAecLayerStandard
1000

1000

1001
AcCmTransparency
1071
        0
  0
LAYER
  5
4129
330
2
100
AcDbSymbolTableRecord
100
AcDbLayerTableRecord
  2
7.2. Idatzia
 70
     0
 62
    18
420
   526344
  6
Continuous
370
    -3
390
F
347
EE
348
0
1001
AcAecLayerStandard
1000

1000

1001
AcCmTransparency
1071
        0
  0
LAYER
  5
45C5
330
2
100
AcDbSymbolTableRecord
100
AcDbLayerTableRecord
  2
4.2. Parket
 70
     0
 62
   253
  6
Continuous
370
    -3
390
F
347
EE
348
0
1001
AcAecLayerStandard
1000

1000

1001
AcCmTransparency
1071
        0
  0
LAYER
  5
8D45
330
2
100
AcDbSymbolTableRecord
100
AcDbLayerTableRecord
  2
4.3. Moketa
 70
     0
 62
   253
  6
Continuous
370
    -3
390
F
347
EE
348
0
1001
AcAecLayerStandard
1000

1000

1001
AcCmTransparency
1071
        0
  0
LAYER
  5
9169
102
{ACAD_XDICTIONARY
360
916A
102
}
330
2
100
AcDbSymbolTableRecord
100
AcDbLayerTableRecord
  2
Basea_Eraikuntza
 70
     0
 62
     7
  6
Continuous
370
    -3
390
F
347
EE
348
0
1001
RAK
1000
{ACET-LAYISO
1070
     0
1070
     1
1000
CONTINUOUS
1071
       -3
1071
        1
1005
F
1000
ACET-LAYISO}
  0
LAYER
  5
916B
330
2
100
AcDbSymbolTableRecord
100
AcDbLayerTableRecord
  2
Azterketa Eremua_6. Gunea
 70
     0
 62
   251
  6
DISCONT
370
    53
390
F
347
EE
348
0
1001
AcAecLayerStandard
1000

1000

1001
AcCmTransparency
1071
        0
  0
LAYER
  5
9232
330
2
100
AcDbSymbolTableRecord
100
AcDbLayerTableRecord
  2
7.1.1. Azalera eraikia
 70
     0
 62
   -12
  6
Continuous
290
     0
370
    -3
390
F
347
EE
348
0
1001
AcAecLayerStandard
1000

1000

1001
AcCmTransparency
1071
        0
  0
ENDTAB
  0
TABLE
  2
STYLE
  5
3
330
0
100
AcDbSymbolTable
 70
     3
  0
STYLE
  5
11
330
3
100
AcDbSymbolTableRecord
100
AcDbTextStyleTableRecord
  2
Standard
 70
     0
 40
0.0
 41
1.0
 50
0.0
 71
     0
 42
2.5
  3
arial.ttf
  4

1001
ACAD
1000
Arial
1071
       34
  0
STYLE
  5
132
330
3
100
AcDbSymbolTableRecord
100
AcDbTextStyleTableRecord
  2
Anotativo
 70
     0
 40
0.0
 41
1.0
 50
0.0
 71
     0
 42
2.5
  3
arial.ttf
  4

1001
AcadAnnotative
1000
AnnotativeData
1002
{
1070
     1
1070
     1
1002
}
1001
ACAD
1000
Arial
1071
       34
  0
STYLE
  5
3B75
330
3
100
AcDbSymbolTableRecord
100
AcDbTextStyleTableRecord
  2

 70
     1
 40
0.0
 41
1.0
 50
0.0
 71
     0
 42
2.5
  3
ltypeshp.shx
  4

  0
ENDTAB
  0
TABLE
  2
VIEW
  5
6
330
0
100
AcDbSymbolTable
 70
     1
  0
ENDTAB
  0
TABLE
  2
UCS
  5
7
330
0
100
AcDbSymbolTable
 70
     0
  0
ENDTAB
  0
TABLE
  2
APPID
  5
9
330
0
100
AcDbSymbolTable
 70
    16
  0
APPID
  5
12
330
9
100
AcDbSymbolTableRecord
100
AcDbRegAppTableRecord
  2
ACAD
 70
     0
  0
APPID
  5
9E
330
9
100
AcDbSymbolTableRecord
100
AcDbRegAppTableRecord
  2
ACAD_PSEXT
 70
     0
  0
APPID
  5
133
330
9
100
AcDbSymbolTableRecord
100
AcDbRegAppTableRecord
  2
AcadAnnoPO
 70
     0
  0
APPID
  5
134
330
9
100
AcDbSymbolTableRecord
100
AcDbRegAppTableRecord
  2
AcadAnnotative
 70
     0
  0
APPID
  5
135
330
9
100
AcDbSymbolTableRecord
100
AcDbRegAppTableRecord
  2
ACAD_DSTYLE_DIMJAG
 70
     0
  0
APPID
  5
136
330
9
100
AcDbSymbolTableRecord
100
AcDbRegAppTableRecord
  2
ACAD_DSTYLE_DIMTALN
 70
     0
  0
APPID
  5
165
330
9
100
AcDbSymbolTableRecord
100
AcDbRegAppTableRecord
  2
ACAD_MLEADERVER
 70
     0
  0
APPID
  5
217
330
9
100
AcDbSymbolTableRecord
100
AcDbRegAppTableRecord
  2
ACAD_NAV_VCDISPLAY
 70
     0
  0
APPID
  5
24C
330
9
100
AcDbSymbolTableRecord
100
AcDbRegAppTableRecord
  2
ACAD_EXEMPT_FROM_CAD_STANDARDS
 70
     0
  0
APPID
  5
486
330
9
100
AcDbSymbolTableRecord
100
AcDbRegAppTableRecord
  2
AcAecLayerStandard
 70
     0
  0
APPID
  5
487
330
9
100
AcDbSymbolTableRecord
100
AcDbRegAppTableRecord
  2
AcCmTransparency
 70
     0
  0
APPID
  5
FCA
330
9
100
AcDbSymbolTableRecord
100
AcDbRegAppTableRecord
  2
GradientColor1ACI
 70
     0
  0
APPID
  5
FCB
330
9
100
AcDbSymbolTableRecord
100
AcDbRegAppTableRecord
  2
GradientColor2ACI
 70
     0
  0
APPID
  5
14FB
330
9
100
AcDbSymbolTableRecord
100
AcDbRegAppTableRecord
  2
ACAD_DSTYLE_DIMBREAK
 70
     0
  0
APPID
  5
916C
330
9
100
AcDbSymbolTableRecord
100
AcDbRegAppTableRecord
  2
RAK
 70
     0
  0
APPID
  5
916D
330
9
100
AcDbSymbolTableRecord
100
AcDbRegAppTableRecord
  2
IRD
 70
     0
  0
ENDTAB
  0
TABLE
  2
DIMSTYLE
  5
A
330
0
100
AcDbSymbolTable
 70
     4
100
AcDbDimStyleTable
 71
     3
340
1501
340
27
340
137
  0
DIMSTYLE
105
1B0
330
A
100
AcDbSymbolTableRecord
100
AcDbDimStyleTableRecord
  2
Standard
 70
     0
340
11
  0
DIMSTYLE
105
137
330
A
100
AcDbSymbolTableRecord
100
AcDbDimStyleTableRecord
  2
Anotativo
 70
     0
 40
0.0
 41
2.5
 42
0.625
 43
3.75
 44
1.25
 73
     0
 74
     0
 77
     1
 78
     8
140
2.5
141
2.5
143
0.03937007874016
147
0.625
171
     3
172
     1
271
     2
272
     2
274
     3
278
    44
283
     0
284
     8
340
11
1001
AcadAnnotative
1000
AnnotativeData
1002
{
1070
     1
1070
     1
1002
}
1001
ACAD_DSTYLE_DIMJAG
1070
   388
1040
1.5
1001
ACAD_DSTYLE_DIMTALN
1070
   392
1070
     0
  0
DIMSTYLE
105
27
330
A
100
AcDbSymbolTableRecord
100
AcDbDimStyleTableRecord
  2
ISO-25
 70
     0
 41
2.5
 42
0.625
 43
3.75
 44
1.25
 73
     0
 74
     0
 77
     1
 78
     8
140
2.5
141
2.5
143
0.03937007874016
147
0.625
171
     3
172
     1
271
     2
272
     2
274
     3
278
    44
283
     0
284
     8
340
11
  0
DIMSTYLE
105
1501
102
{ACAD_REACTORS
330
56B5
330
56CD
330
56E5
330
56FD
330
5715
330
58B7
330
58CF
330
5909
330
5921
330
5939
330
596D
330
59B7
330
59CF
330
59E7
330
59FF
330
5A17
330
5A2F
330
5A43
330
5A57
330
5A93
330
5AA0
330
5AAE
330
5AC6
330
5ADE
330
5B02
330
5B1A
330
5B32
330
5B4A
330
5B84
330
5B9C
330
5BB4
102
}
330
A
100
AcDbSymbolTableRecord
100
AcDbDimStyleTableRecord
  2
Guztion
 70
     0
 41
0.1
 42
0.1
 43
3.75
 44
0.1
 73
     0
 74
     0
 77
     1
 78
     1
140
0.15
141
2.5
143
0.03937007874016
147
0.05
171
     3
172
     1
176
   256
177
   256
178
   256
271
     2
272
     2
274
     3
283
     0
284
     8
340
11
342
14FD
1001
ACAD_DSTYLE_DIMBREAK
1070
   391
1040
3.75
1001
ACAD_DSTYLE_DIMJAG
1070
   388
1040
1.5
1001
ACAD_DSTYLE_DIMTALN
1070
   392
1070
     0
  0
ENDTAB
  0
TABLE
  2
BLOCK_RECORD
  5
1
330
0
100
AcDbSymbolTable
 70
   287
  0
BLOCK_RECORD
  5
1F
102
{ACAD_XDICTIONARY
360
1CE
102
}
330
1
100
AcDbSymbolTableRecord
100
AcDbBlockTableRecord
  2
*Model_Space
340
22
 70
     0
280
     1
281
     0
  0
BLOCK_RECORD
  5
2CF2
330
1
100
AcDbSymbolTableRecord
100
AcDbBlockTableRecord
  2
*Paper_Space
340
2CFF
 70
     0
280
     1
281
     0
  0
BLOCK_RECORD
  5
14FD
330
1
100
AcDbSymbolTableRecord
100
AcDbBlockTableRecord
  2
_ArchTick
340
0
102
{BLKREFS
331
5B5B
331
5B5C
331
5B95
331
5B96
331
5BAD
331
5BAE
331
5BC5
331
5BC6
331
591A
331
591B
331
5932
331
5933
331
594A
331
594B
331
597E
331
597F
331
59C8
331
59C9
331
59E0
331
59E1
331
59F8
331
59F9
331
5A10
331
5A11
331
5A28
331
5A29
331
5A3C
331
5A3D
331
5A50
331
5A51
331
5A64
331
5A65
331
5A9A
331
5A9B
331
5AA7
331
5AA8
331
5ABF
331
5AC0
331
5AD7
331
5AD8
331
5AEF
331
5AF0
331
5B13
331
5B14
331
5B2B
331
5B2C
331
5B43
331
5B44
331
56C6
331
56C7
331
56DE
331
56DF
331
56F6
331
56F7
331
570E
331
570F
331
5726
331
5727
331
58C8
331
58C9
331
58E0
331
58E1
102
}
 70
     0
280
     1
281
     0
  0
BLOCK_RECORD
  5
194E
330
1
100
AcDbSymbolTableRecord
100
AcDbBlockTableRecord
  2
A$C6A1E31B2
340
0
 70
     0
280
     1
281
     0
  0
BLOCK_RECORD
  5
2643
102
{ACAD_XDICTIONARY
360
2645
102
}
330
1
100
AcDbSymbolTableRecord
100
AcDbBlockTableRecord
  2
A$C4C6C188E
340
0
 70
     4
280
     1
281
     0
  0
BLOCK_RECORD
  5
D6
330
1
100
AcDbSymbolTableRecord
100
AcDbBlockTableRecord
  2
*Paper_Space12
340
D7
 70
     0
280
     1
281
     0
  0
BLOCK_RECORD
  5
56B6
330
1
100
AcDbSymbolTableRecord
100
AcDbBlockTableRecord
  2
*D109
340
0
 70
     0
280
     1
281
     0
  0
BLOCK_RECORD
  5
56CE
330
1
100
AcDbSymbolTableRecord
100
AcDbBlockTableRecord
  2
*D110
340
0
 70
     0
280
     1
281
     0
  0
BLOCK_RECORD
  5
56E6
330
1
100
AcDbSymbolTableRecord
100
AcDbBlockTableRecord
  2
*D111
340
0
 70
     0
280
     1
281
     0
  0
BLOCK_RECORD
  5
56FE
330
1
100
AcDbSymbolTableRecord
100
AcDbBlockTableRecord
  2
*D112
340
0
 70
     0
280
     1
281
     0
  0
BLOCK_RECORD
  5
5716
330
1
100
AcDbSymbolTableRecord
100
AcDbBlockTableRecord
  2
*D113
340
0
 70
     0
280
     1
281
     0
  0
BLOCK_RECORD
  5
58B8
330
1
100
AcDbSymbolTableRecord
100
AcDbBlockTableRecord
  2
*D114
340
0
 70
     0
280
     1
281
     0
  0
BLOCK_RECORD
  5
58D0
330
1
100
AcDbSymbolTableRecord
100
AcDbBlockTableRecord
  2
*D115
340
0
 70
     0
280
     1
281
     0
  0
BLOCK_RECORD
  5
590A
330
1
100
AcDbSymbolTableRecord
100
AcDbBlockTableRecord
  2
*D116
340
0
 70
     0
280
     1
281
     0
  0
BLOCK_RECORD
  5
5922
330
1
100
AcDbSymbolTableRecord
100
AcDbBlockTableRecord
  2
*D117
340
0
 70
     0
280
     1
281
     0
  0
BLOCK_RECORD
  5
593A
330
1
100
AcDbSymbolTableRecord
100
AcDbBlockTableRecord
  2
*D118
340
0
 70
     0
280
     1
281
     0
  0
BLOCK_RECORD
  5
596E
330
1
100
AcDbSymbolTableRecord
100
AcDbBlockTableRecord
  2
*D119
340
0
 70
     0
280
     1
281
     0
  0
BLOCK_RECORD
  5
59B8
330
1
100
AcDbSymbolTableRecord
100
AcDbBlockTableRecord
  2
*D120
340
0
 70
     0
280
     1
281
     0
  0
BLOCK_RECORD
  5
59D0
330
1
100
AcDbSymbolTableRecord
100
AcDbBlockTableRecord
  2
*D121
340
0
 70
     0
280
     1
281
     0
  0
BLOCK_RECORD
  5
59E8
330
1
100
AcDbSymbolTableRecord
100
AcDbBlockTableRecord
  2
*D122
340
0
 70
     0
280
     1
281
     0
  0
BLOCK_RECORD
  5
5A00
330
1
100
AcDbSymbolTableRecord
100
AcDbBlockTableRecord
  2
*D123
340
0
 70
     0
280
     1
281
     0
  0
BLOCK_RECORD
  5
5A18
330
1
100
AcDbSymbolTableRecord
100
AcDbBlockTableRecord
  2
*D124
340
0
 70
     0
280
     1
281
     0
  0
BLOCK_RECORD
  5
5A30
330
1
100
AcDbSymbolTableRecord
100
AcDbBlockTableRecord
  2
*D125
340
0
 70
     0
280
     1
281
     0
  0
BLOCK_RECORD
  5
5A44
330
1
100
AcDbSymbolTableRecord
100
AcDbBlockTableRecord
  2
*D126
340
0
 70
     0
280
     1
281
     0
  0
BLOCK_RECORD
  5
5A58
330
1
100
AcDbSymbolTableRecord
100
AcDbBlockTableRecord
  2
*D127
340
0
 70
     0
280
     1
281
     0
  0
BLOCK_RECORD
  5
5A94
330
1
100
AcDbSymbolTableRecord
100
AcDbBlockTableRecord
  2
*D128
340
0
 70
     0
280
     1
281
     0
  0
BLOCK_RECORD
  5
5AA1
330
1
100
AcDbSymbolTableRecord
100
AcDbBlockTableRecord
  2
*D129
340
0
 70
     0
280
     1
281
     0
  0
BLOCK_RECORD
  5
5AAF
330
1
100
AcDbSymbolTableRecord
100
AcDbBlockTableRecord
  2
*D130
340
0
 70
     0
280
     1
281
     0
  0
BLOCK_RECORD
  5
5AC7
330
1
100
AcDbSymbolTableRecord
100
AcDbBlockTableRecord
  2
*D131
340
0
 70
     0
280
     1
281
     0
  0
BLOCK_RECORD
  5
5ADF
330
1
100
AcDbSymbolTableRecord
100
AcDbBlockTableRecord
  2
*D132
340
0
 70
     0
280
     1
281
     0
  0
BLOCK_RECORD
  5
5B03
330
1
100
AcDbSymbolTableRecord
100
AcDbBlockTableRecord
  2
*D133
340
0
 70
     0
280
     1
281
     0
  0
BLOCK_RECORD
  5
5B1B
330
1
100
AcDbSymbolTableRecord
100
AcDbBlockTableRecord
  2
*D134
340
0
 70
     0
280
     1
281
     0
  0
BLOCK_RECORD
  5
5B33
330
1
100
AcDbSymbolTableRecord
100
AcDbBlockTableRecord
  2
*D135
340
0
 70
     0
280
     1
281
     0
  0
BLOCK_RECORD
  5
5B4B
330
1
100
AcDbSymbolTableRecord
100
AcDbBlockTableRecord
  2
*D136
340
0
 70
     0
280
     1
281
     0
  0
BLOCK_RECORD
  5
5B85
330
1
100
AcDbSymbolTableRecord
100
AcDbBlockTableRecord
  2
*D137
340
0
 70
     0
280
     1
281
     0
  0
BLOCK_RECORD
  5
5B9D
330
1
100
AcDbSymbolTableRecord
100
AcDbBlockTableRecord
  2
*D138
340
0
 70
     0
280
     1
281
     0
  0
BLOCK_RECORD
  5
5BB5
330
1
100
AcDbSymbolTableRecord
100
AcDbBlockTableRecord
  2
*D139
340
0
 70
     0
280
     1
281
     0
  0
BLOCK_RECORD
  5
916E
102
{ACAD_XDICTIONARY
360
9170
102
}
330
1
100
AcDbSymbolTableRecord
100
AcDbBlockTableRecord
  2
A$C56C501B1
340
0
 70
     4
280
     1
281
     0
  0
ENDTAB
  0
ENDSEC
  0
SECTION
  2
BLOCKS
  0
BLOCK
  5
20
330
1F
100
AcDbEntity
  8
0
100
AcDbBlockBegin
  2
*Model_Space
 70
     0
 10
0.0
 20
0.0
 30
0.0
  3
*Model_Space
  1

  0
ENDBLK
  5
21
330
1F
100
AcDbEntity
  8
0
100
AcDbBlockEnd
  0
BLOCK
  5
2CF3
330
2CF2
100
AcDbEntity
 67
     1
  8
0
100
AcDbBlockBegin
  2
*Paper_Space
 70
     0
 10
0.0
 20
0.0
 30
0.0
  3
*Paper_Space
  1

  0
ENDBLK
  5
2CFE
330
2CF2
100
AcDbEntity
 67
     1
  8
0
100
AcDbBlockEnd
  0
BLOCK
  5
14FF
330
14FD
100
AcDbEntity
  8
0
100
AcDbBlockBegin
  2
_ArchTick
 70
     0
 10
0.0
 20
0.0
 30
0.0
  3
_ArchTick
  1

  0
LWPOLYLINE
  5
14FE
330
14FD
100
AcDbEntity
  8
0
  6
ByBlock
 62
     0
100
AcDbPolyline
 90
        2
 70
     0
 43
0.15
 10
-0.5
 20
-0.5
 10
0.5
 20
0.5
  0
ENDBLK
  5
1500
330
14FD
100
AcDbEntity
  8
0
100
AcDbBlockEnd
  0
BLOCK
  5
195F
330
194E
100
AcDbEntity
  8
0
100
AcDbBlockBegin
  2
A$C6A1E31B2
 70
     0
 10
0.0
 20
0.0
 30
0.0
  3
A$C6A1E31B2
  1

  0
LWPOLYLINE
  5
194F
330
194E
100
AcDbEntity
  8
-
100
AcDbPolyline
 90
        4
 70
     1
 43
0.0
 10
0.3126854446639626
 20
-0.0000000212661178
 10
0.292428219745922
 20
-0.0000000212661178
 10
0.292428219745922
 20
0.1837702092999933
 10
0.3126854446639626
 20
0.1837702092999933
  0
LINE
  5
1950
330
194E
100
AcDbEntity
  8
-
100
AcDbLine
 10
0.5600000163788366
 20
0.2499999787338809
 30
0.0
 11
0.5600000163788366
 21
0.0799999787338823
 31
0.0
  0
LINE
  5
1951
330
194E
100
AcDbEntity
  8
-
100
AcDbLine
 10
0.0400000163788263
 20
0.0799999787338828
 30
0.0
 11
0.0400000163788263
 21
0.2499999787338831
 31
0.0
  0
LINE
  5
1952
330
194E
100
AcDbEntity
  8
-
100
AcDbLine
 10
0.6000000163788357
 20
0.2499999787338809
 30
0.0
 11
0.6000000163788357
 21
-0.0000000212661178
 31
0.0
  0
LINE
  5
1953
330
194E
100
AcDbEntity
  8
-
100
AcDbLine
 10
0.0000000163788343
 20
-0.0000000212661178
 30
0.0
 11
0.0000000163788272
 21
0.2499999787338818
 31
0.0
  0
LINE
  5
1954
330
194E
100
AcDbEntity
  8
-
100
AcDbLine
 10
0.5600000163788366
 20
0.0799999787338828
 30
0.0
 11
0.3126854446639626
 21
0.0799999787338828
 31
0.0
  0
LINE
  5
1955
330
194E
100
AcDbEntity
  8
-
100
AcDbLine
 10
0.6000000163788357
 20
-0.0000000212661178
 30
0.0
 11
0.0000000163788343
 21
-0.0000000212661178
 31
0.0
  0
LINE
  5
1956
330
194E
100
AcDbEntity
  8
-
100
AcDbLine
 10
0.292428219745922
 20
0.0799999787338828
 30
0.0
 11
0.0400000163788263
 21
0.0799999787338828
 31
0.0
  0
LWPOLYLINE
  5
1957
330
194E
100
AcDbEntity
  8
-
100
AcDbPolyline
 90
        4
 70
     1
 43
0.0
 10
0.3152422604900735
 20
0.0138949237869923
 10
0.3670918531628686
 20
0.0138949237869923
 10
0.3670918531628686
 20
0.0656861417695041
 10
0.3152422604900735
 20
0.0656861417695041
  0
LWPOLYLINE
  5
1958
330
194E
100
AcDbEntity
  8
-
100
AcDbPolyline
 90
        4
 70
     1
 43
0.0
 10
0.2903543029858397
 20
0.0656861417695041
 10
0.2322827209369862
 20
0.0656861417695041
 10
0.2322827209369862
 20
0.0138949237869923
 10
0.2903543029858397
 20
0.0138949237869923
  0
ARC
  5
1959
330
194E
100
AcDbEntity
  8
-
100
AcDbCircle
 10
0.3000000163788385
 20
0.2499999787338809
 30
0.0
 40
0.26
100
AcDbArc
 50
0.0
 51
90.0
  0
ARC
  5
195A
330
194E
100
AcDbEntity
  8
-
100
AcDbCircle
 10
0.3000000163788385
 20
0.2499999787338809
 30
0.0
 40
0.3
100
AcDbArc
 50
0.0
 51
90.0
  0
CIRCLE
  5
195B
330
194E
100
AcDbEntity
  8
-
100
AcDbCircle
 10
0.3000000163788243
 20
0.3321388107524541
 30
0.0
 40
0.0367980598417717
  0
ARC
  5
195C
330
194E
100
AcDbEntity
  8
-
100
AcDbCircle
 10
0.3000000163788243
 20
0.2499999787338818
 30
0.0
 40
0.26
100
AcDbArc
 50
90.0
 51
180.0
  0
LINE
  5
195D
330
194E
100
AcDbEntity
  8
-
100
AcDbLine
 10
0.3000000163788243
 20
0.5499999787338817
 30
0.0
 11
0.3000000163788385
 21
0.5499999787338808
 31
0.0
  0
ARC
  5
195E
330
194E
100
AcDbEntity
  8
-
100
AcDbCircle
 10
0.3000000163788243
 20
0.2499999787338818
 30
0.0
 40
0.3
100
AcDbArc
 50
90.0
 51
180.0
  0
ENDBLK
  5
1960
330
194E
100
AcDbEntity
  8
0
100
AcDbBlockEnd
  0
BLOCK
  5
2647
330
2643
100
AcDbEntity
  8
0
100
AcDbBlockBegin
  2
A$C4C6C188E
 70
     0
 10
0.0
 20
0.0
 30
0.0
  3
A$C4C6C188E
  1

  0
MTEXT
  5
2644
330
2643
100
AcDbEntity
  8
1.4. Idatzia
100
AcDbMText
 10
0.0007080675713951
 20
0.0039339599218238
 30
0.0
 40
0.0025
 41
0.1852149973614974
 46
0.0
 71
     1
 72
     5
  1
{\fCalibri Light|b1|i0|c0|p34;Katastro zk.\fCalibri Light|b0|i0|c0|p34;: 7791177}
 73
     1
 44
1.0
  0
ENDBLK
  5
2648
330
2643
100
AcDbEntity
  8
0
100
AcDbBlockEnd
  0
BLOCK
  5
D8
330
D6
100
AcDbEntity
 67
     1
  8
0
100
AcDbBlockBegin
  2
*Paper_Space12
 70
     0
 10
0.0
 20
0.0
 30
0.0
  3
*Paper_Space12
  1

  0
VIEWPORT
  5
2AF3
102
{ACAD_XDICTIONARY
360
2AF4
102
}
330
D6
100
AcDbEntity
 67
     1
  8
0
100
AcDbViewport
 10
128.5
 20
97.5
 30
0.0
 40
370.9329914529915
 41
222.18
 68
     0
 69
     0
 12
128.5
 22
97.5
 13
0.0
 23
0.0
 14
10.0
 24
10.0
 15
10.0
 25
10.0
 16
0.0
 26
0.0
 36
1.0
 17
0.0
 27
0.0
 37
0.0
 42
50.0
 43
0.0
 44
0.0
 45
222.18
 50
0.0
 51
0.0
 72
  1000
 90
   819232
  1

281
     0
 71
     1
 74
     0
110
0.0
120
0.0
130
0.0
111
1.0
121
0.0
131
0.0
112
0.0
122
1.0
132
0.0
 79
     0
146
0.0
170
     0
 61
     5
348
F5
292
     1
282
     1
141
0.0
142
0.0
 63
   250
421
  3355443
  0
VIEWPORT
  5
2AF7
102
{ACAD_XDICTIONARY
360
2AF8
102
}
330
D6
100
AcDbEntity
 67
     1
  8
0
100
AcDbViewport
 10
128.5
 20
97.5
 30
0.0
 40
205.6
 41
156.0
 68
     0
 69
     0
 12
-245.0678307719495
 22
37.05995025052767
 13
0.0
 23
0.0
 14
10.0
 24
10.0
 15
10.0
 25
10.0
 16
0.0
 26
0.0
 36
0.6188922984979737
 17
2619.601320438711
 27
877.6296409676874
 37
0.0
 42
50.0
 43
0.0
 44
0.0
 45
0.3532727290029537
 50
0.0
 51
0.0
 72
  1000
 90
   819296
  1

281
     0
 71
     1
 74
     0
110
0.0
120
0.0
130
0.0
111
1.0
121
0.0
131
0.0
112
0.0
122
1.0
132
0.0
 79
     0
146
0.0
170
     0
 61
     5
348
F5
292
     1
282
     1
141
0.0
142
0.0
 63
   250
421
  3355443
  0
ENDBLK
  5
D9
330
D6
100
AcDbEntity
 67
     1
  8
0
100
AcDbBlockEnd
  0
BLOCK
  5
56B7
330
56B6
100
AcDbEntity
  8
0
100
AcDbBlockBegin
  2
*D109
 70
     1
 10
0.0
 20
0.0
 30
0.0
  3
*D109
  1

  0
LINE
  5
56C3
330
56B6
100
AcDbEntity
  8
7.3. Kota
440
 16777216
370
    -2
100
AcDbLine
 10
2876.16440468793
 20
870.4915316014327
 30
0.0
 11
2876.16440468793
 21
869.9754548426781
 31
0.0
  0
LINE
  5
56C4
330
56B6
100
AcDbEntity
  8
7.3. Kota
440
 16777216
370
    -2
100
AcDbLine
 10
2879.49440468793
 20
870.4915316014311
 30
0.0
 11
2879.49440468793
 21
869.9754548426781
 31
0.0
  0
LINE
  5
56C5
330
56B6
100
AcDbEntity
  8
7.3. Kota
440
 16777216
370
    -2
100
AcDbLine
 10
2876.16440468793
 20
870.0754548426782
 30
0.0
 11
2879.49440468793
 21
870.0754548426782
 31
0.0
  0
INSERT
  5
56C6
330
56B6
100
AcDbEntity
  8
7.3. Kota
440
 16777216
370
    -2
100
AcDbBlockReference
  2
_ArchTick
 10
2876.16440468793
 20
870.0754548426782
 30
0.0
 41
0.1
 42
0.1
 43
0.1
 50
180.0
  0
INSERT
  5
56C7
330
56B6
100
AcDbEntity
  8
7.3. Kota
440
 16777216
370
    -2
100
AcDbBlockReference
  2
_ArchTick
 10
2879.49440468793
 20
870.0754548426782
 30
0.0
 41
0.1
 42
0.1
 43
0.1
  0
MTEXT
  5
56C8
330
56B6
100
AcDbEntity
  8
7.3. Kota
440
 16777216
100
AcDbMText
 10
2877.82940468793
 20
870.2020919504544
 30
0.0
 40
0.15
 41
0.0
 46
0.0
 71
     5
 72
     1
  1
3.33
 73
     1
 44
1.0
  0
POINT
  5
56C9
330
56B6
100
AcDbEntity
  8
Defpoints
 62
     0
440
 16777216
100
AcDbPoint
 10
2876.16440468793
 20
870.5915316014326
 30
0.0
  0
POINT
  5
56CA
330
56B6
100
AcDbEntity
  8
Defpoints
 62
     0
440
 16777216
100
AcDbPoint
 10
2879.49440468793
 20
870.591531601431
 30
0.0
  0
POINT
  5
56CB
330
56B6
100
AcDbEntity
  8
Defpoints
 62
     0
440
 16777216
100
AcDbPoint
 10
2879.49440468793
 20
870.0754548426782
 30
0.0
  0
ENDBLK
  5
56B8
330
56B6
100
AcDbEntity
  8
0
100
AcDbBlockEnd
  0
BLOCK
  5
56CF
330
56CE
100
AcDbEntity
  8
0
100
AcDbBlockBegin
  2
*D110
 70
     1
 10
0.0
 20
0.0
 30
0.0
  3
*D110
  1

  0
LINE
  5
56DB
330
56CE
100
AcDbEntity
  8
7.3. Kota
440
 16777216
370
    -2
100
AcDbLine
 10
2880.364404687929
 20
870.4915316014329
 30
0.0
 11
2880.364404687929
 21
869.9754548426781
 31
0.0
  0
LINE
  5
56DC
330
56CE
100
AcDbEntity
  8
7.3. Kota
440
 16777216
370
    -2
100
AcDbLine
 10
2884.804404687931
 20
870.4915316014329
 30
0.0
 11
2884.804404687931
 21
869.9754548426781
 31
0.0
  0
LINE
  5
56DD
330
56CE
100
AcDbEntity
  8
7.3. Kota
440
 16777216
370
    -2
100
AcDbLine
 10
2880.364404687929
 20
870.0754548426782
 30
0.0
 11
2884.804404687931
 21
870.0754548426782
 31
0.0
  0
INSERT
  5
56DE
330
56CE
100
AcDbEntity
  8
7.3. Kota
440
 16777216
370
    -2
100
AcDbBlockReference
  2
_ArchTick
 10
2880.364404687929
 20
870.0754548426782
 30
0.0
 41
0.1
 42
0.1
 43
0.1
 50
180.0
  0
INSERT
  5
56DF
330
56CE
100
AcDbEntity
  8
7.3. Kota
440
 16777216
370
    -2
100
AcDbBlockReference
  2
_ArchTick
 10
2884.804404687931
 20
870.0754548426782
 30
0.0
 41
0.1
 42
0.1
 43
0.1
  0
MTEXT
  5
56E0
330
56CE
100
AcDbEntity
  8
7.3. Kota
440
 16777216
100
AcDbMText
 10
2882.58440468793
 20
870.2004548426783
 30
0.0
 40
0.15
 41
0.0
 46
0.0
 71
     5
 72
     1
  1
4.44
 73
     1
 44
1.0
  0
POINT
  5
56E1
330
56CE
100
AcDbEntity
  8
Defpoints
 62
     0
440
 16777216
100
AcDbPoint
 10
2880.364404687929
 20
870.5915316014328
 30
0.0
  0
POINT
  5
56E2
330
56CE
100
AcDbEntity
  8
Defpoints
 62
     0
440
 16777216
100
AcDbPoint
 10
2884.804404687931
 20
870.591531601433
 30
0.0
  0
POINT
  5
56E3
330
56CE
100
AcDbEntity
  8
Defpoints
 62
     0
440
 16777216
100
AcDbPoint
 10
2884.804404687931
 20
870.0754548426782
 30
0.0
  0
ENDBLK
  5
56D0
330
56CE
100
AcDbEntity
  8
0
100
AcDbBlockEnd
  0
BLOCK
  5
56E7
330
56E6
100
AcDbEntity
  8
0
100
AcDbBlockBegin
  2
*D111
 70
     1
 10
0.0
 20
0.0
 30
0.0
  3
*D111
  1

  0
LINE
  5
56F3
330
56E6
100
AcDbEntity
  8
7.3. Kota
440
 16777216
370
    -2
100
AcDbLine
 10
2883.794404687931
 20
871.4665316014322
 30
0.0
 11
2883.794404687931
 21
871.106316398195
 31
0.0
  0
LINE
  5
56F4
330
56E6
100
AcDbEntity
  8
7.3. Kota
440
 16777216
370
    -2
100
AcDbLine
 10
2884.644404687931
 20
871.4665316014322
 30
0.0
 11
2884.644404687931
 21
871.106316398195
 31
0.0
  0
LINE
  5
56F5
330
56E6
100
AcDbEntity
  8
7.3. Kota
440
 16777216
370
    -2
100
AcDbLine
 10
2883.794404687931
 20
871.206316398195
 30
0.0
 11
2884.644404687931
 21
871.206316398195
 31
0.0
  0
INSERT
  5
56F6
330
56E6
100
AcDbEntity
  8
7.3. Kota
440
 16777216
370
    -2
100
AcDbBlockReference
  2
_ArchTick
 10
2883.794404687931
 20
871.206316398195
 30
0.0
 41
0.1
 42
0.1
 43
0.1
 50
180.0
  0
INSERT
  5
56F7
330
56E6
100
AcDbEntity
  8
7.3. Kota
440
 16777216
370
    -2
100
AcDbBlockReference
  2
_ArchTick
 10
2884.644404687931
 20
871.206316398195
 30
0.0
 41
0.1
 42
0.1
 43
0.1
  0
MTEXT
  5
56F8
330
56E6
100
AcDbEntity
  8
7.3. Kota
440
 16777216
100
AcDbMText
 10
2884.219404687931
 20
871.3329023463533
 30
0.0
 40
0.15
 41
0.0
 46
0.0
 71
     5
 72
     1
  1
0.85
 73
     1
 44
1.0
  0
POINT
  5
56F9
330
56E6
100
AcDbEntity
  8
Defpoints
 62
     0
440
 16777216
100
AcDbPoint
 10
2883.794404687931
 20
871.5665316014321
 30
0.0
  0
POINT
  5
56FA
330
56E6
100
AcDbEntity
  8
Defpoints
 62
     0
440
 16777216
100
AcDbPoint
 10
2884.644404687931
 20
871.5665316014321
 30
0.0
  0
POINT
  5
56FB
330
56E6
100
AcDbEntity
  8
Defpoints
 62
     0
440
 16777216
100
AcDbPoint
 10
2884.644404687931
 20
871.206316398195
 30
0.0
  0
ENDBLK
  5
56E8
330
56E6
100
AcDbEntity
  8
0
100
AcDbBlockEnd
  0
BLOCK
  5
56FF
330
56FE
100
AcDbEntity
  8
0
100
AcDbBlockBegin
  2
*D112
 70
     1
 10
0.0
 20
0.0
 30
0.0
  3
*D112
  1

  0
LINE
  5
570B
330
56FE
100
AcDbEntity
  8
7.3. Kota
440
 16777216
370
    -2
100
AcDbLine
 10
2882.079404687929
 20
872.5515316014325
 30
0.0
 11
2881.900532128263
 21
872.5515316014325
 31
0.0
  0
LINE
  5
570C
330
56FE
100
AcDbEntity
  8
7.3. Kota
440
 16777216
370
    -2
100
AcDbLine
 10
2882.079404687929
 20
871.7015316014325
 30
0.0
 11
2881.900532128263
 21
871.7015316014325
 31
0.0
  0
LINE
  5
570D
330
56FE
100
AcDbEntity
  8
7.3. Kota
440
 16777216
370
    -2
100
AcDbLine
 10
2882.000532128263
 20
872.5515316014325
 30
0.0
 11
2882.000532128263
 21
871.7015316014325
 31
0.0
  0
INSERT
  5
570E
330
56FE
100
AcDbEntity
  8
7.3. Kota
440
 16777216
370
    -2
100
AcDbBlockReference
  2
_ArchTick
 10
2882.000532128263
 20
872.5515316014325
 30
0.0
 41
0.1
 42
0.1
 43
0.1
 50
90.0
  0
INSERT
  5
570F
330
56FE
100
AcDbEntity
  8
7.3. Kota
440
 16777216
370
    -2
100
AcDbBlockReference
  2
_ArchTick
 10
2882.000532128263
 20
871.7015316014325
 30
0.0
 41
0.1
 42
0.1
 43
0.1
 50
270.0
  0
MTEXT
  5
5710
330
56FE
100
AcDbEntity
  8
7.3. Kota
440
 16777216
100
AcDbMText
 10
2881.873946180105
 20
872.126531601433
 30
0.0
 40
0.15
 41
0.0
 46
0.0
 71
     5
 72
     1
  1
0.85
 11
0.0000000000000001
 21
1.0
 31
0.0
 73
     1
 44
1.0
  0
POINT
  5
5711
330
56FE
100
AcDbEntity
  8
Defpoints
 62
     0
440
 16777216
100
AcDbPoint
 10
2882.179404687929
 20
872.5515316014325
 30
0.0
  0
POINT
  5
5712
330
56FE
100
AcDbEntity
  8
Defpoints
 62
     0
440
 16777216
100
AcDbPoint
 10
2882.179404687929
 20
871.7015316014325
 30
0.0
  0
POINT
  5
5713
330
56FE
100
AcDbEntity
  8
Defpoints
 62
     0
440
 16777216
100
AcDbPoint
 10
2882.000532128263
 20
871.7015316014325
 30
0.0
  0
ENDBLK
  5
5700
330
56FE
100
AcDbEntity
  8
0
100
AcDbBlockEnd
  0
BLOCK
  5
5717
330
5716
100
AcDbEntity
  8
0
100
AcDbBlockBegin
  2
*D113
 70
     1
 10
0.0
 20
0.0
 30
0.0
  3
*D113
  1

  0
LINE
  5
5723
330
5716
100
AcDbEntity
  8
7.3. Kota
440
 16777216
370
    -2
100
AcDbLine
 10
2876.16440468793
 20
870.4915316014327
 30
0.0
 11
2876.16440468793
 21
869.5375594373031
 31
0.0
  0
LINE
  5
5724
330
5716
100
AcDbEntity
  8
7.3. Kota
440
 16777216
370
    -2
100
AcDbLine
 10
2884.804404687931
 20
870.4915316014329
 30
0.0
 11
2884.804404687931
 21
869.5375594373031
 31
0.0
  0
LINE
  5
5725
330
5716
100
AcDbEntity
  8
7.3. Kota
440
 16777216
370
    -2
100
AcDbLine
 10
2876.16440468793
 20
869.6375594373032
 30
0.0
 11
2884.804404687931
 21
869.6375594373032
 31
0.0
  0
INSERT
  5
5726
330
5716
100
AcDbEntity
  8
7.3. Kota
440
 16777216
370
    -2
100
AcDbBlockReference
  2
_ArchTick
 10
2876.16440468793
 20
869.6375594373032
 30
0.0
 41
0.1
 42
0.1
 43
0.1
 50
180.0
  0
INSERT
  5
5727
330
5716
100
AcDbEntity
  8
7.3. Kota
440
 16777216
370
    -2
100
AcDbBlockReference
  2
_ArchTick
 10
2884.804404687931
 20
869.6375594373032
 30
0.0
 41
0.1
 42
0.1
 43
0.1
  0
MTEXT
  5
5728
330
5716
100
AcDbEntity
  8
7.3. Kota
440
 16777216
100
AcDbMText
 10
2880.48440468793
 20
869.7641453854613
 30
0.0
 40
0.15
 41
0.0
 46
0.0
 71
     5
 72
     1
  1
8.64
 73
     1
 44
1.0
  0
POINT
  5
5729
330
5716
100
AcDbEntity
  8
Defpoints
 62
     0
440
 16777216
100
AcDbPoint
 10
2876.16440468793
 20
870.5915316014326
 30
0.0
  0
POINT
  5
572A
330
5716
100
AcDbEntity
  8
Defpoints
 62
     0
440
 16777216
100
AcDbPoint
 10
2884.804404687931
 20
870.591531601433
 30
0.0
  0
POINT
  5
572B
330
5716
100
AcDbEntity
  8
Defpoints
 62
     0
440
 16777216
100
AcDbPoint
 10
2884.804404687931
 20
869.6375594373032
 30
0.0
  0
ENDBLK
  5
5718
330
5716
100
AcDbEntity
  8
0
100
AcDbBlockEnd
  0
BLOCK
  5
58B9
330
58B8
100
AcDbEntity
  8
0
100
AcDbBlockBegin
  2
*D114
 70
     1
 10
0.0
 20
0.0
 30
0.0
  3
*D114
  1

  0
LINE
  5
58C5
330
58B8
100
AcDbEntity
  8
7.3. Kota
440
 16777216
370
    -2
100
AcDbLine
 10
2880.46440468793
 20
886.301531601431
 30
0.0
 11
2880.46440468793
 21
886.4881992819878
 31
0.0
  0
LINE
  5
58C6
330
58B8
100
AcDbEntity
  8
7.3. Kota
440
 16777216
370
    -2
100
AcDbLine
 10
2883.224404687931
 20
886.3015316014315
 30
0.0
 11
2883.224404687931
 21
886.4881992819878
 31
0.0
  0
LINE
  5
58C7
330
58B8
100
AcDbEntity
  8
7.3. Kota
440
 16777216
370
    -2
100
AcDbLine
 10
2880.46440468793
 20
886.3881992819878
 30
0.0
 11
2883.224404687931
 21
886.3881992819878
 31
0.0
  0
INSERT
  5
58C8
330
58B8
100
AcDbEntity
  8
7.3. Kota
440
 16777216
370
    -2
100
AcDbBlockReference
  2
_ArchTick
 10
2880.46440468793
 20
886.3881992819878
 30
0.0
 41
0.1
 42
0.1
 43
0.1
 50
180.0
  0
INSERT
  5
58C9
330
58B8
100
AcDbEntity
  8
7.3. Kota
440
 16777216
370
    -2
100
AcDbBlockReference
  2
_ArchTick
 10
2883.224404687931
 20
886.3881992819878
 30
0.0
 41
0.1
 42
0.1
 43
0.1
  0
MTEXT
  5
58CA
330
58B8
100
AcDbEntity
  8
7.3. Kota
440
 16777216
100
AcDbMText
 10
2881.84440468793
 20
886.5147852301459
 30
0.0
 40
0.15
 41
0.0
 46
0.0
 71
     5
 72
     1
  1
2.76
 73
     1
 44
1.0
  0
POINT
  5
58CB
330
58B8
100
AcDbEntity
  8
Defpoints
 62
     0
440
 16777216
100
AcDbPoint
 10
2880.46440468793
 20
886.2015316014311
 30
0.0
  0
POINT
  5
58CC
330
58B8
100
AcDbEntity
  8
Defpoints
 62
     0
440
 16777216
100
AcDbPoint
 10
2883.224404687931
 20
886.2015316014314
 30
0.0
  0
POINT
  5
58CD
330
58B8
100
AcDbEntity
  8
Defpoints
 62
     0
440
 16777216
100
AcDbPoint
 10
2883.224404687931
 20
886.3881992819878
 30
0.0
  0
ENDBLK
  5
58BA
330
58B8
100
AcDbEntity
  8
0
100
AcDbBlockEnd
  0
BLOCK
  5
58D1
330
58D0
100
AcDbEntity
  8
0
100
AcDbBlockBegin
  2
*D115
 70
     1
 10
0.0
 20
0.0
 30
0.0
  3
*D115
  1

  0
LINE
  5
58DD
330
58D0
100
AcDbEntity
  8
7.3. Kota
440
 16777216
370
    -2
100
AcDbLine
 10
2883.524404687931
 20
886.0015316014321
 30
0.0
 11
2883.919216050108
 21
886.0015316014321
 31
0.0
  0
LINE
  5
58DE
330
58D0
100
AcDbEntity
  8
7.3. Kota
440
 16777216
370
    -2
100
AcDbLine
 10
2883.524404687929
 20
884.201531601432
 30
0.0
 11
2883.919216050108
 21
884.201531601432
 31
0.0
  0
LINE
  5
58DF
330
58D0
100
AcDbEntity
  8
7.3. Kota
440
 16777216
370
    -2
100
AcDbLine
 10
2883.819216050108
 20
886.0015316014321
 30
0.0
 11
2883.819216050108
 21
884.201531601432
 31
0.0
  0
INSERT
  5
58E0
330
58D0
100
AcDbEntity
  8
7.3. Kota
440
 16777216
370
    -2
100
AcDbBlockReference
  2
_ArchTick
 10
2883.819216050108
 20
886.0015316014321
 30
0.0
 41
0.1
 42
0.1
 43
0.1
 50
90.0
  0
INSERT
  5
58E1
330
58D0
100
AcDbEntity
  8
7.3. Kota
440
 16777216
370
    -2
100
AcDbBlockReference
  2
_ArchTick
 10
2883.819216050108
 20
884.201531601432
 30
0.0
 41
0.1
 42
0.1
 43
0.1
 50
270.0
  0
MTEXT
  5
58E2
330
58D0
100
AcDbEntity
  8
7.3. Kota
440
 16777216
100
AcDbMText
 10
2883.69263010195
 20
885.1015316014324
 30
0.0
 40
0.15
 41
0.0
 46
0.0
 71
     5
 72
     1
  1
1.80
 11
0.0000000000000001
 21
1.0
 31
0.0
 73
     1
 44
1.0
  0
POINT
  5
58E3
330
58D0
100
AcDbEntity
  8
Defpoints
 62
     0
440
 16777216
100
AcDbPoint
 10
2883.42440468793
 20
886.0015316014321
 30
0.0
  0
POINT
  5
58E4
330
58D0
100
AcDbEntity
  8
Defpoints
 62
     0
440
 16777216
100
AcDbPoint
 10
2883.42440468793
 20
884.201531601432
 30
0.0
  0
POINT
  5
58E5
330
58D0
100
AcDbEntity
  8
Defpoints
 62
     0
440
 16777216
100
AcDbPoint
 10
2883.819216050108
 20
884.201531601432
 30
0.0
  0
ENDBLK
  5
58D2
330
58D0
100
AcDbEntity
  8
0
100
AcDbBlockEnd
  0
BLOCK
  5
590B
330
590A
100
AcDbEntity
  8
0
100
AcDbBlockBegin
  2
*D116
 70
     1
 10
0.0
 20
0.0
 30
0.0
  3
*D116
  1

  0
LINE
  5
5917
330
590A
100
AcDbEntity
  8
7.3. Kota
440
 16777216
370
    -2
100
AcDbLine
 10
2883.524404687931
 20
884.1015316014321
 30
0.0
 11
2883.919216050108
 21
884.1015316014321
 31
0.0
  0
LINE
  5
5918
330
590A
100
AcDbEntity
  8
7.3. Kota
440
 16777216
370
    -2
100
AcDbLine
 10
2883.695200645897
 20
880.8115316014323
 30
0.0
 11
2883.919216050108
 21
880.8115316014323
 31
0.0
  0
LINE
  5
5919
330
590A
100
AcDbEntity
  8
7.3. Kota
440
 16777216
370
    -2
100
AcDbLine
 10
2883.819216050108
 20
884.1015316014321
 30
0.0
 11
2883.819216050108
 21
880.8115316014323
 31
0.0
  0
INSERT
  5
591A
330
590A
100
AcDbEntity
  8
7.3. Kota
440
 16777216
370
    -2
100
AcDbBlockReference
  2
_ArchTick
 10
2883.819216050108
 20
884.1015316014321
 30
0.0
 41
0.1
 42
0.1
 43
0.1
 50
90.0
  0
INSERT
  5
591B
330
590A
100
AcDbEntity
  8
7.3. Kota
440
 16777216
370
    -2
100
AcDbBlockReference
  2
_ArchTick
 10
2883.819216050108
 20
880.8115316014323
 30
0.0
 41
0.1
 42
0.1
 43
0.1
 50
270.0
  0
MTEXT
  5
591C
330
590A
100
AcDbEntity
  8
7.3. Kota
440
 16777216
100
AcDbMText
 10
2883.692578942331
 20
882.4565316014327
 30
0.0
 40
0.15
 41
0.0
 46
0.0
 71
     5
 72
     1
  1
3.29
 11
0.0000000000000001
 21
1.0
 31
0.0
 73
     1
 44
1.0
  0
POINT
  5
591D
330
590A
100
AcDbEntity
  8
Defpoints
 62
     0
440
 16777216
100
AcDbPoint
 10
2883.42440468793
 20
884.1015316014321
 30
0.0
  0
POINT
  5
591E
330
590A
100
AcDbEntity
  8
Defpoints
 62
     0
440
 16777216
100
AcDbPoint
 10
2883.595200645897
 20
880.8115316014323
 30
0.0
  0
POINT
  5
591F
330
590A
100
AcDbEntity
  8
Defpoints
 62
     0
440
 16777216
100
AcDbPoint
 10
2883.819216050108
 20
880.8115316014323
 30
0.0
  0
ENDBLK
  5
590C
330
590A
100
AcDbEntity
  8
0
100
AcDbBlockEnd
  0
BLOCK
  5
5923
330
5922
100
AcDbEntity
  8
0
100
AcDbBlockBegin
  2
*D117
 70
     1
 10
0.0
 20
0.0
 30
0.0
  3
*D117
  1

  0
LINE
  5
592F
330
5922
100
AcDbEntity
  8
7.3. Kota
440
 16777216
370
    -2
100
AcDbLine
 10
2883.524404687931
 20
880.8115316014333
 30
0.0
 11
2884.296951891758
 21
880.8115316014333
 31
0.0
  0
LINE
  5
5930
330
5922
100
AcDbEntity
  8
7.3. Kota
440
 16777216
370
    -2
100
AcDbLine
 10
2883.524404687932
 20
886.0015316014321
 30
0.0
 11
2884.296951891758
 21
886.0015316014321
 31
0.0
  0
LINE
  5
5931
330
5922
100
AcDbEntity
  8
7.3. Kota
440
 16777216
370
    -2
100
AcDbLine
 10
2884.196951891757
 20
880.8115316014333
 30
0.0
 11
2884.196951891757
 21
886.0015316014321
 31
0.0
  0
INSERT
  5
5932
330
5922
100
AcDbEntity
  8
7.3. Kota
440
 16777216
370
    -2
100
AcDbBlockReference
  2
_ArchTick
 10
2884.196951891757
 20
880.8115316014333
 30
0.0
 41
0.1
 42
0.1
 43
0.1
 50
270.0
  0
INSERT
  5
5933
330
5922
100
AcDbEntity
  8
7.3. Kota
440
 16777216
370
    -2
100
AcDbBlockReference
  2
_ArchTick
 10
2884.196951891757
 20
886.0015316014321
 30
0.0
 41
0.1
 42
0.1
 43
0.1
 50
90.0
  0
MTEXT
  5
5934
330
5922
100
AcDbEntity
  8
7.3. Kota
440
 16777216
100
AcDbMText
 10
2884.0703659436
 20
883.4065316014331
 30
0.0
 40
0.15
 41
0.0
 46
0.0
 71
     5
 72
     1
  1
5.19
 11
0.0000000000000001
 21
1.0
 31
0.0
 73
     1
 44
1.0
  0
POINT
  5
5935
330
5922
100
AcDbEntity
  8
Defpoints
 62
     0
440
 16777216
100
AcDbPoint
 10
2883.424404687931
 20
880.8115316014333
 30
0.0
  0
POINT
  5
5936
330
5922
100
AcDbEntity
  8
Defpoints
 62
     0
440
 16777216
100
AcDbPoint
 10
2883.424404687932
 20
886.0015316014321
 30
0.0
  0
POINT
  5
5937
330
5922
100
AcDbEntity
  8
Defpoints
 62
     0
440
 16777216
100
AcDbPoint
 10
2884.196951891757
 20
886.0015316014321
 30
0.0
  0
ENDBLK
  5
5924
330
5922
100
AcDbEntity
  8
0
100
AcDbBlockEnd
  0
BLOCK
  5
593B
330
593A
100
AcDbEntity
  8
0
100
AcDbBlockBegin
  2
*D118
 70
     1
 10
0.0
 20
0.0
 30
0.0
  3
*D118
  1

  0
LINE
  5
5947
330
593A
100
AcDbEntity
  8
7.3. Kota
440
 16777216
370
    -2
100
AcDbLine
 10
2885.10440468793
 20
880.7115316014321
 30
0.0
 11
2885.577063425012
 21
880.7115316014321
 31
0.0
  0
LINE
  5
5948
330
593A
100
AcDbEntity
  8
7.3. Kota
440
 16777216
370
    -2
100
AcDbLine
 10
2885.104404687929
 20
878.2915316014323
 30
0.0
 11
2885.577063425012
 21
878.2915316014323
 31
0.0
  0
LINE
  5
5949
330
593A
100
AcDbEntity
  8
7.3. Kota
440
 16777216
370
    -2
100
AcDbLine
 10
2885.477063425013
 20
880.7115316014321
 30
0.0
 11
2885.477063425013
 21
878.2915316014323
 31
0.0
  0
INSERT
  5
594A
330
593A
100
AcDbEntity
  8
7.3. Kota
440
 16777216
370
    -2
100
AcDbBlockReference
  2
_ArchTick
 10
2885.477063425013
 20
880.7115316014321
 30
0.0
 41
0.1
 42
0.1
 43
0.1
 50
90.0
  0
INSERT
  5
594B
330
593A
100
AcDbEntity
  8
7.3. Kota
440
 16777216
370
    -2
100
AcDbBlockReference
  2
_ArchTick
 10
2885.477063425013
 20
878.2915316014323
 30
0.0
 41
0.1
 42
0.1
 43
0.1
 50
270.0
  0
MTEXT
  5
594C
330
593A
100
AcDbEntity
  8
7.3. Kota
440
 16777216
100
AcDbMText
 10
2885.351756467305
 20
879.5015316014326
 30
0.0
 40
0.15
 41
0.0
 46
0.0
 71
     5
 72
     1
  1
2.42
 11
0.0000000000000001
 21
1.0
 31
0.0
 73
     1
 44
1.0
  0
POINT
  5
594D
330
593A
100
AcDbEntity
  8
Defpoints
 62
     0
440
 16777216
100
AcDbPoint
 10
2885.00440468793
 20
880.7115316014321
 30
0.0
  0
POINT
  5
594E
330
593A
100
AcDbEntity
  8
Defpoints
 62
     0
440
 16777216
100
AcDbPoint
 10
2885.00440468793
 20
878.2915316014323
 30
0.0
  0
POINT
  5
594F
330
593A
100
AcDbEntity
  8
Defpoints
 62
     0
440
 16777216
100
AcDbPoint
 10
2885.477063425013
 20
878.2915316014323
 30
0.0
  0
ENDBLK
  5
593C
330
593A
100
AcDbEntity
  8
0
100
AcDbBlockEnd
  0
BLOCK
  5
596F
330
596E
100
AcDbEntity
  8
0
100
AcDbBlockBegin
  2
*D119
 70
     1
 10
0.0
 20
0.0
 30
0.0
  3
*D119
  1

  0
LINE
  5
597B
330
596E
100
AcDbEntity
  8
7.3. Kota
440
 16777216
370
    -2
100
AcDbLine
 10
2885.10440468793
 20
877.8415316014323
 30
0.0
 11
2885.577063425012
 21
877.8415316014323
 31
0.0
  0
LINE
  5
597C
330
596E
100
AcDbEntity
  8
7.3. Kota
440
 16777216
370
    -2
100
AcDbLine
 10
2885.104404687929
 20
875.1115316014322
 30
0.0
 11
2885.577063425012
 21
875.1115316014322
 31
0.0
  0
LINE
  5
597D
330
596E
100
AcDbEntity
  8
7.3. Kota
440
 16777216
370
    -2
100
AcDbLine
 10
2885.477063425013
 20
877.8415316014323
 30
0.0
 11
2885.477063425013
 21
875.1115316014322
 31
0.0
  0
INSERT
  5
597E
330
596E
100
AcDbEntity
  8
7.3. Kota
440
 16777216
370
    -2
100
AcDbBlockReference
  2
_ArchTick
 10
2885.477063425013
 20
877.8415316014323
 30
0.0
 41
0.1
 42
0.1
 43
0.1
 50
90.0
  0
INSERT
  5
597F
330
596E
100
AcDbEntity
  8
7.3. Kota
440
 16777216
370
    -2
100
AcDbBlockReference
  2
_ArchTick
 10
2885.477063425013
 20
875.1115316014322
 30
0.0
 41
0.1
 42
0.1
 43
0.1
 50
270.0
  0
MTEXT
  5
5980
330
596E
100
AcDbEntity
  8
7.3. Kota
440
 16777216
100
AcDbMText
 10
2885.350426317236
 20
876.4765316014328
 30
0.0
 40
0.15
 41
0.0
 46
0.0
 71
     5
 72
     1
  1
2.73
 11
0.0000000000000001
 21
1.0
 31
0.0
 73
     1
 44
1.0
  0
POINT
  5
5981
330
596E
100
AcDbEntity
  8
Defpoints
 62
     0
440
 16777216
100
AcDbPoint
 10
2885.00440468793
 20
877.8415316014323
 30
0.0
  0
POINT
  5
5982
330
596E
100
AcDbEntity
  8
Defpoints
 62
     0
440
 16777216
100
AcDbPoint
 10
2885.00440468793
 20
875.1115316014322
 30
0.0
  0
POINT
  5
5983
330
596E
100
AcDbEntity
  8
Defpoints
 62
     0
440
 16777216
100
AcDbPoint
 10
2885.477063425013
 20
875.1115316014322
 30
0.0
  0
ENDBLK
  5
5970
330
596E
100
AcDbEntity
  8
0
100
AcDbBlockEnd
  0
BLOCK
  5
59B9
330
59B8
100
AcDbEntity
  8
0
100
AcDbBlockBegin
  2
*D120
 70
     1
 10
0.0
 20
0.0
 30
0.0
  3
*D120
  1

  0
LINE
  5
59C5
330
59B8
100
AcDbEntity
  8
7.3. Kota
440
 16777216
370
    -2
100
AcDbLine
 10
2880.89440468793
 20
881.6115316014322
 30
0.0
 11
2880.89440468793
 21
881.8314351927311
 31
0.0
  0
LINE
  5
59C6
330
59B8
100
AcDbEntity
  8
7.3. Kota
440
 16777216
370
    -2
100
AcDbLine
 10
2883.22440468799
 20
881.6115316014322
 30
0.0
 11
2883.22440468799
 21
881.8314351927311
 31
0.0
  0
LINE
  5
59C7
330
59B8
100
AcDbEntity
  8
7.3. Kota
440
 16777216
370
    -2
100
AcDbLine
 10
2880.89440468793
 20
881.731435192731
 30
0.0
 11
2883.22440468799
 21
881.731435192731
 31
0.0
  0
INSERT
  5
59C8
330
59B8
100
AcDbEntity
  8
7.3. Kota
440
 16777216
370
    -2
100
AcDbBlockReference
  2
_ArchTick
 10
2880.89440468793
 20
881.731435192731
 30
0.0
 41
0.1
 42
0.1
 43
0.1
 50
180.0
  0
INSERT
  5
59C9
330
59B8
100
AcDbEntity
  8
7.3. Kota
440
 16777216
370
    -2
100
AcDbBlockReference
  2
_ArchTick
 10
2883.22440468799
 20
881.731435192731
 30
0.0
 41
0.1
 42
0.1
 43
0.1
  0
MTEXT
  5
59CA
330
59B8
100
AcDbEntity
  8
7.3. Kota
440
 16777216
100
AcDbMText
 10
2882.05940468796
 20
881.8580723005073
 30
0.0
 40
0.15
 41
0.0
 46
0.0
 71
     5
 72
     1
  1
2.33
 73
     1
 44
1.0
  0
POINT
  5
59CB
330
59B8
100
AcDbEntity
  8
Defpoints
 62
     0
440
 16777216
100
AcDbPoint
 10
2880.89440468793
 20
881.5115316014322
 30
0.0
  0
POINT
  5
59CC
330
59B8
100
AcDbEntity
  8
Defpoints
 62
     0
440
 16777216
100
AcDbPoint
 10
2883.22440468799
 20
881.5115316014322
 30
0.0
  0
POINT
  5
59CD
330
59B8
100
AcDbEntity
  8
Defpoints
 62
     0
440
 16777216
100
AcDbPoint
 10
2883.22440468799
 20
881.731435192731
 30
0.0
  0
ENDBLK
  5
59BA
330
59B8
100
AcDbEntity
  8
0
100
AcDbBlockEnd
  0
BLOCK
  5
59D1
330
59D0
100
AcDbEntity
  8
0
100
AcDbBlockBegin
  2
*D121
 70
     1
 10
0.0
 20
0.0
 30
0.0
  3
*D121
  1

  0
LINE
  5
59DD
330
59D0
100
AcDbEntity
  8
7.3. Kota
440
 16777216
370
    -2
100
AcDbLine
 10
2881.81440468793
 20
880.6365316014321
 30
0.0
 11
2881.81440468793
 21
880.5086048800005
 31
0.0
  0
LINE
  5
59DE
330
59D0
100
AcDbEntity
  8
7.3. Kota
440
 16777216
370
    -2
100
AcDbLine
 10
2882.614404687931
 20
880.6365316014321
 30
0.0
 11
2882.614404687931
 21
880.5086048800005
 31
0.0
  0
LINE
  5
59DF
330
59D0
100
AcDbEntity
  8
7.3. Kota
440
 16777216
370
    -2
100
AcDbLine
 10
2881.81440468793
 20
880.6086048800004
 30
0.0
 11
2882.614404687931
 21
880.6086048800004
 31
0.0
  0
INSERT
  5
59E0
330
59D0
100
AcDbEntity
  8
7.3. Kota
440
 16777216
370
    -2
100
AcDbBlockReference
  2
_ArchTick
 10
2881.81440468793
 20
880.6086048800004
 30
0.0
 41
0.1
 42
0.1
 43
0.1
 50
180.0
  0
INSERT
  5
59E1
330
59D0
100
AcDbEntity
  8
7.3. Kota
440
 16777216
370
    -2
100
AcDbBlockReference
  2
_ArchTick
 10
2882.614404687931
 20
880.6086048800004
 30
0.0
 41
0.1
 42
0.1
 43
0.1
  0
MTEXT
  5
59E2
330
59D0
100
AcDbEntity
  8
7.3. Kota
440
 16777216
100
AcDbMText
 10
2882.21440468793
 20
880.7351908281587
 30
0.0
 40
0.15
 41
0.0
 46
0.0
 71
     5
 72
     1
  1
0.80
 73
     1
 44
1.0
  0
POINT
  5
59E3
330
59D0
100
AcDbEntity
  8
Defpoints
 62
     0
440
 16777216
100
AcDbPoint
 10
2881.81440468793
 20
880.7365316014323
 30
0.0
  0
POINT
  5
59E4
330
59D0
100
AcDbEntity
  8
Defpoints
 62
     0
440
 16777216
100
AcDbPoint
 10
2882.614404687931
 20
880.7365316014323
 30
0.0
  0
POINT
  5
59E5
330
59D0
100
AcDbEntity
  8
Defpoints
 62
     0
440
 16777216
100
AcDbPoint
 10
2882.614404687931
 20
880.6086048800004
 30
0.0
  0
ENDBLK
  5
59D2
330
59D0
100
AcDbEntity
  8
0
100
AcDbBlockEnd
  0
BLOCK
  5
59E9
330
59E8
100
AcDbEntity
  8
0
100
AcDbBlockBegin
  2
*D122
 70
     1
 10
0.0
 20
0.0
 30
0.0
  3
*D122
  1

  0
LINE
  5
59F5
330
59E8
100
AcDbEntity
  8
7.3. Kota
440
 16777216
370
    -2
100
AcDbLine
 10
2880.26440468793
 20
885.3505092228132
 30
0.0
 11
2880.191785862065
 21
885.3505092228132
 31
0.0
  0
LINE
  5
59F6
330
59E8
100
AcDbEntity
  8
7.3. Kota
440
 16777216
370
    -2
100
AcDbLine
 10
2880.26440468793
 20
884.4105092228133
 30
0.0
 11
2880.191785862065
 21
884.4105092228133
 31
0.0
  0
LINE
  5
59F7
330
59E8
100
AcDbEntity
  8
7.3. Kota
440
 16777216
370
    -2
100
AcDbLine
 10
2880.291785862065
 20
885.3505092228132
 30
0.0
 11
2880.291785862065
 21
884.4105092228133
 31
0.0
  0
INSERT
  5
59F8
330
59E8
100
AcDbEntity
  8
7.3. Kota
440
 16777216
370
    -2
100
AcDbBlockReference
  2
_ArchTick
 10
2880.291785862065
 20
885.3505092228132
 30
0.0
 41
0.1
 42
0.1
 43
0.1
 50
90.0
  0
INSERT
  5
59F9
330
59E8
100
AcDbEntity
  8
7.3. Kota
440
 16777216
370
    -2
100
AcDbBlockReference
  2
_ArchTick
 10
2880.291785862065
 20
884.4105092228133
 30
0.0
 41
0.1
 42
0.1
 43
0.1
 50
270.0
  0
MTEXT
  5
59FA
330
59E8
100
AcDbEntity
  8
7.3. Kota
440
 16777216
100
AcDbMText
 10
2880.165199913907
 20
884.8805092228138
 30
0.0
 40
0.15
 41
0.0
 46
0.0
 71
     5
 72
     1
  1
0.94
 11
0.0000000000000001
 21
1.0
 31
0.0
 73
     1
 44
1.0
  0
POINT
  5
59FB
330
59E8
100
AcDbEntity
  8
Defpoints
 62
     0
440
 16777216
100
AcDbPoint
 10
2880.364404687929
 20
885.3505092228132
 30
0.0
  0
POINT
  5
59FC
330
59E8
100
AcDbEntity
  8
Defpoints
 62
     0
440
 16777216
100
AcDbPoint
 10
2880.364404687929
 20
884.4105092228133
 30
0.0
  0
POINT
  5
59FD
330
59E8
100
AcDbEntity
  8
Defpoints
 62
     0
440
 16777216
100
AcDbPoint
 10
2880.291785862065
 20
884.4105092228133
 30
0.0
  0
ENDBLK
  5
59EA
330
59E8
100
AcDbEntity
  8
0
100
AcDbBlockEnd
  0
BLOCK
  5
5A01
330
5A00
100
AcDbEntity
  8
0
100
AcDbBlockBegin
  2
*D123
 70
     1
 10
0.0
 20
0.0
 30
0.0
  3
*D123
  1

  0
LINE
  5
5A0D
330
5A00
100
AcDbEntity
  8
7.3. Kota
440
 16777216
370
    -2
100
AcDbLine
 10
2881.31440468793
 20
884.0015316014321
 30
0.0
 11
2881.31440468793
 21
883.7832092546589
 31
0.0
  0
LINE
  5
5A0E
330
5A00
100
AcDbEntity
  8
7.3. Kota
440
 16777216
370
    -2
100
AcDbLine
 10
2882.114404687931
 20
884.0015316014321
 30
0.0
 11
2882.114404687931
 21
883.7832092546589
 31
0.0
  0
LINE
  5
5A0F
330
5A00
100
AcDbEntity
  8
7.3. Kota
440
 16777216
370
    -2
100
AcDbLine
 10
2881.31440468793
 20
883.8832092546589
 30
0.0
 11
2882.114404687931
 21
883.8832092546589
 31
0.0
  0
INSERT
  5
5A10
330
5A00
100
AcDbEntity
  8
7.3. Kota
440
 16777216
370
    -2
100
AcDbBlockReference
  2
_ArchTick
 10
2881.31440468793
 20
883.8832092546589
 30
0.0
 41
0.1
 42
0.1
 43
0.1
 50
180.0
  0
INSERT
  5
5A11
330
5A00
100
AcDbEntity
  8
7.3. Kota
440
 16777216
370
    -2
100
AcDbBlockReference
  2
_ArchTick
 10
2882.114404687931
 20
883.8832092546589
 30
0.0
 41
0.1
 42
0.1
 43
0.1
  0
MTEXT
  5
5A12
330
5A00
100
AcDbEntity
  8
7.3. Kota
440
 16777216
100
AcDbMText
 10
2881.71440468793
 20
884.0097952028171
 30
0.0
 40
0.15
 41
0.0
 46
0.0
 71
     5
 72
     1
  1
0.80
 73
     1
 44
1.0
  0
POINT
  5
5A13
330
5A00
100
AcDbEntity
  8
Defpoints
 62
     0
440
 16777216
100
AcDbPoint
 10
2881.31440468793
 20
884.1015316014321
 30
0.0
  0
POINT
  5
5A14
330
5A00
100
AcDbEntity
  8
Defpoints
 62
     0
440
 16777216
100
AcDbPoint
 10
2882.114404687931
 20
884.1015316014321
 30
0.0
  0
POINT
  5
5A15
330
5A00
100
AcDbEntity
  8
Defpoints
 62
     0
440
 16777216
100
AcDbPoint
 10
2882.114404687931
 20
883.8832092546589
 30
0.0
  0
ENDBLK
  5
5A02
330
5A00
100
AcDbEntity
  8
0
100
AcDbBlockEnd
  0
BLOCK
  5
5A19
330
5A18
100
AcDbEntity
  8
0
100
AcDbBlockBegin
  2
*D124
 70
     1
 10
0.0
 20
0.0
 30
0.0
  3
*D124
  1

  0
LINE
  5
5A25
330
5A18
100
AcDbEntity
  8
7.3. Kota
440
 16777216
370
    -2
100
AcDbLine
 10
2882.50440468793
 20
878.0915316014322
 30
0.0
 11
2882.50440468793
 21
878.0097040989836
 31
0.0
  0
LINE
  5
5A26
330
5A18
100
AcDbEntity
  8
7.3. Kota
440
 16777216
370
    -2
100
AcDbLine
 10
2883.674404687929
 20
878.0915316014322
 30
0.0
 11
2883.674404687929
 21
878.0097040989836
 31
0.0
  0
LINE
  5
5A27
330
5A18
100
AcDbEntity
  8
7.3. Kota
440
 16777216
370
    -2
100
AcDbLine
 10
2882.50440468793
 20
878.1097040989836
 30
0.0
 11
2883.674404687929
 21
878.1097040989836
 31
0.0
  0
INSERT
  5
5A28
330
5A18
100
AcDbEntity
  8
7.3. Kota
440
 16777216
370
    -2
100
AcDbBlockReference
  2
_ArchTick
 10
2882.50440468793
 20
878.1097040989836
 30
0.0
 41
0.1
 42
0.1
 43
0.1
 50
180.0
  0
INSERT
  5
5A29
330
5A18
100
AcDbEntity
  8
7.3. Kota
440
 16777216
370
    -2
100
AcDbBlockReference
  2
_ArchTick
 10
2883.674404687929
 20
878.1097040989836
 30
0.0
 41
0.1
 42
0.1
 43
0.1
  0
MTEXT
  5
5A2A
330
5A18
100
AcDbEntity
  8
7.3. Kota
440
 16777216
100
AcDbMText
 10
2883.089404687929
 20
878.2350110566918
 30
0.0
 40
0.15
 41
0.0
 46
0.0
 71
     5
 72
     1
  1
1.17
 73
     1
 44
1.0
  0
POINT
  5
5A2B
330
5A18
100
AcDbEntity
  8
Defpoints
 62
     0
440
 16777216
100
AcDbPoint
 10
2882.50440468793
 20
878.1915316014323
 30
0.0
  0
POINT
  5
5A2C
330
5A18
100
AcDbEntity
  8
Defpoints
 62
     0
440
 16777216
100
AcDbPoint
 10
2883.674404687929
 20
878.1915316014323
 30
0.0
  0
POINT
  5
5A2D
330
5A18
100
AcDbEntity
  8
Defpoints
 62
     0
440
 16777216
100
AcDbPoint
 10
2883.674404687929
 20
878.1097040989836
 30
0.0
  0
ENDBLK
  5
5A1A
330
5A18
100
AcDbEntity
  8
0
100
AcDbBlockEnd
  0
BLOCK
  5
5A31
330
5A30
100
AcDbEntity
  8
0
100
AcDbBlockBegin
  2
*D125
 70
     1
 10
0.0
 20
0.0
 30
0.0
  3
*D125
  1

  0
LINE
  5
5A3B
330
5A30
100
AcDbEntity
  8
7.3. Kota
440
 16777216
370
    -2
100
AcDbLine
 10
2880.47440468793
 20
875.2915316014327
 30
0.0
 11
2880.15440468793
 21
876.6415316014324
 31
0.0
  0
INSERT
  5
5A3C
330
5A30
100
AcDbEntity
  8
7.3. Kota
440
 16777216
370
    -2
100
AcDbBlockReference
  2
_ArchTick
 10
2880.47440468793
 20
875.2915316014327
 30
0.0
 41
0.1
 42
0.1
 43
0.1
 50
283.3351063410566
  0
INSERT
  5
5A3D
330
5A30
100
AcDbEntity
  8
7.3. Kota
440
 16777216
370
    -2
100
AcDbBlockReference
  2
_ArchTick
 10
2880.15440468793
 20
876.6415316014324
 30
0.0
 41
0.1
 42
0.1
 43
0.1
 50
103.3351063410566
  0
MTEXT
  5
5A3E
330
5A30
100
AcDbEntity
  8
7.3. Kota
440
 16777216
100
AcDbMText
 10
2880.437627372289
 20
875.995739941429
 30
0.0
 40
0.15
 41
0.0
 46
0.0
 71
     5
 72
     1
  1
1.39
 11
0.2306459813327593
 21
-0.9730377337467691
 31
0.0
 73
     1
 44
1.0
  0
POINT
  5
5A3F
330
5A30
100
AcDbEntity
  8
Defpoints
 62
     0
440
 16777216
100
AcDbPoint
 10
2880.47440468793
 20
875.2915316014325
 30
0.0
  0
POINT
  5
5A40
330
5A30
100
AcDbEntity
  8
Defpoints
 62
     0
440
 16777216
100
AcDbPoint
 10
2880.15440468793
 20
876.6415316014324
 30
0.0
  0
POINT
  5
5A41
330
5A30
100
AcDbEntity
  8
Defpoints
 62
     0
440
 16777216
100
AcDbPoint
 10
2880.15440468793
 20
876.6415316014324
 30
0.0
  0
ENDBLK
  5
5A32
330
5A30
100
AcDbEntity
  8
0
100
AcDbBlockEnd
  0
BLOCK
  5
5A45
330
5A44
100
AcDbEntity
  8
0
100
AcDbBlockBegin
  2
*D126
 70
     1
 10
0.0
 20
0.0
 30
0.0
  3
*D126
  1

  0
LINE
  5
5A4F
330
5A44
100
AcDbEntity
  8
7.3. Kota
440
 16777216
370
    -2
100
AcDbLine
 10
2877.684404687931
 20
875.5615316014329
 30
0.0
 11
2879.47440468793
 21
875.2915316014325
 31
0.0
  0
INSERT
  5
5A50
330
5A44
100
AcDbEntity
  8
7.3. Kota
440
 16777216
370
    -2
100
AcDbBlockReference
  2
_ArchTick
 10
2877.684404687931
 20
875.5615316014329
 30
0.0
 41
0.1
 42
0.1
 43
0.1
 50
171.422283474971
  0
INSERT
  5
5A51
330
5A44
100
AcDbEntity
  8
7.3. Kota
440
 16777216
370
    -2
100
AcDbBlockReference
  2
_ArchTick
 10
2879.47440468793
 20
875.2915316014325
 30
0.0
 41
0.1
 42
0.1
 43
0.1
 50
351.422283474971
  0
MTEXT
  5
5A52
330
5A44
100
AcDbEntity
  8
7.3. Kota
440
 16777216
100
AcDbMText
 10
2878.598285081469
 20
875.5517016178544
 30
0.0
 40
0.15
 41
0.0
 46
0.0
 71
     5
 72
     1
  1
1.81
 11
0.9888144635533262
 21
-0.1491507850054699
 31
0.0
 73
     1
 44
1.0
  0
POINT
  5
5A53
330
5A44
100
AcDbEntity
  8
Defpoints
 62
     0
440
 16777216
100
AcDbPoint
 10
2877.684404687931
 20
875.5615316014329
 30
0.0
  0
POINT
  5
5A54
330
5A44
100
AcDbEntity
  8
Defpoints
 62
     0
440
 16777216
100
AcDbPoint
 10
2879.47440468793
 20
875.2915316014325
 30
0.0
  0
POINT
  5
5A55
330
5A44
100
AcDbEntity
  8
Defpoints
 62
     0
440
 16777216
100
AcDbPoint
 10
2879.47440468793
 20
875.2915316014325
 30
0.0
  0
ENDBLK
  5
5A46
330
5A44
100
AcDbEntity
  8
0
100
AcDbBlockEnd
  0
BLOCK
  5
5A59
330
5A58
100
AcDbEntity
  8
0
100
AcDbBlockBegin
  2
*D127
 70
     1
 10
0.0
 20
0.0
 30
0.0
  3
*D127
  1

  0
LINE
  5
5A63
330
5A58
100
AcDbEntity
  8
7.3. Kota
440
 16777216
370
    -2
100
AcDbLine
 10
2879.47440468793
 20
874.0230994916704
 30
0.0
 11
2875.95440468793
 21
874.0230994916704
 31
0.0
  0
INSERT
  5
5A64
330
5A58
100
AcDbEntity
  8
7.3. Kota
440
 16777216
370
    -2
100
AcDbBlockReference
  2
_ArchTick
 10
2879.47440468793
 20
874.0230994916704
 30
0.0
 41
0.1
 42
0.1
 43
0.1
 50
359.9999999999982
  0
INSERT
  5
5A65
330
5A58
100
AcDbEntity
  8
7.3. Kota
440
 16777216
370
    -2
100
AcDbBlockReference
  2
_ArchTick
 10
2875.95440468793
 20
874.0230994916704
 30
0.0
 41
0.1
 42
0.1
 43
0.1
 50
179.9999999999982
  0
MTEXT
  5
5A66
330
5A58
100
AcDbEntity
  8
7.3. Kota
440
 16777216
100
AcDbMText
 10
2877.71440468793
 20
874.1497365994467
 30
0.0
 40
0.15
 41
0.0
 46
0.0
 71
     5
 72
     1
  1
3.52
 73
     1
 44
1.0
  0
POINT
  5
5A67
330
5A58
100
AcDbEntity
  8
Defpoints
 62
     0
440
 16777216
100
AcDbPoint
 10
2879.47440468793
 20
874.0230994916704
 30
0.0
  0
POINT
  5
5A68
330
5A58
100
AcDbEntity
  8
Defpoints
 62
     0
440
 16777216
100
AcDbPoint
 10
2875.95440468793
 20
874.0230994916704
 30
0.0
  0
POINT
  5
5A69
330
5A58
100
AcDbEntity
  8
Defpoints
 62
     0
440
 16777216
100
AcDbPoint
 10
2875.95440468793
 20
874.0230994916704
 30
0.0
  0
ENDBLK
  5
5A5A
330
5A58
100
AcDbEntity
  8
0
100
AcDbBlockEnd
  0
BLOCK
  5
5A95
330
5A94
100
AcDbEntity
  8
0
100
AcDbBlockBegin
  2
*D128
 70
     1
 10
0.0
 20
0.0
 30
0.0
  3
*D128
  1

  0
LINE
  5
5A97
330
5A94
100
AcDbEntity
  8
7.3. Kota
440
 16777216
370
    -2
100
AcDbLine
 10
2880.770033852402
 20
874.2915316014329
 30
0.0
 11
2880.697708681071
 21
874.2915316014329
 31
0.0
  0
LINE
  5
5A98
330
5A94
100
AcDbEntity
  8
7.3. Kota
440
 16777216
370
    -2
100
AcDbLine
 10
2880.770033852401
 20
871.5015316014326
 30
0.0
 11
2880.697708681071
 21
871.5015316014326
 31
0.0
  0
LINE
  5
5A99
330
5A94
100
AcDbEntity
  8
7.3. Kota
440
 16777216
370
    -2
100
AcDbLine
 10
2880.79770868107
 20
874.2915316014329
 30
0.0
 11
2880.79770868107
 21
871.5015316014326
 31
0.0
  0
INSERT
  5
5A9A
330
5A94
100
AcDbEntity
  8
7.3. Kota
440
 16777216
370
    -2
100
AcDbBlockReference
  2
_ArchTick
 10
2880.79770868107
 20
874.2915316014329
 30
0.0
 41
0.1
 42
0.1
 43
0.1
 50
90.0
  0
INSERT
  5
5A9B
330
5A94
100
AcDbEntity
  8
7.3. Kota
440
 16777216
370
    -2
100
AcDbBlockReference
  2
_ArchTick
 10
2880.79770868107
 20
871.5015316014326
 30
0.0
 41
0.1
 42
0.1
 43
0.1
 50
270.0
  0
MTEXT
  5
5A9C
330
5A94
100
AcDbEntity
  8
7.3. Kota
440
 16777216
100
AcDbMText
 10
2880.671122732912
 20
872.8965316014333
 30
0.0
 40
0.15
 41
0.0
 46
0.0
 71
     5
 72
     1
  1
2.79
 11
0.0000000000000001
 21
1.0
 31
0.0
 73
     1
 44
1.0
  0
POINT
  5
5A9D
330
5A94
100
AcDbEntity
  8
Defpoints
 62
     0
440
 16777216
100
AcDbPoint
 10
2880.870033852402
 20
874.2915316014329
 30
0.0
  0
POINT
  5
5A9E
330
5A94
100
AcDbEntity
  8
Defpoints
 62
     0
440
 16777216
100
AcDbPoint
 10
2880.870033852401
 20
871.5015316014326
 30
0.0
  0
POINT
  5
5A9F
330
5A94
100
AcDbEntity
  8
Defpoints
 62
     0
440
 16777216
100
AcDbPoint
 10
2880.79770868107
 20
871.5015316014326
 30
0.0
  0
ENDBLK
  5
5A96
330
5A94
100
AcDbEntity
  8
0
100
AcDbBlockEnd
  0
BLOCK
  5
5AA2
330
5AA1
100
AcDbEntity
  8
0
100
AcDbBlockBegin
  2
*D129
 70
     1
 10
0.0
 20
0.0
 30
0.0
  3
*D129
  1

  0
LINE
  5
5AA4
330
5AA1
100
AcDbEntity
  8
7.3. Kota
440
 16777216
370
    -2
100
AcDbLine
 10
2880.47440468793
 20
873.9054177854619
 30
0.0
 11
2880.47440468793
 21
873.8264483492665
 31
0.0
  0
LINE
  5
5AA5
330
5AA1
100
AcDbEntity
  8
7.3. Kota
440
 16777216
370
    -2
100
AcDbLine
 10
2884.24440468793
 20
873.9054177854614
 30
0.0
 11
2884.24440468793
 21
873.8264483492665
 31
0.0
  0
LINE
  5
5AA6
330
5AA1
100
AcDbEntity
  8
7.3. Kota
440
 16777216
370
    -2
100
AcDbLine
 10
2880.47440468793
 20
873.9264483492664
 30
0.0
 11
2884.24440468793
 21
873.9264483492664
 31
0.0
  0
INSERT
  5
5AA7
330
5AA1
100
AcDbEntity
  8
7.3. Kota
440
 16777216
370
    -2
100
AcDbBlockReference
  2
_ArchTick
 10
2880.47440468793
 20
873.9264483492664
 30
0.0
 41
0.1
 42
0.1
 43
0.1
 50
180.0
  0
INSERT
  5
5AA8
330
5AA1
100
AcDbEntity
  8
7.3. Kota
440
 16777216
370
    -2
100
AcDbBlockReference
  2
_ArchTick
 10
2884.24440468793
 20
873.9264483492664
 30
0.0
 41
0.1
 42
0.1
 43
0.1
  0
MTEXT
  5
5AA9
330
5AA1
100
AcDbEntity
  8
7.3. Kota
440
 16777216
100
AcDbMText
 10
2882.35940468793
 20
874.0530854570426
 30
0.0
 40
0.15
 41
0.0
 46
0.0
 71
     5
 72
     1
  1
3.77
 73
     1
 44
1.0
  0
POINT
  5
5AAA
330
5AA1
100
AcDbEntity
  8
Defpoints
 62
     0
440
 16777216
100
AcDbPoint
 10
2880.47440468793
 20
874.0054177854618
 30
0.0
  0
POINT
  5
5AAB
330
5AA1
100
AcDbEntity
  8
Defpoints
 62
     0
440
 16777216
100
AcDbPoint
 10
2884.24440468793
 20
874.0054177854615
 30
0.0
  0
POINT
  5
5AAC
330
5AA1
100
AcDbEntity
  8
Defpoints
 62
     0
440
 16777216
100
AcDbPoint
 10
2884.24440468793
 20
873.9264483492664
 30
0.0
  0
ENDBLK
  5
5AA3
330
5AA1
100
AcDbEntity
  8
0
100
AcDbBlockEnd
  0
BLOCK
  5
5AB0
330
5AAF
100
AcDbEntity
  8
0
100
AcDbBlockBegin
  2
*D130
 70
     1
 10
0.0
 20
0.0
 30
0.0
  3
*D130
  1

  0
LINE
  5
5ABC
330
5AAF
100
AcDbEntity
  8
7.3. Kota
440
 16777216
370
    -2
100
AcDbLine
 10
2885.10440468793
 20
880.7115316014321
 30
0.0
 11
2886.134837876359
 21
880.7115316014321
 31
0.0
  0
LINE
  5
5ABD
330
5AAF
100
AcDbEntity
  8
7.3. Kota
440
 16777216
370
    -2
100
AcDbLine
 10
2885.10440468793
 20
870.591531601433
 30
0.0
 11
2886.134837876359
 21
870.591531601433
 31
0.0
  0
LINE
  5
5ABE
330
5AAF
100
AcDbEntity
  8
7.3. Kota
440
 16777216
370
    -2
100
AcDbLine
 10
2886.034837876358
 20
880.7115316014321
 30
0.0
 11
2886.034837876358
 21
870.591531601433
 31
0.0
  0
INSERT
  5
5ABF
330
5AAF
100
AcDbEntity
  8
7.3. Kota
440
 16777216
370
    -2
100
AcDbBlockReference
  2
_ArchTick
 10
2886.034837876358
 20
880.7115316014321
 30
0.0
 41
0.1
 42
0.1
 43
0.1
 50
90.0
  0
INSERT
  5
5AC0
330
5AAF
100
AcDbEntity
  8
7.3. Kota
440
 16777216
370
    -2
100
AcDbBlockReference
  2
_ArchTick
 10
2886.034837876358
 20
870.591531601433
 30
0.0
 41
0.1
 42
0.1
 43
0.1
 50
270.0
  0
MTEXT
  5
5AC1
330
5AAF
100
AcDbEntity
  8
7.3. Kota
440
 16777216
100
AcDbMText
 10
2885.9082519282
 20
875.6515316014331
 30
0.0
 40
0.15
 41
0.0
 46
0.0
 71
     5
 72
     1
  1
10.12
 11
0.0000000000000001
 21
1.0
 31
0.0
 73
     1
 44
1.0
  0
POINT
  5
5AC2
330
5AAF
100
AcDbEntity
  8
Defpoints
 62
     0
440
 16777216
100
AcDbPoint
 10
2885.00440468793
 20
880.7115316014321
 30
0.0
  0
POINT
  5
5AC3
330
5AAF
100
AcDbEntity
  8
Defpoints
 62
     0
440
 16777216
100
AcDbPoint
 10
2885.00440468793
 20
870.591531601433
 30
0.0
  0
POINT
  5
5AC4
330
5AAF
100
AcDbEntity
  8
Defpoints
 62
     0
440
 16777216
100
AcDbPoint
 10
2886.034837876358
 20
870.591531601433
 30
0.0
  0
ENDBLK
  5
5AB1
330
5AAF
100
AcDbEntity
  8
0
100
AcDbBlockEnd
  0
BLOCK
  5
5AC8
330
5AC7
100
AcDbEntity
  8
0
100
AcDbBlockBegin
  2
*D131
 70
     1
 10
0.0
 20
0.0
 30
0.0
  3
*D131
  1

  0
LINE
  5
5AD4
330
5AC7
100
AcDbEntity
  8
7.3. Kota
440
 16777216
370
    -2
100
AcDbLine
 10
2885.104404687929
 20
871.641531601432
 30
0.0
 11
2885.627063425013
 21
871.641531601432
 31
0.0
  0
LINE
  5
5AD5
330
5AC7
100
AcDbEntity
  8
7.3. Kota
440
 16777216
370
    -2
100
AcDbLine
 10
2885.104404687931
 20
872.6565316014323
 30
0.0
 11
2885.627063425013
 21
872.6565316014323
 31
0.0
  0
LINE
  5
5AD6
330
5AC7
100
AcDbEntity
  8
7.3. Kota
440
 16777216
370
    -2
100
AcDbLine
 10
2885.527063425013
 20
871.641531601432
 30
0.0
 11
2885.527063425013
 21
872.6565316014323
 31
0.0
  0
INSERT
  5
5AD7
330
5AC7
100
AcDbEntity
  8
7.3. Kota
440
 16777216
370
    -2
100
AcDbBlockReference
  2
_ArchTick
 10
2885.527063425013
 20
871.641531601432
 30
0.0
 41
0.1
 42
0.1
 43
0.1
 50
270.0
  0
INSERT
  5
5AD8
330
5AC7
100
AcDbEntity
  8
7.3. Kota
440
 16777216
370
    -2
100
AcDbBlockReference
  2
_ArchTick
 10
2885.527063425013
 20
872.6565316014323
 30
0.0
 41
0.1
 42
0.1
 43
0.1
 50
90.0
  0
MTEXT
  5
5AD9
330
5AC7
100
AcDbEntity
  8
7.3. Kota
440
 16777216
100
AcDbMText
 10
2885.400477476855
 20
872.1490316014326
 30
0.0
 40
0.15
 41
0.0
 46
0.0
 71
     5
 72
     1
  1
1.02
 11
0.0000000000000001
 21
1.0
 31
0.0
 73
     1
 44
1.0
  0
POINT
  5
5ADA
330
5AC7
100
AcDbEntity
  8
Defpoints
 62
     0
440
 16777216
100
AcDbPoint
 10
2885.00440468793
 20
871.641531601432
 30
0.0
  0
POINT
  5
5ADB
330
5AC7
100
AcDbEntity
  8
Defpoints
 62
     0
440
 16777216
100
AcDbPoint
 10
2885.004404687931
 20
872.6565316014323
 30
0.0
  0
POINT
  5
5ADC
330
5AC7
100
AcDbEntity
  8
Defpoints
 62
     0
440
 16777216
100
AcDbPoint
 10
2885.527063425013
 20
872.6565316014323
 30
0.0
  0
ENDBLK
  5
5AC9
330
5AC7
100
AcDbEntity
  8
0
100
AcDbBlockEnd
  0
BLOCK
  5
5AE0
330
5ADF
100
AcDbEntity
  8
0
100
AcDbBlockBegin
  2
*D132
 70
     1
 10
0.0
 20
0.0
 30
0.0
  3
*D132
  1

  0
LINE
  5
5AEC
330
5ADF
100
AcDbEntity
  8
7.3. Kota
440
 16777216
370
    -2
100
AcDbLine
 10
2885.104404687929
 20
874.2015316014322
 30
0.0
 11
2885.627063425013
 21
874.2015316014322
 31
0.0
  0
LINE
  5
5AED
330
5ADF
100
AcDbEntity
  8
7.3. Kota
440
 16777216
370
    -2
100
AcDbLine
 10
2885.104404687929
 20
872.7215316014321
 30
0.0
 11
2885.627063425013
 21
872.7215316014321
 31
0.0
  0
LINE
  5
5AEE
330
5ADF
100
AcDbEntity
  8
7.3. Kota
440
 16777216
370
    -2
100
AcDbLine
 10
2885.527063425013
 20
874.2015316014322
 30
0.0
 11
2885.527063425013
 21
872.7215316014321
 31
0.0
  0
INSERT
  5
5AEF
330
5ADF
100
AcDbEntity
  8
7.3. Kota
440
 16777216
370
    -2
100
AcDbBlockReference
  2
_ArchTick
 10
2885.527063425013
 20
874.2015316014322
 30
0.0
 41
0.1
 42
0.1
 43
0.1
 50
90.0
  0
INSERT
  5
5AF0
330
5ADF
100
AcDbEntity
  8
7.3. Kota
440
 16777216
370
    -2
100
AcDbBlockReference
  2
_ArchTick
 10
2885.527063425013
 20
872.7215316014321
 30
0.0
 41
0.1
 42
0.1
 43
0.1
 50
270.0
  0
MTEXT
  5
5AF1
330
5ADF
100
AcDbEntity
  8
7.3. Kota
440
 16777216
100
AcDbMText
 10
2885.400477476855
 20
873.4615316014325
 30
0.0
 40
0.15
 41
0.0
 46
0.0
 71
     5
 72
     1
  1
1.48
 11
0.0000000000000001
 21
1.0
 31
0.0
 73
     1
 44
1.0
  0
POINT
  5
5AF2
330
5ADF
100
AcDbEntity
  8
Defpoints
 62
     0
440
 16777216
100
AcDbPoint
 10
2885.00440468793
 20
874.2015316014322
 30
0.0
  0
POINT
  5
5AF3
330
5ADF
100
AcDbEntity
  8
Defpoints
 62
     0
440
 16777216
100
AcDbPoint
 10
2885.004404687929
 20
872.7215316014321
 30
0.0
  0
POINT
  5
5AF4
330
5ADF
100
AcDbEntity
  8
Defpoints
 62
     0
440
 16777216
100
AcDbPoint
 10
2885.527063425013
 20
872.7215316014321
 30
0.0
  0
ENDBLK
  5
5AE1
330
5ADF
100
AcDbEntity
  8
0
100
AcDbBlockEnd
  0
BLOCK
  5
5B04
330
5B03
100
AcDbEntity
  8
0
100
AcDbBlockBegin
  2
*D133
 70
     1
 10
0.0
 20
0.0
 30
0.0
  3
*D133
  1

  0
LINE
  5
5B10
330
5B03
100
AcDbEntity
  8
7.3. Kota
440
 16777216
370
    -2
100
AcDbLine
 10
2877.78440468793
 20
875.8215316014327
 30
0.0
 11
2878.082622187474
 21
875.8215316014327
 31
0.0
  0
LINE
  5
5B11
330
5B03
100
AcDbEntity
  8
7.3. Kota
440
 16777216
370
    -2
100
AcDbLine
 10
2877.78440468793
 20
876.5215316014327
 30
0.0
 11
2878.082622187474
 21
876.5215316014327
 31
0.0
  0
LINE
  5
5B12
330
5B03
100
AcDbEntity
  8
7.3. Kota
440
 16777216
370
    -2
100
AcDbLine
 10
2877.982622187474
 20
875.8215316014327
 30
0.0
 11
2877.982622187474
 21
876.5215316014327
 31
0.0
  0
INSERT
  5
5B13
330
5B03
100
AcDbEntity
  8
7.3. Kota
440
 16777216
370
    -2
100
AcDbBlockReference
  2
_ArchTick
 10
2877.982622187474
 20
875.8215316014327
 30
0.0
 41
0.1
 42
0.1
 43
0.1
 50
270.0
  0
INSERT
  5
5B14
330
5B03
100
AcDbEntity
  8
7.3. Kota
440
 16777216
370
    -2
100
AcDbBlockReference
  2
_ArchTick
 10
2877.982622187474
 20
876.5215316014327
 30
0.0
 41
0.1
 42
0.1
 43
0.1
 50
90.0
  0
MTEXT
  5
5B15
330
5B03
100
AcDbEntity
  8
7.3. Kota
440
 16777216
100
AcDbMText
 10
2877.856036239315
 20
876.1715316014331
 30
0.0
 40
0.15
 41
0.0
 46
0.0
 71
     5
 72
     1
  1
0.70
 11
0.0000000000000001
 21
1.0
 31
0.0
 73
     1
 44
1.0
  0
POINT
  5
5B16
330
5B03
100
AcDbEntity
  8
Defpoints
 62
     0
440
 16777216
100
AcDbPoint
 10
2877.68440468793
 20
875.8215316014327
 30
0.0
  0
POINT
  5
5B17
330
5B03
100
AcDbEntity
  8
Defpoints
 62
     0
440
 16777216
100
AcDbPoint
 10
2877.68440468793
 20
876.5215316014327
 30
0.0
  0
POINT
  5
5B18
330
5B03
100
AcDbEntity
  8
Defpoints
 62
     0
440
 16777216
100
AcDbPoint
 10
2877.982622187474
 20
876.5215316014327
 30
0.0
  0
ENDBLK
  5
5B05
330
5B03
100
AcDbEntity
  8
0
100
AcDbBlockEnd
  0
BLOCK
  5
5B1C
330
5B1B
100
AcDbEntity
  8
0
100
AcDbBlockBegin
  2
*D134
 70
     1
 10
0.0
 20
0.0
 30
0.0
  3
*D134
  1

  0
LINE
  5
5B28
330
5B1B
100
AcDbEntity
  8
7.3. Kota
440
 16777216
370
    -2
100
AcDbLine
 10
2876.899712356204
 20
876.5415316014331
 30
0.0
 11
2876.899712356204
 21
876.3853350740285
 31
0.0
  0
LINE
  5
5B29
330
5B1B
100
AcDbEntity
  8
7.3. Kota
440
 16777216
370
    -2
100
AcDbLine
 10
2877.499712356204
 20
876.5415316014331
 30
0.0
 11
2877.499712356204
 21
876.3853350740285
 31
0.0
  0
LINE
  5
5B2A
330
5B1B
100
AcDbEntity
  8
7.3. Kota
440
 16777216
370
    -2
100
AcDbLine
 10
2876.899712356204
 20
876.4853350740285
 30
0.0
 11
2877.499712356204
 21
876.4853350740285
 31
0.0
  0
INSERT
  5
5B2B
330
5B1B
100
AcDbEntity
  8
7.3. Kota
440
 16777216
370
    -2
100
AcDbBlockReference
  2
_ArchTick
 10
2876.899712356204
 20
876.4853350740285
 30
0.0
 41
0.1
 42
0.1
 43
0.1
 50
180.0
  0
INSERT
  5
5B2C
330
5B1B
100
AcDbEntity
  8
7.3. Kota
440
 16777216
370
    -2
100
AcDbBlockReference
  2
_ArchTick
 10
2877.499712356204
 20
876.4853350740285
 30
0.0
 41
0.1
 42
0.1
 43
0.1
  0
MTEXT
  5
5B2D
330
5B1B
100
AcDbEntity
  8
7.3. Kota
440
 16777216
100
AcDbMText
 10
2877.199712356203
 20
876.6119210221868
 30
0.0
 40
0.15
 41
0.0
 46
0.0
 71
     5
 72
     1
  1
0.60
 73
     1
 44
1.0
  0
POINT
  5
5B2E
330
5B1B
100
AcDbEntity
  8
Defpoints
 62
     0
440
 16777216
100
AcDbPoint
 10
2876.899712356204
 20
876.6415316014331
 30
0.0
  0
POINT
  5
5B2F
330
5B1B
100
AcDbEntity
  8
Defpoints
 62
     0
440
 16777216
100
AcDbPoint
 10
2877.499712356204
 20
876.6415316014331
 30
0.0
  0
POINT
  5
5B30
330
5B1B
100
AcDbEntity
  8
Defpoints
 62
     0
440
 16777216
100
AcDbPoint
 10
2877.499712356204
 20
876.4853350740285
 30
0.0
  0
ENDBLK
  5
5B1D
330
5B1B
100
AcDbEntity
  8
0
100
AcDbBlockEnd
  0
BLOCK
  5
5B34
330
5B33
100
AcDbEntity
  8
0
100
AcDbBlockBegin
  2
*D135
 70
     1
 10
0.0
 20
0.0
 30
0.0
  3
*D135
  1

  0
LINE
  5
5B40
330
5B33
100
AcDbEntity
  8
7.3. Kota
440
 16777216
370
    -2
100
AcDbLine
 10
2876.639404687931
 20
876.5415316014328
 30
0.0
 11
2876.639404687931
 21
876.3853350740285
 31
0.0
  0
LINE
  5
5B41
330
5B33
100
AcDbEntity
  8
7.3. Kota
440
 16777216
370
    -2
100
AcDbLine
 10
2876.039404687931
 20
876.5415316014328
 30
0.0
 11
2876.039404687931
 21
876.3853350740285
 31
0.0
  0
LINE
  5
5B42
330
5B33
100
AcDbEntity
  8
7.3. Kota
440
 16777216
370
    -2
100
AcDbLine
 10
2876.639404687931
 20
876.4853350740285
 30
0.0
 11
2876.039404687931
 21
876.4853350740285
 31
0.0
  0
INSERT
  5
5B43
330
5B33
100
AcDbEntity
  8
7.3. Kota
440
 16777216
370
    -2
100
AcDbBlockReference
  2
_ArchTick
 10
2876.639404687931
 20
876.4853350740285
 30
0.0
 41
0.1
 42
0.1
 43
0.1
  0
INSERT
  5
5B44
330
5B33
100
AcDbEntity
  8
7.3. Kota
440
 16777216
370
    -2
100
AcDbBlockReference
  2
_ArchTick
 10
2876.039404687931
 20
876.4853350740285
 30
0.0
 41
0.1
 42
0.1
 43
0.1
 50
180.0
  0
MTEXT
  5
5B45
330
5B33
100
AcDbEntity
  8
7.3. Kota
440
 16777216
100
AcDbMText
 10
2876.33940468793
 20
876.6119210221868
 30
0.0
 40
0.15
 41
0.0
 46
0.0
 71
     5
 72
     1
  1
0.60
 73
     1
 44
1.0
  0
POINT
  5
5B46
330
5B33
100
AcDbEntity
  8
Defpoints
 62
     0
440
 16777216
100
AcDbPoint
 10
2876.639404687931
 20
876.6415316014327
 30
0.0
  0
POINT
  5
5B47
330
5B33
100
AcDbEntity
  8
Defpoints
 62
     0
440
 16777216
100
AcDbPoint
 10
2876.039404687931
 20
876.6415316014327
 30
0.0
  0
POINT
  5
5B48
330
5B33
100
AcDbEntity
  8
Defpoints
 62
     0
440
 16777216
100
AcDbPoint
 10
2876.039404687931
 20
876.4853350740285
 30
0.0
  0
ENDBLK
  5
5B35
330
5B33
100
AcDbEntity
  8
0
100
AcDbBlockEnd
  0
BLOCK
  5
5B4C
330
5B4B
100
AcDbEntity
  8
0
100
AcDbBlockBegin
  2
*D136
 70
     1
 10
0.0
 20
0.0
 30
0.0
  3
*D136
  1

  0
LINE
  5
5B58
330
5B4B
100
AcDbEntity
  8
7.3. Kota
440
 16777216
370
    -2
100
AcDbLine
 10
2875.954404687929
 20
878.5015316014332
 30
0.0
 11
2875.954404687929
 21
878.710507218045
 31
0.0
  0
LINE
  5
5B59
330
5B4B
100
AcDbEntity
  8
7.3. Kota
440
 16777216
370
    -2
100
AcDbLine
 10
2876.724404687931
 20
878.5015316014328
 30
0.0
 11
2876.724404687931
 21
878.710507218045
 31
0.0
  0
LINE
  5
5B5A
330
5B4B
100
AcDbEntity
  8
7.3. Kota
440
 16777216
370
    -2
100
AcDbLine
 10
2875.954404687929
 20
878.6105072180449
 30
0.0
 11
2876.724404687931
 21
878.6105072180449
 31
0.0
  0
INSERT
  5
5B5B
330
5B4B
100
AcDbEntity
  8
7.3. Kota
440
 16777216
370
    -2
100
AcDbBlockReference
  2
_ArchTick
 10
2875.954404687929
 20
878.6105072180449
 30
0.0
 41
0.1
 42
0.1
 43
0.1
 50
180.0
  0
INSERT
  5
5B5C
330
5B4B
100
AcDbEntity
  8
7.3. Kota
440
 16777216
370
    -2
100
AcDbBlockReference
  2
_ArchTick
 10
2876.724404687931
 20
878.6105072180449
 30
0.0
 41
0.1
 42
0.1
 43
0.1
  0
MTEXT
  5
5B5D
330
5B4B
100
AcDbEntity
  8
7.3. Kota
440
 16777216
100
AcDbMText
 10
2876.33940468793
 20
878.7370931662032
 30
0.0
 40
0.15
 41
0.0
 46
0.0
 71
     5
 72
     1
  1
0.77
 73
     1
 44
1.0
  0
POINT
  5
5B5E
330
5B4B
100
AcDbEntity
  8
Defpoints
 62
     0
440
 16777216
100
AcDbPoint
 10
2875.954404687929
 20
878.4015316014333
 30
0.0
  0
POINT
  5
5B5F
330
5B4B
100
AcDbEntity
  8
Defpoints
 62
     0
440
 16777216
100
AcDbPoint
 10
2876.724404687931
 20
878.4015316014329
 30
0.0
  0
POINT
  5
5B60
330
5B4B
100
AcDbEntity
  8
Defpoints
 62
     0
440
 16777216
100
AcDbPoint
 10
2876.724404687931
 20
878.6105072180449
 30
0.0
  0
ENDBLK
  5
5B4D
330
5B4B
100
AcDbEntity
  8
0
100
AcDbBlockEnd
  0
BLOCK
  5
5B86
330
5B85
100
AcDbEntity
  8
0
100
AcDbBlockBegin
  2
*D137
 70
     1
 10
0.0
 20
0.0
 30
0.0
  3
*D137
  1

  0
LINE
  5
5B92
330
5B85
100
AcDbEntity
  8
7.3. Kota
440
 16777216
370
    -2
100
AcDbLine
 10
2876.814404687929
 20
878.5015316014332
 30
0.0
 11
2876.814404687929
 21
878.7105072180448
 31
0.0
  0
LINE
  5
5B93
330
5B85
100
AcDbEntity
  8
7.3. Kota
440
 16777216
370
    -2
100
AcDbLine
 10
2877.58440468793
 20
878.501531601433
 30
0.0
 11
2877.58440468793
 21
878.7105072180445
 31
0.0
  0
LINE
  5
5B94
330
5B85
100
AcDbEntity
  8
7.3. Kota
440
 16777216
370
    -2
100
AcDbLine
 10
2876.814404687929
 20
878.6105072180449
 30
0.0
 11
2877.58440468793
 21
878.6105072180445
 31
0.0
  0
INSERT
  5
5B95
330
5B85
100
AcDbEntity
  8
7.3. Kota
440
 16777216
370
    -2
100
AcDbBlockReference
  2
_ArchTick
 10
2876.814404687929
 20
878.6105072180449
 30
0.0
 41
0.1
 42
0.1
 43
0.1
 50
179.9999999999746
  0
INSERT
  5
5B96
330
5B85
100
AcDbEntity
  8
7.3. Kota
440
 16777216
370
    -2
100
AcDbBlockReference
  2
_ArchTick
 10
2877.58440468793
 20
878.6105072180445
 30
0.0
 41
0.1
 42
0.1
 43
0.1
 50
359.9999999999746
  0
MTEXT
  5
5B97
330
5B85
100
AcDbEntity
  8
7.3. Kota
440
 16777216
100
AcDbMText
 10
2877.19940468793
 20
878.737093166203
 30
0.0
 40
0.15
 41
0.0
 46
0.0
 71
     5
 72
     1
  1
0.77
 73
     1
 44
1.0
  0
POINT
  5
5B98
330
5B85
100
AcDbEntity
  8
Defpoints
 62
     0
440
 16777216
100
AcDbPoint
 10
2876.814404687929
 20
878.4015316014331
 30
0.0
  0
POINT
  5
5B99
330
5B85
100
AcDbEntity
  8
Defpoints
 62
     0
440
 16777216
100
AcDbPoint
 10
2877.58440468793
 20
878.4015316014331
 30
0.0
  0
POINT
  5
5B9A
330
5B85
100
AcDbEntity
  8
Defpoints
 62
     0
440
 16777216
100
AcDbPoint
 10
2877.58440468793
 20
878.6105072180445
 30
0.0
  0
ENDBLK
  5
5B87
330
5B85
100
AcDbEntity
  8
0
100
AcDbBlockEnd
  0
BLOCK
  5
5B9E
330
5B9D
100
AcDbEntity
  8
0
100
AcDbBlockBegin
  2
*D138
 70
     1
 10
0.0
 20
0.0
 30
0.0
  3
*D138
  1

  0
LINE
  5
5BAA
330
5B9D
100
AcDbEntity
  8
7.3. Kota
440
 16777216
370
    -2
100
AcDbLine
 10
2875.654404687929
 20
870.9415316014329
 30
0.0
 11
2874.973986916511
 21
870.9415316014329
 31
0.0
  0
LINE
  5
5BAB
330
5B9D
100
AcDbEntity
  8
7.3. Kota
440
 16777216
370
    -2
100
AcDbLine
 10
2875.654404687929
 20
878.2015316014318
 30
0.0
 11
2874.973986916511
 21
878.2015316014318
 31
0.0
  0
LINE
  5
5BAC
330
5B9D
100
AcDbEntity
  8
7.3. Kota
440
 16777216
370
    -2
100
AcDbLine
 10
2875.073986916511
 20
870.9415316014329
 30
0.0
 11
2875.073986916511
 21
878.2015316014318
 31
0.0
  0
INSERT
  5
5BAD
330
5B9D
100
AcDbEntity
  8
7.3. Kota
440
 16777216
370
    -2
100
AcDbBlockReference
  2
_ArchTick
 10
2875.073986916511
 20
870.9415316014329
 30
0.0
 41
0.1
 42
0.1
 43
0.1
 50
270.0
  0
INSERT
  5
5BAE
330
5B9D
100
AcDbEntity
  8
7.3. Kota
440
 16777216
370
    -2
100
AcDbBlockReference
  2
_ArchTick
 10
2875.073986916511
 20
878.2015316014318
 30
0.0
 41
0.1
 42
0.1
 43
0.1
 50
90.0
  0
MTEXT
  5
5BAF
330
5B9D
100
AcDbEntity
  8
7.3. Kota
440
 16777216
100
AcDbMText
 10
2874.947400968353
 20
874.5715316014328
 30
0.0
 40
0.15
 41
0.0
 46
0.0
 71
     5
 72
     1
  1
7.26
 11
0.0000000000000001
 21
1.0
 31
0.0
 73
     1
 44
1.0
  0
POINT
  5
5BB0
330
5B9D
100
AcDbEntity
  8
Defpoints
 62
     0
440
 16777216
100
AcDbPoint
 10
2875.754404687929
 20
870.9415316014329
 30
0.0
  0
POINT
  5
5BB1
330
5B9D
100
AcDbEntity
  8
Defpoints
 62
     0
440
 16777216
100
AcDbPoint
 10
2875.754404687929
 20
878.2015316014318
 30
0.0
  0
POINT
  5
5BB2
330
5B9D
100
AcDbEntity
  8
Defpoints
 62
     0
440
 16777216
100
AcDbPoint
 10
2875.073986916511
 20
878.2015316014318
 30
0.0
  0
ENDBLK
  5
5B9F
330
5B9D
100
AcDbEntity
  8
0
100
AcDbBlockEnd
  0
BLOCK
  5
5BB6
330
5BB5
100
AcDbEntity
  8
0
100
AcDbBlockBegin
  2
*D139
 70
     1
 10
0.0
 20
0.0
 30
0.0
  3
*D139
  1

  0
LINE
  5
5BC2
330
5BB5
100
AcDbEntity
  8
7.3. Kota
440
 16777216
370
    -2
100
AcDbLine
 10
2875.65440468793
 20
878.2015316014318
 30
0.0
 11
2875.374725391571
 21
878.2015316014318
 31
0.0
  0
LINE
  5
5BC3
330
5BB5
100
AcDbEntity
  8
7.3. Kota
440
 16777216
370
    -2
100
AcDbLine
 10
2875.65440468793
 20
875.6615316014324
 30
0.0
 11
2875.374725391571
 21
875.6615316014324
 31
0.0
  0
LINE
  5
5BC4
330
5BB5
100
AcDbEntity
  8
7.3. Kota
440
 16777216
370
    -2
100
AcDbLine
 10
2875.47472539157
 20
878.2015316014318
 30
0.0
 11
2875.47472539157
 21
875.6615316014324
 31
0.0
  0
INSERT
  5
5BC5
330
5BB5
100
AcDbEntity
  8
7.3. Kota
440
 16777216
370
    -2
100
AcDbBlockReference
  2
_ArchTick
 10
2875.47472539157
 20
878.2015316014318
 30
0.0
 41
0.1
 42
0.1
 43
0.1
 50
90.0
  0
INSERT
  5
5BC6
330
5BB5
100
AcDbEntity
  8
7.3. Kota
440
 16777216
370
    -2
100
AcDbBlockReference
  2
_ArchTick
 10
2875.47472539157
 20
875.6615316014324
 30
0.0
 41
0.1
 42
0.1
 43
0.1
 50
270.0
  0
MTEXT
  5
5BC7
330
5BB5
100
AcDbEntity
  8
7.3. Kota
440
 16777216
100
AcDbMText
 10
2875.348139443412
 20
876.9315316014326
 30
0.0
 40
0.15
 41
0.0
 46
0.0
 71
     5
 72
     1
  1
2.54
 11
0.0000000000000001
 21
1.0
 31
0.0
 73
     1
 44
1.0
  0
POINT
  5
5BC8
330
5BB5
100
AcDbEntity
  8
Defpoints
 62
     0
440
 16777216
100
AcDbPoint
 10
2875.75440468793
 20
878.2015316014318
 30
0.0
  0
POINT
  5
5BC9
330
5BB5
100
AcDbEntity
  8
Defpoints
 62
     0
440
 16777216
100
AcDbPoint
 10
2875.754404687929
 20
875.6615316014324
 30
0.0
  0
POINT
  5
5BCA
330
5BB5
100
AcDbEntity
  8
Defpoints
 62
     0
440
 16777216
100
AcDbPoint
 10
2875.47472539157
 20
875.6615316014324
 30
0.0
  0
ENDBLK
  5
5BB7
330
5BB5
100
AcDbEntity
  8
0
100
AcDbBlockEnd
  0
BLOCK
  5
9172
330
916E
100
AcDbEntity
  8
0
100
AcDbBlockBegin
  2
A$C56C501B1
 70
     0
 10
0.0
 20
0.0
 30
0.0
  3
A$C56C501B1
  1

  0
LWPOLYLINE
  5
916F
330
916E
100
AcDbEntity
  8
Basea_Eraikuntza
100
AcDbPolyline
 90
       54
 70
     1
 43
0.3
 10
6.693319272482767
 20
50.11846068780869
 10
19.8933192724362
 20
46.78846068959683
 10
21.97331927239429
 20
34.64846068900079
 10
22.35331927239895
 20
31.50846068933606
 10
22.57331927248742
 20
26.47846068814397
 10
22.75331927242223
 20
20.47846068907529
 10
23.19331927248277
 20
12.42846068926155
 10
22.75331927242223
 20
7.178460689261555
 10
22.08331927249674
 20
-0.4715393111109734
 10
21.01331927243155
 20
-9.161539310589432
 10
20.04331927245948
 20
-17.21153931040317
 10
18.25331927242223
 20
-22.17153931036591
 10
17.46331927250139
 20
-24.36153931170702
 10
16.87331927241757
 20
-24.1115393107757
 10
14.74331927241292
 20
-23.21153931040317
 10
13.88331927242689
 20
-22.85153931099921
 10
3.393319272436201
 20
-18.29153930954635
 10
0.5633192724781111
 20
-17.20153931248933
 10
0.7133192725013942
 20
-16.85153931193054
 10
3.853319272398948
 20
-9.65153931081295
 10
5.873319272417575
 20
-5.011539311148226
 10
11.10331927239895
 20
-7.39153931196779
 10
11.70331927249208
 20
-1.881539311259984
 10
8.743319272412918
 20
-1.471539311110973
 10
9.033319272566586
 20
3.528460688889026
 10
4.803319272468797
 20
5.618460687808692
 10
8.543319272459484
 20
11.41846068948507
 10
9.333319272496737
 20
11.45846068952232
 10
12.88331927231047
 20
11.62846068944782
 10
14.21331927250139
 20
22.44846068881452
 10
11.32331927248742
 20
23.11846068780869
 10
12.61331927240826
 20
28.59846068918705
 10
11.94331927248277
 20
28.74846068955958
 10
10.8033192724688
 20
23.3884606892243
 10
2.883319272426888
 20
26.08846068941057
 10
2.123319272417575
 20
24.41846068948507
 10
2.113319272408261
 20
24.39846068900079
 10
2.673319272464141
 20
23.41846068948507
 10
-2.096680727554485
 20
13.02846068888902
 10
0.2833192724501714
 20
11.94846068881452
 10
3.913319272454828
 20
10.28846068959683
 10
5.083319272496737
 20
9.758460689336061
 10
1.673319272464141
 20
2.368460687808692
 10
3.663319272454828
 20
1.488460687920451
 10
2.393319272436201
 20
-1.381539311259984
 10
-3.696680727531202
 20
-15.18153931107372
 10
-20.20668072754052
 20
-7.951539310626685
 10
-14.04668072750792
 20
5.958460690453648
 10
-13.16668072750326
 20
7.738460688851773
 10
-9.326680727419443
 20
16.2784606879577
 10
-4.346680727554485
 20
27.2784606879577
 10
-3.886680727591738
 20
28.29846068937332
 10
-0.9766807275591418
 20
34.18846068903804
 10
1.40331927256193
 20
39.00846068933606
1001
ACAD
1000
RTMaterial
1005
EC
1000
RTMaterial
1005
0
1001
IRD
1002
{
1000
TPMLINK_EDIFICIO-_-ade
1070
   515
1071
        1
1004
0100472000004706000047060000000000000CF3650C96F673400CF3650C96F6734000000000D31A0000
1002
}
  0
ENDBLK
  5
9173
330
916E
100
AcDbEntity
  8
0
100
AcDbBlockEnd
  0
ENDSEC
  0
SECTION
  2
ENTITIES
  0
LWPOLYLINE
  5
29E7
330
1F
100
AcDbEntity
  8
0
100
AcDbPolyline
 90
        4
 70
     1
 43
0.0
 10
2864.363414778733
 20
913.8413381791419
 10
2864.363414778733
 20
914.138338179142
 10
2864.153414778733
 20
914.138338179142
 10
2864.153414778733
 20
913.8413381791419
  0
MTEXT
  5
29E8
330
1F
100
AcDbEntity
  8
1.4. Idatzia
100
AcDbMText
 10
2864.294322563976
 20
913.8605810727025
 30
0.0
 40
0.0018
 41
0.0172399289914779
 46
0.0
 71
     1
 72
     5
  1
{\fCalibri Light|b1|i0|c0|p34;E:\fCalibri Light|b0|i0|c0|p34; 1/100}
 73
     1
 44
1.0
  0
MTEXT
  5
29E9
330
1F
100
AcDbEntity
  8
1.4. Idatzia
100
AcDbMText
 10
2864.18913180856
 20
913.8635054760621
 30
0.0
 40
0.0025
 41
0.1852149973614974
 46
0.0
 71
     1
 72
     5
  1
{\fCalibri Light|b1|i0|c0|p34;Katastro zk.\fCalibri Light|b0|i0|c0|p34;: 7791255}
 73
     1
 44
1.0
  0
MTEXT
  5
29EA
330
1F
100
AcDbEntity
  8
1.4. Idatzia
100
AcDbMText
 10
2864.189130689775
 20
913.8713444730138
 30
0.0
 40
0.0025
 41
0.1852149973614974
 46
0.0
 71
     1
 72
     5
  1
{\fCalibri Light|b1|i0|c0|p34;Kokapena\fCalibri Light|b0|i0|c0|p34;: MUNA LURRA KALEA, 02. 20170 USURBIL}
 73
     1
 44
1.0
  0
HATCH
  5
29EB
330
1F
100
AcDbEntity
  8
1.3. Eskala grafikoa
100
AcDbHatch
 10
0.0
 20
0.0
 30
0.0
210
0.0
220
0.0
230
1.0
  2
SOLID
 70
     1
 71
     0
 91
        1
 92
        5
 93
        4
 72
     1
 10
2864.299285513072
 20
913.8555199385731
 11
2864.299285513072
 21
913.8550461614972
 72
     1
 10
2864.299285513072
 20
913.8550461614972
 11
2864.304285513071
 21
913.8550461614972
 72
     1
 10
2864.304285513071
 20
913.8550461614972
 11
2864.304285513071
 21
913.8555199385731
 72
     1
 10
2864.304285513071
 20
913.8555199385731
 11
2864.299285513072
 21
913.8555199385731
 97
        0
 75
     1
 76
     1
 47
0.0000355507141102
 98
        1
 10
2864.301785513072
 20
913.8552830500351
450
        0
451
        0
460
0.0
461
0.0
452
        0
462
1.0
453
        2
463
0.0
 63
     5
421
      255
463
1.0
 63
     2
421
 16776960
470
LINEAR
1001
GradientColor1ACI
1070
     5
1001
GradientColor2ACI
1070
     2
1001
ACAD
1010
0.0
1020
0.0
1030
0.0
  0
HATCH
  5
29EC
330
1F
100
AcDbEntity
  8
1.3. Eskala grafikoa
100
AcDbHatch
 10
0.0
 20
0.0
 30
0.0
210
0.0
220
0.0
230
1.0
  2
SOLID
 70
     1
 71
     0
 91
        1
 92
        7
 72
     0
 73
     1
 93
        4
 10
2864.324285513072
 20
913.8555199385731
 10
2864.314285513072
 20
913.8555199385731
 10
2864.314285513072
 20
913.8550461614972
 10
2864.324285513072
 20
913.8550461614972
 97
        0
 75
     1
 76
     1
 47
0.0000355507141102
 98
        1
 10
2864.320456533353
 20
913.8551933066043
450
        0
451
        0
460
0.0
461
0.0
452
        0
462
1.0
453
        2
463
0.0
 63
     5
421
      255
463
1.0
 63
     2
421
 16776960
470
LINEAR
1001
GradientColor1ACI
1070
     5
1001
GradientColor2ACI
1070
     2
1001
ACAD
1010
0.0
1020
0.0
1030
0.0
  0
LINE
  5
29ED
330
1F
100
AcDbEntity
  8
1.3. Eskala grafikoa
 48
0.01
100
AcDbLine
 10
2864.294285513071
 20
913.8545723844211
 30
0.0
 11
2864.334285513072
 21
913.8545723844211
 31
0.0
  0
LINE
  5
29EE
330
1F
100
AcDbEntity
  8
1.3. Eskala grafikoa
 48
0.01
100
AcDbLine
 10
2864.294285513071
 20
913.8555199385731
 30
0.0
 11
2864.294285513071
 21
913.8545723844211
 31
0.0
  0
HATCH
  5
29EF
330
1F
100
AcDbEntity
  8
1.3. Eskala grafikoa
100
AcDbHatch
 10
0.0
 20
0.0
 30
0.0
210
0.0
220
0.0
230
1.0
  2
SOLID
 70
     1
 71
     0
 91
        1
 92
        7
 72
     0
 73
     1
 93
        4
 10
2864.314285513072
 20
913.8550461614972
 10
2864.304285513071
 20
913.8550461614972
 10
2864.304285513071
 20
913.8545723844211
 10
2864.314285513071
 20
913.8545723844211
 97
        0
 75
     1
 76
     1
 47
0.0000355507141102
 98
        1
 10
2864.308673392337
 20
913.8547429886598
450
        0
451
        0
460
0.0
461
0.0
452
        0
462
1.0
453
        2
463
0.0
 63
     5
421
      255
463
1.0
 63
     2
421
 16776960
470
LINEAR
1001
GradientColor1ACI
1070
     5
1001
GradientColor2ACI
1070
     2
1001
ACAD
1010
0.0
1020
0.0
1030
0.0
  0
LINE
  5
29F0
330
1F
100
AcDbEntity
  8
1.3. Eskala grafikoa
 48
0.01
100
AcDbLine
 10
2864.304285513071
 20
913.8555199385731
 30
0.0
 11
2864.304285513071
 21
913.8545723844211
 31
0.0
  0
LINE
  5
29F1
330
1F
100
AcDbEntity
  8
1.3. Eskala grafikoa
 48
0.01
100
AcDbLine
 10
2864.314285513072
 20
913.8555199385731
 30
0.0
 11
2864.314285513072
 21
913.8545723844211
 31
0.0
  0
HATCH
  5
29F2
330
1F
100
AcDbEntity
  8
1.3. Eskala grafikoa
100
AcDbHatch
 10
0.0
 20
0.0
 30
0.0
210
0.0
220
0.0
230
1.0
  2
SOLID
 70
     1
 71
     0
 91
        1
 92
        7
 72
     0
 73
     1
 93
        4
 10
2864.334285513072
 20
913.8550461614972
 10
2864.324285513072
 20
913.8550461614972
 10
2864.324285513072
 20
913.8545723844211
 10
2864.334285513072
 20
913.8545723844211
 97
        0
 75
     1
 76
     1
 47
0.0000355507141102
 98
        1
 10
2864.331056806795
 20
913.8548860924489
450
        0
451
        0
460
0.0
461
0.0
452
        0
462
1.0
453
        2
463
0.0
 63
     5
421
      255
463
1.0
 63
     2
421
 16776960
470
LINEAR
1001
GradientColor1ACI
1070
     5
1001
GradientColor2ACI
1070
     2
1001
ACAD
1010
0.0
1020
0.0
1030
0.0
  0
LINE
  5
29F3
330
1F
100
AcDbEntity
  8
1.3. Eskala grafikoa
 48
0.01
100
AcDbLine
 10
2864.324285513072
 20
913.8555199385731
 30
0.0
 11
2864.324285513072
 21
913.8545723844211
 31
0.0
  0
LINE
  5
29F4
330
1F
100
AcDbEntity
  8
1.3. Eskala grafikoa
 48
0.01
100
AcDbLine
 10
2864.334285513072
 20
913.8555199385731
 30
0.0
 11
2864.334285513072
 21
913.8545723844211
 31
0.0
  0
MTEXT
  5
29F5
330
1F
100
AcDbEntity
  8
1.3. Eskala grafikoa
100
AcDbMText
 10
2864.294088167625
 20
913.854196406916
 30
0.0
 40
0.001
 41
0.0010406224438389
 46
0.0
 71
     1
 72
     5
  1
{\fCalibri Light|b0|i0|c0|p34;0}
 73
     1
 44
1.0
  0
MTEXT
  5
29F6
330
1F
100
AcDbEntity
  8
1.4. Idatzia
100
AcDbMText
 10
2864.25054302732
 20
913.855443893191
 30
0.0
 40
0.0025
 41
0.0273770814300611
 46
0.0
 71
     1
 72
     5
  1
{\fCalibri Light|b0|i0|c0|p34;Martxoak 2019}
 73
     1
 44
1.0
  0
MTEXT
  5
29F7
330
1F
100
AcDbEntity
  8
1.4. Idatzia
100
AcDbMText
 10
2864.295697517227
 20
913.869290341212
 30
0.0
 40
0.0025
 41
0.0373092422454125
 46
0.0
 71
     1
 72
     5
  1
{\fCalibri Light|b1|i0|c0|p34;Planoa:\fCalibri Light|b0|i0|c0|p34; BEHE OINA}
 73
     1
 44
1.0
  0
MTEXT
  5
29F8
330
1F
100
AcDbEntity
  8
1.4. Idatzia
100
AcDbMText
 10
2864.189326585094
 20
913.8818267037331
 30
0.0
 40
0.004
 41
0.1447549525279904
 46
0.0
 71
     1
 72
     5
  1
{\fLucida Sans Unicode|b1|i0|c0|p34;MERKATARITZA LOKAL HUTSAK}
 73
     1
 44
1.0
  0
LINE
  5
29F9
330
1F
100
AcDbEntity
  8
1.6. Marra2
100
AcDbLine
 10
2864.164059115557
 20
913.8574530162136
 30
0.0
 11
2864.164059115557
 21
913.8518707045754
 31
0.0
  0
IMAGE
  5
29FA
330
1F
100
AcDbEntity
  8
1.1. Armarria
 62
     7
420
 16777215
160
               140
310
8C000000010000008400000006000000050000008358434E5460A64068D137F4DE8E8C4000000000000000008358434E5460A6401C59CA00128F8C40000000000000000091A17C315F60A6401C59CA00128F8C40000000000000000091A17C315F60A64068D137F4DE8E8C4000000000000000008358434E5460A64068D137
310
F4DE8E8C400000000000000000
100
AcDbRasterImage
 90
        0
 10
2864.164659599833
 20
913.8588642464428
 30
0.0
 11
0.0001408266873892
 21
0.0
 31
0.0
 12
0.0
 22
0.0001408266873892
 32
0.0
 13
151.0
 23
177.0
340
2E2
 70
     7
280
     0
281
    50
282
    50
283
     0
290
     0
360
29FB
 71
     1
 91
        2
 14
-0.5
 24
-0.5
 14
150.5
 24
176.5
  0
LINE
  5
29FC
330
1F
100
AcDbEntity
  8
1.6. Marra2
100
AcDbLine
 10
2864.284270779553
 20
913.8518707045754
 30
0.0
 11
2864.284270779553
 21
913.8574530162136
 31
0.0
  0
MTEXT
  5
29FD
330
1F
100
AcDbEntity
  8
1.4. Idatzia
100
AcDbMText
 10
2864.189095921839
 20
913.8559821098796
 30
0.0
 40
0.0025
 41
0.0410971974865084
 46
0.0
 71
     1
 72
     5
  1
{\fCalibri Light|b1|i0|c0|p34;Eraikuntza urtea\fCalibri Light|b0|i0|c0|p34;: 1973}
 73
     1
 44
1.0
  0
LWPOLYLINE
  5
29FE
330
1F
100
AcDbEntity
  8
1.5. Marra1
100
AcDbPolyline
 90
        2
 70
     0
 43
0.0004
 10
2864.187276246019
 20
913.8759897243319
 10
2864.282035155449
 20
913.8759897243286
  0
LWPOLYLINE
  5
29FF
330
1F
100
AcDbEntity
  8
1.5. Marra1
100
AcDbPolyline
 90
        3
 70
     0
 43
0.0003531510107016
 10
2864.294285513071
 20
913.8687852220831
 10
2864.294285513071
 20
913.8656657616001
 10
2864.334285513072
 20
913.8656657616001
  0
LWPOLYLINE
  5
2A00
330
1F
100
AcDbEntity
  8
1.5. Marra1
100
AcDbPolyline
 90
        3
 70
     0
 43
0.0003531510107016
 10
2864.294285513071
 20
913.872870263849
 10
2864.294285513071
 20
913.8759897243319
 10
2864.334285513072
 20
913.8759897243319
  0
LWPOLYLINE
  5
2A01
330
1F
100
AcDbEntity
  8
1.6. Marra2
100
AcDbPolyline
 90
        2
 70
     0
 43
0.0002683175052431
 10
2864.287382423319
 20
913.8513381791419
 10
2864.287382423319
 20
913.8759897243303
  0
LWPOLYLINE
  5
2A02
330
1F
100
AcDbEntity
  8
1.6. Marra2
100
AcDbPolyline
 90
        2
 70
     0
 43
0.0002683175052431
 10
2864.285826601437
 20
913.8513381791419
 10
2864.285826601437
 20
913.8759897243303
  0
LWPOLYLINE
  5
2A03
330
1F
100
AcDbEntity
  8
1.6. Marra2
100
AcDbPolyline
 90
        2
 70
     0
 43
0.0002683175052431
 10
2864.286648545073
 20
913.8513381791419
 10
2864.286648545073
 20
913.8759897243303
  0
LWPOLYLINE
  5
2A04
330
1F
100
AcDbEntity
  8
1.6. Marra2
100
AcDbPolyline
 90
        2
 70
     0
 43
0.0002683175052431
 10
2864.284270779554
 20
913.8513381791419
 10
2864.284270779554
 20
913.8759897243303
  0
LWPOLYLINE
  5
2A05
330
1F
100
AcDbEntity
  8
1.6. Marra2
100
AcDbPolyline
 90
        2
 70
     0
 43
0.0002683175052431
 10
2864.28509272319
 20
913.8513381791419
 10
2864.28509272319
 20
913.8759897243303
  0
LWPOLYLINE
  5
2A06
330
1F
100
AcDbEntity
  8
1.6. Marra2
100
AcDbPolyline
 90
        2
 70
     0
 43
0.0002683175052431
 10
2864.290494067084
 20
913.8513381791419
 10
2864.290494067084
 20
913.8759897243303
  0
LWPOLYLINE
  5
2A07
330
1F
100
AcDbEntity
  8
1.6. Marra2
100
AcDbPolyline
 90
        2
 70
     0
 43
0.0002683175052431
 10
2864.288938245201
 20
913.8513381791419
 10
2864.288938245201
 20
913.8759897243303
  0
LWPOLYLINE
  5
2A08
330
1F
100
AcDbEntity
  8
1.6. Marra2
100
AcDbPolyline
 90
        2
 70
     0
 43
0.0002683175052431
 10
2864.289760188837
 20
913.8513381791419
 10
2864.289760188837
 20
913.8759897243303
  0
LWPOLYLINE
  5
2A09
330
1F
100
AcDbEntity
  8
1.6. Marra2
100
AcDbPolyline
 90
        2
 70
     0
 43
0.0002683175052431
 10
2864.288204366955
 20
913.8513381791419
 10
2864.288204366955
 20
913.8759897243303
  0
LWPOLYLINE
  5
2A0A
330
1F
100
AcDbEntity
  8
1.6. Marra2
100
AcDbPolyline
 90
        2
 70
     0
 43
0.0002683175052431
 10
2864.292049888966
 20
913.8513381791419
 10
2864.292049888966
 20
913.8759897243303
  0
LWPOLYLINE
  5
2A0B
330
1F
100
AcDbEntity
  8
1.6. Marra2
100
AcDbPolyline
 90
        2
 70
     0
 43
0.0002683175052431
 10
2864.291316010719
 20
913.8513381791419
 10
2864.291316010719
 20
913.8759897243303
  0
LINE
  5
2A0C
330
1F
100
AcDbEntity
  8
1.6. Marra2
100
AcDbLine
 10
2864.281893014035
 20
913.8518707045754
 30
0.0
 11
2864.281893014035
 21
913.8574530162136
 31
0.0
  0
LWPOLYLINE
  5
2A0D
330
1F
100
AcDbEntity
  8
1.6. Marra2
100
AcDbPolyline
 90
        2
 70
     0
 43
0.0002683175052431
 10
2864.283448835918
 20
913.8513381791419
 10
2864.283448835918
 20
913.8574530162136
  0
LWPOLYLINE
  5
2A0E
330
1F
100
AcDbEntity
  8
1.6. Marra2
100
AcDbPolyline
 90
        2
 70
     0
 43
0.0002683175052431
 10
2864.281893014035
 20
913.8513381791419
 10
2864.281893014035
 20
913.8574530162136
  0
LWPOLYLINE
  5
2A0F
330
1F
100
AcDbEntity
  8
1.6. Marra2
100
AcDbPolyline
 90
        2
 70
     0
 43
0.0002683175052431
 10
2864.282714957671
 20
913.8513381791419
 10
2864.282714957671
 20
913.8574530162136
  0
LINE
  5
2A10
330
1F
100
AcDbEntity
  8
1.6. Marra2
100
AcDbLine
 10
2864.279515248516
 20
913.8518707045754
 30
0.0
 11
2864.279515248516
 21
913.8574530162136
 31
0.0
  0
LWPOLYLINE
  5
2A11
330
1F
100
AcDbEntity
  8
1.6. Marra2
100
AcDbPolyline
 90
        2
 70
     0
 43
0.0002683175052431
 10
2864.281071070399
 20
913.8513381791419
 10
2864.281071070399
 20
913.8574530162136
  0
LWPOLYLINE
  5
2A12
330
1F
100
AcDbEntity
  8
1.6. Marra2
100
AcDbPolyline
 90
        2
 70
     0
 43
0.0002683175052431
 10
2864.279515248517
 20
913.8513381791419
 10
2864.279515248517
 20
913.8574530162136
  0
LWPOLYLINE
  5
2A13
330
1F
100
AcDbEntity
  8
1.6. Marra2
100
AcDbPolyline
 90
        2
 70
     0
 43
0.0002683175052431
 10
2864.280337192152
 20
913.8513381791419
 10
2864.280337192152
 20
913.8574530162136
  0
LINE
  5
2A14
330
1F
100
AcDbEntity
  8
1.6. Marra2
100
AcDbLine
 10
2864.166436881075
 20
913.8518707045754
 30
0.0
 11
2864.166436881075
 21
913.8574530162136
 31
0.0
  0
LWPOLYLINE
  5
2A15
330
1F
100
AcDbEntity
  8
1.6. Marra2
100
AcDbPolyline
 90
        2
 70
     0
 43
0.0002683175052431
 10
2864.167992702958
 20
913.8513381791419
 10
2864.167992702958
 20
913.8574530162136
  0
LWPOLYLINE
  5
2A16
330
1F
100
AcDbEntity
  8
1.6. Marra2
100
AcDbPolyline
 90
        2
 70
     0
 43
0.0002683175052431
 10
2864.166436881075
 20
913.8513381791419
 10
2864.166436881075
 20
913.8574530162136
  0
LWPOLYLINE
  5
2A17
330
1F
100
AcDbEntity
  8
1.6. Marra2
100
AcDbPolyline
 90
        2
 70
     0
 43
0.0002683175052431
 10
2864.167258824711
 20
913.8513381791419
 10
2864.167258824711
 20
913.8574530162136
  0
LWPOLYLINE
  5
2A18
330
1F
100
AcDbEntity
  8
1.6. Marra2
100
AcDbPolyline
 90
        2
 70
     0
 43
0.0002683175052431
 10
2864.165614937439
 20
913.8513381791419
 10
2864.165614937439
 20
913.8574530162136
  0
LWPOLYLINE
  5
2A19
330
1F
100
AcDbEntity
  8
1.6. Marra2
100
AcDbPolyline
 90
        2
 70
     0
 43
0.0002683175052431
 10
2864.164881059192
 20
913.8513381791419
 10
2864.164881059192
 20
913.8574530162136
  0
LWPOLYLINE
  5
2A1A
330
1F
100
AcDbEntity
  8
1.6. Marra2
100
AcDbPolyline
 90
        2
 70
     0
 43
0.0002683175052431
 10
2864.164147180946
 20
913.8513381791419
 10
2864.164147180946
 20
913.8574530162136
  0
LINE
  5
2A1B
330
1F
100
AcDbEntity
  8
1.6. Marra2
100
AcDbLine
 10
2864.170282403087
 20
913.8518707045754
 30
0.0
 11
2864.170282403087
 21
913.8574530162136
 31
0.0
  0
LWPOLYLINE
  5
2A1C
330
1F
100
AcDbEntity
  8
1.6. Marra2
100
AcDbPolyline
 90
        2
 70
     0
 43
0.0002683175052431
 10
2864.17183822497
 20
913.8513381791419
 10
2864.17183822497
 20
913.8574530162136
  0
LWPOLYLINE
  5
2A1D
330
1F
100
AcDbEntity
  8
1.6. Marra2
100
AcDbPolyline
 90
        2
 70
     0
 43
0.0002683175052431
 10
2864.170282403087
 20
913.8513381791419
 10
2864.170282403087
 20
913.8574530162136
  0
LWPOLYLINE
  5
2A1E
330
1F
100
AcDbEntity
  8
1.6. Marra2
100
AcDbPolyline
 90
        2
 70
     0
 43
0.0002683175052431
 10
2864.171104346723
 20
913.8513381791419
 10
2864.171104346723
 20
913.8574530162136
  0
LWPOLYLINE
  5
2A1F
330
1F
100
AcDbEntity
  8
1.6. Marra2
100
AcDbPolyline
 90
        2
 70
     0
 43
0.0002683175052431
 10
2864.169460459451
 20
913.8513381791419
 10
2864.169460459451
 20
913.8574530162136
  0
LWPOLYLINE
  5
2A20
330
1F
100
AcDbEntity
  8
1.6. Marra2
100
AcDbPolyline
 90
        2
 70
     0
 43
0.0002683175052431
 10
2864.168726581204
 20
913.8513381791419
 10
2864.168726581204
 20
913.8574530162136
  0
LINE
  5
2A21
330
1F
100
AcDbEntity
  8
1.6. Marra2
100
AcDbLine
 10
2864.174127925099
 20
913.8518707045754
 30
0.0
 11
2864.174127925099
 21
913.8574530162136
 31
0.0
  0
LWPOLYLINE
  5
2A22
330
1F
100
AcDbEntity
  8
1.6. Marra2
100
AcDbPolyline
 90
        2
 70
     0
 43
0.0002683175052431
 10
2864.175683746982
 20
913.8513381791419
 10
2864.175683746982
 20
913.8574530162136
  0
LWPOLYLINE
  5
2A23
330
1F
100
AcDbEntity
  8
1.6. Marra2
100
AcDbPolyline
 90
        2
 70
     0
 43
0.0002683175052431
 10
2864.1741279251
 20
913.8513381791419
 10
2864.1741279251
 20
913.8574530162136
  0
LWPOLYLINE
  5
2A24
330
1F
100
AcDbEntity
  8
1.6. Marra2
100
AcDbPolyline
 90
        2
 70
     0
 43
0.0002683175052431
 10
2864.174949868735
 20
913.8513381791419
 10
2864.174949868735
 20
913.8574530162136
  0
LWPOLYLINE
  5
2A25
330
1F
100
AcDbEntity
  8
1.6. Marra2
100
AcDbPolyline
 90
        2
 70
     0
 43
0.0002683175052431
 10
2864.173305981463
 20
913.8513381791419
 10
2864.173305981463
 20
913.8574530162136
  0
LWPOLYLINE
  5
2A26
330
1F
100
AcDbEntity
  8
1.6. Marra2
100
AcDbPolyline
 90
        2
 70
     0
 43
0.0002683175052431
 10
2864.172572103216
 20
913.8513381791419
 10
2864.172572103216
 20
913.8574530162136
  0
LINE
  5
2A27
330
1F
100
AcDbEntity
  8
1.6. Marra2
100
AcDbLine
 10
2864.177973447111
 20
913.8518707045754
 30
0.0
 11
2864.177973447111
 21
913.8574530162136
 31
0.0
  0
LWPOLYLINE
  5
2A28
330
1F
100
AcDbEntity
  8
1.6. Marra2
100
AcDbPolyline
 90
        2
 70
     0
 43
0.0002683175052431
 10
2864.179529268993
 20
913.8513381791419
 10
2864.179529268993
 20
913.8574530162136
  0
LWPOLYLINE
  5
2A29
330
1F
100
AcDbEntity
  8
1.6. Marra2
100
AcDbPolyline
 90
        2
 70
     0
 43
0.0002683175052431
 10
2864.177973447111
 20
913.8513381791419
 10
2864.177973447111
 20
913.8574530162136
  0
LWPOLYLINE
  5
2A2A
330
1F
100
AcDbEntity
  8
1.6. Marra2
100
AcDbPolyline
 90
        2
 70
     0
 43
0.0002683175052431
 10
2864.178795390747
 20
913.8513381791419
 10
2864.178795390747
 20
913.8574530162136
  0
LWPOLYLINE
  5
2A2B
330
1F
100
AcDbEntity
  8
1.6. Marra2
100
AcDbPolyline
 90
        2
 70
     0
 43
0.0002683175052431
 10
2864.177151503475
 20
913.8513381791419
 10
2864.177151503475
 20
913.8574530162136
  0
LWPOLYLINE
  5
2A2C
330
1F
100
AcDbEntity
  8
1.6. Marra2
100
AcDbPolyline
 90
        2
 70
     0
 43
0.0002683175052431
 10
2864.176417625228
 20
913.8513381791419
 10
2864.176417625228
 20
913.8574530162136
  0
LINE
  5
2A2D
330
1F
100
AcDbEntity
  8
1.6. Marra2
100
AcDbLine
 10
2864.18035121263
 20
913.8518707045754
 30
0.0
 11
2864.18035121263
 21
913.8574530162136
 31
0.0
  0
LWPOLYLINE
  5
2A2E
330
1F
100
AcDbEntity
  8
1.6. Marra2
100
AcDbPolyline
 90
        2
 70
     0
 43
0.0002683175052431
 10
2864.181907034512
 20
913.8513381791419
 10
2864.181907034512
 20
913.8574530162136
  0
LWPOLYLINE
  5
2A2F
330
1F
100
AcDbEntity
  8
1.6. Marra2
100
AcDbPolyline
 90
        2
 70
     0
 43
0.0002683175052431
 10
2864.18035121263
 20
913.8513381791419
 10
2864.18035121263
 20
913.8574530162136
  0
LWPOLYLINE
  5
2A30
330
1F
100
AcDbEntity
  8
1.6. Marra2
100
AcDbPolyline
 90
        2
 70
     0
 43
0.0002683175052431
 10
2864.181173156266
 20
913.8513381791419
 10
2864.181173156266
 20
913.8574530162136
  0
LINE
  5
2A31
330
1F
100
AcDbEntity
  8
1.6. Marra2
100
AcDbLine
 10
2864.182728978148
 20
913.8518707045754
 30
0.0
 11
2864.182728978148
 21
913.8574530162136
 31
0.0
  0
LWPOLYLINE
  5
2A32
330
1F
100
AcDbEntity
  8
1.6. Marra2
100
AcDbPolyline
 90
        2
 70
     0
 43
0.0002683175052431
 10
2864.184284800031
 20
913.8513381791419
 10
2864.184284800031
 20
913.8574530162136
  0
LWPOLYLINE
  5
2A33
330
1F
100
AcDbEntity
  8
1.6. Marra2
100
AcDbPolyline
 90
        2
 70
     0
 43
0.0002683175052431
 10
2864.182728978148
 20
913.8513381791419
 10
2864.182728978148
 20
913.8574530162136
  0
LWPOLYLINE
  5
2A34
330
1F
100
AcDbEntity
  8
1.6. Marra2
100
AcDbPolyline
 90
        2
 70
     0
 43
0.0002683175052431
 10
2864.183550921785
 20
913.8513381791419
 10
2864.183550921785
 20
913.8574530162136
  0
LWPOLYLINE
  5
2A35
330
1F
100
AcDbEntity
  8
1.6. Marra2
100
AcDbPolyline
 90
        2
 70
     0
 43
0.0002683175052431
 10
2864.185840621914
 20
913.8513381791419
 10
2864.185840621914
 20
913.8574530162136
  0
LWPOLYLINE
  5
2A36
330
1F
100
AcDbEntity
  8
1.6. Marra2
100
AcDbPolyline
 90
        2
 70
     0
 43
0.0002683175052431
 10
2864.185106743667
 20
913.8513381791419
 10
2864.185106743667
 20
913.8574530162136
  0
LINE
  5
2A37
330
1F
100
AcDbEntity
  8
1.7. Ventanas Gráficas
100
AcDbLine
 10
2864.358414778733
 20
913.891338179142
 30
0.0
 11
2864.158414778733
 21
913.891338179142
 31
0.0
  0
LINE
  5
2A38
330
1F
100
AcDbEntity
  8
1.3. Eskala grafikoa
 48
0.01
100
AcDbLine
 10
2864.294285513071
 20
913.8555199385731
 30
0.0
 11
2864.334285513072
 21
913.8555199385731
 31
0.0
  0
LINE
  5
2A39
330
1F
100
AcDbEntity
  8
1.3. Eskala grafikoa
 48
0.01
100
AcDbLine
 10
2864.294285513071
 20
913.8555199385731
 30
0.0
 11
2864.334285513072
 21
913.8555199385731
 31
0.0
  0
LINE
  5
2A3A
330
1F
100
AcDbEntity
  8
1.3. Eskala grafikoa
 48
0.01
100
AcDbLine
 10
2864.294285513071
 20
913.8550461614972
 30
0.0
 11
2864.334285513072
 21
913.855046161497
 31
0.0
  0
MTEXT
  5
2A3B
330
1F
100
AcDbEntity
  8
1.3. Eskala grafikoa
100
AcDbMText
 10
2864.304015769219
 20
913.854196406916
 30
0.0
 40
0.001
 41
0.0010406224438389
 46
0.0
 71
     1
 72
     5
  1
{\fCalibri Light|b0|i0|c0|p34;1}
 73
     1
 44
1.0
  0
MTEXT
  5
2A3C
330
1F
100
AcDbEntity
  8
1.3. Eskala grafikoa
100
AcDbMText
 10
2864.31401576922
 20
913.854196406916
 30
0.0
 40
0.001
 41
0.0010406224438389
 46
0.0
 71
     1
 72
     5
  1
{\fCalibri Light|b0|i0|c0|p34;2}
 73
     1
 44
1.0
  0
MTEXT
  5
2A3D
330
1F
100
AcDbEntity
  8
1.3. Eskala grafikoa
100
AcDbMText
 10
2864.32401576922
 20
913.854196406916
 30
0.0
 40
0.001
 41
0.0010406224438389
 46
0.0
 71
     1
 72
     5
  1
{\fCalibri Light|b0|i0|c0|p34;3}
 73
     1
 44
1.0
  0
MTEXT
  5
2A3E
330
1F
100
AcDbEntity
  8
1.3. Eskala grafikoa
100
AcDbMText
 10
2864.33401576922
 20
913.854196406916
 30
0.0
 40
0.001
 41
0.0010406224438389
 46
0.0
 71
     1
 72
     5
  1
{\fCalibri Light|b0|i0|c0|p34;4m}
 73
     1
 44
1.0
  0
MTEXT
  5
2A3F
330
1F
100
AcDbEntity
  8
1.3. Eskala grafikoa
100
AcDbMText
 10
2864.298449689988
 20
913.854196406916
 30
0.0
 40
0.001
 41
0.0010406224438389
 46
0.0
 71
     1
 72
     5
  1
{\fCalibri Light|b0|i0|c0|p34;0.5}
 73
     1
 44
1.0
  0
HATCH
  5
2A40
330
1F
100
AcDbEntity
  8
1.3. Eskala grafikoa
100
AcDbHatch
 10
0.0
 20
0.0
 30
0.0
210
0.0
220
0.0
230
1.0
  2
SOLID
 70
     1
 71
     0
 91
        1
 92
        5
 93
        4
 72
     1
 10
2864.294285513071
 20
913.8550461614972
 11
2864.294285513071
 21
913.8545723844211
 72
     1
 10
2864.294285513071
 20
913.8545723844211
 11
2864.299285513071
 21
913.8545723844211
 72
     1
 10
2864.299285513071
 20
913.8545723844211
 11
2864.299285513071
 21
913.8550461614972
 72
     1
 10
2864.299285513071
 20
913.8550461614972
 11
2864.294285513071
 21
913.8550461614972
 97
        0
 75
     1
 76
     1
 47
0.0000355507141102
 98
        1
 10
2864.296785513071
 20
913.8548092729591
450
        0
451
        0
460
0.0
461
0.0
452
        0
462
1.0
453
        2
463
0.0
 63
     5
421
      255
463
1.0
 63
     2
421
 16776960
470
LINEAR
1001
GradientColor1ACI
1070
     5
1001
GradientColor2ACI
1070
     2
1001
ACAD
1010
0.0
1020
0.0
1030
0.0
  0
MTEXT
  5
2A41
330
1F
100
AcDbEntity
  8
1.4. Idatzia
100
AcDbMText
 10
2864.342113811957
 20
913.855443893191
 30
0.0
 40
0.002
 41
0.0273770814300611
 46
0.0
 71
     1
 72
     5
  1
{\fCalibri Light|b0|i0|c0|p34;Lokal zk.}
 73
     1
 44
1.0
  0
MTEXT
  5
2A42
330
1F
100
AcDbEntity
  8
1.4. Idatzia
100
AcDbMText
 10
2864.337873081761
 20
913.8731106474299
 30
0.0
 40
0.012
 41
0.0273770814300611
 46
0.0
 71
     1
 72
     5
  1
{\fMicrosoft Sans Serif|b0|i0|c0|p34;44}
 73
     1
 44
1.0
  0
LWPOLYLINE
  5
2A43
330
1F
100
AcDbEntity
  8
1.7. Ventanas Gráficas
100
AcDbPolyline
 90
        4
 70
     1
 43
0.0
 10
2864.158414778733
 20
913.8463381791419
 10
2864.358414778733
 20
913.8463381791419
 10
2864.358414778733
 20
914.1283381791421
 10
2864.158414778733
 20
914.1283381791421
  0
MTEXT
  5
2A44
330
1F
100
AcDbEntity
  8
1.4. Idatzia
100
AcDbMText
 10
2864.250481136421
 20
913.8635054760618
 30
0.0
 40
0.0025
 41
0.1852149973614974
 46
0.0
 71
     1
 72
     5
  1
{\fCalibri Light|b1|i0|c0|p34;Finka zk.\fCalibri Light|b0|i0|c0|p34;: 6068998U}
 73
     1
 44
1.0
  0
LWPOLYLINE
  5
3228
330
1F
100
AcDbEntity
  8
0
 62
     1
100
AcDbPolyline
 90
        4
 70
     1
 43
0.0
 10
2865.152990268143
 20
914.832605090417
 10
2912.532600308189
 20
914.832605090417
 10
2912.532600308189
 20
847.9093292968554
 10
2865.152990268143
 20
847.9093292968554
  0
MTEXT
  5
3229
330
1F
100
AcDbEntity
  8
0
100
AcDbMText
 10
2878.433038211549
 20
894.0673577912448
 30
0.0
 40
3.0
 41
942.7166960848172
 46
0.0
 71
     1
 72
     5
  1
44. Lokala
 73
     1
 44
1.0
1001
ACAD
1000
ACAD_MTEXT_COLUMN_INFO_BEGIN
1070
    75
1070
     2
1070
    79
1070
     0
1070
    76
1070
     1
1070
    78
1070
     0
1070
    48
1040
942.7166960848172
1070
    49
1040
12.5
1070
    50
1070
     1
1040
0.0
1000
ACAD_MTEXT_COLUMN_INFO_END
  0
LINE
  5
322A
102
{ACAD_REACTORS
330
55CF
330
587C
102
}
330
1F
100
AcDbEntity
  8
2.3. Mehelina
100
AcDbLine
 10
2875.95440468793
 20
871.4715316014329
 30
0.0
 11
2876.16440468793
 21
871.4715316014329
 31
0.0
  0
LINE
  5
322B
102
{ACAD_REACTORS
330
55CF
330
587C
102
}
330
1F
100
AcDbEntity
  8
2.3. Mehelina
100
AcDbLine
 10
2876.16440468793
 20
871.4715316014329
 30
0.0
 11
2876.16440468793
 21
870.5915316014326
 31
0.0
  0
LINE
  5
322D
102
{ACAD_REACTORS
330
3563
330
55CF
330
56CC
102
}
330
1F
100
AcDbEntity
  8
2.1. Kanpo Horma
100
AcDbLine
 10
2879.49440468793
 20
870.5915316014328
 30
0.0
 11
2879.49440468793
 21
871.5015316014328
 31
0.0
  0
LINE
  5
322E
102
{ACAD_REACTORS
330
3563
330
55CF
102
}
330
1F
100
AcDbEntity
  8
2.1. Kanpo Horma
100
AcDbLine
 10
2879.49440468793
 20
871.5015316014328
 30
0.0
 11
2880.36440468793
 21
871.5015316014328
 31
0.0
  0
LINE
  5
322F
102
{ACAD_REACTORS
330
3563
330
55CF
102
}
330
1F
100
AcDbEntity
  8
2.1. Kanpo Horma
100
AcDbLine
 10
2880.36440468793
 20
871.5015316014328
 30
0.0
 11
2880.364404687929
 21
870.5915316014328
 31
0.0
  0
LINE
  5
3232
102
{ACAD_REACTORS
330
55CF
102
}
330
1F
100
AcDbEntity
  8
2.2. Barne Horma
100
AcDbLine
 10
2876.224404687931
 20
875.5615316014321
 30
0.0
 11
2877.684404687931
 21
875.5615316014328
 31
0.0
  0
LINE
  5
3234
102
{ACAD_REACTORS
330
55CF
330
587C
330
5A6A
102
}
330
1F
100
AcDbEntity
  8
2.3. Mehelina
100
AcDbLine
 10
2875.95440468793
 20
874.7215316014317
 30
0.0
 11
2875.95440468793
 21
871.4715316014329
 31
0.0
  0
LINE
  5
3235
102
{ACAD_REACTORS
330
55CF
330
587C
102
}
330
1F
100
AcDbEntity
  8
2.3. Mehelina
100
AcDbLine
 10
2875.95440468793
 20
874.7215316014317
 30
0.0
 11
2876.22440468793
 21
874.7215316014317
 31
0.0
  0
LINE
  5
3236
102
{ACAD_REACTORS
330
55CF
330
587C
102
}
330
1F
100
AcDbEntity
  8
2.3. Mehelina
100
AcDbLine
 10
2876.22440468793
 20
874.7215316014317
 30
0.0
 11
2876.22440468793
 21
875.6615316014318
 31
0.0
  0
LINE
  5
3239
102
{ACAD_REACTORS
330
3563
330
55CF
330
5A56
102
}
330
1F
100
AcDbEntity
  8
2.2. Barne Horma
100
AcDbLine
 10
2879.47440468793
 20
875.2915316014325
 30
0.0
 11
2879.47440468793
 21
874.2915316014325
 31
0.0
  0
LINE
  5
323A
330
1F
100
AcDbEntity
  8
2.2. Barne Horma
100
AcDbLine
 10
2876.22440468793
 20
875.661531601432
 30
0.0
 11
2877.58440468793
 21
875.6615316014325
 31
0.0
  0
LINE
  5
323B
102
{ACAD_REACTORS
330
55CF
330
587C
102
}
330
1F
100
AcDbEntity
  8
2.3. Mehelina
100
AcDbLine
 10
2877.584712356198
 20
876.6415316014127
 30
0.0
 11
2880.15440468793
 21
876.6415316014324
 31
0.0
  0
LINE
  5
3242
102
{ACAD_REACTORS
330
587C
102
}
330
1F
100
AcDbEntity
  8
2.3. Mehelina
100
AcDbLine
 10
2875.954404687931
 20
875.6615316014322
 30
0.0
 11
2875.954404687931
 21
876.7415316014327
 31
0.0
  0
LINE
  5
3243
102
{ACAD_REACTORS
330
587C
330
5BCB
102
}
330
1F
100
AcDbEntity
  8
2.3. Mehelina
100
AcDbLine
 10
2875.954404687929
 20
878.2015316014319
 30
0.0
 11
2876.72440468793
 21
878.2015316014323
 31
0.0
  0
LINE
  5
3246
102
{ACAD_REACTORS
330
5B9B
102
}
330
1F
100
AcDbEntity
  8
2.2. Barne Horma
100
AcDbLine
 10
2876.814404687926
 20
876.7415316014332
 30
0.0
 11
2876.814404687929
 21
878.2015316014323
 31
0.0
  0
LINE
  5
3248
102
{ACAD_REACTORS
330
3563
330
55CF
102
}
330
1F
100
AcDbEntity
  8
2.2. Barne Horma
100
AcDbLine
 10
2879.47440468793
 20
875.2915316014325
 30
0.0
 11
2880.47440468793
 21
875.2915316014327
 31
0.0
  0
LINE
  5
3249
102
{ACAD_REACTORS
330
3563
330
55CF
330
5A42
102
}
330
1F
100
AcDbEntity
  8
2.2. Barne Horma
100
AcDbLine
 10
2880.47440468793
 20
875.2915316014327
 30
0.0
 11
2880.47440468793
 21
874.2915316014327
 31
0.0
  0
LINE
  5
324A
102
{ACAD_REACTORS
330
3563
330
55CF
102
}
330
1F
100
AcDbEntity
  8
2.2. Barne Horma
100
AcDbLine
 10
2879.47440468793
 20
874.2915316014325
 30
0.0
 11
2880.47440468793
 21
874.2915316014327
 31
0.0
  0
LINE
  5
324D
102
{ACAD_REACTORS
330
55CF
330
587C
330
5A42
102
}
330
1F
100
AcDbEntity
  8
2.3. Mehelina
100
AcDbLine
 10
2880.15440468793
 20
876.6415316014324
 30
0.0
 11
2880.15440468793
 21
877.8815316014323
 31
0.0
  0
LINE
  5
3251
102
{ACAD_REACTORS
330
55CF
330
587C
102
}
330
1F
100
AcDbEntity
  8
2.3. Mehelina
100
AcDbLine
 10
2880.15440468793
 20
877.8815316014323
 30
0.0
 11
2880.46440468793
 21
877.8815316014323
 31
0.0
  0
LINE
  5
3252
102
{ACAD_REACTORS
330
55CF
330
587C
102
}
330
1F
100
AcDbEntity
  8
2.3. Mehelina
100
AcDbLine
 10
2880.46440468793
 20
877.8815316014323
 30
0.0
 11
2880.46440468793
 21
878.1915316014323
 31
0.0
  0
LINE
  5
3253
102
{ACAD_REACTORS
330
55CF
102
}
330
1F
100
AcDbEntity
  8
2.2. Barne Horma
100
AcDbLine
 10
2880.46440468793
 20
878.1915316014323
 30
0.0
 11
2882.44440468793
 21
878.1915316014323
 31
0.0
  0
LINE
  5
3254
330
1F
100
AcDbEntity
  8
2.2. Barne Horma
100
AcDbLine
 10
2882.44440468793
 20
878.1915316014323
 30
0.0
 11
2882.44440468793
 21
878.2915316014323
 31
0.0
  0
LINE
  5
3255
330
1F
100
AcDbEntity
  8
2.2. Barne Horma
100
AcDbLine
 10
2882.44440468793
 20
878.2915316014323
 30
0.0
 11
2880.46440468793
 21
878.2915316014323
 31
0.0
  0
LINE
  5
3256
102
{ACAD_REACTORS
330
587C
102
}
330
1F
100
AcDbEntity
  8
2.3. Mehelina
100
AcDbLine
 10
2880.464404687929
 20
878.1915316014323
 30
0.0
 11
2880.46440468793
 21
880.7115316014323
 31
0.0
  0
LINE
  5
3257
330
1F
100
AcDbEntity
  8
2.2. Barne Horma
100
AcDbLine
 10
2880.89440468793
 20
880.7115316014321
 30
0.0
 11
2881.754404687931
 21
880.7115316014321
 31
0.0
  0
LINE
  5
3265
102
{ACAD_REACTORS
330
58AA
102
}
330
1F
100
AcDbEntity
  8
2.3. Mehelina
100
AcDbLine
 10
2884.80440468793
 20
878.2915316014323
 30
0.0
 11
2883.73440468793
 21
878.2915316014323
 31
0.0
  0
LINE
  5
3266
102
{ACAD_REACTORS
330
55CF
330
58AA
102
}
330
1F
100
AcDbEntity
  8
2.3. Mehelina
100
AcDbLine
 10
2883.73440468793
 20
878.2915316014323
 30
0.0
 11
2883.73440468793
 21
877.8415316014323
 31
0.0
  0
LINE
  5
3267
102
{ACAD_REACTORS
330
55CF
330
58AA
102
}
330
1F
100
AcDbEntity
  8
2.3. Mehelina
100
AcDbLine
 10
2883.73440468793
 20
877.8415316014323
 30
0.0
 11
2884.80440468793
 21
877.8415316014323
 31
0.0
  0
LINE
  5
3268
102
{ACAD_REACTORS
330
55CF
330
58AA
102
}
330
1F
100
AcDbEntity
  8
2.3. Mehelina
100
AcDbLine
 10
2884.80440468793
 20
877.8415316014323
 30
0.0
 11
2884.80440468793
 21
875.1115316014322
 31
0.0
  0
LINE
  5
3269
102
{ACAD_REACTORS
330
55CF
330
58AA
330
5984
102
}
330
1F
100
AcDbEntity
  8
2.3. Mehelina
100
AcDbLine
 10
2884.80440468793
 20
875.1115316014322
 30
0.0
 11
2884.24440468793
 21
875.1115316014322
 31
0.0
  0
LINE
  5
326A
102
{ACAD_REACTORS
330
55CF
330
58AA
102
}
330
1F
100
AcDbEntity
  8
2.3. Mehelina
100
AcDbLine
 10
2884.24440468793
 20
875.1115316014322
 30
0.0
 11
2884.24440468793
 21
874.2015316014322
 31
0.0
  0
LINE
  5
326B
102
{ACAD_REACTORS
330
55CF
330
58AA
330
5AF5
102
}
330
1F
100
AcDbEntity
  8
2.3. Mehelina
100
AcDbLine
 10
2884.24440468793
 20
874.2015316014322
 30
0.0
 11
2884.80440468793
 21
874.2015316014322
 31
0.0
  0
LINE
  5
326C
102
{ACAD_REACTORS
330
55CF
330
55F7
330
58AA
102
}
330
1F
100
AcDbEntity
  8
2.3. Mehelina
100
AcDbLine
 10
2884.80440468793
 20
874.2015316014322
 30
0.0
 11
2884.804404687931
 21
872.5865316014324
 31
0.0
  0
LINE
  5
326E
102
{ACAD_REACTORS
330
58AA
102
}
330
1F
100
AcDbEntity
  8
2.3. Mehelina
100
AcDbLine
 10
2884.80440468793
 20
878.2915316014323
 30
0.0
 11
2884.80440468793
 21
880.7115316014321
 31
0.0
  0
LINE
  5
326F
330
1F
100
AcDbEntity
  8
2.2. Barne Horma
100
AcDbLine
 10
2882.674404687931
 20
880.7115316014321
 30
0.0
 11
2882.67440468793
 21
880.8115316014321
 31
0.0
  0
LINE
  5
3270
330
1F
100
AcDbEntity
  8
2.2. Barne Horma
100
AcDbLine
 10
2881.754404687931
 20
880.7115316014321
 30
0.0
 11
2881.75440468793
 21
880.8115316014321
 31
0.0
  0
LINE
  5
3271
330
1F
100
AcDbEntity
  8
2.2. Barne Horma
100
AcDbLine
 10
2880.89440468793
 20
880.8115316014323
 30
0.0
 11
2881.754404687931
 21
880.8115316014317
 31
0.0
  0
LINE
  5
3272
330
1F
100
AcDbEntity
  8
2.2. Barne Horma
100
AcDbLine
 10
2882.674404687931
 20
880.7115316014227
 30
0.0
 11
2883.224404687931
 21
880.7115316014323
 31
0.0
  0
LINE
  5
3273
102
{ACAD_REACTORS
330
5938
102
}
330
1F
100
AcDbEntity
  8
2.2. Barne Horma
100
AcDbLine
 10
2882.67440468793
 20
880.8115316014296
 30
0.0
 11
2883.224404687931
 21
880.8115316014323
 31
0.0
  0
LINE
  5
3275
102
{ACAD_REACTORS
330
58AA
330
59CE
102
}
330
1F
100
AcDbEntity
  8
2.3. Mehelina
100
AcDbLine
 10
2883.22440468799
 20
880.7115316014323
 30
0.0
 11
2883.22440468799
 21
884.201531601432
 31
0.0
  0
LINE
  5
3276
102
{ACAD_REACTORS
330
5920
102
}
330
1F
100
AcDbEntity
  8
2.2. Barne Horma
100
AcDbLine
 10
2883.224404687931
 20
884.1015316014321
 30
0.0
 11
2882.114404687931
 21
884.1015316014321
 31
0.0
  0
LINE
  5
3277
102
{ACAD_REACTORS
330
5A16
102
}
330
1F
100
AcDbEntity
  8
2.2. Barne Horma
100
AcDbLine
 10
2882.114404687931
 20
884.1015316014321
 30
0.0
 11
2882.114404687931
 21
884.2015316014322
 31
0.0
  0
LINE
  5
3278
330
1F
100
AcDbEntity
  8
2.2. Barne Horma
100
AcDbLine
 10
2882.114404687931
 20
884.2015316014322
 30
0.0
 11
2883.224404687931
 21
884.2015316014322
 31
0.0
  0
LINE
  5
3279
102
{ACAD_REACTORS
330
58AA
102
}
330
1F
100
AcDbEntity
  8
2.3. Mehelina
100
AcDbLine
 10
2883.224404687931
 20
884.2015316014322
 30
0.0
 11
2883.224404687931
 21
886.0015316014321
 31
0.0
  0
LINE
  5
327A
102
{ACAD_REACTORS
330
58AA
330
58E6
102
}
330
1F
100
AcDbEntity
  8
2.3. Mehelina
100
AcDbLine
 10
2883.224404687931
 20
886.0015316014321
 30
0.0
 11
2880.89440468793
 21
886.0015316014321
 31
0.0
  0
LINE
  5
327B
102
{ACAD_REACTORS
330
587C
102
}
330
1F
100
AcDbEntity
  8
2.1. Kanpo Horma
100
AcDbLine
 10
2880.464404687931
 20
881.5115316014324
 30
0.0
 11
2880.46440468793
 21
884.201531601432
 31
0.0
  0
LINE
  5
3288
330
1F
100
AcDbEntity
  8
2.2. Barne Horma
100
AcDbLine
 10
2881.31440468793
 20
884.1015316014321
 30
0.0
 11
2881.31440468793
 21
884.2015316014322
 31
0.0
  0
LINE
  5
3289
330
1F
100
AcDbEntity
  8
2.2. Barne Horma
100
AcDbLine
 10
2881.31440468793
 20
884.2015316014322
 30
0.0
 11
2880.46440468793
 21
884.201531601432
 31
0.0
  0
LINE
  5
328A
102
{ACAD_REACTORS
330
5A16
102
}
330
1F
100
AcDbEntity
  8
2.2. Barne Horma
100
AcDbLine
 10
2881.31440468793
 20
884.1015316014321
 30
0.0
 11
2880.46440468793
 21
884.1015316014321
 31
0.0
  0
LINE
  5
328B
330
1F
100
AcDbEntity
  8
2.2. Barne Horma
100
AcDbLine
 10
2880.89440468793
 20
886.0015316014321
 30
0.0
 11
2880.89440468793
 21
886.0015316014321
 31
0.0
  0
LINE
  5
328C
102
{ACAD_REACTORS
330
58AA
102
}
330
1F
100
AcDbEntity
  8
2.3. Mehelina
100
AcDbLine
 10
2880.89440468793
 20
886.0015316014321
 30
0.0
 11
2880.89440468793
 21
885.5715316014322
 31
0.0
  0
LINE
  5
328D
102
{ACAD_REACTORS
330
58AA
102
}
330
1F
100
AcDbEntity
  8
2.3. Mehelina
100
AcDbLine
 10
2880.89440468793
 20
885.5715316014322
 30
0.0
 11
2880.46440468793
 21
885.5715316014322
 31
0.0
  0
LINE
  5
329A
102
{ACAD_REACTORS
330
587C
102
}
330
1F
100
AcDbEntity
  8
2.1. Kanpo Horma
100
AcDbLine
 10
2880.46440468793
 20
884.201531601432
 30
0.0
 11
2880.46440468793
 21
884.3505092228133
 31
0.0
  0
LINE
  5
32B3
102
{ACAD_REACTORS
330
58AA
330
58E6
330
5920
330
5938
102
}
330
1F
100
AcDbEntity
  8
2.3. Mehelina
100
AcDbLine
 10
2883.424404687931
 20
880.9115316014262
 30
0.0
 11
2883.42440468793
 21
886.201531601432
 31
0.0
  0
LINE
  5
32B4
102
{ACAD_REACTORS
330
58AA
330
58CE
102
}
330
1F
100
AcDbEntity
  8
2.3. Mehelina
100
AcDbLine
 10
2883.42440468793
 20
886.2015316014321
 30
0.0
 11
2880.46440468793
 21
886.2015316014311
 31
0.0
  0
LINE
  5
32B5
102
{ACAD_REACTORS
330
587C
102
}
330
1F
100
AcDbEntity
  8
2.1. Kanpo Horma
100
AcDbLine
 10
2880.114404687931
 20
880.7115316014323
 30
0.0
 11
2880.114404687931
 21
884.3505092228133
 31
0.0
  0
LINE
  5
32B6
102
{ACAD_REACTORS
330
587C
102
}
330
1F
100
AcDbEntity
  8
2.1. Kanpo Horma
100
AcDbLine
 10
2880.89440468793
 20
880.7115316014321
 30
0.0
 11
2880.89440468793
 21
881.5115316014324
 31
0.0
  0
LINE
  5
32B7
102
{ACAD_REACTORS
330
587C
330
59CE
102
}
330
1F
100
AcDbEntity
  8
2.1. Kanpo Horma
100
AcDbLine
 10
2880.46440468793
 20
881.5115316014324
 30
0.0
 11
2880.89440468793
 21
881.5115316014322
 31
0.0
  0
LINE
  5
32B8
330
1F
100
AcDbEntity
  8
2.1. Kanpo Horma
100
AcDbLine
 10
2880.114404687931
 20
880.7115316014323
 30
0.0
 11
2879.814404687931
 21
880.7115316014323
 31
0.0
  0
LINE
  5
32C5
102
{ACAD_REACTORS
330
58AA
330
58CE
102
}
330
1F
100
AcDbEntity
  8
2.1. Kanpo Horma
100
AcDbLine
 10
2880.46440468793
 20
886.2015316014311
 30
0.0
 11
2880.46440468793
 21
886.5015316014309
 31
0.0
  0
LINE
  5
32C6
102
{ACAD_REACTORS
330
58AA
102
}
330
1F
100
AcDbEntity
  8
2.1. Kanpo Horma
100
AcDbLine
 10
2880.46440468793
 20
886.5015316014309
 30
0.0
 11
2880.11440468793
 21
886.5015316014309
 31
0.0
  0
LWPOLYLINE
  5
32C7
102
{ACAD_REACTORS
330
56A6
330
59FE
102
}
330
1F
100
AcDbEntity
  8
3.1. Atea
100
AcDbPolyline
 90
        6
 70
     0
 43
0.0
 10
2880.46440468793
 20
884.3505092228133
 10
2880.46440468793
 20
884.3755092228134
 10
2880.43940468793
 20
884.3755092228134
 10
2880.43940468793
 20
884.4105092228133
 10
2880.364404687929
 20
884.4105092228133
 10
2880.364404687929
 20
884.3505092228133
  0
LWPOLYLINE
  5
32C8
102
{ACAD_REACTORS
330
56A6
330
59FE
102
}
330
1F
100
AcDbEntity
  8
3.1. Atea
100
AcDbPolyline
 90
        6
 70
     0
 43
0.0
 10
2880.46440468793
 20
885.4105092228133
 10
2880.46440468793
 20
885.3855092228132
 10
2880.43940468793
 20
885.3855092228132
 10
2880.43940468793
 20
885.3505092228132
 10
2880.364404687929
 20
885.3505092228132
 10
2880.364404687929
 20
885.4105092228133
  0
LWPOLYLINE
  5
32C9
102
{ACAD_REACTORS
330
56A6
102
}
330
1F
100
AcDbEntity
  8
3.1. Atea
100
AcDbPolyline
 90
        4
 70
     1
 43
0.0
 10
2881.474404687929
 20
885.360509222813
 10
2881.474404687929
 20
885.3855092228132
 10
2880.46440468793
 20
885.3855092228132
 10
2880.46440468793
 20
885.360509222813
  0
ARC
  5
32CE
102
{ACAD_REACTORS
330
56A6
102
}
330
1F
100
AcDbEntity
  8
3.1. Atea
100
AcDbCircle
 10
2880.464176252318
 20
885.386060715167
 30
0.0
 40
1.010551518172541
100
AcDbArc
 50
270.0129517360603
 51
358.551138974069
  0
LINE
  5
32D0
102
{ACAD_REACTORS
330
56A6
330
58AA
102
}
330
1F
100
AcDbEntity
  8
2.1. Kanpo Horma
100
AcDbLine
 10
2880.46440468793
 20
885.4105092228133
 30
0.0
 11
2880.11440468793
 21
885.4105092228131
 31
0.0
  0
LINE
  5
32D1
102
{ACAD_REACTORS
330
56A6
330
587C
102
}
330
1F
100
AcDbEntity
  8
2.1. Kanpo Horma
100
AcDbLine
 10
2880.46440468793
 20
884.3505092228133
 30
0.0
 11
2880.114404687931
 21
884.3505092228133
 31
0.0
  0
LINE
  5
32D2
102
{ACAD_REACTORS
330
58AA
102
}
330
1F
100
AcDbEntity
  8
2.1. Kanpo Horma
100
AcDbLine
 10
2880.46440468793
 20
885.4105092228131
 30
0.0
 11
2880.46440468793
 21
885.5715316014324
 31
0.0
  0
LINE
  5
32D3
102
{ACAD_REACTORS
330
58AA
102
}
330
1F
100
AcDbEntity
  8
2.1. Kanpo Horma
100
AcDbLine
 10
2880.114404687931
 20
885.4105092228131
 30
0.0
 11
2880.11440468793
 21
886.5015316014309
 31
0.0
  0
LINE
  5
32D4
102
{ACAD_REACTORS
330
56A6
102
}
330
1F
100
AcDbEntity
  8
3.1. Atea
100
AcDbLine
 10
2880.114404687931
 20
885.4105092228131
 30
0.0
 11
2880.114404687931
 21
884.3505092228133
 31
0.0
  0
LWPOLYLINE
  5
32E5
102
{ACAD_REACTORS
330
59E6
102
}
330
1F
100
AcDbEntity
  8
3.1. Atea
100
AcDbPolyline
 90
        6
 70
     0
 43
0.0
 10
2881.75440468793
 20
880.7115316014321
 10
2881.779404687931
 20
880.7115316014321
 10
2881.779404687931
 20
880.7365316014323
 10
2881.81440468793
 20
880.7365316014323
 10
2881.81440468793
 20
880.8115316014321
 10
2881.75440468793
 20
880.8115316014321
  0
LWPOLYLINE
  5
32E6
102
{ACAD_REACTORS
330
59E6
102
}
330
1F
100
AcDbEntity
  8
3.1. Atea
100
AcDbPolyline
 90
        6
 70
     0
 43
0.0
 10
2882.67440468793
 20
880.7115316014321
 10
2882.64940468793
 20
880.7115316014321
 10
2882.64940468793
 20
880.7365316014323
 10
2882.614404687931
 20
880.7365316014323
 10
2882.614404687931
 20
880.8115316014321
 10
2882.67440468793
 20
880.8115316014321
  0
LWPOLYLINE
  5
32E7
330
1F
100
AcDbEntity
  8
3.1. Atea
100
AcDbPolyline
 90
        4
 70
     1
 43
0.0
 10
2882.624404687931
 20
879.8415316014322
 10
2882.64940468793
 20
879.8415316014322
 10
2882.64940468793
 20
880.7115316014321
 10
2882.624404687931
 20
880.7115316014321
  0
ARC
  5
32EC
330
1F
100
AcDbEntity
  8
3.1. Atea
100
AcDbCircle
 10
2882.650049504164
 20
880.7117986930617
 30
0.0
 40
0.8706448572018297
100
AcDbArc
 50
180.0175768836513
 51
268.3121105319328
  0
LWPOLYLINE
  5
3300
102
{ACAD_REACTORS
330
55CF
330
5A2E
102
}
330
1F
100
AcDbEntity
  8
3.1. Atea
100
AcDbPolyline
 90
        6
 70
     0
 43
0.0
 10
2882.44440468793
 20
878.2915316014323
 10
2882.46940468793
 20
878.2915316014323
 10
2882.46940468793
 20
878.2665316014321
 10
2882.50440468793
 20
878.2665316014321
 10
2882.50440468793
 20
878.1915316014323
 10
2882.44440468793
 20
878.1915316014323
  0
LWPOLYLINE
  5
3301
102
{ACAD_REACTORS
330
55CF
330
5A2E
102
}
330
1F
100
AcDbEntity
  8
3.1. Atea
100
AcDbPolyline
 90
        6
 70
     0
 43
0.0
 10
2883.73440468793
 20
878.2915316014323
 10
2883.709404687929
 20
878.2915316014323
 10
2883.709404687929
 20
878.2665316014321
 10
2883.674404687929
 20
878.2665316014321
 10
2883.674404687929
 20
878.1915316014323
 10
2883.73440468793
 20
878.1915316014323
  0
LWPOLYLINE
  5
3302
102
{ACAD_REACTORS
330
55CF
102
}
330
1F
100
AcDbEntity
  8
3.1. Atea
100
AcDbPolyline
 90
        4
 70
     1
 43
0.0
 10
2883.684404687929
 20
879.5315316014317
 10
2883.709404687929
 20
879.5315316014317
 10
2883.709404687929
 20
878.2915316014323
 10
2883.684404687929
 20
878.2915316014323
  0
ARC
  5
3306
102
{ACAD_REACTORS
330
55CF
102
}
330
1F
100
AcDbEntity
  8
3.1. Atea
100
AcDbCircle
 10
2883.709850241191
 20
878.2913470472283
 30
0.0
 40
1.240445566990052
100
AcDbArc
 50
91.17540431814857
 51
179.9914755009806
  0
LINE
  5
331F
102
{ACAD_REACTORS
330
587C
102
}
330
1F
100
AcDbEntity
  8
2.3. Mehelina
100
AcDbLine
 10
2880.26440468793
 20
878.0815316014326
 30
0.0
 11
2880.26440468793
 21
880.4115316014325
 31
0.0
  0
LINE
  5
3320
102
{ACAD_REACTORS
330
587C
102
}
330
1F
100
AcDbEntity
  8
2.3. Mehelina
100
AcDbLine
 10
2879.95440468793
 20
878.0815316014329
 30
0.0
 11
2880.26440468793
 21
878.0815316014326
 31
0.0
  0
LINE
  5
3321
102
{ACAD_REACTORS
330
587C
102
}
330
1F
100
AcDbEntity
  8
2.3. Mehelina
100
AcDbLine
 10
2879.95440468793
 20
876.8415316014323
 30
0.0
 11
2879.954404687932
 21
878.0815316014329
 31
0.0
  0
LINE
  5
3322
102
{ACAD_REACTORS
330
587C
102
}
330
1F
100
AcDbEntity
  8
2.3. Mehelina
100
AcDbLine
 10
2877.784404687929
 20
876.8415316014321
 30
0.0
 11
2879.95440468793
 21
876.8415316014323
 31
0.0
  0
LINE
  5
3323
102
{ACAD_REACTORS
330
587C
102
}
330
1F
100
AcDbEntity
  8
2.1. Kanpo Horma
100
AcDbLine
 10
2880.114404687931
 20
880.411531601433
 30
0.0
 11
2879.814404687931
 21
880.4115316014328
 31
0.0
  0
LINE
  5
3324
102
{ACAD_REACTORS
330
587C
102
}
330
1F
100
AcDbEntity
  8
2.3. Mehelina
100
AcDbLine
 10
2880.114404687931
 20
880.411531601433
 30
0.0
 11
2880.26440468793
 21
880.411531601433
 31
0.0
  0
LINE
  5
3325
102
{ACAD_REACTORS
330
587C
330
5B61
330
5B9B
102
}
330
1F
100
AcDbEntity
  8
2.3. Mehelina
100
AcDbLine
 10
2875.75440468793
 20
878.4015316014333
 30
0.0
 11
2877.784404687929
 21
878.4015316014331
 31
0.0
  0
LINE
  5
3338
330
1F
100
AcDbEntity
  8
2.2. Barne Horma
100
AcDbLine
 10
2877.58440468793
 20
876.5815316014325
 30
0.0
 11
2877.68440468793
 21
876.5815316014325
 31
0.0
  0
LINE
  5
333B
102
{ACAD_REACTORS
330
55CF
330
5A56
102
}
330
1F
100
AcDbEntity
  8
2.2. Barne Horma
100
AcDbLine
 10
2877.684404687931
 20
875.5615316014328
 30
0.0
 11
2877.68440468793
 21
875.7615316014327
 31
0.0
  0
LINE
  5
334B
330
1F
100
AcDbEntity
  8
2.2. Barne Horma
100
AcDbLine
 10
2876.72440468793
 20
878.2015316014323
 30
0.0
 11
2876.72440468793
 21
876.7415316014327
 31
0.0
  0
LINE
  5
336B
102
{ACAD_REACTORS
330
587C
102
}
330
1F
100
AcDbEntity
  8
2.3. Mehelina
100
AcDbLine
 10
2876.72440468793
 20
878.201531601433
 30
0.0
 11
2877.58440468793
 21
878.2015316014327
 31
0.0
  0
LINE
  5
3378
102
{ACAD_REACTORS
330
587C
102
}
330
1F
100
AcDbEntity
  8
2.1. Kanpo Horma
100
AcDbLine
 10
2875.454404687929
 20
870.5915316014326
 30
0.0
 11
2876.16440468793
 21
870.5915316014328
 31
0.0
  0
LINE
  5
3379
102
{ACAD_REACTORS
330
58AA
330
5950
330
5984
330
5ADD
330
5AF5
102
}
330
1F
100
AcDbEntity
  8
2.3. Mehelina
100
AcDbLine
 10
2885.00440468793
 20
870.9415316014329
 30
0.0
 11
2885.00440468793
 21
880.9115316014326
 31
0.0
  0
LINE
  5
337A
102
{ACAD_REACTORS
330
58AA
102
}
330
1F
100
AcDbEntity
  8
2.3. Mehelina
100
AcDbLine
 10
2883.42440468793
 20
880.9115316014263
 30
0.0
 11
2885.00440468793
 21
880.9115316014326
 31
0.0
  0
LINE
  5
337B
102
{ACAD_REACTORS
330
58AA
102
}
330
1F
100
AcDbEntity
  8
2.3. Mehelina
100
AcDbLine
 10
2883.224404687931
 20
880.7115316014323
 30
0.0
 11
2884.80440468793
 21
880.7115316014321
 31
0.0
  0
LINE
  5
3388
102
{ACAD_REACTORS
330
587C
330
5BB3
330
5BCB
102
}
330
1F
100
AcDbEntity
  8
2.3. Mehelina
100
AcDbLine
 10
2875.75440468793
 20
878.4015316014333
 30
0.0
 11
2875.754404687929
 21
870.9415316014327
 31
0.0
  0
LINE
  5
3389
102
{ACAD_REACTORS
330
587C
102
}
330
1F
100
AcDbEntity
  8
2.1. Kanpo Horma
100
AcDbLine
 10
2875.454404687929
 20
870.5915316014326
 30
0.0
 11
2875.454404687929
 21
870.9415316014327
 31
0.0
  0
LINE
  5
338A
102
{ACAD_REACTORS
330
587C
102
}
330
1F
100
AcDbEntity
  8
2.1. Kanpo Horma
100
AcDbLine
 10
2875.454404687929
 20
870.9415316014327
 30
0.0
 11
2875.754404687929
 21
870.9415316014327
 31
0.0
  0
LINE
  5
3397
102
{ACAD_REACTORS
330
587C
102
}
330
1F
100
AcDbEntity
  8
2.1. Kanpo Horma
100
AcDbLine
 10
2880.114404687931
 20
880.7115316014323
 30
0.0
 11
2879.814404687931
 21
880.7115316014323
 31
0.0
  0
LINE
  5
3398
102
{ACAD_REACTORS
330
587C
102
}
330
1F
100
AcDbEntity
  8
2.1. Kanpo Horma
100
AcDbLine
 10
2879.814404687931
 20
880.7115316014323
 30
0.0
 11
2879.814404687931
 21
880.411531601433
 31
0.0
  0
LINE
  5
33A6
102
{ACAD_REACTORS
330
55CF
102
}
330
1F
100
AcDbEntity
  8
3.2. Leihoa
100
AcDbLine
 10
2884.804404687931
 20
872.7215316014321
 30
0.0
 11
2883.179404687929
 21
872.7215316014321
 31
0.0
  0
LINE
  5
33A7
102
{ACAD_REACTORS
330
55F7
102
}
330
1F
100
AcDbEntity
  8
3.2. Leihoa
100
AcDbLine
 10
2883.179404687929
 20
872.6565316014319
 30
0.0
 11
2884.804404687931
 21
872.6565316014323
 31
0.0
  0
LINE
  5
33A8
330
1F
100
AcDbEntity
  8
3.2. Leihoa
100
AcDbLine
 10
2884.75440468793
 20
872.6715316014322
 30
0.0
 11
2883.22940468793
 21
872.671531601432
 31
0.0
  0
LINE
  5
33A9
330
1F
100
AcDbEntity
  8
3.2. Leihoa
100
AcDbLine
 10
2884.75440468793
 20
872.6565316014323
 30
0.0
 11
2884.75440468793
 21
872.7215316014321
 31
0.0
  0
LINE
  5
33AA
330
1F
100
AcDbEntity
  8
3.2. Leihoa
100
AcDbLine
 10
2884.71440468793
 20
872.6715316014322
 30
0.0
 11
2884.71440468793
 21
872.7215316014321
 31
0.0
  0
LINE
  5
33AB
330
1F
100
AcDbEntity
  8
3.2. Leihoa
100
AcDbLine
 10
2884.71440468793
 20
872.6965316014323
 30
0.0
 11
2884.03190468793
 21
872.6965316014323
 31
0.0
  0
LINE
  5
33AC
102
{ACAD_REACTORS
330
55F7
330
58AA
102
}
330
1F
100
AcDbEntity
  8
2.3. Mehelina
100
AcDbLine
 10
2884.804404687931
 20
872.5865316014324
 30
0.0
 11
2884.804404687931
 21
871.6415316014318
 31
0.0
  0
LINE
  5
33AF
102
{ACAD_REACTORS
330
3563
102
}
330
1F
100
AcDbEntity
  8
2.1. Kanpo Horma
100
AcDbLine
 10
2879.494404687929
 20
870.591531601433
 30
0.0
 11
2880.364404687929
 21
870.591531601433
 31
0.0
  0
LINE
  5
33B0
102
{ACAD_REACTORS
330
55CF
102
}
330
1F
100
AcDbEntity
  8
3.2. Leihoa
100
AcDbLine
 10
2879.49440468793
 20
870.9415316014329
 30
0.0
 11
2876.16440468793
 21
870.9415316014329
 31
0.0
  0
LINE
  5
33B1
330
1F
100
AcDbEntity
  8
3.2. Leihoa
100
AcDbLine
 10
2876.16440468793
 20
870.8765316014325
 30
0.0
 11
2879.49440468793
 21
870.8765316014329
 31
0.0
  0
LINE
  5
33B2
330
1F
100
AcDbEntity
  8
3.2. Leihoa
100
AcDbLine
 10
2879.44440468793
 20
870.8915316014328
 30
0.0
 11
2876.21440468793
 21
870.8915316014326
 31
0.0
  0
LINE
  5
33B3
330
1F
100
AcDbEntity
  8
3.2. Leihoa
100
AcDbLine
 10
2879.44440468793
 20
870.8765316014329
 30
0.0
 11
2879.44440468793
 21
870.9415316014329
 31
0.0
  0
LINE
  5
33B4
330
1F
100
AcDbEntity
  8
3.2. Leihoa
100
AcDbLine
 10
2879.40440468793
 20
870.8915316014328
 30
0.0
 11
2879.40440468793
 21
870.9415316014329
 31
0.0
  0
LINE
  5
33B5
330
1F
100
AcDbEntity
  8
3.2. Leihoa
100
AcDbLine
 10
2879.40440468793
 20
870.9165316014329
 30
0.0
 11
2876.25440468793
 21
870.9165316014329
 31
0.0
  0
LINE
  5
33B6
330
1F
100
AcDbEntity
  8
3.2. Leihoa
100
AcDbLine
 10
2876.21440468793
 20
870.8765316014329
 30
0.0
 11
2876.21440468793
 21
870.9415316014329
 31
0.0
  0
LINE
  5
33B7
330
1F
100
AcDbEntity
  8
3.2. Leihoa
100
AcDbLine
 10
2876.25440468793
 20
870.8915316014328
 30
0.0
 11
2876.25440468793
 21
870.9415316014329
 31
0.0
  0
LINE
  5
33B8
102
{ACAD_REACTORS
330
56CC
330
572C
102
}
330
1F
100
AcDbEntity
  8
3.2. Leihoa
100
AcDbLine
 10
2876.16440468793
 20
870.5915316014326
 30
0.0
 11
2879.494404687929
 21
870.591531601433
 31
0.0
  0
LINE
  5
33B9
102
{ACAD_REACTORS
330
58AA
330
5AC5
102
}
330
1F
100
AcDbEntity
  8
2.1. Kanpo Horma
100
AcDbLine
 10
2884.804404687931
 20
870.591531601433
 30
0.0
 11
2885.1903178634
 21
870.591531601433
 31
0.0
  0
LINE
  5
33BB
102
{ACAD_REACTORS
330
56E4
102
}
330
1F
100
AcDbEntity
  8
3.2. Leihoa
100
AcDbLine
 10
2880.364404687929
 20
870.5915316014328
 30
0.0
 11
2882.27940468793
 21
870.5915316014305
 31
0.0
  0
LINE
  5
33BC
102
{ACAD_REACTORS
330
55CF
102
}
330
1F
100
AcDbEntity
  8
3.2. Leihoa
100
AcDbLine
 10
2882.244404687931
 20
870.9415316014309
 30
0.0
 11
2880.364404687929
 21
870.9415316014309
 31
0.0
  0
LINE
  5
33BD
330
1F
100
AcDbEntity
  8
3.2. Leihoa
100
AcDbLine
 10
2880.364404687929
 20
870.8765316014305
 30
0.0
 11
2882.27940468793
 21
870.8765316014309
 31
0.0
  0
LINE
  5
33BE
330
1F
100
AcDbEntity
  8
3.2. Leihoa
100
AcDbLine
 10
2882.17940468793
 20
870.8915316014307
 30
0.0
 11
2880.41440468793
 21
870.8915316014307
 31
0.0
  0
LINE
  5
33BF
330
1F
100
AcDbEntity
  8
3.2. Leihoa
100
AcDbLine
 10
2880.41440468793
 20
870.8765316014309
 30
0.0
 11
2880.41440468793
 21
870.9415316014307
 31
0.0
  0
LINE
  5
33C0
330
1F
100
AcDbEntity
  8
3.2. Leihoa
100
AcDbLine
 10
2880.45440468793
 20
870.8915316014309
 30
0.0
 11
2880.45440468793
 21
870.9415316014307
 31
0.0
  0
LINE
  5
33C1
330
1F
100
AcDbEntity
  8
3.2. Leihoa
100
AcDbLine
 10
2882.17940468793
 20
870.8765316014337
 30
0.0
 11
2882.17940468793
 21
870.9415316014338
 31
0.0
  0
LINE
  5
33C2
330
1F
100
AcDbEntity
  8
3.2. Leihoa
100
AcDbLine
 10
2882.13940468793
 20
870.8915316014339
 30
0.0
 11
2882.13940468793
 21
870.9415316014338
 31
0.0
  0
LINE
  5
33EB
330
1F
100
AcDbEntity
  8
5.1. Komuneko altzaria
100
AcDbLine
 10
2876.31440468793
 20
877.571531601432
 30
0.0
 11
2876.19440468793
 21
877.571531601432
 31
0.0
  0
ARC
  5
33EC
330
1F
100
AcDbEntity
  8
5.1. Komuneko altzaria
100
AcDbCircle
 10
2876.21940468793
 20
877.6465316014322
 30
0.0
 40
0.05
100
AcDbArc
 50
180.0
 51
270.0
  0
LINE
  5
33ED
330
1F
100
AcDbEntity
  8
5.1. Komuneko altzaria
100
AcDbLine
 10
2876.11440468793
 20
878.1915316014321
 30
0.0
 11
2876.51440468793
 21
878.1915316014321
 31
0.0
  0
LINE
  5
33EE
330
1F
100
AcDbEntity
  8
5.1. Komuneko altzaria
100
AcDbLine
 10
2876.51440468793
 20
878.0615316014321
 30
0.0
 11
2876.11440468793
 21
878.0615316014321
 31
0.0
  0
LINE
  5
33EF
330
1F
100
AcDbEntity
  8
5.1. Komuneko altzaria
100
AcDbLine
 10
2876.48440468793
 20
877.6215316014321
 30
0.0
 11
2876.48440468793
 21
878.0615316014321
 31
0.0
  0
LINE
  5
33F0
330
1F
100
AcDbEntity
  8
5.1. Komuneko altzaria
100
AcDbLine
 10
2876.45940468793
 20
877.6465316014322
 30
0.0
 11
2876.45940468793
 21
878.0615316014321
 31
0.0
  0
LINE
  5
33F1
330
1F
100
AcDbEntity
  8
5.1. Komuneko altzaria
100
AcDbLine
 10
2876.51440468793
 20
878.1915316014321
 30
0.0
 11
2876.51440468793
 21
878.0615316014321
 31
0.0
  0
ARC
  5
33F2
330
1F
100
AcDbEntity
  8
5.1. Komuneko altzaria
100
AcDbCircle
 10
2876.43440468793
 20
877.6215316014321
 30
0.0
 40
0.05
100
AcDbArc
 50
270.0
 51
0.0
  0
LINE
  5
33F3
330
1F
100
AcDbEntity
  8
5.1. Komuneko altzaria
100
AcDbLine
 10
2876.31440468793
 20
877.571531601432
 30
0.0
 11
2876.43440468793
 21
877.571531601432
 31
0.0
  0
LINE
  5
33F4
330
1F
100
AcDbEntity
  8
5.1. Komuneko altzaria
100
AcDbLine
 10
2876.31440468793
 20
877.5965316014319
 30
0.0
 11
2876.21940468793
 21
877.5965316014319
 31
0.0
  0
ARC
  5
33F5
330
1F
100
AcDbEntity
  8
5.1. Komuneko altzaria
100
AcDbCircle
 10
2876.40940468793
 20
877.6465316014322
 30
0.0
 40
0.05
100
AcDbArc
 50
270.0
 51
0.0
  0
LINE
  5
33F6
330
1F
100
AcDbEntity
  8
5.1. Komuneko altzaria
100
AcDbLine
 10
2876.31440468793
 20
877.5965316014319
 30
0.0
 11
2876.40940468793
 21
877.5965316014319
 31
0.0
  0
LINE
  5
33F7
330
1F
100
AcDbEntity
  8
5.1. Komuneko altzaria
100
AcDbLine
 10
2876.14440468793
 20
877.6215316014321
 30
0.0
 11
2876.14440468793
 21
878.0615316014321
 31
0.0
  0
LINE
  5
33F8
330
1F
100
AcDbEntity
  8
5.1. Komuneko altzaria
100
AcDbLine
 10
2876.16940468793
 20
877.6465316014322
 30
0.0
 11
2876.16940468793
 21
878.0615316014321
 31
0.0
  0
LINE
  5
33F9
330
1F
100
AcDbEntity
  8
5.1. Komuneko altzaria
100
AcDbLine
 10
2876.11440468793
 20
878.0615316014321
 30
0.0
 11
2876.11440468793
 21
878.1915316014321
 31
0.0
  0
ARC
  5
33FA
330
1F
100
AcDbEntity
  8
5.1. Komuneko altzaria
100
AcDbCircle
 10
2876.19440468793
 20
877.6215316014321
 30
0.0
 40
0.05
100
AcDbArc
 50
180.0
 51
270.0
  0
LINE
  5
33FB
330
1F
100
AcDbEntity
  8
5.1. Komuneko altzaria
100
AcDbLine
 10
2877.17440468793
 20
877.5715316014325
 30
0.0
 11
2877.29440468793
 21
877.5715316014325
 31
0.0
  0
ARC
  5
33FC
330
1F
100
AcDbEntity
  8
5.1. Komuneko altzaria
100
AcDbCircle
 10
2877.26940468793
 20
877.6465316014324
 30
0.0
 40
0.05
100
AcDbArc
 50
270.0
 51
0.0000000000000071
  0
LINE
  5
33FD
330
1F
100
AcDbEntity
  8
5.1. Komuneko altzaria
100
AcDbLine
 10
2877.37440468793
 20
878.1915316014325
 30
0.0
 11
2876.97440468793
 21
878.1915316014325
 31
0.0
  0
LINE
  5
33FE
330
1F
100
AcDbEntity
  8
5.1. Komuneko altzaria
100
AcDbLine
 10
2876.97440468793
 20
878.0615316014324
 30
0.0
 11
2877.37440468793
 21
878.0615316014324
 31
0.0
  0
LINE
  5
33FF
330
1F
100
AcDbEntity
  8
5.1. Komuneko altzaria
100
AcDbLine
 10
2877.00440468793
 20
877.6215316014324
 30
0.0
 11
2877.00440468793
 21
878.0615316014324
 31
0.0
  0
LINE
  5
3400
330
1F
100
AcDbEntity
  8
5.1. Komuneko altzaria
100
AcDbLine
 10
2877.02940468793
 20
877.6465316014324
 30
0.0
 11
2877.02940468793
 21
878.0615316014324
 31
0.0
  0
LINE
  5
3401
330
1F
100
AcDbEntity
  8
5.1. Komuneko altzaria
100
AcDbLine
 10
2876.97440468793
 20
878.1915316014325
 30
0.0
 11
2876.97440468793
 21
878.0615316014324
 31
0.0
  0
ARC
  5
3402
330
1F
100
AcDbEntity
  8
5.1. Komuneko altzaria
100
AcDbCircle
 10
2877.05440468793
 20
877.6215316014324
 30
0.0
 40
0.05
100
AcDbArc
 50
180.0
 51
270.0
  0
LINE
  5
3403
330
1F
100
AcDbEntity
  8
5.1. Komuneko altzaria
100
AcDbLine
 10
2877.17440468793
 20
877.5715316014325
 30
0.0
 11
2877.05440468793
 21
877.5715316014325
 31
0.0
  0
LINE
  5
3404
330
1F
100
AcDbEntity
  8
5.1. Komuneko altzaria
100
AcDbLine
 10
2877.17440468793
 20
877.5965316014323
 30
0.0
 11
2877.26940468793
 21
877.5965316014323
 31
0.0
  0
ARC
  5
3405
330
1F
100
AcDbEntity
  8
5.1. Komuneko altzaria
100
AcDbCircle
 10
2877.079404687929
 20
877.6465316014324
 30
0.0
 40
0.05
100
AcDbArc
 50
180.0
 51
270.0
  0
LINE
  5
3406
330
1F
100
AcDbEntity
  8
5.1. Komuneko altzaria
100
AcDbLine
 10
2877.17440468793
 20
877.5965316014323
 30
0.0
 11
2877.079404687929
 21
877.5965316014323
 31
0.0
  0
LINE
  5
3407
330
1F
100
AcDbEntity
  8
5.1. Komuneko altzaria
100
AcDbLine
 10
2877.34440468793
 20
877.6215316014324
 30
0.0
 11
2877.34440468793
 21
878.0615316014324
 31
0.0
  0
LINE
  5
3408
330
1F
100
AcDbEntity
  8
5.1. Komuneko altzaria
100
AcDbLine
 10
2877.31940468793
 20
877.6465316014324
 30
0.0
 11
2877.31940468793
 21
878.0615316014324
 31
0.0
  0
LINE
  5
3409
330
1F
100
AcDbEntity
  8
5.1. Komuneko altzaria
100
AcDbLine
 10
2877.37440468793
 20
878.0615316014324
 30
0.0
 11
2877.37440468793
 21
878.1915316014325
 31
0.0
  0
ARC
  5
340A
330
1F
100
AcDbEntity
  8
5.1. Komuneko altzaria
100
AcDbCircle
 10
2877.29440468793
 20
877.6215316014324
 30
0.0
 40
0.05
100
AcDbArc
 50
270.0
 51
0.0000000000000071
  0
LINE
  5
340B
330
1F
100
AcDbEntity
  8
5.1. Komuneko altzaria
100
AcDbLine
 10
2876.464404687931
 20
875.8515316014321
 30
0.0
 11
2876.464404687931
 21
876.4515316014319
 31
0.0
  0
LINE
  5
340C
330
1F
100
AcDbEntity
  8
5.1. Komuneko altzaria
100
AcDbLine
 10
2875.96440468793
 20
875.8515316014321
 30
0.0
 11
2875.96440468793
 21
876.4515316014319
 31
0.0
  0
LINE
  5
340D
330
1F
100
AcDbEntity
  8
5.1. Komuneko altzaria
100
AcDbLine
 10
2876.464404687931
 20
876.4515316014319
 30
0.0
 11
2875.96440468793
 21
876.4515316014323
 31
0.0
  0
LINE
  5
340E
330
1F
100
AcDbEntity
  8
5.1. Komuneko altzaria
100
AcDbLine
 10
2876.46440468793
 20
875.8515316014321
 30
0.0
 11
2875.96440468793
 21
875.851531601433
 31
0.0
  0
LWPOLYLINE
  5
340F
330
1F
100
AcDbEntity
  8
5.1. Komuneko altzaria
100
AcDbPolyline
 90
        6
 70
     0
 43
0.0
 10
2876.099738642794
 20
876.1414029889731
 10
2876.099738642794
 20
875.9015316014322
 10
2876.41440468793
 20
875.9015316014322
 10
2876.41440468793
 20
876.4015316014322
 10
2876.099738642794
 20
876.4015316014322
 10
2876.099738642794
 20
876.1616602138913
  0
LWPOLYLINE
  5
3410
330
1F
100
AcDbEntity
  8
5.1. Komuneko altzaria
100
AcDbPolyline
 90
        4
 70
     1
 43
0.0
 10
2876.00785352751
 20
876.1414029889731
 10
2876.00785352751
 20
876.1616602138913
 10
2876.191623758077
 20
876.1616602138913
 10
2876.191623758077
 20
876.1414029889731
  0
LWPOLYLINE
  5
3411
330
1F
100
AcDbEntity
  8
5.1. Komuneko altzaria
100
AcDbPolyline
 90
        4
 70
     1
 43
0.0
 10
2876.021748472563
 20
876.1388461731469
 10
2876.021748472563
 20
876.0869965804742
 10
2876.073539690546
 20
876.0869965804742
 10
2876.073539690546
 20
876.1388461731469
  0
LWPOLYLINE
  5
3412
330
1F
100
AcDbEntity
  8
5.1. Komuneko altzaria
100
AcDbPolyline
 90
        4
 70
     1
 43
0.0
 10
2876.073539690546
 20
876.1637341306512
 10
2876.073539690546
 20
876.2218057126998
 10
2876.021748472563
 20
876.2218057126998
 10
2876.021748472563
 20
876.1637341306512
  0
CIRCLE
  5
3413
330
1F
100
AcDbEntity
  8
5.1. Komuneko altzaria
100
AcDbCircle
 10
2876.246803433423
 20
876.154088417258
 30
0.0
 40
0.0183990299208858
  0
LINE
  5
342E
102
{ACAD_REACTORS
330
55CF
102
}
330
1F
100
AcDbEntity
  8
3.2. Leihoa
100
AcDbLine
 10
2882.179404687929
 20
871.6415316014318
 30
0.0
 11
2882.17940468793
 21
870.9415316014338
 31
0.0
  0
LINE
  5
342F
330
1F
100
AcDbEntity
  8
3.2. Leihoa
100
AcDbLine
 10
2882.24440468793
 20
870.8765316014307
 30
0.0
 11
2882.24440468793
 21
871.5415316014324
 31
0.0
  0
LINE
  5
3430
330
1F
100
AcDbEntity
  8
3.2. Leihoa
100
AcDbLine
 10
2882.22940468793
 20
871.4915316014302
 30
0.0
 11
2882.22940468793
 21
870.991531601434
 31
0.0
  0
LINE
  5
3433
330
1F
100
AcDbEntity
  8
3.2. Leihoa
100
AcDbLine
 10
2882.244404687927
 20
870.9915316014329
 30
0.0
 11
2882.179404687927
 21
870.9915316014329
 31
0.0
  0
LINE
  5
3434
330
1F
100
AcDbEntity
  8
3.2. Leihoa
100
AcDbLine
 10
2882.229404687926
 20
871.031531601433
 30
0.0
 11
2882.179404687927
 21
871.031531601433
 31
0.0
  0
LINE
  5
3435
102
{ACAD_REACTORS
330
55F7
102
}
330
1F
100
AcDbEntity
  8
3.2. Leihoa
100
AcDbLine
 10
2882.27940468793
 20
870.5915316014305
 30
0.0
 11
2882.27940468793
 21
870.8765316014309
 31
0.0
  0
LINE
  5
3456
102
{ACAD_REACTORS
330
58AA
102
}
330
1F
100
AcDbEntity
  8
2.3. Mehelina
100
AcDbLine
 10
2884.704404687931
 20
871.541531601432
 30
0.0
 11
2884.70440468793
 21
871.641531601432
 31
0.0
  0
LINE
  5
3457
330
1F
100
AcDbEntity
  8
3.1. Atea
100
AcDbLine
 10
2883.734404687931
 20
871.541531601432
 30
0.0
 11
2883.734404687931
 21
871.641531601432
 31
0.0
  0
LWPOLYLINE
  5
3458
102
{ACAD_REACTORS
330
55F7
330
56FC
102
}
330
1F
100
AcDbEntity
  8
3.1. Atea
100
AcDbPolyline
 90
        6
 70
     0
 43
0.0
 10
2883.734404687931
 20
871.541531601432
 10
2883.759404687931
 20
871.541531601432
 10
2883.759404687931
 20
871.5665316014321
 10
2883.794404687931
 20
871.5665316014321
 10
2883.794404687931
 20
871.6415316014321
 10
2883.734404687931
 20
871.6415316014321
  0
LWPOLYLINE
  5
3459
102
{ACAD_REACTORS
330
55F7
330
56FC
102
}
330
1F
100
AcDbEntity
  8
3.1. Atea
100
AcDbPolyline
 90
        6
 70
     0
 43
0.0
 10
2884.70440468793
 20
871.541531601432
 10
2884.679404687931
 20
871.541531601432
 10
2884.679404687931
 20
871.5665316014321
 10
2884.644404687931
 20
871.5665316014321
 10
2884.644404687931
 20
871.6415316014321
 10
2884.70440468793
 20
871.6415316014321
  0
LWPOLYLINE
  5
345A
102
{ACAD_REACTORS
330
55F7
102
}
330
1F
100
AcDbEntity
  8
3.1. Atea
100
AcDbPolyline
 90
        4
 70
     1
 43
0.0
 10
2884.65440468793
 20
870.6215316014324
 10
2884.679404687931
 20
870.6215316014324
 10
2884.679404687931
 20
871.541531601432
 10
2884.65440468793
 20
871.541531601432
  0
ARC
  5
345E
102
{ACAD_REACTORS
330
55F7
102
}
330
1F
100
AcDbEntity
  8
3.1. Atea
100
AcDbCircle
 10
2884.680004203822
 20
871.541775152218
 30
0.0
 40
0.9205995481078515
100
AcDbArc
 50
180.0151579829954
 51
268.4065456967056
  0
LINE
  5
3460
102
{ACAD_REACTORS
330
55F7
330
58AA
102
}
330
1F
100
AcDbEntity
  8
2.3. Mehelina
100
AcDbLine
 10
2884.70440468793
 20
871.541531601432
 30
0.0
 11
2884.804404687931
 21
871.541531601432
 31
0.0
  0
LINE
  5
3461
102
{ACAD_REACTORS
330
55F7
330
58AA
330
5ADD
102
}
330
1F
100
AcDbEntity
  8
2.3. Mehelina
100
AcDbLine
 10
2884.70440468793
 20
871.641531601432
 30
0.0
 11
2884.804404687931
 21
871.641531601432
 31
0.0
  0
LINE
  5
3462
102
{ACAD_REACTORS
330
58AA
102
}
330
1F
100
AcDbEntity
  8
2.1. Kanpo Horma
100
AcDbLine
 10
2885.004404687929
 20
870.9415316014332
 30
0.0
 11
2885.190317863399
 21
870.9415316014332
 31
0.0
  0
LINE
  5
3463
102
{ACAD_REACTORS
330
55F7
330
58AA
102
}
330
1F
100
AcDbEntity
  8
2.1. Kanpo Horma
100
AcDbLine
 10
2884.804404687931
 20
870.591531601433
 30
0.0
 11
2884.80440468793
 21
870.9415316014329
 31
0.0
  0
LINE
  5
3464
102
{ACAD_REACTORS
330
55F7
330
58AA
102
}
330
1F
100
AcDbEntity
  8
2.3. Mehelina
100
AcDbLine
 10
2884.804404687931
 20
871.541531601432
 30
0.0
 11
2884.80440468793
 21
870.9415316014329
 31
0.0
  0
LINE
  5
3471
102
{ACAD_REACTORS
330
55F7
102
}
330
1F
100
AcDbEntity
  8
3.1. Atea
100
AcDbLine
 10
2883.734404687931
 20
871.641531601432
 30
0.0
 11
2882.179404687929
 21
871.6415316014318
 31
0.0
  0
LINE
  5
3472
330
1F
100
AcDbEntity
  8
3.1. Atea
100
AcDbLine
 10
2882.27940468793
 20
871.5765316014318
 30
0.0
 11
2883.734404687931
 21
871.5765316014318
 31
0.0
  0
LINE
  5
3473
330
1F
100
AcDbEntity
  8
3.2. Leihoa
100
AcDbLine
 10
2883.66940468793
 20
871.5915316014317
 30
0.0
 11
2882.34440468793
 21
871.5915316014315
 31
0.0
  0
LINE
  5
3474
330
1F
100
AcDbEntity
  8
3.2. Leihoa
100
AcDbLine
 10
2883.66940468793
 20
871.576531601435
 30
0.0
 11
2883.66940468793
 21
871.6415316014348
 31
0.0
  0
LINE
  5
3475
330
1F
100
AcDbEntity
  8
3.2. Leihoa
100
AcDbLine
 10
2883.629404687931
 20
871.5915316014349
 30
0.0
 11
2883.629404687931
 21
871.6415316014348
 31
0.0
  0
LINE
  5
3476
102
{ACAD_REACTORS
330
55F7
102
}
330
1F
100
AcDbEntity
  8
3.2. Leihoa
100
AcDbLine
 10
2883.734404687931
 20
871.541531601432
 30
0.0
 11
2882.17940468793
 21
871.5415316014324
 31
0.0
  0
LINE
  5
3477
102
{ACAD_REACTORS
330
55F7
330
56E4
330
572C
102
}
330
1F
100
AcDbEntity
  8
2.6. Zorua
100
AcDbLine
 10
2882.27940468793
 20
870.5915316014305
 30
0.0
 11
2884.804404687931
 21
870.591531601433
 31
0.0
  0
LINE
  5
3485
330
1F
100
AcDbEntity
  8
3.1. Atea
100
AcDbLine
 10
2882.27940468793
 20
871.6415316014332
 30
0.0
 11
2882.179404687929
 21
871.6415316014327
 31
0.0
  0
LWPOLYLINE
  5
3486
102
{ACAD_REACTORS
330
55CF
330
55F7
330
5714
102
}
330
1F
100
AcDbEntity
  8
3.1. Atea
100
AcDbPolyline
 90
        6
 70
     0
 43
0.0
 10
2882.27940468793
 20
871.6415316014327
 10
2882.27940468793
 20
871.6665316014328
 10
2882.254404687929
 20
871.6665316014328
 10
2882.254404687929
 20
871.7015316014325
 10
2882.179404687929
 20
871.7015316014325
 10
2882.179404687929
 20
871.6415316014327
  0
LWPOLYLINE
  5
3487
102
{ACAD_REACTORS
330
55CF
330
55F7
330
5714
102
}
330
1F
100
AcDbEntity
  8
3.1. Atea
100
AcDbPolyline
 90
        6
 70
     0
 43
0.0
 10
2882.27940468793
 20
872.6115316014325
 10
2882.27940468793
 20
872.5865316014324
 10
2882.254404687929
 20
872.5865316014324
 10
2882.254404687929
 20
872.5515316014325
 10
2882.179404687929
 20
872.5515316014325
 10
2882.179404687929
 20
872.6115316014325
  0
LWPOLYLINE
  5
3488
102
{ACAD_REACTORS
330
55CF
330
55F7
102
}
330
1F
100
AcDbEntity
  8
3.1. Atea
100
AcDbPolyline
 90
        4
 70
     1
 43
0.0
 10
2883.199404687929
 20
872.5615316014323
 10
2883.199404687929
 20
872.5865316014324
 10
2882.27940468793
 20
872.5865316014324
 10
2882.27940468793
 20
872.5615316014323
  0
ARC
  5
3489
102
{ACAD_REACTORS
330
55CF
330
55F7
102
}
330
1F
100
AcDbEntity
  8
3.1. Atea
100
AcDbCircle
 10
2882.279161137143
 20
872.5871311173241
 30
0.0
 40
0.9205995481078515
100
AcDbArc
 50
270.0151579830052
 51
358.4065456967079
  0
LINE
  5
348C
330
1F
100
AcDbEntity
  8
3.2. Leihoa
100
AcDbLine
 10
2882.27940468793
 20
871.6415316014332
 30
0.0
 11
2882.27940468793
 21
871.5415316014324
 31
0.0
  0
LINE
  5
348E
330
1F
100
AcDbEntity
  8
3.2. Leihoa
100
AcDbLine
 10
2882.34440468793
 20
871.576531601435
 30
0.0
 11
2882.34440468793
 21
871.6415316014348
 31
0.0
  0
LINE
  5
348F
330
1F
100
AcDbEntity
  8
3.2. Leihoa
100
AcDbLine
 10
2882.384404687929
 20
871.5915316014349
 30
0.0
 11
2882.384404687929
 21
871.6415316014348
 31
0.0
  0
LINE
  5
3490
330
1F
100
AcDbEntity
  8
3.2. Leihoa
100
AcDbLine
 10
2882.244404687927
 20
871.5415316014324
 30
0.0
 11
2882.179404687927
 21
871.5415316014324
 31
0.0
  0
LINE
  5
3492
102
{ACAD_REACTORS
330
55F7
102
}
330
1F
100
AcDbEntity
  8
3.2. Leihoa
100
AcDbLine
 10
2882.279404687929
 20
871.641531601432
 30
0.0
 11
2882.27940468793
 21
870.8765316014309
 31
0.0
  0
LINE
  5
3494
330
1F
100
AcDbEntity
  8
3.2. Leihoa
100
AcDbLine
 10
2882.244404687924
 20
871.4915316014302
 30
0.0
 11
2882.179404687924
 21
871.4915316014302
 31
0.0
  0
LINE
  5
3495
330
1F
100
AcDbEntity
  8
3.2. Leihoa
100
AcDbLine
 10
2882.229404687923
 20
871.4515316014303
 30
0.0
 11
2882.179404687924
 21
871.4515316014303
 31
0.0
  0
LINE
  5
34B0
102
{ACAD_REACTORS
330
58AA
102
}
330
1F
100
AcDbEntity
  8
2.1. Kanpo Horma
100
AcDbLine
 10
2885.1903178634
 20
870.591531601433
 30
0.0
 11
2885.190317863399
 21
870.9415316014329
 31
0.0
  0
LINE
  5
34B8
330
1F
100
AcDbEntity
  8
3.2. Leihoa
100
AcDbLine
 10
2883.22940468793
 20
872.6565316014323
 30
0.0
 11
2883.22940468793
 21
872.7215316014321
 31
0.0
  0
LINE
  5
34B9
330
1F
100
AcDbEntity
  8
3.2. Leihoa
100
AcDbLine
 10
2883.26940468793
 20
872.6715316014322
 30
0.0
 11
2883.26940468793
 21
872.7215316014321
 31
0.0
  0
LWPOLYLINE
  5
34C7
330
1F
100
AcDbEntity
  8
3.2. Leihoa
100
AcDbPolyline
 90
        4
 70
     1
 43
0.0
 10
2883.95190468793
 20
872.7215316014321
 10
2884.03190468793
 20
872.7215316014321
 10
2884.03190468793
 20
872.6715316014324
 10
2883.95190468793
 20
872.6715316014319
  0
LINE
  5
34C8
330
1F
100
AcDbEntity
  8
3.2. Leihoa
100
AcDbLine
 10
2883.97790468793
 20
872.6715316014319
 30
0.0
 11
2883.97790468793
 21
872.696531601432
 31
0.0
  0
LINE
  5
34C9
330
1F
100
AcDbEntity
  8
3.2. Leihoa
100
AcDbLine
 10
2883.97790468793
 20
872.696531601432
 30
0.0
 11
2884.00590468793
 21
872.6965316014325
 31
0.0
  0
LINE
  5
34CA
330
1F
100
AcDbEntity
  8
3.2. Leihoa
100
AcDbLine
 10
2884.00590468793
 20
872.6965316014325
 30
0.0
 11
2884.00590468793
 21
872.7215316014321
 31
0.0
  0
LINE
  5
34CB
330
1F
100
AcDbEntity
  8
3.2. Leihoa
100
AcDbLine
 10
2883.95190468793
 20
872.6965316014323
 30
0.0
 11
2883.26940468793
 21
872.6965316014323
 31
0.0
  0
LINE
  5
34CC
102
{ACAD_REACTORS
330
55F7
102
}
330
1F
100
AcDbEntity
  8
2.2. Barne Horma
100
AcDbLine
 10
2882.27940468793
 20
872.6215316014322
 30
0.0
 11
2883.179404687929
 21
872.6215316014318
 31
0.0
  0
LINE
  5
34CD
102
{ACAD_REACTORS
330
55F7
102
}
330
1F
100
AcDbEntity
  8
2.2. Barne Horma
100
AcDbLine
 10
2883.179404687929
 20
872.6215316014318
 30
0.0
 11
2883.179404687929
 21
872.7215316014319
 31
0.0
  0
LINE
  5
34CE
102
{ACAD_REACTORS
330
55CF
102
}
330
1F
100
AcDbEntity
  8
2.2. Barne Horma
100
AcDbLine
 10
2883.179404687929
 20
872.7215316014319
 30
0.0
 11
2882.179404687929
 21
872.7215316014319
 31
0.0
  0
LINE
  5
34D4
102
{ACAD_REACTORS
330
55CF
102
}
330
1F
100
AcDbEntity
  8
2.2. Barne Horma
100
AcDbLine
 10
2882.179404687929
 20
872.6115316014325
 30
0.0
 11
2882.179404687929
 21
872.7215316014319
 31
0.0
  0
LINE
  5
34D5
102
{ACAD_REACTORS
330
55F7
102
}
330
1F
100
AcDbEntity
  8
2.2. Barne Horma
100
AcDbLine
 10
2882.27940468793
 20
872.6215316014322
 30
0.0
 11
2882.27940468793
 21
872.6115316014325
 31
0.0
  0
LINE
  5
34D6
330
1F
100
AcDbEntity
  8
2.2. Barne Horma
100
AcDbLine
 10
2882.27940468793
 20
872.6115316014325
 30
0.0
 11
2882.179404687929
 21
872.6115316014325
 31
0.0
  0
HATCH
  5
3563
330
1F
100
AcDbEntity
  8
2.5. Horma itzala
100
AcDbHatch
 10
0.0
 20
0.0
 30
0.0
210
0.0
220
0.0
230
1.0
  2
SOLID
 70
     1
 71
     1
 91
        2
 92
        7
 72
     0
 73
     1
 93
        4
 10
2880.47440468793
 20
875.2915316014327
 10
2879.47440468793
 20
875.2915316014325
 10
2879.47440468793
 20
874.2915316014325
 10
2880.47440468793
 20
874.2915316014327
 97
        4
330
3248
330
3239
330
324A
330
3249
 92
        7
 72
     0
 73
     1
 93
        4
 10
2880.36440468793
 20
871.5015316014328
 10
2879.49440468793
 20
871.5015316014328
 10
2879.49440468793
 20
870.591531601433
 10
2880.364404687929
 20
870.591531601433
 97
        4
330
322E
330
322D
330
33AF
330
322F
 75
     1
 76
     1
 47
0.0247712038804588
 98
        2
 10
2880.218166063162
 20
874.8752508427058
 10
2880.119024142271
 20
870.961400180044
450
        0
451
        0
460
0.0
461
0.0
452
        0
462
1.0
453
        2
463
0.0
 63
     5
421
      255
463
1.0
 63
     2
421
 16776960
470
LINEAR
1001
GradientColor1ACI
1070
     5
1001
GradientColor2ACI
1070
     2
1001
ACAD
1010
0.0
1020
0.0
1030
0.0
  0
LWPOLYLINE
  5
3570
102
{ACAD_REACTORS
330
55CF
330
5B19
102
}
330
1F
100
AcDbEntity
  8
3.1. Atea
100
AcDbPolyline
 90
        6
 70
     0
 43
0.0
 10
2877.58440468793
 20
876.5815316014325
 10
2877.58440468793
 20
876.5565316014326
 10
2877.609404687931
 20
876.5565316014326
 10
2877.609404687931
 20
876.5215316014327
 10
2877.68440468793
 20
876.5215316014327
 10
2877.68440468793
 20
876.5815316014325
  0
LWPOLYLINE
  5
3571
102
{ACAD_REACTORS
330
55CF
330
5B19
102
}
330
1F
100
AcDbEntity
  8
3.1. Atea
100
AcDbPolyline
 90
        6
 70
     0
 43
0.0
 10
2877.58440468793
 20
875.7615316014327
 10
2877.58440468793
 20
875.7865316014328
 10
2877.609404687931
 20
875.7865316014328
 10
2877.609404687931
 20
875.8215316014327
 10
2877.68440468793
 20
875.8215316014327
 10
2877.68440468793
 20
875.7615316014327
  0
LWPOLYLINE
  5
3572
102
{ACAD_REACTORS
330
55CF
102
}
330
1F
100
AcDbEntity
  8
3.1. Atea
100
AcDbPolyline
 90
        4
 70
     1
 43
0.0
 10
2876.814404687931
 20
875.8115316014329
 10
2876.814404687931
 20
875.7865316014328
 10
2877.58440468793
 20
875.7865316014328
 10
2877.58440468793
 20
875.8115316014329
  0
ARC
  5
3577
102
{ACAD_REACTORS
330
55CF
102
}
330
1F
100
AcDbEntity
  8
3.1. Atea
100
AcDbCircle
 10
2877.584708502154
 20
875.7857981290131
 30
0.0
 40
0.7707335322994903
100
AcDbArc
 50
90.02258533269154
 51
178.0866364583543
  0
LINE
  5
3578
330
1F
100
AcDbEntity
  8
2.2. Barne Horma
100
AcDbLine
 10
2877.68440468793
 20
875.7615316014327
 30
0.0
 11
2877.58440468793
 21
875.7615316014327
 31
0.0
  0
LINE
  5
3579
330
1F
100
AcDbEntity
  8
2.2. Barne Horma
100
AcDbLine
 10
2877.58440468793
 20
875.7615316014327
 30
0.0
 11
2877.58440468793
 21
875.6615316014325
 31
0.0
  0
LWPOLYLINE
  5
357A
102
{ACAD_REACTORS
330
5B31
102
}
330
1F
100
AcDbEntity
  8
3.1. Atea
100
AcDbPolyline
 90
        6
 70
     0
 43
0.0
 10
2877.559712356204
 20
876.741531601433
 10
2877.534712356203
 20
876.741531601433
 10
2877.534712356203
 20
876.7165316014329
 10
2877.499712356204
 20
876.7165316014329
 10
2877.499712356204
 20
876.6415316014331
 10
2877.559712356204
 20
876.6415316014331
  0
LWPOLYLINE
  5
357B
102
{ACAD_REACTORS
330
5B31
102
}
330
1F
100
AcDbEntity
  8
3.1. Atea
100
AcDbPolyline
 90
        6
 70
     0
 43
0.0
 10
2876.839712356203
 20
876.741531601433
 10
2876.864712356204
 20
876.741531601433
 10
2876.864712356204
 20
876.7165316014329
 10
2876.899712356204
 20
876.7165316014329
 10
2876.899712356204
 20
876.6415316014331
 10
2876.839712356203
 20
876.6415316014331
  0
LWPOLYLINE
  5
357C
330
1F
100
AcDbEntity
  8
3.1. Atea
100
AcDbPolyline
 90
        4
 70
     1
 43
0.0
 10
2876.889712356204
 20
877.4115316014327
 10
2876.864712356204
 20
877.4115316014327
 10
2876.864712356204
 20
876.741531601433
 10
2876.889712356204
 20
876.741531601433
  0
ARC
  5
3582
330
1F
100
AcDbEntity
  8
3.1. Atea
100
AcDbCircle
 10
2876.863861962644
 20
876.7411793568872
 30
0.0
 40
0.67085048603572
100
AcDbArc
 50
0.0300843886760028
 51
87.79163127153537
  0
LINE
  5
3590
102
{ACAD_REACTORS
330
55CF
102
}
330
1F
100
AcDbEntity
  8
2.2. Barne Horma
100
AcDbLine
 10
2877.68440468793
 20
876.641531601429
 30
0.0
 11
2877.68440468793
 21
876.5815316014325
 31
0.0
  0
LINE
  5
3592
102
{ACAD_REACTORS
330
587C
102
}
330
1F
100
AcDbEntity
  8
2.3. Mehelina
100
AcDbLine
 10
2877.584712356198
 20
876.6415316014127
 30
0.0
 11
2877.58440468793
 21
878.2015316014327
 31
0.0
  0
LINE
  5
3593
102
{ACAD_REACTORS
330
587C
102
}
330
1F
100
AcDbEntity
  8
2.3. Mehelina
100
AcDbLine
 10
2877.78440468793
 20
876.8415316014321
 30
0.0
 11
2877.784404687929
 21
878.4015316014331
 31
0.0
  0
LINE
  5
3594
330
1F
100
AcDbEntity
  8
2.2. Barne Horma
100
AcDbLine
 10
2877.584712356198
 20
876.6415316014127
 30
0.0
 11
2877.584712356199
 21
876.5815316014162
 31
0.0
  0
LINE
  5
3597
330
1F
100
AcDbEntity
  8
2.2. Barne Horma
100
AcDbLine
 10
2877.584712356198
 20
876.6415316014127
 30
0.0
 11
2877.559712356204
 21
876.641531601423
 31
0.0
  0
LINE
  5
3598
330
1F
100
AcDbEntity
  8
2.2. Barne Horma
100
AcDbLine
 10
2877.559712356204
 20
876.6415316014331
 30
0.0
 11
2877.559712356204
 21
876.741531601433
 31
0.0
  0
LINE
  5
3599
330
1F
100
AcDbEntity
  8
2.2. Barne Horma
100
AcDbLine
 10
2877.559712356204
 20
876.741531601433
 30
0.0
 11
2877.584404687928
 21
876.7415316014329
 31
0.0
  0
LWPOLYLINE
  5
359C
102
{ACAD_REACTORS
330
5B49
102
}
330
1F
100
AcDbEntity
  8
3.1. Atea
100
AcDbPolyline
 90
        6
 70
     0
 43
0.0
 10
2875.979404687931
 20
876.7415316014327
 10
2876.004404687931
 20
876.7415316014327
 10
2876.004404687931
 20
876.7165316014326
 10
2876.039404687931
 20
876.7165316014326
 10
2876.039404687931
 20
876.6415316014327
 10
2875.979404687931
 20
876.6415316014327
  0
LWPOLYLINE
  5
359D
102
{ACAD_REACTORS
330
5B49
102
}
330
1F
100
AcDbEntity
  8
3.1. Atea
100
AcDbPolyline
 90
        6
 70
     0
 43
0.0
 10
2876.699404687931
 20
876.7415316014327
 10
2876.674404687931
 20
876.7415316014327
 10
2876.674404687931
 20
876.7165316014326
 10
2876.639404687931
 20
876.7165316014326
 10
2876.639404687931
 20
876.6415316014327
 10
2876.699404687931
 20
876.6415316014327
  0
LWPOLYLINE
  5
359E
330
1F
100
AcDbEntity
  8
3.1. Atea
100
AcDbPolyline
 90
        4
 70
     1
 43
0.0
 10
2876.649404687931
 20
877.4115316014324
 10
2876.674404687931
 20
877.4115316014324
 10
2876.674404687931
 20
876.7415316014327
 10
2876.649404687931
 20
876.7415316014327
  0
ARC
  5
359F
330
1F
100
AcDbEntity
  8
3.1. Atea
100
AcDbCircle
 10
2876.67525508149
 20
876.7411793568868
 30
0.0
 40
0.67085048603572
100
AcDbArc
 50
92.20836872849011
 51
179.969915611324
  0
LINE
  5
35B4
330
1F
100
AcDbEntity
  8
2.2. Barne Horma
100
AcDbLine
 10
2875.979404687931
 20
876.7415316014327
 30
0.0
 11
2875.979404687931
 21
876.6415316014327
 31
0.0
  0
LINE
  5
35B5
330
1F
100
AcDbEntity
  8
2.2. Barne Horma
100
AcDbLine
 10
2875.979404687931
 20
876.6415316014327
 30
0.0
 11
2875.95440468793
 21
876.6415316014327
 31
0.0
  0
LINE
  5
35B6
330
1F
100
AcDbEntity
  8
2.2. Barne Horma
100
AcDbLine
 10
2875.979404687931
 20
876.7415316014327
 30
0.0
 11
2875.95440468793
 21
876.7415316014327
 31
0.0
  0
LINE
  5
35B7
102
{ACAD_REACTORS
330
587C
102
}
330
1F
100
AcDbEntity
  8
2.3. Mehelina
100
AcDbLine
 10
2875.954404687929
 20
876.7415316014325
 30
0.0
 11
2875.954404687929
 21
878.2015316014319
 31
0.0
  0
LINE
  5
35B8
330
1F
100
AcDbEntity
  8
2.2. Barne Horma
100
AcDbLine
 10
2876.699404687931
 20
876.6415316014327
 30
0.0
 11
2876.699404687931
 21
876.7415316014327
 31
0.0
  0
LINE
  5
35B9
330
1F
100
AcDbEntity
  8
2.2. Barne Horma
100
AcDbLine
 10
2876.699404687931
 20
876.7415316014327
 30
0.0
 11
2876.72440468793
 21
876.7415316014327
 31
0.0
  0
LINE
  5
35BA
330
1F
100
AcDbEntity
  8
2.2. Barne Horma
100
AcDbLine
 10
2876.814558522064
 20
876.741531601433
 30
0.0
 11
2876.839558522064
 21
876.741531601433
 31
0.0
  0
LINE
  5
35BB
330
1F
100
AcDbEntity
  8
2.2. Barne Horma
100
AcDbLine
 10
2876.699404687931
 20
876.6415316014327
 30
0.0
 11
2876.839712356203
 21
876.6415316014331
 31
0.0
  0
LINE
  5
35BC
330
1F
100
AcDbEntity
  8
2.2. Barne Horma
100
AcDbLine
 10
2876.839712356203
 20
876.6415316014331
 30
0.0
 11
2876.839712356203
 21
876.741531601433
 31
0.0
  0
CIRCLE
  5
3EBD
330
1F
100
AcDbEntity
  8
8.1. Irisgarritasun boloa
 48
0.0005
100
AcDbCircle
 10
2881.215877888548
 20
872.0308430804063
 30
0.0
 40
0.9
  0
HATCH
  5
55CF
330
1F
100
AcDbEntity
  8
4.1. Zeramika-baldosa
100
AcDbHatch
 10
0.0
 20
0.0
 30
0.0
210
0.0
220
0.0
230
1.0
  2
ANSI37
 70
     0
 71
     1
 91
        2
 92
        7
 72
     1
 73
     1
 93
       52
 10
2884.24440468793
 20
875.1115316014322
 42
0.0
 10
2884.80440468793
 20
875.1115316014322
 42
0.0
 10
2884.80440468793
 20
877.8415316014323
 42
0.0
 10
2883.73440468793
 20
877.8415316014323
 42
0.0
 10
2883.73440468793
 20
878.1915316014323
 42
0.0
 10
2883.674404687929
 20
878.1915316014323
 42
0.0
 10
2883.674404687929
 20
878.2665316014321
 42
0.0
 10
2883.684404687929
 20
879.5315316014317
 42
0.4140647590835103
 10
2882.46965291886
 20
878.2665316014321
 42
0.0
 10
2882.50440468793
 20
878.2665316014321
 42
0.0
 10
2882.50440468793
 20
878.1915316014323
 42
0.0
 10
2882.44440468793
 20
878.1915316014323
 42
0.0
 10
2880.46440468793
 20
878.1915316014323
 42
0.0
 10
2880.46440468793
 20
877.8815316014323
 42
0.0
 10
2880.15440468793
 20
877.8815316014323
 42
0.0
 10
2880.15440468793
 20
876.6415316014324
 42
0.0
 10
2877.68440468793
 20
876.6415316014134
 42
0.0
 10
2877.68440468793
 20
876.5815316014325
 42
0.0
 10
2877.68440468793
 20
876.5215316014327
 42
0.0
 10
2877.609404687931
 20
876.5215316014327
 42
0.0
 10
2877.602243797013
 20
876.5563321589203
 42
0.4111002813336675
 10
2876.814404687931
 20
875.8115316014329
 42
0.0
 10
2877.609404687931
 20
875.8115316014329
 42
0.0
 10
2877.609404687931
 20
875.8215316014327
 42
0.0
 10
2877.68440468793
 20
875.8215316014327
 42
0.0
 10
2877.68440468793
 20
875.7615316014327
 42
0.0
 10
2877.684404687931
 20
875.5615316014328
 42
0.0
 10
2876.22440468793
 20
875.5615316014321
 42
0.0
 10
2876.22440468793
 20
874.7215316014317
 42
0.0
 10
2875.95440468793
 20
874.7215316014317
 42
0.0
 10
2875.95440468793
 20
871.4715316014329
 42
0.0
 10
2876.16440468793
 20
871.4715316014329
 42
0.0
 10
2876.16440468793
 20
870.9415316014329
 42
0.0
 10
2879.49440468793
 20
870.9415316014329
 42
0.0
 10
2879.49440468793
 20
871.5015316014328
 42
0.0
 10
2880.36440468793
 20
871.5015316014328
 42
0.0
 10
2880.364404687929
 20
870.9415316014309
 42
0.0
 10
2882.17940468793
 20
870.9415316014309
 42
0.0
 10
2882.179404687929
 20
871.6415316014318
 42
0.0
 10
2882.179404687929
 20
871.7015316014325
 42
0.0
 10
2882.254404687929
 20
871.7015316014325
 42
0.0
 10
2882.254404687929
 20
871.6668645004142
 42
0.4139452616802848
 10
2883.199404687929
 20
872.5615316014323
 42
0.0
 10
2882.254404687929
 20
872.5615316014323
 42
0.0
 10
2882.254404687929
 20
872.5515316014325
 42
0.0
 10
2882.179404687929
 20
872.5515316014325
 42
0.0
 10
2882.179404687929
 20
872.6115316014325
 42
0.0
 10
2882.179404687929
 20
872.7215316014319
 42
0.0
 10
2883.179404687929
 20
872.7215316014319
 42
0.0
 10
2884.804404687931
 20
872.7215316014321
 42
0.0
 10
2884.80440468793
 20
874.2015316014322
 42
0.0
 10
2884.24440468793
 20
874.2015316014322
 42
0.0
 97
       41
330
3269
330
3268
330
3267
330
3266
330
3301
330
3302
330
3306
330
3300
330
3253
330
3252
330
3251
330
324D
330
323B
330
3590
330
3570
330
3577
330
3572
330
3571
330
333B
330
3232
330
3236
330
3235
330
3234
330
322A
330
322B
330
33B0
330
322D
330
322E
330
322F
330
33BC
330
342E
330
3486
330
3489
330
3488
330
3487
330
34D4
330
34CE
330
33A6
330
326C
330
326B
330
326A
 92
       22
 72
     0
 73
     1
 93
        4
 10
2880.47440468793
 20
874.2915316014327
 10
2879.47440468793
 20
874.2915316014325
 10
2879.47440468793
 20
875.2915316014325
 10
2880.47440468793
 20
875.2915316014327
 97
        4
330
324A
330
3239
330
3248
330
3249
 75
     1
 76
     1
 52
45.0
 41
0.13
 77
     0
 78
     2
 53
90.0
 43
0.0
 44
0.0
 45
-0.41275
 46
0.0000000000000001
 79
     0
 53
180.0
 43
0.0
 44
0.0
 45
-0.0000000000000001
 46
-0.41275
 79
     0
 47
0.0254229863222324
 98
        2
 10
2882.837473564697
 20
874.5659611418382
 10
2882.837473564697
 20
874.5659611418382
1001
GradientColor1ACI
1070
     5
1001
GradientColor2ACI
1070
     2
1001
ACAD
1010
0.0
1020
0.0
1030
0.0
  0
HATCH
  5
55F7
330
1F
100
AcDbEntity
  8
4.1. Zeramika-baldosa
100
AcDbHatch
 10
0.0
 20
0.0
 30
0.0
210
0.0
220
0.0
230
1.0
  2
ANSI37
 70
     0
 71
     1
 91
        2
 92
        7
 72
     1
 73
     1
 93
       12
 10
2883.759404687931
 20
871.541531601432
 42
0.0
 10
2883.734404687931
 20
871.541531601432
 42
0.0
 10
2882.279404687929
 20
871.5415316014324
 42
0.0
 10
2882.27940468793
 20
870.8765316014309
 42
0.0
 10
2882.27940468793
 20
870.5915316014305
 42
0.0
 10
2884.804404687931
 20
870.591531601433
 42
0.0
 10
2884.80440468793
 20
870.9415316014329
 42
0.0
 10
2884.804404687931
 20
871.541531601432
 42
0.0
 10
2884.70440468793
 20
871.541531601432
 42
0.0
 10
2884.679404687931
 20
871.541531601432
 42
0.0
 10
2884.679404687931
 20
870.6215316014324
 42
0.0
 10
2884.65440468793
 20
870.6215316014324
 42
-0.4060141189175322
 97
       11
330
3458
330
3476
330
3492
330
3435
330
3477
330
3463
330
3464
330
3460
330
3459
330
345A
330
345E
 92
        7
 72
     1
 73
     1
 93
       24
 10
2884.65440468793
 20
871.541531601432
 42
0.0
 10
2884.679404687931
 20
871.541531601432
 42
0.0
 10
2884.679404687931
 20
871.5665316014321
 42
0.0
 10
2884.644404687931
 20
871.5665316014321
 42
0.0
 10
2884.644404687931
 20
871.6415316014321
 42
0.0
 10
2884.70440468793
 20
871.6415316014321
 42
0.0
 10
2884.804404687931
 20
871.641531601432
 42
0.0
 10
2884.804404687931
 20
872.5865316014324
 42
0.0
 10
2884.804404687931
 20
872.6565316014323
 42
0.0
 10
2883.179404687929
 20
872.6565316014319
 42
0.0
 10
2883.179404687929
 20
872.6215316014318
 42
0.0
 10
2882.27940468793
 20
872.6215316014322
 42
0.0
 10
2882.27940468793
 20
872.6115316014325
 42
0.0
 10
2882.27940468793
 20
872.5865316014324
 42
0.0
 10
2883.199404687929
 20
872.5865316014324
 42
0.0
 10
2883.199404687929
 20
872.5615316014323
 42
-0.4060141189174931
 10
2882.27940468793
 20
871.6665316014328
 42
0.0
 10
2882.27940468793
 20
871.6415316014318
 42
0.0
 10
2883.734404687931
 20
871.641531601432
 42
0.0
 10
2883.794404687931
 20
871.6415316014321
 42
0.0
 10
2883.794404687931
 20
871.5665316014321
 42
0.0
 10
2883.759404687931
 20
871.5665316014321
 42
0.0
 10
2883.759404687931
 20
871.5415316014318
 42
0.4060141189174781
 10
2884.65440468793
 20
870.6215316014324
 42
0.0
 97
       15
330
345A
330
3459
330
3461
330
33AC
330
326C
330
33A7
330
34CD
330
34CC
330
34D5
330
3487
330
3488
330
3489
330
3486
330
3471
330
3458
 75
     1
 76
     1
 52
45.0
 41
0.13
 77
     0
 78
     2
 53
90.0
 43
0.0
 44
0.0
 45
-0.41275
 46
0.0000000000000001
 79
     0
 53
180.0
 43
0.0
 44
0.0
 45
-0.0000000000000001
 46
-0.41275
 79
     0
 47
0.0099756036072149
 98
        2
 10
2883.004922134509
 20
871.266474031216
 10
2884.153243596992
 20
871.3363027303721
1001
GradientColor1ACI
1070
     5
1001
GradientColor2ACI
1070
     2
1001
ACAD
1010
0.0
1020
0.0
1030
0.0
  0
HATCH
  5
565E
330
1F
100
AcDbEntity
  8
4.1. Zeramika-baldosa
100
AcDbHatch
 10
0.0
 20
0.0
 30
0.0
210
0.0
220
0.0
230
1.0
  2
ANSI37
 70
     0
 71
     0
 91
        8
 92
        7
 72
     1
 73
     1
 93
       34
 10
2876.889712356204
 20
877.4115316014327
 42
0.0
 10
2876.889712356204
 20
876.741531601433
 42
0.0
 10
2876.864712356204
 20
876.741531601433
 42
0.0
 10
2876.864712356204
 20
876.7165316014329
 42
0.0
 10
2876.899712356204
 20
876.7165316014329
 42
0.0
 10
2876.899712356204
 20
876.6415316014331
 42
0.0
 10
2876.839712356203
 20
876.6415316014331
 42
0.0
 10
2876.699404687931
 20
876.6415316014327
 42
0.0
 10
2876.639404687931
 20
876.6415316014327
 42
0.0
 10
2876.639404687931
 20
876.7165316014326
 42
0.0
 10
2876.674404687931
 20
876.7165316014326
 42
0.0
 10
2876.674404687931
 20
876.7415316014327
 42
0.0
 10
2876.649404687931
 20
876.7415316014327
 42
0.0
 10
2876.649404687931
 20
877.4115316014324
 42
0.4031216132109512
 10
2876.004404687931
 20
876.7408271132072
 42
0.0
 10
2876.004404687931
 20
876.7165316014326
 42
0.0
 10
2876.039404687931
 20
876.7165316014326
 42
0.0
 10
2876.039404687931
 20
876.6415316014327
 42
0.0
 10
2875.979404687931
 20
876.6415316014327
 42
0.0
 10
2875.954404687929
 20
876.6415316014327
 42
0.0
 10
2875.954404687931
 20
875.6615316014318
 42
0.0
 10
2877.58440468793
 20
875.6615316014325
 42
0.0
 10
2877.58440468793
 20
875.7615316014327
 42
0.0
 10
2877.58440468793
 20
875.7865316014328
 42
0.0
 10
2876.814404687931
 20
875.7865316014328
 42
0.0
 10
2876.814404687931
 20
875.8115316014466
 42
-0.4043513591469428
 10
2877.58440468793
 20
876.5565316014326
 42
0.0
 10
2877.58440468793
 20
876.5815316014325
 42
0.0
 10
2877.584712356198
 20
876.6415316014127
 42
0.0
 10
2877.559712356204
 20
876.641531601423
 42
0.0
 10
2877.499712356204
 20
876.6415316014331
 42
0.0
 10
2877.499712356204
 20
876.7165316014329
 42
0.0
 10
2877.534712356203
 20
876.7165316014329
 42
0.0
 10
2877.534712356203
 20
876.7415316005671
 42
0.4028164465160058
 97
        0
 92
       22
 72
     0
 73
     1
 93
        4
 10
2876.464404687931
 20
876.4515316014319
 10
2876.464404687931
 20
875.8515316014321
 10
2875.96440468793
 20
875.851531601433
 10
2875.96440468793
 20
876.4515316014323
 97
        0
 92
        6
 72
     0
 73
     1
 93
       16
 10
2876.41440468793
 20
876.4015316014322
 10
2876.41440468793
 20
875.9015316014322
 10
2876.099738642794
 20
875.9015316014322
 10
2876.099738642794
 20
876.1414029889731
 10
2876.073539690546
 20
876.1414029889731
 10
2876.073539690546
 20
876.0869965804742
 10
2876.021748472563
 20
876.0869965804742
 10
2876.021748472563
 20
876.1414029889731
 10
2876.00785352751
 20
876.1414029889731
 10
2876.00785352751
 20
876.1616602138913
 10
2876.021748472563
 20
876.1616602138913
 10
2876.021748472563
 20
876.2218057126998
 10
2876.073539690546
 20
876.2218057126998
 10
2876.073539690546
 20
876.1616602138913
 10
2876.099738642794
 20
876.1616602138913
 10
2876.099738642794
 20
876.4015316014322
 97
        0
 92
        6
 72
     1
 73
     1
 93
        2
 10
2876.265202463344
 20
876.154088417258
 42
-1.0
 10
2876.228404403502
 20
876.154088417258
 42
-1.0
 97
        0
 92
        7
 72
     1
 73
     1
 93
       10
 10
2877.58440468793
 20
878.2015316014327
 42
0.0
 10
2876.814404687929
 20
878.2015316014321
 42
0.0
 10
2876.814404687926
 20
876.741531601433
 42
0.0
 10
2876.839558522064
 20
876.741531601433
 42
0.0
 10
2876.864712356204
 20
876.741531601433
 42
0.0
 10
2876.864712356204
 20
877.4115316014327
 42
0.0
 10
2876.889712356204
 20
877.4115316014327
 42
-0.4028164461409308
 10
2877.534712356203
 20
876.741531601433
 42
0.0
 10
2877.559712356204
 20
876.741531601433
 42
0.0
 10
2877.584404687926
 20
876.7415316014329
 42
0.0
 97
        0
 92
       22
 72
     1
 73
     1
 93
       11
 10
2877.29440468793
 20
877.5715316014325
 42
0.0
 10
2877.17440468793
 20
877.5715316014325
 42
0.0
 10
2877.05440468793
 20
877.5715316014323
 42
-0.4142135623730951
 10
2877.004404687929
 20
877.6215316014324
 42
0.0
 10
2877.00440468793
 20
878.0615316014324
 42
0.0
 10
2876.97440468793
 20
878.0615316014324
 42
0.0
 10
2876.97440468793
 20
878.1915316014325
 42
0.0
 10
2877.37440468793
 20
878.1915316014325
 42
0.0
 10
2877.37440468793
 20
878.0615316014324
 42
0.0
 10
2877.34440468793
 20
878.0615316014324
 42
0.0
 10
2877.34440468793
 20
877.6215316014324
 42
-0.4142135623725023
 97
        0
 92
        7
 72
     1
 73
     1
 93
       10
 10
2876.72440468793
 20
878.2015316014323
 42
0.0
 10
2875.954404687929
 20
878.2015316014319
 42
0.0
 10
2875.954404687929
 20
876.7415316014327
 42
0.0
 10
2875.979404687931
 20
876.7415316014327
 42
0.0
 10
2876.004404687931
 20
876.7415316014327
 42
-0.4028164461409524
 10
2876.649404687931
 20
877.4115316014324
 42
0.0
 10
2876.674404687931
 20
877.4115316014324
 42
0.0
 10
2876.674404687931
 20
876.7415316014327
 42
0.0
 10
2876.699404687931
 20
876.7415316014327
 42
0.0
 10
2876.72440468793
 20
876.7415316014327
 42
0.0
 97
        0
 92
       22
 72
     1
 73
     1
 93
       11
 10
2876.43440468793
 20
877.571531601432
 42
0.0
 10
2876.31440468793
 20
877.571531601432
 42
0.0
 10
2876.19440468793
 20
877.571531601432
 42
-0.4142135623730951
 10
2876.14440468793
 20
877.6215316014321
 42
0.0
 10
2876.14440468793
 20
878.0615316014321
 42
0.0
 10
2876.11440468793
 20
878.0615316014321
 42
0.0
 10
2876.11440468793
 20
878.1915316014321
 42
0.0
 10
2876.51440468793
 20
878.1915316014321
 42
0.0
 10
2876.51440468793
 20
878.0615316014321
 42
0.0
 10
2876.48440468793
 20
878.0615316014321
 42
0.0
 10
2876.484404687931
 20
877.6215316014321
 42
-0.4142135623730959
 97
        0
 75
     1
 76
     1
 52
45.0
 41
0.13
 77
     0
 78
     2
 53
90.0
 43
0.0
 44
0.0
 45
-0.41275
 46
0.0000000000000001
 79
     0
 53
180.0
 43
0.0
 44
0.0
 45
-0.0000000000000001
 46
-0.41275
 79
     0
 47
0.0062869815984041
 98
        8
 10
2877.109029669054
 20
876.9213617370203
 10
2877.109029669054
 20
876.9213617370203
 10
2877.109029669054
 20
876.9213617370203
 10
2877.109029669054
 20
876.9213617370203
 10
2877.304118122793
 20
877.3928853485324
 10
2877.304118122793
 20
877.3928853485324
 10
2876.523766040091
 20
877.5249121123685
 10
2876.523766040091
 20
877.5249121123685
1001
GradientColor1ACI
1070
     5
1001
GradientColor2ACI
1070
     2
1001
ACAD
1010
0.0
1020
0.0
1030
0.0
  0
HATCH
  5
5695
330
1F
100
AcDbEntity
  8
4.1. Zeramika-baldosa
100
AcDbHatch
 10
0.0
 20
0.0
 30
0.0
210
0.0
220
0.0
230
1.0
  2
ANSI37
 70
     0
 71
     0
 91
        2
 92
        7
 72
     1
 73
     1
 93
       17
 10
2883.684404687929
 20
879.5315316014317
 42
0.0
 10
2883.709404687929
 20
879.5315316014317
 42
0.0
 10
2883.709404687929
 20
878.2915316014323
 42
0.0
 10
2883.73440468793
 20
878.2915316014323
 42
0.0
 10
2884.80440468793
 20
878.2915316014323
 42
0.0
 10
2884.80440468793
 20
880.7115316014321
 42
0.0
 10
2883.224404687931
 20
880.7115316014323
 42
0.0
 10
2882.674404687931
 20
880.7115316014227
 42
0.0
 10
2882.64940468793
 20
880.7115316014321
 42
0.0
 10
2882.64940468793
 20
879.8415316014322
 42
0.0
 10
2882.624404687946
 20
879.8415316014322
 42
-0.4055219323016408
 10
2881.779404687931
 20
880.7115316014321
 42
0.0
 10
2881.75440468793
 20
880.7115316014321
 42
0.0
 10
2880.46440468793
 20
880.7115316014323
 42
0.0
 10
2880.464404687929
 20
878.2915316014323
 42
0.0
 10
2882.44440468793
 20
878.2915316014323
 42
0.0
 10
2882.46940468793
 20
878.2915316014323
 42
-0.4081742452755814
 97
        0
 92
        7
 72
     1
 73
     1
 93
       34
 10
2882.624404687931
 20
880.7115316014321
 42
0.0
 10
2882.64940468793
 20
880.7115316014321
 42
0.0
 10
2882.64940468793
 20
880.7365316014323
 42
0.0
 10
2882.614404687931
 20
880.7365316014323
 42
0.0
 10
2882.614404687931
 20
880.8115316014321
 42
0.0
 10
2882.67440468793
 20
880.8115316014321
 42
0.0
 10
2883.224404687931
 20
880.8115316014323
 42
0.0
 10
2883.224404687931
 20
884.1015316014321
 42
0.0
 10
2882.114404687931
 20
884.1015316014321
 42
0.0
 10
2882.114404687931
 20
884.2015316014322
 42
0.0
 10
2883.224404687931
 20
884.2015316014322
 42
0.0
 10
2883.224404687931
 20
886.0015316014321
 42
0.0
 10
2880.89440468793
 20
886.0015316014321
 42
0.0
 10
2880.89440468793
 20
885.5715316014322
 42
0.0
 10
2880.46440468793
 20
885.5715316014322
 42
0.0
 10
2880.46440468793
 20
885.4105092228131
 42
0.0
 10
2880.46440468793
 20
885.3855092228132
 42
0.0
 10
2881.474404687929
 20
885.3855092228132
 42
0.0
 10
2881.474404687929
 20
885.3605092227592
 42
-0.4067604372221267
 10
2880.46440468793
 20
884.3755092228134
 42
0.0
 10
2880.46440468793
 20
884.3505092228133
 42
0.0
 10
2880.46440468793
 20
884.201531601432
 42
0.0
 10
2881.31440468793
 20
884.2015316014322
 42
0.0
 10
2881.31440468793
 20
884.1015316014321
 42
0.0
 10
2880.46440468793
 20
884.1015316014321
 42
0.0
 10
2880.464404687931
 20
881.5115316014324
 42
0.0
 10
2880.89440468793
 20
881.5115316014322
 42
0.0
 10
2880.89440468793
 20
880.8115316014323
 42
0.0
 10
2881.754404687931
 20
880.8115316014317
 42
0.0
 10
2881.81440468793
 20
880.8115316014321
 42
0.0
 10
2881.81440468793
 20
880.7365316014323
 42
0.0
 10
2881.779404687931
 20
880.7365316014323
 42
0.0
 10
2881.779404687931
 20
880.7115316014327
 42
0.4055219322966694
 10
2882.624404687931
 20
879.8415316014327
 42
0.0
 97
        0
 75
     1
 76
     1
 52
45.0
 41
0.13
 77
     0
 78
     2
 53
90.0
 43
0.0
 44
0.0
 45
-0.41275
 46
0.0000000000000001
 79
     0
 53
180.0
 43
0.0
 44
0.0
 45
-0.0000000000000001
 46
-0.41275
 79
     0
 47
0.010097932805104
 98
        2
 10
2883.25899738491
 20
879.8956548612288
 10
2882.308859918444
 20
880.3399645779446
1001
GradientColor1ACI
1070
     5
1001
GradientColor2ACI
1070
     2
1001
ACAD
1010
0.0
1020
0.0
1030
0.0
  0
HATCH
  5
56A6
330
1F
100
AcDbEntity
  8
4.1. Zeramika-baldosa
100
AcDbHatch
 10
0.0
 20
0.0
 30
0.0
210
0.0
220
0.0
230
1.0
  2
ANSI37
 70
     0
 71
     1
 91
        1
 92
        7
 72
     1
 73
     1
 93
       14
 10
2881.474404687931
 20
885.360509222813
 42
0.0
 10
2880.46440468793
 20
885.360509222813
 42
0.0
 10
2880.46440468793
 20
885.3855092228132
 42
0.0
 10
2880.43940468793
 20
885.3855092228132
 42
0.0
 10
2880.43940468793
 20
885.3505092228132
 42
0.0
 10
2880.364404687929
 20
885.3505092228132
 42
0.0
 10
2880.364404687929
 20
885.4105092228133
 42
0.0
 10
2880.114404687931
 20
885.4105092228131
 42
0.0
 10
2880.114404687931
 20
884.3505092228133
 42
0.0
 10
2880.364404687929
 20
884.3505092228133
 42
0.0
 10
2880.364404687929
 20
884.4105092228133
 42
0.0
 10
2880.43940468793
 20
884.4105092228133
 42
0.0
 10
2880.43940468793
 20
884.3755092228134
 42
0.0
 10
2880.464404687931
 20
884.3755092228134
 42
0.4067604372375767
 97
        7
330
32C9
330
32C8
330
32D0
330
32D4
330
32D1
330
32C7
330
32CE
 75
     1
 76
     1
 52
45.0
 41
0.13
 77
     0
 78
     2
 53
90.0
 43
0.0
 44
0.0
 45
-0.41275
 46
0.0000000000000001
 79
     0
 53
180.0
 43
0.0
 44
0.0
 45
-0.0000000000000001
 46
-0.41275
 79
     0
 47
0.0039784085341801
 98
        1
 10
2880.768812911215
 20
884.8720685178887
1001
GradientColor1ACI
1070
     5
1001
GradientColor2ACI
1070
     2
1001
ACAD
1010
0.0
1020
0.0
1030
0.0
  0
MTEXT
  5
56B3
330
1F
100
AcDbEntity
  8
7.2. Idatzia
100
AcDbMText
 10
2875.614923835155
 20
869.2753042223015
 30
0.0
 40
0.25
 41
3.934541634584093
 46
0.0
 71
     1
 72
     5
  1
A{\H0.5x;erabilgarria }= 81.41 m{\fISOCPEUR|b0|i0|c0|p34;²}
 73
     1
 44
1.0
1001
ACAD
1000
ACAD_MTEXT_COLUMN_INFO_BEGIN
1070
    75
1070
     2
1070
    79
1070
     0
1070
    76
1070
     1
1070
    78
1070
     0
1070
    48
1040
3.934541634584093
1070
    49
1040
12.5
1070
    50
1070
     1
1040
0.0
1000
ACAD_MTEXT_COLUMN_INFO_END
  0
MTEXT
  5
56B4
330
1F
100
AcDbEntity
  8
7.2. Idatzia
100
AcDbMText
 10
2881.461116130783
 20
874.9514089072674
 30
0.0
 40
0.25
 41
3.934541634584093
 46
0.0
 71
     1
 72
     5
  1
H=2.90m
 73
     1
 44
1.0
1001
ACAD
1000
ACAD_MTEXT_COLUMN_INFO_BEGIN
1070
    75
1070
     2
1070
    79
1070
     0
1070
    76
1070
     1
1070
    78
1070
     0
1070
    48
1040
3.934541634584093
1070
    49
1040
12.5
1070
    50
1070
     1
1040
0.0
1000
ACAD_MTEXT_COLUMN_INFO_END
  0
DIMENSION
  5
56B5
102
{ACAD_XDICTIONARY
360
56C2
102
}
102
{ACAD_REACTORS
330
56CC
102
}
330
1F
100
AcDbEntity
  8
7.3. Kota
100
AcDbDimension
280
     0
  2
*D109
 10
2879.49440468793
 20
870.0754548426782
 30
0.0
 11
2877.82940468793
 21
870.2020919504544
 31
0.0
 70
    33
 71
     5
 42
3.329999999999472
 73
     0
 74
     0
 75
     0
  3
Guztion
100
AcDbAlignedDimension
 13
2876.16440468793
 23
870.5915316014326
 33
0.0
 14
2879.49440468793
 24
870.591531601431
 34
0.0
  0
DIMENSION
  5
56CD
102
{ACAD_XDICTIONARY
360
56DA
102
}
102
{ACAD_REACTORS
330
56E4
102
}
330
1F
100
AcDbEntity
  8
7.3. Kota
100
AcDbDimension
280
     0
  2
*D110
 10
2884.804404687931
 20
870.0754548426782
 30
0.0
 11
2882.58440468793
 21
870.2004548426783
 31
0.0
 70
    33
 71
     5
 42
4.440000000000964
 73
     0
 74
     0
 75
     0
  3
Guztion
100
AcDbAlignedDimension
 13
2880.364404687929
 23
870.5915316014328
 33
0.0
 14
2884.804404687931
 24
870.591531601433
 34
0.0
  0
DIMENSION
  5
56E5
102
{ACAD_XDICTIONARY
360
56F2
102
}
102
{ACAD_REACTORS
330
56FC
102
}
330
1F
100
AcDbEntity
  8
7.3. Kota
100
AcDbDimension
280
     0
  2
*D111
 10
2884.644404687931
 20
871.206316398195
 30
0.0
 11
2884.219404687931
 21
871.3329023463533
 31
0.0
 70
    33
 71
     5
 42
0.849999999999909
 73
     0
 74
     0
 75
     0
  3
Guztion
100
AcDbAlignedDimension
 13
2883.794404687931
 23
871.5665316014321
 33
0.0
 14
2884.644404687931
 24
871.5665316014321
 34
0.0
  0
DIMENSION
  5
56FD
102
{ACAD_XDICTIONARY
360
570A
102
}
102
{ACAD_REACTORS
330
5714
102
}
330
1F
100
AcDbEntity
  8
7.3. Kota
100
AcDbDimension
280
     0
  2
*D112
 10
2882.000532128263
 20
871.7015316014325
 30
0.0
 11
2881.873946180105
 21
872.126531601433
 31
0.0
 70
    33
 71
     5
 42
0.849999999999909
 73
     0
 74
     0
 75
     0
  3
Guztion
100
AcDbAlignedDimension
 13
2882.179404687929
 23
872.5515316014325
 33
0.0
 14
2882.179404687929
 24
871.7015316014325
 34
0.0
  0
DIMENSION
  5
5715
102
{ACAD_XDICTIONARY
360
5722
102
}
102
{ACAD_REACTORS
330
572C
102
}
330
1F
100
AcDbEntity
  8
7.3. Kota
100
AcDbDimension
280
     0
  2
*D113
 10
2884.804404687931
 20
869.6375594373032
 30
0.0
 11
2880.48440468793
 21
869.7641453854613
 31
0.0
 70
    33
 71
     5
 42
8.640000000000327
 73
     0
 74
     0
 75
     0
  3
Guztion
100
AcDbAlignedDimension
 13
2876.16440468793
 23
870.5915316014326
 33
0.0
 14
2884.804404687931
 24
870.591531601433
 34
0.0
  0
LINE
  5
572D
102
{ACAD_REACTORS
330
587C
102
}
330
1F
100
AcDbEntity
  8
2.3. Mehelina
100
AcDbLine
 10
2875.954404687931
 20
875.6615316014322
 30
0.0
 11
2876.22440468793
 21
875.661531601432
 31
0.0
  0
LINE
  5
572E
102
{ACAD_REACTORS
330
587C
102
}
330
1F
100
AcDbEntity
  8
2.1. Kanpo Horma
100
AcDbLine
 10
2880.46440468793
 20
880.7115316014323
 30
0.0
 11
2880.89440468793
 21
880.7115316014321
 31
0.0
  0
HATCH
  5
587C
330
1F
100
AcDbEntity
  8
2.5. Horma itzala
100
AcDbHatch
 10
0.0
 20
0.0
 30
0.0
210
0.0
220
0.0
230
1.0
  2
SOLID
 70
     1
 71
     1
 91
        1
 92
        7
 72
     0
 73
     1
 93
       37
 10
2876.16440468793
 20
871.4715316014329
 10
2875.95440468793
 20
871.4715316014329
 10
2875.95440468793
 20
874.7215316014317
 10
2876.22440468793
 20
874.7215316014317
 10
2876.22440468793
 20
875.661531601432
 10
2875.954404687931
 20
875.6615316014322
 10
2875.954404687931
 20
876.7415316014327
 10
2875.954404687929
 20
878.2015316014319
 10
2876.72440468793
 20
878.2015316014323
 10
2877.58440468793
 20
878.2015316014327
 10
2877.584712356198
 20
876.6415316014127
 10
2880.15440468793
 20
876.6415316014324
 10
2880.15440468793
 20
877.8815316014323
 10
2880.46440468793
 20
877.8815316014323
 10
2880.46440468793
 20
878.1915316014323
 10
2880.46440468793
 20
880.7115316014323
 10
2880.89440468793
 20
880.7115316014321
 10
2880.89440468793
 20
881.5115316014322
 10
2880.464404687931
 20
881.5115316014324
 10
2880.46440468793
 20
884.201531601432
 10
2880.46440468793
 20
884.3505092228133
 10
2880.114404687931
 20
884.3505092228133
 10
2880.114404687931
 20
880.7115316014323
 10
2879.814404687931
 20
880.7115316014323
 10
2879.814404687931
 20
880.4115316014328
 10
2880.114404687931
 20
880.411531601433
 10
2880.26440468793
 20
880.411531601433
 10
2880.26440468793
 20
878.0815316014326
 10
2879.954404687932
 20
878.0815316014329
 10
2879.95440468793
 20
876.8415316014323
 10
2877.78440468793
 20
876.8415316014321
 10
2877.784404687929
 20
878.4015316014331
 10
2875.75440468793
 20
878.4015316014333
 10
2875.754404687929
 20
870.9415316014327
 10
2875.454404687929
 20
870.9415316014327
 10
2875.454404687929
 20
870.5915316014326
 10
2876.16440468793
 20
870.5915316014328
 97
       37
330
322A
330
3234
330
3235
330
3236
330
572D
330
3242
330
35B7
330
3243
330
336B
330
3592
330
323B
330
324D
330
3251
330
3252
330
3256
330
572E
330
32B6
330
32B7
330
327B
330
329A
330
32D1
330
32B5
330
3397
330
3398
330
3323
330
3324
330
331F
330
3320
330
3321
330
3322
330
3593
330
3325
330
3388
330
338A
330
3389
330
3378
330
322B
 75
     1
 76
     1
 47
0.0192755908593706
 98
        1
 10
2875.902568483314
 20
870.8451157368781
450
        0
451
        0
460
0.0
461
0.0
452
        0
462
1.0
453
        2
463
0.0
 63
     5
421
      255
463
1.0
 63
     2
421
 16776960
470
LINEAR
1001
GradientColor1ACI
1070
     5
1001
GradientColor2ACI
1070
     2
1001
ACAD
1010
0.0
1020
0.0
1030
0.0
  0
HATCH
  5
58AA
330
1F
100
AcDbEntity
  8
2.5. Horma itzala
100
AcDbHatch
 10
0.0
 20
0.0
 30
0.0
210
0.0
220
0.0
230
1.0
  2
SOLID
 70
     1
 71
     1
 91
        1
 92
        7
 72
     0
 73
     1
 93
       33
 10
2885.00440468793
 20
880.9115316014326
 10
2883.424404687931
 20
880.9115316014263
 10
2883.42440468793
 20
886.2015316014321
 10
2880.46440468793
 20
886.2015316014311
 10
2880.46440468793
 20
886.5015316014309
 10
2880.11440468793
 20
886.5015316014309
 10
2880.114404687931
 20
885.4105092228131
 10
2880.46440468793
 20
885.4105092228133
 10
2880.46440468793
 20
885.5715316014322
 10
2880.89440468793
 20
885.5715316014322
 10
2880.89440468793
 20
886.0015316014321
 10
2883.224404687931
 20
886.0015316014321
 10
2883.224404687931
 20
884.2015316014322
 10
2883.22440468799
 20
880.7115316014323
 10
2884.80440468793
 20
880.7115316014321
 10
2884.80440468793
 20
878.2915316014323
 10
2883.73440468793
 20
878.2915316014323
 10
2883.73440468793
 20
877.8415316014323
 10
2884.80440468793
 20
877.8415316014323
 10
2884.80440468793
 20
875.1115316014322
 10
2884.24440468793
 20
875.1115316014322
 10
2884.24440468793
 20
874.2015316014322
 10
2884.80440468793
 20
874.2015316014322
 10
2884.804404687931
 20
872.5865316014324
 10
2884.804404687931
 20
871.641531601432
 10
2884.70440468793
 20
871.641531601432
 10
2884.704404687931
 20
871.541531601432
 10
2884.804404687931
 20
871.541531601432
 10
2884.80440468793
 20
870.9415316014329
 10
2884.804404687931
 20
870.591531601433
 10
2885.1903178634
 20
870.591531601433
 10
2885.190317863399
 20
870.9415316014332
 10
2885.00440468793
 20
870.9415316014332
 97
       33
330
337A
330
32B3
330
32B4
330
32C5
330
32C6
330
32D3
330
32D0
330
32D2
330
328D
330
328C
330
327A
330
3279
330
3275
330
337B
330
326E
330
3265
330
3266
330
3267
330
3268
330
3269
330
326A
330
326B
330
326C
330
33AC
330
3461
330
3456
330
3460
330
3464
330
3463
330
33B9
330
34B0
330
3462
330
3379
 75
     1
 76
     1
 47
0.019354062656201
 98
        1
 10
2884.680105931974
 20
874.8087404605904
450
        0
451
        0
460
0.0
461
0.0
452
        0
462
1.0
453
        2
463
0.0
 63
     5
421
      255
463
1.0
 63
     2
421
 16776960
470
LINEAR
1001
GradientColor1ACI
1070
     5
1001
GradientColor2ACI
1070
     2
1001
ACAD
1010
0.0
1020
0.0
1030
0.0
  0
DIMENSION
  5
58B7
102
{ACAD_XDICTIONARY
360
58C4
102
}
102
{ACAD_REACTORS
330
58CE
102
}
330
1F
100
AcDbEntity
  8
7.3. Kota
100
AcDbDimension
280
     0
  2
*D114
 10
2883.224404687931
 20
886.3881992819878
 30
0.0
 11
2881.84440468793
 21
886.5147852301459
 31
0.0
 70
    33
 71
     5
 42
2.760000000000673
 73
     0
 74
     0
 75
     0
  3
Guztion
100
AcDbAlignedDimension
 13
2880.46440468793
 23
886.2015316014311
 33
0.0
 14
2883.224404687931
 24
886.2015316014314
 34
0.0
  0
DIMENSION
  5
58CF
102
{ACAD_XDICTIONARY
360
58DC
102
}
102
{ACAD_REACTORS
330
58E6
102
}
330
1F
100
AcDbEntity
  8
7.3. Kota
100
AcDbDimension
280
     0
  2
*D115
 10
2883.819216050108
 20
884.201531601432
 30
0.0
 11
2883.69263010195
 21
885.1015316014324
 31
0.0
 70
    33
 71
     5
 42
1.800000000000068
 73
     0
 74
     0
 75
     0
  3
Guztion
100
AcDbAlignedDimension
 13
2883.42440468793
 23
886.0015316014321
 33
0.0
 14
2883.42440468793
 24
884.201531601432
 34
0.0
  0
DIMENSION
  5
5909
102
{ACAD_XDICTIONARY
360
5916
102
}
102
{ACAD_REACTORS
330
5920
102
}
330
1F
100
AcDbEntity
  8
7.3. Kota
100
AcDbDimension
280
     0
  2
*D116
 10
2883.819216050108
 20
880.8115316014323
 30
0.0
 11
2883.692578942331
 21
882.4565316014327
 31
0.0
 70
    32
 71
     5
 42
3.289999999999849
 73
     0
 74
     0
 75
     0
  3
Guztion
100
AcDbAlignedDimension
 13
2883.42440468793
 23
884.1015316014321
 33
0.0
 14
2883.595200645897
 24
880.8115316014323
 34
0.0
 50
89.99999999997106
100
AcDbRotatedDimension
1001
ACAD
1000
DSTYLE
1002
{
1070
   279
1070
     1
1002
}
  0
DIMENSION
  5
5921
102
{ACAD_XDICTIONARY
360
592E
102
}
102
{ACAD_REACTORS
330
5938
102
}
330
1F
100
AcDbEntity
  8
7.3. Kota
100
AcDbDimension
280
     0
  2
*D117
 10
2884.196951891757
 20
886.0015316014321
 30
0.0
 11
2884.0703659436
 21
883.4065316014331
 31
0.0
 70
    33
 71
     5
 42
5.189999999998804
 73
     0
 74
     0
 75
     0
  3
Guztion
100
AcDbAlignedDimension
 13
2883.424404687931
 23
880.8115316014333
 33
0.0
 14
2883.424404687932
 24
886.0015316014321
 34
0.0
  0
DIMENSION
  5
5939
102
{ACAD_XDICTIONARY
360
5946
102
}
102
{ACAD_REACTORS
330
5950
102
}
330
1F
100
AcDbEntity
  8
7.3. Kota
100
AcDbDimension
280
     0
  2
*D118
 10
2885.477063425013
 20
878.2915316014323
 30
0.0
 11
2885.351756467305
 21
879.5015316014326
 31
0.0
 70
    33
 71
     5
 42
2.419999999999959
 73
     0
 74
     0
 75
     0
  3
Guztion
100
AcDbAlignedDimension
 13
2885.00440468793
 23
880.7115316014321
 33
0.0
 14
2885.00440468793
 24
878.2915316014323
 34
0.0
  0
DIMENSION
  5
596D
102
{ACAD_XDICTIONARY
360
597A
102
}
102
{ACAD_REACTORS
330
5984
102
}
330
1F
100
AcDbEntity
  8
7.3. Kota
100
AcDbDimension
280
     0
  2
*D119
 10
2885.477063425013
 20
875.1115316014322
 30
0.0
 11
2885.350426317236
 21
876.4765316014328
 31
0.0
 70
    32
 71
     5
 42
2.730000000000018
 73
     0
 74
     0
 75
     0
  3
Guztion
100
AcDbAlignedDimension
 13
2885.00440468793
 23
877.8415316014323
 33
0.0
 14
2885.00440468793
 24
875.1115316014322
 34
0.0
 50
89.99999999998925
100
AcDbRotatedDimension
1001
ACAD
1000
DSTYLE
1002
{
1070
   279
1070
     1
1002
}
  0
CIRCLE
  5
59B5
330
1F
100
AcDbEntity
  8
8.1. Irisgarritasun boloa
 48
0.0005
100
AcDbCircle
 10
2878.598899427054
 20
875.5388828847687
 30
0.0
 40
0.9
  0
CIRCLE
  5
59B6
330
1F
100
AcDbEntity
  8
8.1. Irisgarritasun boloa
 48
0.0005
100
AcDbCircle
 10
2881.687479765864
 20
885.0696987214394
 30
0.0
 40
0.9
  0
DIMENSION
  5
59B7
102
{ACAD_XDICTIONARY
360
59C4
102
}
102
{ACAD_REACTORS
330
59CE
102
}
330
1F
100
AcDbEntity
  8
7.3. Kota
100
AcDbDimension
280
     0
  2
*D120
 10
2883.22440468799
 20
881.731435192731
 30
0.0
 11
2882.05940468796
 21
881.8580723005073
 31
0.0
 70
    33
 71
     5
 42
2.330000000059953
 73
     0
 74
     0
 75
     0
  3
Guztion
100
AcDbAlignedDimension
 13
2880.89440468793
 23
881.5115316014322
 33
0.0
 14
2883.22440468799
 24
881.5115316014322
 34
0.0
  0
DIMENSION
  5
59CF
102
{ACAD_XDICTIONARY
360
59DC
102
}
102
{ACAD_REACTORS
330
59E6
102
}
330
1F
100
AcDbEntity
  8
7.3. Kota
100
AcDbDimension
280
     0
  2
*D121
 10
2882.614404687931
 20
880.6086048800004
 30
0.0
 11
2882.21440468793
 21
880.7351908281587
 31
0.0
 70
    33
 71
     5
 42
0.8000000000001818
 73
     0
 74
     0
 75
     0
  3
Guztion
100
AcDbAlignedDimension
 13
2881.81440468793
 23
880.7365316014323
 33
0.0
 14
2882.614404687931
 24
880.7365316014323
 34
0.0
  0
DIMENSION
  5
59E7
102
{ACAD_XDICTIONARY
360
59F4
102
}
102
{ACAD_REACTORS
330
59FE
102
}
330
1F
100
AcDbEntity
  8
7.3. Kota
100
AcDbDimension
280
     0
  2
*D122
 10
2880.291785862065
 20
884.4105092228133
 30
0.0
 11
2880.165199913907
 21
884.8805092228138
 31
0.0
 70
    33
 71
     5
 42
0.9400000000000545
 73
     0
 74
     0
 75
     0
  3
Guztion
100
AcDbAlignedDimension
 13
2880.364404687929
 23
885.3505092228132
 33
0.0
 14
2880.364404687929
 24
884.4105092228133
 34
0.0
  0
DIMENSION
  5
59FF
102
{ACAD_XDICTIONARY
360
5A0C
102
}
102
{ACAD_REACTORS
330
5A16
102
}
330
1F
100
AcDbEntity
  8
7.3. Kota
100
AcDbDimension
280
     0
  2
*D123
 10
2882.114404687931
 20
883.8832092546589
 30
0.0
 11
2881.71440468793
 21
884.0097952028171
 31
0.0
 70
    33
 71
     5
 42
0.8000000000001818
 73
     0
 74
     0
 75
     0
  3
Guztion
100
AcDbAlignedDimension
 13
2881.31440468793
 23
884.1015316014321
 33
0.0
 14
2882.114404687931
 24
884.1015316014321
 34
0.0
  0
DIMENSION
  5
5A17
102
{ACAD_XDICTIONARY
360
5A24
102
}
102
{ACAD_REACTORS
330
5A2E
102
}
330
1F
100
AcDbEntity
  8
7.3. Kota
100
AcDbDimension
280
     0
  2
*D124
 10
2883.674404687929
 20
878.1097040989836
 30
0.0
 11
2883.089404687929
 21
878.2350110566918
 31
0.0
 70
    33
 71
     5
 42
1.169999999999618
 73
     0
 74
     0
 75
     0
  3
Guztion
100
AcDbAlignedDimension
 13
2882.50440468793
 23
878.1915316014323
 33
0.0
 14
2883.674404687929
 24
878.1915316014323
 34
0.0
  0
DIMENSION
  5
5A2F
102
{ACAD_XDICTIONARY
360
5A3A
102
}
102
{ACAD_REACTORS
330
5A42
102
}
330
1F
100
AcDbEntity
  8
7.3. Kota
100
AcDbDimension
280
     0
  2
*D125
 10
2880.15440468793
 20
876.6415316014324
 30
0.0
 11
2880.437627372289
 21
875.995739941429
 31
0.0
 70
    33
 71
     5
 42
1.387407654584308
 73
     0
 74
     0
 75
     0
  3
Guztion
100
AcDbAlignedDimension
 13
2880.47440468793
 23
875.2915316014327
 33
0.0
 14
2880.15440468793
 24
876.6415316014324
 34
0.0
  0
DIMENSION
  5
5A43
102
{ACAD_XDICTIONARY
360
5A4E
102
}
102
{ACAD_REACTORS
330
5A56
102
}
330
1F
100
AcDbEntity
  8
7.3. Kota
100
AcDbDimension
280
     0
  2
*D126
 10
2879.47440468793
 20
875.2915316014325
 30
0.0
 11
2878.598285081469
 21
875.5517016178544
 31
0.0
 70
    33
 71
     5
 42
1.810248601711464
 73
     0
 74
     0
 75
     0
  3
Guztion
100
AcDbAlignedDimension
 13
2877.684404687931
 23
875.5615316014328
 33
0.0
 14
2879.47440468793
 24
875.2915316014325
 34
0.0
  0
DIMENSION
  5
5A57
102
{ACAD_XDICTIONARY
360
5A62
102
}
102
{ACAD_REACTORS
330
5A6A
102
}
330
1F
100
AcDbEntity
  8
7.3. Kota
100
AcDbDimension
280
     0
  2
*D127
 10
2875.95440468793
 20
874.0230994916704
 30
0.0
 11
2877.71440468793
 21
874.1497365994467
 31
0.0
 70
    33
 71
     5
 42
3.519999999999981
 73
     0
 74
     0
 75
     0
  3
Guztion
100
AcDbAlignedDimension
 13
2879.47440468793
 23
874.0230994916704
 33
0.0
 14
2875.95440468793
 24
874.0230994916704
 34
0.0
  0
DIMENSION
  5
5A93
330
1F
100
AcDbEntity
  8
7.3. Kota
100
AcDbDimension
280
     0
  2
*D128
 10
2880.79770868107
 20
871.5015316014326
 30
0.0
 11
2880.671122732912
 21
872.8965316014333
 31
0.0
 70
    33
 71
     5
 42
2.79000000000019
 73
     0
 74
     0
 75
     0
  3
Guztion
100
AcDbAlignedDimension
 13
2880.870033852402
 23
874.2915316014329
 33
0.0
 14
2880.870033852401
 24
871.5015316014326
 34
0.0
  0
DIMENSION
  5
5AA0
330
1F
100
AcDbEntity
  8
7.3. Kota
100
AcDbDimension
280
     0
  2
*D129
 10
2884.24440468793
 20
873.9264483492664
 30
0.0
 11
2882.35940468793
 21
874.0530854570426
 31
0.0
 70
    33
 71
     5
 42
3.769999999999981
 73
     0
 74
     0
 75
     0
  3
Guztion
100
AcDbAlignedDimension
 13
2880.47440468793
 23
874.0054177854618
 33
0.0
 14
2884.24440468793
 24
874.0054177854615
 34
0.0
  0
CIRCLE
  5
5AAD
330
1F
100
AcDbEntity
  8
8.1. Irisgarritasun boloa
 48
0.0005
100
AcDbCircle
 10
2879.96921969187
 20
872.9162690933097
 30
0.0
 40
0.9
  0
DIMENSION
  5
5AAE
102
{ACAD_XDICTIONARY
360
5ABB
102
}
102
{ACAD_REACTORS
330
5AC5
102
}
330
1F
100
AcDbEntity
  8
7.3. Kota
100
AcDbDimension
280
     0
  2
*D130
 10
2886.034837876358
 20
870.591531601433
 30
0.0
 11
2885.9082519282
 21
875.6515316014331
 31
0.0
 70
    33
 71
     5
 42
10.11999999999909
 73
     0
 74
     0
 75
     0
  3
Guztion
100
AcDbAlignedDimension
 13
2885.00440468793
 23
880.7115316014321
 33
0.0
 14
2885.00440468793
 24
870.591531601433
 34
0.0
  0
DIMENSION
  5
5AC6
102
{ACAD_XDICTIONARY
360
5AD3
102
}
102
{ACAD_REACTORS
330
5ADD
102
}
330
1F
100
AcDbEntity
  8
7.3. Kota
100
AcDbDimension
280
     0
  2
*D131
 10
2885.527063425013
 20
872.6565316014323
 30
0.0
 11
2885.400477476855
 21
872.1490316014326
 31
0.0
 70
    33
 71
     5
 42
1.015000000000213
 73
     0
 74
     0
 75
     0
  3
Guztion
100
AcDbAlignedDimension
 13
2885.00440468793
 23
871.641531601432
 33
0.0
 14
2885.004404687931
 24
872.6565316014323
 34
0.0
  0
DIMENSION
  5
5ADE
102
{ACAD_XDICTIONARY
360
5AEB
102
}
102
{ACAD_REACTORS
330
5AF5
102
}
330
1F
100
AcDbEntity
  8
7.3. Kota
100
AcDbDimension
280
     0
  2
*D132
 10
2885.527063425013
 20
872.7215316014321
 30
0.0
 11
2885.400477476855
 21
873.4615316014325
 31
0.0
 70
    33
 71
     5
 42
1.480000000000131
 73
     0
 74
     0
 75
     0
  3
Guztion
100
AcDbAlignedDimension
 13
2885.00440468793
 23
874.2015316014322
 33
0.0
 14
2885.004404687929
 24
872.7215316014321
 34
0.0
  0
DIMENSION
  5
5B02
102
{ACAD_XDICTIONARY
360
5B0F
102
}
102
{ACAD_REACTORS
330
5B19
102
}
330
1F
100
AcDbEntity
  8
7.3. Kota
100
AcDbDimension
280
     0
  2
*D133
 10
2877.982622187474
 20
876.5215316014327
 30
0.0
 11
2877.856036239315
 21
876.1715316014331
 31
0.0
 70
    33
 71
     5
 42
0.7000000000000455
 73
     0
 74
     0
 75
     0
  3
Guztion
100
AcDbAlignedDimension
 13
2877.68440468793
 23
875.8215316014327
 33
0.0
 14
2877.68440468793
 24
876.5215316014327
 34
0.0
  0
DIMENSION
  5
5B1A
102
{ACAD_XDICTIONARY
360
5B27
102
}
102
{ACAD_REACTORS
330
5B31
102
}
330
1F
100
AcDbEntity
  8
7.3. Kota
100
AcDbDimension
280
     0
  2
*D134
 10
2877.499712356204
 20
876.4853350740285
 30
0.0
 11
2877.199712356203
 21
876.6119210221868
 31
0.0
 70
    33
 71
     5
 42
0.5999999999999091
 73
     0
 74
     0
 75
     0
  3
Guztion
100
AcDbAlignedDimension
 13
2876.899712356204
 23
876.6415316014331
 33
0.0
 14
2877.499712356204
 24
876.6415316014331
 34
0.0
  0
DIMENSION
  5
5B32
102
{ACAD_XDICTIONARY
360
5B3F
102
}
102
{ACAD_REACTORS
330
5B49
102
}
330
1F
100
AcDbEntity
  8
7.3. Kota
100
AcDbDimension
280
     0
  2
*D135
 10
2876.039404687931
 20
876.4853350740285
 30
0.0
 11
2876.33940468793
 21
876.6119210221868
 31
0.0
 70
    33
 71
     5
 42
0.5999999999999091
 73
     0
 74
     0
 75
     0
  3
Guztion
100
AcDbAlignedDimension
 13
2876.639404687931
 23
876.6415316014327
 33
0.0
 14
2876.039404687931
 24
876.6415316014327
 34
0.0
  0
DIMENSION
  5
5B4A
102
{ACAD_XDICTIONARY
360
5B57
102
}
102
{ACAD_REACTORS
330
5B61
102
}
330
1F
100
AcDbEntity
  8
7.3. Kota
100
AcDbDimension
280
     0
  2
*D136
 10
2876.724404687931
 20
878.6105072180449
 30
0.0
 11
2876.33940468793
 21
878.7370931662032
 31
0.0
 70
    33
 71
     5
 42
0.7700000000018008
 73
     0
 74
     0
 75
     0
  3
Guztion
100
AcDbAlignedDimension
 13
2875.954404687929
 23
878.4015316014333
 33
0.0
 14
2876.724404687931
 24
878.4015316014329
 34
0.0
  0
DIMENSION
  5
5B84
102
{ACAD_XDICTIONARY
360
5B91
102
}
102
{ACAD_REACTORS
330
5B9B
102
}
330
1F
100
AcDbEntity
  8
7.3. Kota
100
AcDbDimension
280
     0
  2
*D137
 10
2877.58440468793
 20
878.6105072180445
 30
0.0
 11
2877.19940468793
 21
878.737093166203
 31
0.0
 70
    32
 71
     5
 42
0.7700000000008913
 73
     0
 74
     0
 75
     0
  3
Guztion
100
AcDbAlignedDimension
 13
2876.814404687929
 23
878.4015316014331
 33
0.0
 14
2877.58440468793
 24
878.4015316014331
 34
0.0
 50
179.9999999999746
100
AcDbRotatedDimension
1001
ACAD
1000
DSTYLE
1002
{
1070
   279
1070
     1
1002
}
  0
DIMENSION
  5
5B9C
102
{ACAD_XDICTIONARY
360
5BA9
102
}
102
{ACAD_REACTORS
330
5BB3
102
}
330
1F
100
AcDbEntity
  8
7.3. Kota
100
AcDbDimension
280
     0
  2
*D138
 10
2875.073986916511
 20
878.2015316014318
 30
0.0
 11
2874.947400968353
 21
874.5715316014328
 31
0.0
 70
    33
 71
     5
 42
7.259999999998854
 73
     0
 74
     0
 75
     0
  3
Guztion
100
AcDbAlignedDimension
 13
2875.754404687929
 23
870.9415316014329
 33
0.0
 14
2875.754404687929
 24
878.2015316014318
 34
0.0
  0
DIMENSION
  5
5BB4
102
{ACAD_XDICTIONARY
360
5BC1
102
}
102
{ACAD_REACTORS
330
5BCB
102
}
330
1F
100
AcDbEntity
  8
7.3. Kota
100
AcDbDimension
280
     0
  2
*D139
 10
2875.47472539157
 20
875.6615316014324
 30
0.0
 11
2875.348139443412
 21
876.9315316014326
 31
0.0
 70
    33
 71
     5
 42
2.539999999999508
 73
     0
 74
     0
 75
     0
  3
Guztion
100
AcDbAlignedDimension
 13
2875.75440468793
 23
878.2015316014318
 33
0.0
 14
2875.754404687929
 24
875.6615316014324
 34
0.0
  0
MTEXT
  5
5BE4
330
1F
100
AcDbEntity
  8
7.2. Idatzia
100
AcDbMText
 10
2881.087606994872
 20
885.1704652421487
 30
0.0
 40
0.25
 41
3.934541634584093
 46
0.0
 71
     1
 72
     5
  1
H=2.35m
 73
     1
 44
1.0
1001
ACAD
1000
ACAD_MTEXT_COLUMN_INFO_BEGIN
1070
    75
1070
     2
1070
    79
1070
     0
1070
    76
1070
     1
1070
    78
1070
     0
1070
    48
1040
3.934541634584093
1070
    49
1040
12.5
1070
    50
1070
     1
1040
0.0
1000
ACAD_MTEXT_COLUMN_INFO_END
  0
MTEXT
  5
5BE5
330
1F
100
AcDbEntity
  8
7.2. Idatzia
100
AcDbMText
 10
2881.595835447214
 20
879.5862852845925
 30
0.0
 40
0.25
 41
3.934541634584093
 46
0.0
 71
     1
 72
     5
  1
H=2.90m
 73
     1
 44
1.0
1001
ACAD
1000
ACAD_MTEXT_COLUMN_INFO_BEGIN
1070
    75
1070
     2
1070
    79
1070
     0
1070
    76
1070
     1
1070
    78
1070
     0
1070
    48
1040
3.934541634584093
1070
    49
1040
12.5
1070
    50
1070
     1
1040
0.0
1000
ACAD_MTEXT_COLUMN_INFO_END
  0
MTEXT
  5
5BE6
330
1F
100
AcDbEntity
  8
7.2. Idatzia
100
AcDbMText
 10
2881.291633891898
 20
882.7769633628996
 30
0.0
 40
0.25
 41
3.934541634584093
 46
0.0
 71
     1
 72
     5
  1
H=2.90m
 73
     1
 44
1.0
1001
ACAD
1000
ACAD_MTEXT_COLUMN_INFO_BEGIN
1070
    75
1070
     2
1070
    79
1070
     0
1070
    76
1070
     1
1070
    78
1070
     0
1070
    48
1040
3.934541634584093
1070
    49
1040
12.5
1070
    50
1070
     1
1040
0.0
1000
ACAD_MTEXT_COLUMN_INFO_END
  0
LWPOLYLINE
  5
5C17
330
1F
100
AcDbEntity
  8
7.1. Azalera erabilgarria
100
AcDbPolyline
 90
       75
 70
     1
 43
0.0
 10
2875.95440468793
 20
871.4715316014329
 10
2876.16440468793
 20
871.4715316014329
 10
2876.16440468793
 20
870.591531601433
 10
2879.494404687929
 20
870.591531601433
 10
2879.49440468793
 20
871.5015316014328
 10
2880.36440468793
 20
871.5015316014323
 10
2880.36440468793
 20
870.591531601433
 10
2884.80440468793
 20
870.591531601433
 10
2884.80440468793
 20
871.5415316014322
 10
2884.704404687931
 20
871.541531601432
 10
2884.70440468793
 20
871.6415316014321
 10
2884.804404687931
 20
871.6415316014321
 10
2884.80440468793
 20
874.2015316014322
 10
2884.24440468793
 20
874.2015316014322
 10
2884.24440468793
 20
875.1115316014322
 10
2884.80440468793
 20
875.1115316014322
 10
2884.80440468793
 20
877.8415316014323
 10
2883.73440468793
 20
877.8415316014323
 10
2883.73440468793
 20
878.2915316014323
 10
2884.80440468793
 20
878.2915316014323
 10
2884.80440468793
 20
880.7115316014321
 10
2882.674404687931
 20
880.7115316014224
 10
2882.674404687931
 20
880.8115316014296
 10
2883.224404687931
 20
880.8115316014323
 10
2883.22440468799
 20
884.1015316014321
 10
2882.114404687931
 20
884.1015316014321
 10
2882.114404687931
 20
884.201531601432
 10
2883.22440468799
 20
884.201531601432
 10
2883.224404687931
 20
886.0015316014321
 10
2880.89440468793
 20
886.0015316014321
 10
2880.89440468793
 20
885.5715316014322
 10
2880.46440468793
 20
885.5715316014322
 10
2880.46440468793
 20
884.201531601432
 10
2881.31440468793
 20
884.2015316014322
 10
2881.31440468793
 20
884.1015316014321
 10
2880.46440468793
 20
884.1015316014321
 10
2880.464404687929
 20
881.5115316014324
 10
2880.89440468793
 20
881.5115316014322
 10
2880.89440468793
 20
880.8115316014323
 10
2881.75440468793
 20
880.8115316014317
 10
2881.75440468793
 20
880.7115316014321
 10
2880.46440468793
 20
880.7115316014323
 10
2880.46440468793
 20
878.2915316014323
 10
2882.44440468793
 20
878.2915316014323
 10
2882.44440468793
 20
878.1915316014323
 10
2880.46440468793
 20
878.1915316014323
 10
2880.464404687929
 20
877.8815316014325
 10
2880.15440468793
 20
877.8815316014323
 10
2880.15440468793
 20
876.6415316014324
 10
2877.68440468793
 20
876.641531601429
 10
2877.68440468793
 20
876.5815316014325
 10
2877.584712356199
 20
876.5815316014325
 10
2877.584712356198
 20
876.6415316014127
 10
2877.559712356204
 20
876.6415316014127
 10
2877.559712356204
 20
876.741531601433
 10
2877.584404687928
 20
876.741531601433
 10
2877.584404687929
 20
878.2015316014327
 10
2876.814404687929
 20
878.2015316014323
 10
2876.814558522064
 20
876.741531601433
 10
2876.839558522064
 20
876.741531601433
 10
2876.839712356203
 20
876.6415316014331
 10
2876.699404687931
 20
876.6415316014327
 10
2876.699404687931
 20
876.7415316014327
 10
2876.72440468793
 20
876.7415316014327
 10
2876.724404687929
 20
878.2015316014323
 10
2875.954404687929
 20
878.2015316014321
 10
2875.954404687931
 20
875.6615316014322
 10
2876.22440468793
 20
875.6615316014322
 10
2877.58440468793
 20
875.6615316014325
 10
2877.58440468793
 20
875.7615316014327
 10
2877.68440468793
 20
875.7615316014327
 10
2877.68440468793
 20
875.5615316014328
 10
2876.224404687931
 20
875.5615316014321
 10
2876.22440468793
 20
874.7215316014317
 10
2875.95440468793
 20
874.7215316014317
  0
LWPOLYLINE
  5
5C18
330
1F
100
AcDbEntity
  8
7.1. Azalera erabilgarria
100
AcDbPolyline
 90
        4
 70
     1
 43
0.0
 10
2879.47440468793
 20
875.2915316014325
 10
2880.47440468793
 20
875.2915316014325
 10
2880.47440468793
 20
874.2915316014327
 10
2879.47440468793
 20
874.2915316014327
  0
MTEXT
  5
9605
330
1F
100
AcDbEntity
  8
7.2. Idatzia
100
AcDbMText
 10
2882.040570963194
 20
869.2753042223015
 30
0.0
 40
0.25
 41
3.934541634584093
 46
0.0
 71
     1
 72
     5
  1
A{\H0.5x;eraikia }= 94.42 m{\fISOCPEUR|b0|i0|c0|p34;²}
 73
     1
 44
1.0
1001
ACAD
1000
ACAD_MTEXT_COLUMN_INFO_BEGIN
1070
    75
1070
     2
1070
    79
1070
     0
1070
    76
1070
     1
1070
    78
1070
     0
1070
    48
1040
3.934541634584093
1070
    49
1040
12.5
1070
    50
1070
     1
1040
0.0
1000
ACAD_MTEXT_COLUMN_INFO_END
  0
LWPOLYLINE
  5
961D
330
1F
100
AcDbEntity
  8
7.1.1. Azalera eraikia
100
AcDbPolyline
 90
       14
 70
     1
 43
0.0
 10
2875.85440468793
 20
870.5915316014326
 10
2875.85440468793
 20
878.3015316014326
 10
2877.68440468793
 20
878.3015316014326
 10
2877.68440468793
 20
876.7415316014231
 10
2880.05440468793
 20
876.7415316014231
 10
2880.05440468793
 20
877.9815316014326
 10
2880.364404687929
 20
877.9815316014326
 10
2880.364404687929
 20
880.5615316014327
 10
2880.114404687931
 20
880.5615316014327
 10
2880.114404687931
 20
886.1015316014317
 10
2883.324404687931
 20
886.1015316014317
 10
2883.324404687931
 20
880.8115316014319
 10
2884.90440468793
 20
880.8115316014319
 10
2884.90440468793
 20
870.591531601433
  0
IMAGE
  5
98F8
330
1F
100
AcDbEntity
  8
1.1. Armarria
 62
     7
420
 16777215
160
               140
310
8C000000010000008400000006000000050000008358434E5460A640D44B8CDFDF8E8C4000000000000000008358434E5460A64088D31EEC128F8C40000000000000000091A17C315F60A64088D31EEC128F8C40000000000000000091A17C315F60A640D44B8CDFDF8E8C4000000000000000008358434E5460A640D44B8C
310
DFDF8E8C400000000000000000
100
AcDbRasterImage
 90
        0
 10
2864.164659599833
 20
913.8593131027832
 30
0.0
 11
0.0001408266873892
 21
0.0
 31
0.0
 12
0.0
 22
0.0001408266873892
 32
0.0
 13
151.0
 23
177.0
340
2E2
 70
     7
280
     0
281
    50
282
    50
283
     0
290
     0
360
98F9
 71
     1
 91
        2
 14
-0.5
 24
-0.5
 14
150.5
 24
176.5
  0
IMAGE
  5
98FA
330
1F
100
AcDbEntity
  8
1.1. Armarria
160
               140
310
8C00000001000000840000000600000005000000DA6F8EFF5360A640602EA8FBDC8E8C400000000000000000DA6F8EFF5360A6405C6FC245118F8C400000000000000000C68280265F60A6405C6FC245118F8C400000000000000000C68280265F60A640602EA8FBDC8E8C400000000000000000DA6F8EFF5360A640602EA8
310
FBDC8E8C400000000000000000
100
AcDbRasterImage
 90
        0
 10
2864.164059115557
 20
913.857901872554
 30
0.0
 11
0.0001442483864702
 21
0.0
 31
0.0
 12
0.0
 22
0.0001442483864702
 32
0.0
 13
151.0
 23
177.0
340
9835
 70
     7
280
     0
281
    50
282
    50
283
     0
290
     0
360
98FB
 71
     1
 91
        2
 14
-0.5
 24
-0.5
 14
150.5
 24
176.5
  0
VIEWPORT
  5
2CF4
102
{ACAD_XDICTIONARY
360
2CF5
102
}
330
2CF2
100
AcDbEntity
 67
     1
  8
0
100
AcDbViewport
 10
0.196556531462307
 20
0.4381718725510311
 30
0.0
 40
0.8691319104310291
 41
0.3319975931149584
 68
     2
 69
     1
 12
0.196556531462307
 22
0.4381718725510311
 13
0.0
 23
0.0
 14
10.0
 24
10.0
 15
10.0
 25
10.0
 16
0.0
 26
0.0
 36
1.0
 17
0.0
 27
0.0
 37
0.0
 42
50.0
 43
0.0
 44
0.0
 45
0.3319975931149584
 50
0.0
 51
0.0
 72
  1000
 90
   819232
  1

281
     0
 71
     1
 74
     0
110
0.0
120
0.0
130
0.0
111
1.0
121
0.0
131
0.0
112
0.0
122
1.0
132
0.0
 79
     0
146
0.0
170
     0
 61
     5
348
F5
292
     1
282
     1
141
0.0
142
0.0
 63
   250
421
  3355443
  0
VIEWPORT
  5
2CF7
102
{ACAD_XDICTIONARY
360
2CF8
102
}
330
2CF2
100
AcDbEntity
 67
     1
  8
0
100
AcDbViewport
 10
128.5
 20
97.5
 30
0.0
 40
205.6
 41
156.0
 68
    -1
 69
     2
 12
2430.557043024972
 22
927.4626459547476
 13
0.0
 23
0.0
 14
10.0
 24
10.0
 15
10.0
 25
10.0
 16
0.0
 26
0.0
 36
1.0
 17
0.0
 27
0.0
 37
0.0
 42
50.0
 43
0.0
 44
0.0
 45
103.1514029277946
 50
0.0
 51
0.0
 72
  1000
 90
   819296
  1

281
     0
 71
     1
 74
     0
110
0.0
120
0.0
130
0.0
111
1.0
121
0.0
131
0.0
112
0.0
122
1.0
132
0.0
 79
     0
146
0.0
170
     0
 61
     5
348
F5
292
     1
282
     1
141
0.0
142
0.0
 63
   250
421
  3355443
  0
LWPOLYLINE
  5
2CFA
330
2CF2
100
AcDbEntity
 67
     1
  8
1.7. Ventanas Gráficas
100
AcDbPolyline
 90
        4
 70
     1
 43
0.0
 10
-0.0018762920232689
 20
0.2812602170592981
 10
0.2081237079767311
 20
0.2812602170592981
 10
0.2081237079767311
 20
0.5782602170592981
 10
-0.0018762920232689
 20
0.5782602170592981
  0
VIEWPORT
  5
2CFB
102
{ACAD_XDICTIONARY
360
2CFC
102
}
330
2CF2
100
AcDbEntity
 67
     1
  8
1.7. Ventanas Gráficas
100
AcDbViewport
 10
0.1031310771647043
 20
0.4297528240861653
 30
0.0
 40
0.1983417124039874
 41
0.275393485691211
 68
     1
 69
     3
 12
2864.261187876162
 22
913.9820922887416
 13
0.0
 23
0.0
 14
10.0
 24
10.0
 15
10.0
 25
10.0
 16
0.0
 26
0.0
 36
1.0
 17
0.0
 27
0.0
 37
0.0
 42
50.0
 43
0.0
 44
0.0
 45
0.2753935332049024
 50
0.0
 51
0.0
 72
  1000
 90
   819296
  1

281
     0
 71
     1
 74
     0
110
0.0
120
0.0
130
0.0
111
1.0
121
0.0
131
0.0
112
0.0
122
1.0
132
0.0
 79
     0
146
0.0
170
     0
 61
     5
348
F5
292
     1
282
     1
141
0.0
142
0.0
 63
   250
421
  3355443
  0
VIEWPORT
  5
5572
102
{ACAD_XDICTIONARY
360
5573
102
}
330
2CF2
100
AcDbEntity
 67
     1
  8
1.7. Ventanas Gráficas
100
AcDbViewport
 10
0.1035107262447354
 20
0.4527912130718193
 30
0.0
 40
0.1793724625341611
 41
0.2150359382864906
 68
     3
 69
     4
 12
2880.825134433481
 22
877.9878761219858
 13
0.0
 23
0.0
 14
10.0
 24
10.0
 15
10.0
 25
10.0
 16
0.0
 26
0.0
 36
1.0
 17
0.0
 27
0.0
 37
0.0
 42
50.0
 43
0.0
 44
0.0
 45
21.50359569448315
 50
0.0
 51
0.0
 72
  1000
 90
   819296
  1

281
     0
 71
     1
 74
     0
110
0.0
120
0.0
130
0.0
111
1.0
121
0.0
131
0.0
112
0.0
122
1.0
132
0.0
 79
     0
146
0.0
170
     0
 61
     5
348
F5
292
     1
282
     1
141
0.0
142
0.0
 63
   250
421
  3355443
  0
ENDSEC
  0
SECTION
  2
OBJECTS
  0
DICTIONARY
  5
C
330
0
100
AcDbDictionary
281
     1
  3
ACAD_BACKGROUND
350
222A
  3
ACAD_CIP_PREVIOUS_PRODUCT_INFO
350
216
  3
ACAD_COLOR
350
6B
  3
ACAD_DETAILVIEWSTYLE
350
21B
  3
ACAD_GROUP
350
D
  3
ACAD_IMAGE_DICT
350
2E0
  3
ACAD_IMAGE_VARS
350
2E1
  3
ACAD_LAYOUT
350
1A
  3
ACAD_MATERIAL
350
6A
  3
ACAD_MLEADERSTYLE
350
12D
  3
ACAD_MLINESTYLE
350
17
  3
ACAD_PLOTSETTINGS
350
19
  3
ACAD_PLOTSTYLENAME
350
E
  3
ACAD_SCALELIST
350
10C
  3
ACAD_SECTIONVIEWSTYLE
350
219
  3
ACAD_TABLESTYLE
350
7E
  3
ACAD_VISUALSTYLE
350
EF
  3
ACDB_RECOMPOSE_DATA
350
99F1
  3
AcDbVariableDictionary
350
5E
  3
AEC_PROPERTY_SET_DEFS
350
18A3
  0
DICTIONARY
  5
1FF
330
2
100
AcDbDictionary
280
     1
281
     1
  3
ACAD_LAYERFILTERS
360
9234
  3
ACAD_LAYERSTATES
360
200
  3
ACLYDICTIONARY
360
9233
  0
DICTIONARY
  5
13C
330
10
100
AcDbDictionary
280
     1
281
     1
  0
DICTIONARY
  5
6C7
330
6C6
100
AcDbDictionary
280
     1
281
     1
  0
DICTIONARY
  5
916A
330
9169
100
AcDbDictionary
280
     1
281
     1
  0
DICTIONARY
  5
1CE
330
1F
100
AcDbDictionary
280
     1
281
     1
  3
ACAD_SORTENTS
360
254
  0
DICTIONARY
  5
2645
330
2643
100
AcDbDictionary
280
     1
281
     1
  3
ACAD_SORTENTS
360
2646
  0
DICTIONARY
  5
9170
330
916E
100
AcDbDictionary
280
     1
281
     1
  3
ACAD_SORTENTS
360
9171
  0
DICTIONARY
  5
2AF4
330
2AF3
100
AcDbDictionary
280
     1
281
     1
  3
ASDK_XREC_ANNOTATION_SCALE_INFO
360
2AF5
  0
DICTIONARY
  5
2AF8
330
2AF7
100
AcDbDictionary
280
     1
281
     1
  3
ASDK_XREC_ANNOTATION_SCALE_INFO
360
2AF9
  0
IMAGEDEF_REACTOR
  5
29FB
330
29FA
100
AcDbRasterImageDefReactor
 90
        2
330
29FA
  0
DICTIONARY
  5
56C2
330
56B5
100
AcDbDictionary
280
     1
281
     1
  3
ACAD_DIMASSOC
360
56CC
  0
DICTIONARY
  5
56DA
330
56CD
100
AcDbDictionary
280
     1
281
     1
  3
ACAD_DIMASSOC
360
56E4
  0
DICTIONARY
  5
56F2
330
56E5
100
AcDbDictionary
280
     1
281
     1
  3
ACAD_DIMASSOC
360
56FC
  0
DICTIONARY
  5
570A
330
56FD
100
AcDbDictionary
280
     1
281
     1
  3
ACAD_DIMASSOC
360
5714
  0
DICTIONARY
  5
5722
330
5715
100
AcDbDictionary
280
     1
281
     1
  3
ACAD_DIMASSOC
360
572C
  0
DICTIONARY
  5
58C4
330
58B7
100
AcDbDictionary
280
     1
281
     1
  3
ACAD_DIMASSOC
360
58CE
  0
DICTIONARY
  5
58DC
330
58CF
100
AcDbDictionary
280
     1
281
     1
  3
ACAD_DIMASSOC
360
58E6
  0
DICTIONARY
  5
5916
330
5909
100
AcDbDictionary
280
     1
281
     1
  3
ACAD_DIMASSOC
360
5920
  0
DICTIONARY
  5
592E
330
5921
100
AcDbDictionary
280
     1
281
     1
  3
ACAD_DIMASSOC
360
5938
  0
DICTIONARY
  5
5946
330
5939
100
AcDbDictionary
280
     1
281
     1
  3
ACAD_DIMASSOC
360
5950
  0
DICTIONARY
  5
597A
330
596D
100
AcDbDictionary
280
     1
281
     1
  3
ACAD_DIMASSOC
360
5984
  0
DICTIONARY
  5
59C4
330
59B7
100
AcDbDictionary
280
     1
281
     1
  3
ACAD_DIMASSOC
360
59CE
  0
DICTIONARY
  5
59DC
330
59CF
100
AcDbDictionary
280
     1
281
     1
  3
ACAD_DIMASSOC
360
59E6
  0
DICTIONARY
  5
59F4
330
59E7
100
AcDbDictionary
280
     1
281
     1
  3
ACAD_DIMASSOC
360
59FE
  0
DICTIONARY
  5
5A0C
330
59FF
100
AcDbDictionary
280
     1
281
     1
  3
ACAD_DIMASSOC
360
5A16
  0
DICTIONARY
  5
5A24
330
5A17
100
AcDbDictionary
280
     1
281
     1
  3
ACAD_DIMASSOC
360
5A2E
  0
DICTIONARY
  5
5A3A
330
5A2F
100
AcDbDictionary
280
     1
281
     1
  3
ACAD_DIMASSOC
360
5A42
  0
DICTIONARY
  5
5A4E
330
5A43
100
AcDbDictionary
280
     1
281
     1
  3
ACAD_DIMASSOC
360
5A56
  0
DICTIONARY
  5
5A62
330
5A57
100
AcDbDictionary
280
     1
281
     1
  3
ACAD_DIMASSOC
360
5A6A
  0
DICTIONARY
  5
5ABB
330
5AAE
100
AcDbDictionary
280
     1
281
     1
  3
ACAD_DIMASSOC
360
5AC5
  0
DICTIONARY
  5
5AD3
330
5AC6
100
AcDbDictionary
280
     1
281
     1
  3
ACAD_DIMASSOC
360
5ADD
  0
DICTIONARY
  5
5AEB
330
5ADE
100
AcDbDictionary
280
     1
281
     1
  3
ACAD_DIMASSOC
360
5AF5
  0
DICTIONARY
  5
5B0F
330
5B02
100
AcDbDictionary
280
     1
281
     1
  3
ACAD_DIMASSOC
360
5B19
  0
DICTIONARY
  5
5B27
330
5B1A
100
AcDbDictionary
280
     1
281
     1
  3
ACAD_DIMASSOC
360
5B31
  0
DICTIONARY
  5
5B3F
330
5B32
100
AcDbDictionary
280
     1
281
     1
  3
ACAD_DIMASSOC
360
5B49
  0
DICTIONARY
  5
5B57
330
5B4A
100
AcDbDictionary
280
     1
281
     1
  3
ACAD_DIMASSOC
360
5B61
  0
DICTIONARY
  5
5B91
330
5B84
100
AcDbDictionary
280
     1
281
     1
  3
ACAD_DIMASSOC
360
5B9B
  0
DICTIONARY
  5
5BA9
330
5B9C
100
AcDbDictionary
280
     1
281
     1
  3
ACAD_DIMASSOC
360
5BB3
  0
DICTIONARY
  5
5BC1
330
5BB4
100
AcDbDictionary
280
     1
281
     1
  3
ACAD_DIMASSOC
360
5BCB
  0
IMAGEDEF_REACTOR
  5
98F9
330
98F8
100
AcDbRasterImageDefReactor
 90
        2
330
98F8
  0
IMAGEDEF_REACTOR
  5
98FB
330
98FA
100
AcDbRasterImageDefReactor
 90
        2
330
98FA
  0
DICTIONARY
  5
2CF5
330
2CF4
100
AcDbDictionary
280
     1
281
     1
  3
ASDK_XREC_ANNOTATION_SCALE_INFO
360
2CF6
  0
DICTIONARY
  5
2CF8
330
2CF7
100
AcDbDictionary
280
     1
281
     1
  3
ASDK_XREC_ANNOTATION_SCALE_INFO
360
2CF9
  0
DICTIONARY
  5
2CFC
330
2CFB
100
AcDbDictionary
280
     1
281
     1
  3
ASDK_XREC_ANNOTATION_SCALE_INFO
360
2CFD
  0
DICTIONARY
  5
5573
330
5572
100
AcDbDictionary
280
     1
281
     1
  3
ASDK_XREC_ANNOTATION_SCALE_INFO
360
5574
  0
DICTIONARY
  5
222A
102
{ACAD_REACTORS
330
C
102
}
330
C
100
AcDbDictionary
281
     1
  0
XRECORD
  5
216
102
{ACAD_REACTORS
330
C
102
}
330
C
100
AcDbXrecord
280
     1
300
ACD
300
2015
300
ACD_F_S
  0
DICTIONARY
  5
6B
102
{ACAD_REACTORS
330
C
102
}
330
C
100
AcDbDictionary
281
     1
  0
DICTIONARY
  5
21B
102
{ACAD_REACTORS
330
C
102
}
330
C
100
AcDbDictionary
281
     1
  3
Imperial24
350
188F
  3
Metric50
350
21C
  0
DICTIONARY
  5
D
102
{ACAD_REACTORS
330
C
102
}
330
C
100
AcDbDictionary
281
     1
  0
DICTIONARY
  5
2E0
102
{ACAD_REACTORS
330
C
102
}
330
C
100
AcDbDictionary
281
     1
  3
Andoain
350
883
  3
Astigarraga
350
A1D
  3
Hernani
350
A20
  3
Lasarte_Oria
350
A38
  3
Urnieta
350
A0E
  3
Usurbil
350
2E2
  3
Usurbil_1
350
9835
  0
RASTERVARIABLES
  5
2E1
102
{ACAD_REACTORS
330
C
102
}
330
C
100
AcDbRasterVariables
 90
        0
 70
     1
 71
     1
 72
     1
  0
DICTIONARY
  5
1A
102
{ACAD_REACTORS
330
C
102
}
330
C
100
AcDbDictionary
281
     1
  3
44
350
2CFF
  3
Model
350
22
  3
Presentación2
350
D7
  0
DICTIONARY
  5
6A
102
{ACAD_REACTORS
330
C
102
}
330
C
100
AcDbDictionary
281
     1
  3
ByBlock
350
ED
  3
ByLayer
350
EC
  3
Global
350
EE
  0
DICTIONARY
  5
12D
102
{ACAD_REACTORS
330
C
102
}
330
C
100
AcDbDictionary
281
     1
  3
Anotativo
350
13B
  3
Standard
350
12E
  0
DICTIONARY
  5
17
102
{ACAD_REACTORS
330
C
102
}
330
C
100
AcDbDictionary
281
     1
  3
Standard
350
18
  0
DICTIONARY
  5
19
102
{ACAD_REACTORS
330
C
102
}
330
C
100
AcDbDictionary
281
     1
  0
ACDBDICTIONARYWDFLT
  5
E
102
{ACAD_REACTORS
330
C
102
}
330
C
100
AcDbDictionary
281
     1
  3
Normal
350
F
100
AcDbDictionaryWithDefault
340
F
  0
DICTIONARY
  5
10C
102
{ACAD_REACTORS
330
C
102
}
330
C
100
AcDbDictionary
281
     1
  3
A0
350
10D
  3
A1
350
4B1
  3
A2
350
4B2
  3
A3
350
4B3
  3
A4
350
4B4
  3
A5
350
4B5
  3
A6
350
4B6
  3
A7
350
4B7
  3
A8
350
4B8
  3
A9
350
4B9
  3
B0
350
4BA
  3
B1
350
4BB
  3
B2
350
1C8
  3
B3
350
4BC
  3
B4
350
4BD
  3
B5
350
4BE
  3
B6
350
4BF
  3
B7
350
4C0
  0
DICTIONARY
  5
219
102
{ACAD_REACTORS
330
C
102
}
330
C
100
AcDbDictionary
281
     1
  3
Imperial24
350
188E
  3
Metric50
350
21A
  0
DICTIONARY
  5
7E
102
{ACAD_REACTORS
330
C
102
}
330
C
100
AcDbDictionary
281
     1
  3
Standard
350
7F
  0
DICTIONARY
  5
EF
102
{ACAD_REACTORS
330
C
102
}
330
C
100
AcDbDictionary
281
     1
  3
2dWireframe
350
F5
  3
Basic
350
F4
  3
Brighten
350
FB
  3
ColorChange
350
FF
  3
Conceptual
350
F8
  3
Dim
350
FA
  3
EdgeColorOff
350
1E6
  3
Facepattern
350
FE
  3
Flat
350
F0
  3
FlatWithEdges
350
F1
  3
Gouraud
350
F2
  3
GouraudWithEdges
350
F3
  3
Hidden
350
F7
  3
JitterOff
350
1E4
  3
Linepattern
350
FD
  3
OverhangOff
350
1E5
  3
Realistic
350
F9
  3
Shaded
350
1F3
  3
Shaded with edges
350
1F2
  3
Shades of Gray
350
1EF
  3
Sketchy
350
1F0
  3
Thicken
350
FC
  3
Wireframe
350
F6
  3
X-Ray
350
1F1
  0
XRECORD
  5
99F1
102
{ACAD_REACTORS
330
C
102
}
330
C
100
AcDbXrecord
280
     1
 90
        1
330
7F
330
21A
330
21C
330
188E
330
188F
330
3229
330
56B3
330
56B4
330
5BE4
330
5BE5
330
5BE6
330
9605
  0
DICTIONARY
  5
5E
102
{ACAD_REACTORS
330
C
102
}
330
C
100
AcDbDictionary
281
     1
  3
CANNOSCALE
350
146
  3
CMLEADERSTYLE
350
145
  3
CTABLESTYLE
350
84
  3
CVIEWDETAILSTYLE
350
227
  3
CVIEWSECTIONSTYLE
350
228
  3
DIMASSOC
350
5F
  3
HIDETEXT
350
63
  3
LAYEREVAL
350
1AE
  3
LAYERNOTIFY
350
1AF
  0
DICTIONARY
  5
18A3
102
{ACAD_REACTORS
330
C
102
}
330
C
100
AcDbDictionary
281
     1
  0
DICTIONARY
  5
9234
102
{ACAD_REACTORS
330
1FF
102
}
330
1FF
100
AcDbDictionary
281
     1
  0
DICTIONARY
  5
200
102
{ACAD_REACTORS
330
1FF
102
}
330
1FF
100
AcDbDictionary
281
     1
  0
DICTIONARY
  5
9233
102
{ACAD_REACTORS
330
1FF
102
}
330
1FF
100
AcDbDictionary
281
     1
  3
*A1
350
9235
  3
*A2
350
9236
  3
*A3
350
9237
  3
*A4
350
9238
  3
*A5
350
9239
  3
*A6
350
923A
  3
*A7
350
923B
  3
*A8
350
923C
  0
SORTENTSTABLE
  5
254
102
{ACAD_REACTORS
330
1CE
102
}
330
1CE
100
AcDbSortentsTable
330
1F
331
3433
  5
37B6
331
324A
  5
3572
331
2A33
  5
3066
331
35BC
  5
39A9
331
33B3
  5
370F
331
58B7
  5
65F3
331
3474
  5
3835
331
3278
  5
3693
331
3235
  5
3592
331
2A1E
  5
2FF7
331
32CE
  5
36B7
331
33FC
  5
376D
331
3EBD
  5
5EF4
331
2A09
  5
2FAB
331
3266
  5
3656
331
5BE5
  5
6612
331
3249
  5
3597
331
2A32
  5
3065
331
29F7
  5
2EEE
331
35BB
  5
3945
331
33B2
  5
370E
331
3473
  5
3834
331
34CE
  5
388A
331
3234
  5
3582
331
2A1D
  5
2FF6
331
34B9
  5
386A
331
33FB
  5
376C
331
345E
  5
3819
331
2A08
  5
2FAA
331
3265
  5
3636
331
5BE4
  5
6611
331
56A6
  5
12BE
331
348F
  5
3841
331
3572
  5
389B
331
3248
  5
3571
331
2A31
  5
3064
331
29F6
  5
2EED
331
35BA
  5
3947
331
33B1
  5
370D
331
3472
  5
3833
331
34CD
  5
3889
331
340F
  5
37AE
331
2A1C
  5
2FF4
331
5B1A
  5
660B
331
56FD
  5
65E8
331
33FA
  5
3769
331
34B8
  5
3869
331
3430
  5
37B5
331
348E
  5
3840
331
3571
  5
389A
331
329A
  5
369A
331
2A30
  5
3063
331
29F5
  5
2EEC
331
337B
  5
36FE
331
35B9
  5
3946
331
33B0
  5
370C
331
3471
  5
3832
331
34CC
  5
3870
331
340E
  5
37AD
331
3232
  5
3558
331
2A1B
  5
2FF3
331
5B9C
  5
660F
331
33F9
  5
3767
331
2A44
  5
3083
331
3397
  5
3701
331
3570
  5
388E
331
3246
  5
359A
331
2A2F
  5
3056
331
29F4
  5
2EEB
331
55F7
  5
12BD
331
337A
  5
35C9
331
32E7
  5
3400
331
35B8
  5
3942
331
340D
  5
37AC
331
34CB
  5
3709
331
2A1A
  5
2FF2
331
29E7
  5
2EC7
331
3277
  5
368C
331
572E
  5
65ED
331
33F8
  5
3766
331
59FF
  5
65FF
331
2A43
  5
3082
331
348C
  5
383F
331
59B7
  5
65FB
331
2A2E
  5
3055
331
29F3
  5
2EEA
331
32E6
  5
36BF
331
3379
  5
367D
331
340C
  5
37AB
331
34CA
  5
386F
331
2A19
  5
2FF1
331
32C9
  5
36B6
331
3276
  5
368A
331
572D
  5
65EC
331
33F7
  5
3765
331
345A
  5
3817
331
56E5
  5
65E5
331
2A42
  5
3081
331
2A07
  5
2FA9
331
33C2
  5
3745
331
59B6
  5
65FA
331
29F2
  5
1280
331
2A2D
  5
3035
331
3378
  5
34D5
331
32E5
  5
33FE
331
961D
  5
9658
331
340B
  5
37AA
331
34C9
  5
386E
331
2A18
  5
2FF0
331
5AA0
  5
6605
331
32C8
  5
36B5
331
333B
  5
36FC
331
3275
  5
3683
331
33F6
  5
3764
331
3459
  5
37E0
331
3582
  5
38C5
331
2A41
  5
3080
331
2A06
  5
2FA8
331
33C1
  5
3744
331
342F
  5
1305
331
59B5
  5
65F9
331
3243
  5
3577
331
2A2C
  5
3032
331
29F1
  5
2EE9
331
33AF
  5
34D6
331
340A
  5
37A9
331
34C8
  5
386D
331
32C7
  5
36B4
331
33F5
  5
3763
331
3458
  5
37DF
331
3257
  5
35BB
331
2A40
  5
1286
331
2A05
  5
2FA5
331
33C0
  5
3743
331
342E
  5
37B3
331
3489
  5
383E
331
59E7
  5
65FD
331
3242
  5
3598
331
2A2B
  5
3030
331
29F0
  5
2EE8
331
5BB4
  5
6610
331
35B7
  5
3599
331
3409
  5
37A8
331
3464
  5
370B
331
32C6
  5
36B3
331
5A43
  5
6602
331
3273
  5
3635
331
33F4
  5
375E
331
3256
  5
35B9
331
2A3F
  5
307F
331
2A04
  5
2FA4
331
5B02
  5
660A
331
3488
  5
383D
331
3563
  5
128C
331
29EF
  5
127D
331
2A2A
  5
302F
331
5A57
  5
6603
331
5909
  5
65F5
331
35B6
  5
3943
331
3408
  5
37A7
331
3463
  5
3831
331
32C5
  5
36A6
331
3338
  5
36F9
331
322F
  5
357C
331
3272
  5
35BC
331
33F3
  5
375D
331
32B8
  5
36A4
331
3255
  5
35B8
331
2A3E
  5
307E
331
2A03
  5
2FA3
331
3306
  5
36D1
331
5AC6
  5
6608
331
3487
  5
383C
331
29EE
  5
2EE7
331
2A29
  5
302E
331
35B5
  5
393D
331
3407
  5
37A6
331
3462
  5
34F0
331
33AC
  5
370A
331
322E
  5
357B
331
3271
  5
35CA
331
2A17
  5
2FEF
331
5C18
  5
6615
331
33F2
  5
375C
331
3254
  5
35B7
331
5695
  5
12BC
331
2A02
  5
2FA2
331
2A3D
  5
3072
331
3486
  5
383B
331
29ED
  5
2EE6
331
2A28
  5
302D
331
328D
  5
36A3
331
336B
  5
3578
331
35B4
  5
393C
331
3406
  5
37A5
331
3461
  5
3830
331
33AB
  5
3705
331
34C7
  5
386C
331
322D
  5
357A
331
3270
  5
3682
331
2A16
  5
2FED
331
33F1
  5
375B
331
3457
  5
37DE
331
3253
  5
35B6
331
2A01
  5
2FA1
331
2A3C
  5
3071
331
5715
  5
65F2
331
3485
  5
383A
331
33BF
  5
3742
331
29EC
  5
1273
331
328C
  5
36A1
331
56CD
  5
65E4
331
3405
  5
37A4
331
3460
  5
381A
331
33AA
  5
3707
331
326F
  5
3681
331
2A15
  5
2FEC
331
33F0
  5
374B
331
3456
  5
37C5
331
357C
  5
38B7
331
3252
  5
35B5
331
2A00
  5
2FA0
331
2A3B
  5
3070
331
33BE
  5
3741
331
29EB
  5
126C
331
328B
  5
36A0
331
5AAE
  5
6607
331
58AA
  5
12BB
331
3404
  5
377B
331
33A9
  5
3704
331
322B
  5
34D4
331
326E
  5
367C
331
2A14
  5
2FCD
331
357B
  5
389D
331
34B0
  5
3868
331
3251
  5
359F
331
29FF
  5
2F8D
331
2A3A
  5
306F
331
3302
  5
36F6
331
32B7
  5
35CB
331
33BD
  5
3717
331
29EA
  5
2EE5
331
328A
  5
369F
331
5AAD
  5
6606
331
3403
  5
377A
331
33A8
  5
3702
331
3597
  5
38FD
331
322A
  5
34CE
331
59CF
  5
65FC
331
2A13
  5
2FCC
331
5C17
  5
6614
331
357A
  5
38B8
331
2A39
  5
306E
331
29FE
  5
2F8C
331
3301
  5
36BB
331
32B6
  5
3698
331
33BC
  5
3716
331
29E9
  5
2EE4
331
32D4
  5
36BA
331
3289
  5
369E
331
2A27
  5
302C
331
3402
  5
3779
331
33A7
  5
36FF
331
326C
  5
367B
331
3229
  5
34CD
331
56B5
  5
6585
331
2A12
  5
2FC8
331
3325
  5
3579
331
3579
  5
3708
331
2A38
  5
306B
331
29FD
  5
2F28
331
3300
  5
36CC
331
32B5
  5
369C
331
33BB
  5
3715
331
5939
  5
65F7
331
29E8
  5
2EE3
331
32D3
  5
369D
331
3288
  5
3692
331
2A26
  5
302B
331
359F
  5
3941
331
33A6
  5
1306
331
3401
  5
3778
331
326B
  5
365B
331
3228
  5
34CC
331
56B4
  5
63C5
331
2A11
  5
2FC7
331
3324
  5
36F7
331
5B4A
  5
660D
331
3578
  5
3706
331
3495
  5
3866
331
33EF
  5
374A
331
29FC
  5
2F22
331
338A
  5
3700
331
32B4
  5
3696
331
34D6
  5
388D
331
32D2
  5
369B
331
2A25
  5
302A
331
359E
  5
38FE
331
3400
  5
3777
331
9605
  5
9657
331
3594
  5
38C6
331
326A
  5
365A
331
56B3
  5
64DA
331
2A10
  5
2FC6
331
3323
  5
36A5
331
58CF
  5
65F4
331
3494
  5
3843
331
33EE
  5
3749
331
3389
  5
36FD
331
32B3
  5
3689
331
33B9
  5
34EF
331
34D5
  5
388C
331
32D1
  5
36B9
331
323B
  5
355A
331
2A24
  5
3029
331
359D
  5
393B
331
3593
  5
38FB
331
3269
  5
3659
331
2A0F
  5
2FC5
331
3322
  5
3570
331
33ED
  5
3748
331
29FA
  5
2F21
331
5A2F
  5
6601
331
3388
  5
3590
331
3413
  5
37B2
331
33B8
  5
3714
331
34D4
  5
388B
331
32D0
  5
36B8
331
323A
  5
3559
331
2A23
  5
3028
331
5ADE
  5
6609
331
359C
  5
1304
331
5921
  5
65F6
331
3592
  5
38FA
331
3268
  5
3658
331
2A0E
  5
2FB1
331
3321
  5
359E
331
33EC
  5
3747
331
3492
  5
37B4
331
29F9
  5
2F20
331
32EC
  5
36CF
331
2A37
  5
306A
331
33B7
  5
3713
331
3412
  5
37B1
331
3239
  5
3594
331
2A22
  5
3027
331
55CF
  5
12AA
331
2A0D
  5
2FB0
331
3320
  5
35A0
331
33EB
  5
3746
331
29F8
  5
2EEF
331
3577
  5
389C
331
324D
  5
359B
331
565E
  5
12A9
331
2A36
  5
3069
331
3411
  5
37B0
331
33B6
  5
3712
331
3477
  5
3839
331
327B
  5
3697
331
2A21
  5
3026
331
33FF
  5
3771
331
3590
  5
36F8
331
596D
  5
65F8
331
2A0C
  5
2FAF
331
331F
  5
35BA
331
3435
  5
37B8
331
3490
  5
3842
331
2A35
  5
3068
331
33B5
  5
3711
331
3410
  5
37AF
331
3476
  5
3837
331
327A
  5
3695
331
5A17
  5
6600
331
2A20
  5
3025
331
334B
  5
36FB
331
3599
  5
38FC
331
587C
  5
12BA
331
33FE
  5
3770
331
2A0B
  5
2FAE
331
5A93
  5
6604
331
5B84
  5
660E
331
3434
  5
37B7
331
2A34
  5
3067
331
5B32
  5
660C
331
33B4
  5
3710
331
3475
  5
3836
331
3279
  5
3694
331
3236
  5
3593
331
2A1F
  5
2FF9
331
3598
  5
38D5
331
33FD
  5
376E
331
2A0A
  5
2FAC
331
3398
  5
3703
331
3267
  5
3657
331
5BE6
  5
6613
  0
SORTENTSTABLE
  5
2646
102
{ACAD_REACTORS
330
2645
102
}
330
2645
100
AcDbSortentsTable
330
2643
  0
SORTENTSTABLE
  5
9171
102
{ACAD_REACTORS
330
9170
102
}
330
9170
100
AcDbSortentsTable
330
916E
  0
XRECORD
  5
2AF5
102
{ACAD_REACTORS
330
2AF4
102
}
330
2AF4
100
AcDbXrecord
280
     1
 90
        1
340
10D
  0
XRECORD
  5
2AF9
102
{ACAD_REACTORS
330
2AF8
102
}
330
2AF8
100
AcDbXrecord
280
     1
 90
        1
340
10D
  0
DIMASSOC
  5
56CC
102
{ACAD_REACTORS
330
56C2
102
}
330
56C2
100
AcDbDimAssoc
330
56B5
 90
        3
 70
     0
 71
     0
  1
AcDbOsnapPointRef
 72
    13
331
33B8
 73
     2
 91
        0
 40
0.0
 10
0.0
 20
0.0
 30
2.000000000000000E+50
 75
     0
  1
AcDbOsnapPointRef
 72
     8
331
322D
 73
     2
 91
        0
 40
-0.000000000001874
 10
0.0
 20
0.0
 30
0.0
 75
     1
  1
AcDbOsnapPointRef
 72
    13
331
33B8
 73
     2
 91
        0
 40
0.0
 10
0.0
 20
0.0
 30
2.000000000000000E+50
 75
     0
  0
DIMASSOC
  5
56E4
102
{ACAD_REACTORS
330
56DA
102
}
330
56DA
100
AcDbDimAssoc
330
56CD
 90
        3
 70
     0
 71
     0
  1
AcDbOsnapPointRef
 72
    13
331
33BB
 73
     2
 91
        0
 40
0.0
 10
0.0
 20
0.0
 30
2.000000000000000E+50
 75
     0
  1
AcDbOsnapPointRef
 72
     1
331
3477
 73
     2
 91
        0
 40
1.0
 10
0.0
 20
0.0
 30
2.000000000000000E+50
 75
     0
  0
DIMASSOC
  5
56FC
102
{ACAD_REACTORS
330
56F2
102
}
330
56F2
100
AcDbDimAssoc
330
56E5
 90
        3
 70
     0
 71
     0
  1
AcDbOsnapPointRef
 72
     1
331
3458
 73
     2
 91
        3
 40
1.0
 10
0.0
 20
0.0
 30
2.000000000000000E+50
 75
     0
  1
AcDbOsnapPointRef
 72
     1
331
3459
 73
     2
 91
        3
 40
1.0
 10
0.0
 20
0.0
 30
2.000000000000000E+50
 75
     0
  0
DIMASSOC
  5
5714
102
{ACAD_REACTORS
330
570A
102
}
330
570A
100
AcDbDimAssoc
330
56FD
 90
        3
 70
     0
 71
     0
  1
AcDbOsnapPointRef
 72
     1
331
3487
 73
     2
 91
        4
 40
1.0
 10
0.0
 20
0.0
 30
2.000000000000000E+50
 75
     0
  1
AcDbOsnapPointRef
 72
     1
331
3486
 73
     2
 91
        4
 40
1.0
 10
0.0
 20
0.0
 30
2.000000000000000E+50
 75
     0
  0
DIMASSOC
  5
572C
102
{ACAD_REACTORS
330
5722
102
}
330
5722
100
AcDbDimAssoc
330
5715
 90
        3
 70
     0
 71
     0
  1
AcDbOsnapPointRef
 72
    13
331
33B8
 73
     2
 91
        0
 40
0.0
 10
0.0
 20
0.0
 30
2.000000000000000E+50
 75
     0
  1
AcDbOsnapPointRef
 72
     1
331
3477
 73
     2
 91
        0
 40
1.0
 10
0.0
 20
0.0
 30
2.000000000000000E+50
 75
     0
  0
DIMASSOC
  5
58CE
102
{ACAD_REACTORS
330
58C4
102
}
330
58C4
100
AcDbDimAssoc
330
58B7
 90
        3
 70
     0
 71
     0
  1
AcDbOsnapPointRef
 72
    13
331
32C5
 73
     2
 91
        0
 40
0.0
 10
0.0
 20
0.0
 30
2.000000000000000E+50
 75
     0
  1
AcDbOsnapPointRef
 72
    13
331
32B4
 73
     2
 91
        0
 40
0.0675675675674949
 10
0.0
 20
0.0
 30
2.000000000000000E+50
 75
     0
  0
DIMASSOC
  5
58E6
102
{ACAD_REACTORS
330
58DC
102
}
330
58DC
100
AcDbDimAssoc
330
58CF
 90
        3
 70
     0
 71
     0
  1
AcDbOsnapPointRef
 72
     6
331
327A
 73
     2
 91
        0
 40
-0.0858369098711525
 10
0.0
 20
0.0
 30
0.0
332
32B3
 74
     2
 92
        0
 75
     0
  1
AcDbOsnapPointRef
 72
     2
331
32B3
 73
     2
 91
        0
 40
0.6219281663520267
 10
0.0
 20
0.0
 30
0.0
 75
     0
  0
DIMASSOC
  5
5920
102
{ACAD_REACTORS
330
5916
102
}
330
5916
100
AcDbDimAssoc
330
5909
 90
        1
 70
     0
 71
     0
  1
AcDbOsnapPointRef
 72
     6
331
3276
 73
     2
 91
        0
 40
-0.1801801801799956
 10
0.0
 20
0.0
 30
0.0
332
32B3
 74
     2
 92
        0
 75
     0
  0
DIMASSOC
  5
5938
102
{ACAD_REACTORS
330
592E
102
}
330
592E
100
AcDbDimAssoc
330
5921
 90
        3
 70
     0
 71
     0
  1
AcDbOsnapPointRef
 72
     6
331
3273
 73
     2
 91
        0
 40
1.363636363635611
 10
0.0
 20
0.0
 30
0.0
332
32B3
 74
     2
 92
        0
 75
     0
  1
AcDbOsnapPointRef
 72
     1
331
32B3
 73
     2
 91
        0
 40
0.9621928166352155
 10
0.0
 20
0.0
 30
2.000000000000000E+50
 75
     0
  0
DIMASSOC
  5
5950
102
{ACAD_REACTORS
330
5946
102
}
330
5946
100
AcDbDimAssoc
330
5939
 90
        2
 70
     0
 71
     0
  1
AcDbOsnapPointRef
 72
     8
331
3379
 73
     2
 91
        0
 40
0.7372116349046713
 10
0.0
 20
0.0
 30
0.0
 75
     1
  1
AcDbOsnapPointRef
 72
     0
 40
0.0
 10
2885.00440468793
 20
880.7115316014321
 30
0.0
 75
     0
  0
DIMASSOC
  5
5984
102
{ACAD_REACTORS
330
597A
102
}
330
597A
100
AcDbDimAssoc
330
596D
 90
        2
 70
     0
 71
     0
  1
AcDbOsnapPointRef
 72
     6
331
3269
 73
     2
 91
        0
 40
-0.3571428571417551
 10
0.0
 20
0.0
 30
0.0
332
3379
 74
     2
 92
        0
 75
     0
  0
DIMASSOC
  5
59CE
102
{ACAD_REACTORS
330
59C4
102
}
330
59C4
100
AcDbDimAssoc
330
59B7
 90
        3
 70
     0
 71
     0
  1
AcDbOsnapPointRef
 72
     1
331
32B7
 73
     2
 91
        0
 40
0.9999999999999998
 10
0.0
 20
0.0
 30
2.000000000000000E+50
 75
     0
  1
AcDbOsnapPointRef
 72
     8
331
3275
 73
     2
 91
        0
 40
0.2292263610315199
 10
0.0
 20
0.0
 30
0.0
 75
     1
  1
AcDbOsnapPointRef
 72
     1
331
32B7
 73
     2
 91
        0
 40
0.9999999999999998
 10
0.0
 20
0.0
 30
2.000000000000000E+50
 75
     0
  0
DIMASSOC
  5
59E6
102
{ACAD_REACTORS
330
59DC
102
}
330
59DC
100
AcDbDimAssoc
330
59CF
 90
        3
 70
     0
 71
     0
  1
AcDbOsnapPointRef
 72
     1
331
32E5
 73
     2
 91
        3
 40
1.0
 10
0.0
 20
0.0
 30
2.000000000000000E+50
 75
     0
  1
AcDbOsnapPointRef
 72
     1
331
32E6
 73
     2
 91
        3
 40
1.0
 10
0.0
 20
0.0
 30
2.000000000000000E+50
 75
     0
  0
DIMASSOC
  5
59FE
102
{ACAD_REACTORS
330
59F4
102
}
330
59F4
100
AcDbDimAssoc
330
59E7
 90
        3
 70
     0
 71
     0
  1
AcDbOsnapPointRef
 72
     1
331
32C8
 73
     2
 91
        4
 40
1.0
 10
0.0
 20
0.0
 30
2.000000000000000E+50
 75
     0
  1
AcDbOsnapPointRef
 72
     1
331
32C7
 73
     2
 91
        4
 40
1.0
 10
0.0
 20
0.0
 30
2.000000000000000E+50
 75
     0
  0
DIMASSOC
  5
5A16
102
{ACAD_REACTORS
330
5A0C
102
}
330
5A0C
100
AcDbDimAssoc
330
59FF
 90
        3
 70
     0
 71
     0
  1
AcDbOsnapPointRef
 72
    13
331
328A
 73
     2
 91
        0
 40
0.0
 10
0.0
 20
0.0
 30
2.000000000000000E+50
 75
     0
  1
AcDbOsnapPointRef
 72
    13
331
3277
 73
     2
 91
        0
 40
0.0
 10
0.0
 20
0.0
 30
2.000000000000000E+50
 75
     0
  0
DIMASSOC
  5
5A2E
102
{ACAD_REACTORS
330
5A24
102
}
330
5A24
100
AcDbDimAssoc
330
5A17
 90
        3
 70
     0
 71
     0
  1
AcDbOsnapPointRef
 72
     1
331
3300
 73
     2
 91
        4
 40
1.0
 10
0.0
 20
0.0
 30
2.000000000000000E+50
 75
     0
  1
AcDbOsnapPointRef
 72
     1
331
3301
 73
     2
 91
        4
 40
1.0
 10
0.0
 20
0.0
 30
2.000000000000000E+50
 75
     0
  0
DIMASSOC
  5
5A42
102
{ACAD_REACTORS
330
5A3A
102
}
330
5A3A
100
AcDbDimAssoc
330
5A2F
 90
        3
 70
     0
 71
     0
  1
AcDbOsnapPointRef
 72
    13
331
3249
 73
     2
 91
        0
 40
0.0
 10
0.0
 20
0.0
 30
2.000000000000000E+50
 75
     0
  1
AcDbOsnapPointRef
 72
    13
331
324D
 73
     2
 91
        0
 40
0.0
 10
0.0
 20
0.0
 30
2.000000000000000E+50
 75
     0
  0
DIMASSOC
  5
5A56
102
{ACAD_REACTORS
330
5A4E
102
}
330
5A4E
100
AcDbDimAssoc
330
5A43
 90
        3
 70
     0
 71
     0
  1
AcDbOsnapPointRef
 72
    13
331
333B
 73
     2
 91
        0
 40
0.0
 10
0.0
 20
0.0
 30
2.000000000000000E+50
 75
     0
  1
AcDbOsnapPointRef
 72
    13
331
3239
 73
     2
 91
        0
 40
0.0
 10
0.0
 20
0.0
 30
2.000000000000000E+50
 75
     0
  0
DIMASSOC
  5
5A6A
102
{ACAD_REACTORS
330
5A62
102
}
330
5A62
100
AcDbDimAssoc
330
5A57
 90
        2
 70
     0
 71
     0
  1
AcDbOsnapPointRef
 72
     8
331
3234
 73
     2
 91
        0
 40
0.2149021876189508
 10
0.0
 20
0.0
 30
0.0
 75
     1
  1
AcDbOsnapPointRef
 72
     0
 40
0.0
 10
2879.47440468793
 20
874.0230994916704
 30
0.0
 75
     0
  0
DIMASSOC
  5
5AC5
102
{ACAD_REACTORS
330
5ABB
102
}
330
5ABB
100
AcDbDimAssoc
330
5AAE
 90
        2
 70
     0
 71
     0
  1
AcDbOsnapPointRef
 72
     8
331
33B9
 73
     2
 91
        0
 40
0.5182512873682711
 10
0.0
 20
0.0
 30
0.0
 75
     1
  1
AcDbOsnapPointRef
 72
     0
 40
0.0
 10
2885.00440468793
 20
880.7115316014321
 30
0.0
 75
     0
  0
DIMASSOC
  5
5ADD
102
{ACAD_REACTORS
330
5AD3
102
}
330
5AD3
100
AcDbDimAssoc
330
5AC6
 90
        3
 70
     0
 71
     0
  1
AcDbOsnapPointRef
 72
     6
331
3461
 73
     2
 91
        0
 40
2.999999999990905
 10
0.0
 20
0.0
 30
0.0
332
3379
 74
     2
 92
        0
 75
     0
  1
AcDbOsnapPointRef
 72
     8
331
3379
 73
     2
 91
        0
 40
0.1720160481443735
 10
0.0
 20
0.0
 30
0.0
 75
     1
  1
AcDbOsnapPointRef
 72
     6
331
3461
 73
     2
 91
        0
 40
2.999999999990905
 10
0.0
 20
0.0
 30
0.0
332
3379
 74
     2
 92
        0
 75
     0
  0
DIMASSOC
  5
5AF5
102
{ACAD_REACTORS
330
5AEB
102
}
330
5AEB
100
AcDbDimAssoc
330
5ADE
 90
        3
 70
     0
 71
     0
  1
AcDbOsnapPointRef
 72
     6
331
326B
 73
     2
 91
        0
 40
1.357142857141754
 10
0.0
 20
0.0
 30
0.0
332
3379
 74
     2
 92
        0
 75
     0
  1
AcDbOsnapPointRef
 72
     8
331
3379
 73
     2
 91
        0
 40
0.1785356068203958
 10
0.0
 20
0.0
 30
0.0
 75
     1
  1
AcDbOsnapPointRef
 72
     6
331
326B
 73
     2
 91
        0
 40
1.357142857141754
 10
0.0
 20
0.0
 30
0.0
332
3379
 74
     2
 92
        0
 75
     0
  0
DIMASSOC
  5
5B19
102
{ACAD_REACTORS
330
5B0F
102
}
330
5B0F
100
AcDbDimAssoc
330
5B02
 90
        3
 70
     0
 71
     0
  1
AcDbOsnapPointRef
 72
     1
331
3571
 73
     2
 91
        4
 40
1.0
 10
0.0
 20
0.0
 30
2.000000000000000E+50
 75
     0
  1
AcDbOsnapPointRef
 72
     1
331
3570
 73
     2
 91
        4
 40
1.0
 10
0.0
 20
0.0
 30
2.000000000000000E+50
 75
     0
  0
DIMASSOC
  5
5B31
102
{ACAD_REACTORS
330
5B27
102
}
330
5B27
100
AcDbDimAssoc
330
5B1A
 90
        3
 70
     0
 71
     0
  1
AcDbOsnapPointRef
 72
     1
331
357B
 73
     2
 91
        4
 40
1.0
 10
0.0
 20
0.0
 30
2.000000000000000E+50
 75
     0
  1
AcDbOsnapPointRef
 72
     1
331
357A
 73
     2
 91
        4
 40
1.0
 10
0.0
 20
0.0
 30
2.000000000000000E+50
 75
     0
  0
DIMASSOC
  5
5B49
102
{ACAD_REACTORS
330
5B3F
102
}
330
5B3F
100
AcDbDimAssoc
330
5B32
 90
        3
 70
     0
 71
     0
  1
AcDbOsnapPointRef
 72
     1
331
359D
 73
     2
 91
        4
 40
1.0
 10
0.0
 20
0.0
 30
2.000000000000000E+50
 75
     0
  1
AcDbOsnapPointRef
 72
     1
331
359C
 73
     2
 91
        4
 40
1.0
 10
0.0
 20
0.0
 30
2.000000000000000E+50
 75
     0
  0
DIMASSOC
  5
5B61
102
{ACAD_REACTORS
330
5B57
102
}
330
5B57
100
AcDbDimAssoc
330
5B4A
 90
        2
 70
     0
 71
     0
  1
AcDbOsnapPointRef
 72
     2
331
3325
 73
     2
 91
        0
 40
0.4778325123157874
 10
0.0
 20
0.0
 30
0.0
 75
     0
  0
DIMASSOC
  5
5B9B
102
{ACAD_REACTORS
330
5B91
102
}
330
5B91
100
AcDbDimAssoc
330
5B84
 90
        1
 70
     0
 71
     0
  1
AcDbOsnapPointRef
 72
     6
331
3246
 73
     2
 91
        0
 40
1.136986301370443
 10
0.0
 20
0.0
 30
0.0
332
3325
 74
     2
 92
        0
 75
     0
  0
DIMASSOC
  5
5BB3
102
{ACAD_REACTORS
330
5BA9
102
}
330
5BA9
100
AcDbDimAssoc
330
5B9C
 90
        2
 70
     0
 71
     0
  1
AcDbOsnapPointRef
 72
    13
331
3388
 73
     2
 91
        0
 40
0.0268096514747329
 10
0.0
 20
0.0
 30
2.000000000000000E+50
 75
     0
  0
DIMASSOC
  5
5BCB
102
{ACAD_REACTORS
330
5BC1
102
}
330
5BC1
100
AcDbDimAssoc
330
5BB4
 90
        3
 70
     0
 71
     0
  1
AcDbOsnapPointRef
 72
     6
331
3243
 73
     2
 91
        0
 40
-0.2597402597389788
 10
0.0
 20
0.0
 30
0.0
332
3388
 74
     2
 92
        0
 75
     0
  1
AcDbOsnapPointRef
 72
     2
331
3388
 73
     2
 91
        0
 40
0.367292225201181
 10
0.0
 20
0.0
 30
0.0
 75
     0
  0
XRECORD
  5
2CF6
102
{ACAD_REACTORS
330
2CF5
102
}
330
2CF5
100
AcDbXrecord
280
     1
 90
        1
340
10D
  0
XRECORD
  5
2CF9
102
{ACAD_REACTORS
330
2CF8
102
}
330
2CF8
100
AcDbXrecord
280
     1
 90
        1
340
10D
  0
XRECORD
  5
2CFD
102
{ACAD_REACTORS
330
2CFC
102
}
330
2CFC
100
AcDbXrecord
280
     1
 90
        1
340
4B1
  0
XRECORD
  5
5574
102
{ACAD_REACTORS
330
5573
102
}
330
5573
100
AcDbXrecord
280
     1
 90
        1
340
10D
  0
ACDBDETAILVIEWSTYLE
  5
188F
102
{ACAD_XDICTIONARY
360
22E2
102
}
102
{ACAD_REACTORS
330
21B
102
}
330
21B
100
AcDbModelDocViewStyle
 70
     0
  3
Imperial24
290
     0
100
AcDbDetailViewStyle
 70
     0
 71
     0
 90
        3
 71
     1
340
11
 62
   256
 40
0.24
340
0
 62
   256
 40
0.24
300

 40
0.36
280
     3
 71
     2
340
16
 90
       25
 62
   256
 71
     3
340
11
 62
   256
 40
0.24
 90
        1
 40
0.75
 90
        1
300
%<\AcVar ViewType \f "%tc1">% %<\AcVar ViewDetailId>%\PESCALA %<\AcVar ViewScale \f "%sn">%
 71
     4
340
16
 90
       25
 62
   256
340
16
 90
       25
 62
   256
280
     0
  0
ACDBDETAILVIEWSTYLE
  5
21C
102
{ACAD_XDICTIONARY
360
236
102
}
102
{ACAD_REACTORS
330
21B
102
}
330
21B
100
AcDbModelDocViewStyle
 70
     0
  3
Metric50
290
     0
100
AcDbDetailViewStyle
 70
     0
 71
     0
 90
        3
 71
     1
340
11
 62
   256
 40
5.0
340
0
 62
   256
 40
5.0
300

 40
0.0
280
     1
 71
     2
340
16
 90
       25
 62
   256
 71
     3
340
11
 62
   256
 40
5.0
 90
        0
 40
15.0
 90
        1
300
%<\AcVar ViewDetailId>% (%<\AcVar ViewScale \f "%sn">%)
 71
     4
340
16
 90
       25
 62
   256
340
16
 90
       25
 62
   256
280
     0
  0
IMAGEDEF
  5
883
102
{ACAD_REACTORS
330
2E0
102
}
330
2E0
100
AcDbRasterImageDef
 90
        0
  1
\\zerbitzaria\pertsonalak$\guztion1\Downloads\Andoain.jpg
 10
400.0
 20
400.0
 11
0.2645833333333333
 21
0.2645833333333333
280
     1
281
     5
  0
IMAGEDEF
  5
A1D
102
{ACAD_REACTORS
330
2E0
102
}
330
2E0
100
AcDbRasterImageDef
 90
        0
  1
\\zerbitzaria\pertsonalak$\guztion1\Downloads\Astigarraga.jpg
 10
306.0
 20
278.0
 11
0.2645833333333333
 21
0.2645833333333333
280
     1
281
     5
  0
IMAGEDEF
  5
A20
102
{ACAD_REACTORS
330
2E0
102
}
330
2E0
100
AcDbRasterImageDef
 90
        0
  1
\\zerbitzaria\pertsonalak$\guztion1\Downloads\Hernani.jpg
 10
512.0
 20
512.0
 11
0.2645833333333333
 21
0.2645833333333333
280
     1
281
     5
  0
IMAGEDEF
  5
A38
102
{ACAD_REACTORS
330
2E0
102
}
330
2E0
100
AcDbRasterImageDef
 90
        0
  1
\\zerbitzaria\pertsonalak$\guztion1\Downloads\Lasarte_Oria.jpg
 10
306.0
 20
278.0
 11
0.2645833333333333
 21
0.2645833333333333
280
     1
281
     5
  0
IMAGEDEF
  5
A0E
102
{ACAD_REACTORS
330
2E0
102
}
330
2E0
100
AcDbRasterImageDef
 90
        0
  1
\\zerbitzaria\pertsonalak$\guztion1\Downloads\Urnieta.jpg
 10
512.0
 20
686.0
 11
0.2645833333333333
 21
0.2645833333333333
280
     1
281
     5
  0
IMAGEDEF
  5
2E2
102
{ACAD_REACTORS
330
2E0
330
29FB
330
98F9
102
}
330
2E0
100
AcDbRasterImageDef
 90
        0
  1
\\zerbitzaria\pertsonalak$\guztion1\Downloads\Usurbil.jpg
 10
151.0
 20
177.0
 11
0.2645833333333333
 21
0.2645833333333333
280
     1
281
     5
  0
IMAGEDEF
  5
9835
102
{ACAD_REACTORS
330
2E0
330
98FB
102
}
330
2E0
100
AcDbRasterImageDef
 90
        0
  1
G:\Udalerriak\US_Usurbil\Usurbil.jpg
 10
151.0
 20
177.0
 11
0.2645833333333333
 21
0.2645833333333333
280
     1
281
     5
  0
LAYOUT
  5
2CFF
102
{ACAD_REACTORS
330
1A
102
}
330
1A
100
AcDbPlotSettings
  1

  2
DWG To PDF.pc3
  4
UserDefinedMetric (210.00 x 297.00mm)
  6

 40
0.0
 41
0.0
 42
0.0
 43
0.0
 44
210.0
 45
297.0
 46
0.0
 47
0.0000000000000284
 48
-0.0018762920232689
 49
0.2812602170592981
140
0.2081237079767311
141
0.5782602170592981
142
1000.0
143
1.0
 70
   676
 72
     1
 73
     0
 74
     4
  7
Guztion_Planoak_pdf.ctb
 75
     0
147
1000.0
 76
     0
 77
     2
 78
   300
148
0.0018762920232689
149
-0.2812602170592981
100
AcDbLayout
  1
44
 70
     1
 71
     1
 10
-0.0018762920232689
 20
0.2812602170592981
 11
0.2081237079767311
 21
0.5782602170592981
 12
0.0
 22
0.0
 32
0.0
 14
-0.0018762920232689
 24
0.2812602170592981
 34
0.0
 15
231.3
 25
175.5
 35
0.0
146
0.0
 13
0.0
 23
0.0
 33
0.0
 16
1.0
 26
0.0
 36
0.0
 17
0.0
 27
1.0
 37
0.0
 76
     0
330
2CF2
331
2CFB
1001
ACAD_PSEXT
1000
DWG To PDF.pc3
1000
DWG To PDF
1000
Archivo
1000

1070
     0
  0
LAYOUT
  5
22
102
{ACAD_XDICTIONARY
360
205
102
}
102
{ACAD_REACTORS
330
1A
102
}
330
1A
100
AcDbPlotSettings
  1

  2
DWG To PDF.pc3
  4
UserDefinedMetric (210.00 x 297.00mm)
  6

 40
0.0
 41
0.0
 42
0.0
 43
0.0
 44
210.0
 45
297.0
 46
0.0
 47
87.12725628375705
 48
-64.87770755501651
 49
-10.86078803921714
140
-49.28250067704721
141
-1.74535342089905
142
1.0
143
0.0742628898950919
 70
 11956
 72
     1
 73
     0
 74
     4
  7
Guztion_Planoak_pdf.ctb
 75
     0
147
13.46567580944747
 76
     0
 77
     2
 78
   300
148
64.87770755501651
149
10.86078803921714
100
AcDbLayout
  1
Model
 70
     1
 71
     0
 10
0.0
 20
0.0
 11
12.0
 21
9.0
 12
0.0
 22
0.0
 32
0.0
 14
0.0
 24
0.0
 34
0.0
 15
0.0
 25
0.0
 35
0.0
146
0.0
 13
0.0
 23
0.0
 33
0.0
 16
1.0
 26
0.0
 36
0.0
 17
0.0
 27
1.0
 37
0.0
 76
     0
330
1F
331
EA
1001
ACAD_PSEXT
1000
DWG To PDF.pc3
1000
DWG To PDF
1000
Archivo
1000

1070
     0
  0
LAYOUT
  5
D7
102
{ACAD_REACTORS
330
1A
102
}
330
1A
100
AcDbPlotSettings
  1

  2
none_device
  4
ISO_A4_(210.00_x_297.00_MM)
  6

 40
7.5
 41
20.0
 42
7.5
 43
20.0
 44
210.0
 45
297.0
 46
0.0
 47
0.0
 48
0.0
 49
0.0
140
0.0
141
0.0
142
1.0
143
1.0
 70
   688
 72
     1
 73
     1
 74
     5
  7
Guztion_Planoak_pdf.ctb
 75
    16
147
1.0
 76
     0
 77
     2
 78
   300
148
0.0
149
0.0
100
AcDbLayout
  1
Presentación2
 70
     1
 71
     2
 10
-20.0
 20
-7.5
 11
277.0
 21
202.5
 12
0.0
 22
0.0
 32
0.0
 14
25.69999999999999
 24
19.5
 34
0.0
 15
231.3
 25
175.5
 35
0.0
146
0.0
 13
0.0
 23
0.0
 33
0.0
 16
1.0
 26
0.0
 36
0.0
 17
0.0
 27
1.0
 37
0.0
 76
     0
330
D6
331
2AF3
1001
ACAD_PSEXT
1000
Ninguno
1000
Ninguno
1000
No aplicable
1000
La presentación no se trazará a menos que se seleccione un nuevo nombre de configuración de trazador.
1070
     0
  0
MATERIAL
  5
ED
102
{ACAD_XDICTIONARY
360
1F9
102
}
102
{ACAD_REACTORS
330
6A
102
}
330
6A
100
AcDbMaterial
  1
ByBlock
 94
       63
  0
MATERIAL
  5
EC
102
{ACAD_XDICTIONARY
360
1F7
102
}
102
{ACAD_REACTORS
330
6A
102
}
330
6A
100
AcDbMaterial
  1
ByLayer
 94
       63
  0
MATERIAL
  5
EE
102
{ACAD_XDICTIONARY
360
173
102
}
102
{ACAD_REACTORS
330
6A
102
}
330
6A
100
AcDbMaterial
  1
Global
 43
0.0007999999797903
 43
0.0
 43
0.0
 43
0.0
 43
0.0
 43
0.0007999999797903
 43
0.0
 43
0.0
 43
0.0
 43
0.0
 43
1.0
 43
0.0
 43
0.0
 43
0.0
 43
0.0
 43
1.0
 49
0.0007999999797903
 49
0.0
 49
0.0
 49
0.0
 49
0.0
 49
0.0007999999797903
 49
0.0
 49
0.0
 49
0.0
 49
0.0
 49
1.0
 49
0.0
 49
0.0
 49
0.0
 49
0.0
 49
1.0
142
0.0007999999797903
142
0.0
142
0.0
142
0.0
142
0.0
142
0.0007999999797903
142
0.0
142
0.0
142
0.0
142
0.0
142
1.0
142
0.0
142
0.0
142
0.0
142
0.0
142
1.0
144
0.0007999999797903
144
0.0
144
0.0
144
0.0
144
0.0
144
0.0007999999797903
144
0.0
144
0.0
144
0.0
144
0.0
144
1.0
144
0.0
144
0.0
144
0.0
144
0.0
144
1.0
 94
       63
1001
ACAD
1070
    -1
1070
     3
1070
     0
1000

1071
        0
1070
     0
  0
MLEADERSTYLE
  5
13B
102
{ACAD_REACTORS
330
12D
102
}
330
12D
100
AcDbMLeaderStyle
179
     2
170
     2
171
     1
172
     0
 90
        2
 40
0.0
 41
0.0
173
     1
 91
-1056964608
340
14
 92
       -2
290
     1
 42
2.0
291
     1
 43
8.0
  3
Standard
 44
4.0
300

342
11
174
     1
178
     1
175
     1
176
     0
 93
-1056964608
 45
4.0
292
     0
297
     0
 46
4.0
 94
-1056964608
 47
1.0
 49
1.0
140
1.0
293
     1
141
0.0
294
     1
177
     0
142
1.0
295
     0
296
     1
143
3.75
271
     0
272
     9
273
     9
298
     0
  0
MLEADERSTYLE
  5
12E
102
{ACAD_REACTORS
330
12D
102
}
330
12D
100
AcDbMLeaderStyle
179
     2
170
     2
171
     1
172
     0
 90
        2
 40
0.0
 41
0.0
173
     1
 91
-1056964608
340
14
 92
       -2
290
     1
 42
2.0
291
     1
 43
8.0
  3
Standard
 44
4.0
300

342
11
174
     1
178
     1
175
     1
176
     0
 93
-1056964608
 45
4.0
292
     0
297
     0
 46
4.0
 94
-1056964608
 47
1.0
 49
1.0
140
1.0
293
     1
141
0.0
294
     1
177
     0
142
1.0
295
     0
296
     0
143
3.75
271
     0
272
     9
273
     9
298
     0
  0
MLINESTYLE
  5
18
102
{ACAD_REACTORS
330
17
102
}
330
17
100
AcDbMlineStyle
  2
STANDARD
 70
     0
  3

 62
   256
 51
90.0
 52
90.0
 71
     2
 49
0.5
 62
   256
  6
BYLAYER
 49
-0.5
 62
   256
  6
BYLAYER
  0
ACDBPLACEHOLDER
  5
F
102
{ACAD_REACTORS
330
E
102
}
330
E
  0
SCALE
  5
10D
102
{ACAD_REACTORS
330
10C
102
}
330
10C
100
AcDbScale
 70
     0
300
1:1
140
1.0
141
1.0
290
     1
  0
SCALE
  5
4B1
102
{ACAD_REACTORS
330
10C
102
}
330
10C
100
AcDbScale
 70
     0
300
1/100 eskala
140
1000.0
141
1.0
290
     0
  0
SCALE
  5
4B2
102
{ACAD_REACTORS
330
10C
102
}
330
10C
100
AcDbScale
 70
     0
300
1:2
140
1.0
141
2.0
290
     0
  0
SCALE
  5
4B3
102
{ACAD_REACTORS
330
10C
102
}
330
10C
100
AcDbScale
 70
     0
300
1:4
140
1.0
141
4.0
290
     0
  0
SCALE
  5
4B4
102
{ACAD_REACTORS
330
10C
102
}
330
10C
100
AcDbScale
 70
     0
300
1:5
140
1.0
141
5.0
290
     0
  0
SCALE
  5
4B5
102
{ACAD_REACTORS
330
10C
102
}
330
10C
100
AcDbScale
 70
     0
300
1:8
140
1.0
141
8.0
290
     0
  0
SCALE
  5
4B6
102
{ACAD_REACTORS
330
10C
102
}
330
10C
100
AcDbScale
 70
     0
300
1:10
140
1.0
141
10.0
290
     0
  0
SCALE
  5
4B7
102
{ACAD_REACTORS
330
10C
102
}
330
10C
100
AcDbScale
 70
     0
300
1:16
140
1.0
141
16.0
290
     0
  0
SCALE
  5
4B8
102
{ACAD_REACTORS
330
10C
102
}
330
10C
100
AcDbScale
 70
     0
300
1:20
140
1.0
141
20.0
290
     0
  0
SCALE
  5
4B9
102
{ACAD_REACTORS
330
10C
102
}
330
10C
100
AcDbScale
 70
     0
300
1:30
140
1.0
141
30.0
290
     0
  0
SCALE
  5
4BA
102
{ACAD_REACTORS
330
10C
102
}
330
10C
100
AcDbScale
 70
     0
300
1:40
140
1.0
141
40.0
290
     0
  0
SCALE
  5
4BB
102
{ACAD_REACTORS
330
10C
102
}
330
10C
100
AcDbScale
 70
     0
300
1:50
140
1.0
141
50.0
290
     0
  0
SCALE
  5
1C8
102
{ACAD_REACTORS
330
10C
102
}
330
10C
100
AcDbScale
 70
     0
300
1:100
140
1.0
141
100.0
290
     0
  0
SCALE
  5
4BC
102
{ACAD_REACTORS
330
10C
102
}
330
10C
100
AcDbScale
 70
     0
300
2:1
140
2.0
141
1.0
290
     0
  0
SCALE
  5
4BD
102
{ACAD_REACTORS
330
10C
102
}
330
10C
100
AcDbScale
 70
     0
300
4:1
140
4.0
141
1.0
290
     0
  0
SCALE
  5
4BE
102
{ACAD_REACTORS
330
10C
102
}
330
10C
100
AcDbScale
 70
     0
300
8:1
140
8.0
141
1.0
290
     0
  0
SCALE
  5
4BF
102
{ACAD_REACTORS
330
10C
102
}
330
10C
100
AcDbScale
 70
     0
300
10:1
140
10.0
141
1.0
290
     0
  0
SCALE
  5
4C0
102
{ACAD_REACTORS
330
10C
102
}
330
10C
100
AcDbScale
 70
     0
300
100:1
140
100.0
141
1.0
290
     0
  0
ACDBSECTIONVIEWSTYLE
  5
188E
102
{ACAD_XDICTIONARY
360
22E0
102
}
102
{ACAD_REACTORS
330
219
102
}
330
219
100
AcDbModelDocViewStyle
 70
     0
  3
Imperial24
290
     0
100
AcDbSectionViewStyle
 70
     0
 71
     0
 90
       78
 71
     1
340
11
 62
   256
 40
0.24
340
0
340
0
 62
   256
 40
0.24
300
I, O, Q, S, X, Z
 40
0.48
 90
        3
 40
0.18
 90
        1
 71
     2
340
16
 90
       25
 62
   256
340
16
 90
       50
 62
   256
 40
0.24
 40
0.0
 40
0.24
 71
     3
340
11
 62
   256
 40
0.24
 90
        1
 40
0.75
 90
        1
300
%<\AcVar ViewType \f "%tc1">% %<\AcVar ViewSectionStartId>%-%<\AcVar ViewSectionEndId>%\PESCALA %<\AcVar ViewScale \f "%sn">%
 71
     4
 62
   256
 62
   257
300
ANSI31
 40
1.0
 90
        0
290
     0
290
     0
 90
        6
 40
0.0
 40
1.570796326794896
 40
0.2617993877991494
 40
1.308996938995747
 40
-0.2617993877991494
 40
1.832595714594046
  0
ACDBSECTIONVIEWSTYLE
  5
21A
102
{ACAD_XDICTIONARY
360
234
102
}
102
{ACAD_REACTORS
330
219
102
}
330
219
100
AcDbModelDocViewStyle
 70
     0
  3
Metric50
290
     0
100
AcDbSectionViewStyle
 70
     0
 71
     0
 90
      102
 71
     1
340
11
 62
   256
 40
5.0
340
0
340
0
 62
   256
 40
5.0
300
I, O, Q, S, X, Z
 40
10.0
 90
        0
 40
2.5
 90
        0
 71
     2
340
16
 90
       25
 62
   256
340
16
 90
       50
 62
   256
 40
5.0
 40
2.5
 40
5.0
 71
     3
340
11
 62
   256
 40
5.0
 90
        0
 40
15.0
 90
        1
300
%<\AcVar ViewSectionStartId>%-%<\AcVar ViewSectionEndId>% (%<\AcVar ViewScale \f "%sn">%)
 71
     4
 62
   256
 62
   257
300
ANSI31
 40
1.0
 90
        0
290
     0
290
     0
 90
        6
 40
0.0
 40
1.570796326794896
 40
0.2617993877991494
 40
1.308996938995747
 40
-0.2617993877991494
 40
1.832595714594046
  0
TABLESTYLE
  5
7F
102
{ACAD_XDICTIONARY
360
162
102
}
102
{ACAD_REACTORS
330
7E
102
}
330
7E
100
AcDbTableStyle
280
     0
  3
Standard
 70
     0
 71
     0
 40
1.5
 41
1.5
280
     0
281
     0
  7
Standard
140
4.5
170
     2
 62
     0
 63
     7
283
     0
 90
      512
 91
        0
  1

274
    -2
284
     1
 64
     0
275
    -2
285
     1
 65
     0
276
    -2
286
     1
 66
     0
277
    -2
287
     1
 67
     0
278
    -2
288
     1
 68
     0
279
    -2
289
     1
 69
     0
  7
Standard
140
6.0
170
     5
 62
     0
 63
     7
283
     0
 90
      512
 91
        0
  1

274
    -2
284
     1
 64
     0
275
    -2
285
     1
 65
     0
276
    -2
286
     1
 66
     0
277
    -2
287
     1
 67
     0
278
    -2
288
     1
 68
     0
279
    -2
289
     1
 69
     0
  7
Standard
140
4.5
170
     5
 62
     0
 63
     7
283
     0
 90
      512
 91
        0
  1

274
    -2
284
     1
 64
     0
275
    -2
285
     1
 65
     0
276
    -2
286
     1
 66
     0
277
    -2
287
     1
 67
     0
278
    -2
288
     1
 68
     0
279
    -2
289
     1
 69
     0
  0
VISUALSTYLE
  5
F5
102
{ACAD_REACTORS
330
EF
102
}
330
EF
100
AcDbVisualStyle
  2
2dWireframe
 70
     4
177
     3
291
     0
 70
    58
 90
        0
176
     1
 90
        2
176
     1
 90
        1
176
     1
 90
        0
176
     1
 40
0.6
176
     1
 40
30.0
176
     1
 62
     7
420
 16777215
176
     1
 90
        1
176
     1
 90
        4
176
     1
 62
     7
176
     1
 62
   257
176
     1
 90
        1
176
     1
 90
        1
176
     1
 40
1.0
176
     1
 90
        0
176
     1
 62
   257
176
     1
 40
1.0
176
     1
 90
        1
176
     1
 90
        6
176
     1
 90
        2
176
     1
 62
     7
176
     1
 90
        5
176
     1
 90
        0
176
     1
 90
        0
176
     1
290
     0
176
     1
 90
        1
176
     1
 40
0.0
176
     1
 90
        0
176
     1
290
     1
176
     1
290
     1
176
     1
290
     0
176
     1
290
     0
176
     1
290
     0
176
     1
290
     0
176
     1
290
     0
176
     1
290
     0
176
     1
290
     0
176
     1
 90
       50
176
     1
 40
0.0
176
     1
 40
1.0
176
     1
 90
        0
176
     1
 62
    18
420
        0
176
     1
 90
       50
176
     1
 90
        3
176
     1
 62
     5
420
      255
176
     1
290
     0
176
     1
 90
       50
176
     1
 90
       50
176
     1
 90
       50
176
     1
290
     0
176
     1
 90
       50
176
     1
 62
   256
176
     0
 40
1.0
176
     0
 90
        2
176
     1
  1
strokes_ogs.tif
176
     1
290
     0
176
     1
 40
1.0
176
     1
 40
1.0
176
     1
  0
VISUALSTYLE
  5
F4
102
{ACAD_REACTORS
330
EF
102
}
330
EF
100
AcDbVisualStyle
  2
Basic
 70
     7
177
     3
291
     1
 70
    58
 90
        1
176
     1
 90
        0
176
     1
 90
        1
176
     1
 90
        0
176
     1
 40
0.6
176
     1
 40
30.0
176
     1
 62
     7
420
 16777215
176
     1
 90
        0
176
     1
 90
        4
176
     1
 62
     7
176
     1
 62
   257
176
     1
 90
        1
176
     1
 90
        1
176
     1
 40
1.0
176
     1
 90
        8
176
     1
 62
     7
176
     1
 40
1.0
176
     1
 90
        1
176
     1
 90
        6
176
     1
 90
        2
176
     1
 62
     7
176
     1
 90
        5
176
     1
 90
        0
176
     1
 90
        0
176
     1
290
     0
176
     1
 90
        1
176
     1
 40
0.0
176
     1
 90
        0
176
     1
290
     0
176
     1
290
     1
176
     1
290
     1
176
     1
290
     0
176
     1
290
     0
176
     1
290
     0
176
     1
290
     0
176
     1
290
     0
176
     1
290
     0
176
     1
 90
       50
176
     1
 40
0.0
176
     1
 40
1.0
176
     1
 90
        0
176
     1
 62
    18
420
        0
176
     1
 90
       50
176
     1
 90
        3
176
     1
 62
     5
420
      255
176
     1
290
     0
176
     1
 90
       50
176
     1
 90
       50
176
     1
 90
       50
176
     1
290
     0
176
     1
 90
       50
176
     1
 62
   256
176
     0
 40
1.0
176
     0
 90
        2
176
     1
  1
strokes_ogs.tif
176
     1
290
     0
176
     1
 40
1.0
176
     1
 40
1.0
176
     1
  0
VISUALSTYLE
  5
FB
102
{ACAD_REACTORS
330
EF
102
}
330
EF
100
AcDbVisualStyle
  2
Brighten
 70
    12
177
     3
291
     1
 70
    58
 90
        2
176
     1
 90
        2
176
     1
 90
        1
176
     1
 90
        0
176
     1
 40
0.6
176
     1
 40
30.0
176
     1
 62
     7
420
 16777215
176
     1
 90
        1
176
     1
 90
        4
176
     1
 62
     7
176
     1
 62
   257
176
     1
 90
        1
176
     1
 90
        1
176
     1
 40
1.0
176
     1
 90
        8
176
     1
 62
     7
176
     1
 40
1.0
176
     1
 90
        1
176
     1
 90
        6
176
     1
 90
        2
176
     1
 62
     7
176
     1
 90
        5
176
     1
 90
        0
176
     1
 90
        0
176
     1
290
     0
176
     1
 90
        1
176
     1
 40
50.0
176
     1
 90
        0
176
     1
290
     0
176
     1
290
     1
176
     1
290
     1
176
     1
290
     0
176
     1
290
     0
176
     1
290
     0
176
     1
290
     0
176
     1
290
     0
176
     1
290
     0
176
     1
 90
       50
176
     1
 40
0.0
176
     1
 40
1.0
176
     1
 90
        0
176
     1
 62
    18
420
        0
176
     1
 90
       50
176
     1
 90
        3
176
     1
 62
     5
420
      255
176
     1
290
     0
176
     1
 90
       50
176
     1
 90
       50
176
     1
 90
       50
176
     1
290
     0
176
     1
 90
       50
176
     1
 62
   256
176
     0
 40
1.0
176
     0
 90
        2
176
     1
  1
strokes_ogs.tif
176
     1
290
     0
176
     1
 40
1.0
176
     1
 40
1.0
176
     1
  0
VISUALSTYLE
  5
FF
102
{ACAD_REACTORS
330
EF
102
}
330
EF
100
AcDbVisualStyle
  2
ColorChange
 70
    16
177
     3
291
     1
 70
    58
 90
        2
176
     1
 90
        2
176
     1
 90
        3
176
     1
 90
        0
176
     1
 40
0.6
176
     1
 40
30.0
176
     1
 62
     8
420
  8421504
176
     1
 90
        1
176
     1
 90
        4
176
     1
 62
     7
176
     1
 62
   257
176
     1
 90
        1
176
     1
 90
        1
176
     1
 40
1.0
176
     1
 90
        8
176
     1
 62
     8
420
  8421504
176
     1
 40
1.0
176
     1
 90
        1
176
     1
 90
        6
176
     1
 90
        2
176
     1
 62
     7
176
     1
 90
        5
176
     1
 90
        0
176
     1
 90
        0
176
     1
290
     0
176
     1
 90
        1
176
     1
 40
0.0
176
     1
 90
        0
176
     1
290
     0
176
     1
290
     1
176
     1
290
     1
176
     1
290
     0
176
     1
290
     0
176
     1
290
     0
176
     1
290
     0
176
     1
290
     0
176
     1
290
     0
176
     1
 90
       50
176
     1
 40
0.0
176
     1
 40
1.0
176
     1
 90
        0
176
     1
 62
    18
420
        0
176
     1
 90
       50
176
     1
 90
        3
176
     1
 62
     5
420
      255
176
     1
290
     0
176
     1
 90
       50
176
     1
 90
       50
176
     1
 90
       50
176
     1
290
     0
176
     1
 90
       50
176
     1
 62
   256
176
     0
 40
1.0
176
     0
 90
        2
176
     1
  1
strokes_ogs.tif
176
     1
290
     0
176
     1
 40
1.0
176
     1
 40
1.0
176
     1
  0
VISUALSTYLE
  5
F8
102
{ACAD_REACTORS
330
EF
102
}
330
EF
100
AcDbVisualStyle
  2
Conceptual
 70
     9
177
     3
291
     0
 70
    58
 90
        3
176
     1
 90
        2
176
     1
 90
        1
176
     1
 90
        0
176
     1
 40
0.6
176
     1
 40
30.0
176
     1
 62
     7
420
 16777215
176
     1
 90
        2
176
     1
 90
        2
176
     1
 62
     7
176
     1
 62
   257
176
     1
 90
        1
176
     1
 90
        1
176
     1
 40
40.0
176
     1
 90
        8
176
     1
 62
     7
176
     1
 40
1.0
176
     1
 90
        1
176
     1
 90
        6
176
     1
 90
        2
176
     1
 62
     7
176
     1
 90
        3
176
     1
 90
        0
176
     1
 90
        0
176
     1
290
     0
176
     1
 90
        1
176
     1
 40
0.0
176
     1
 90
        0
176
     1
290
     0
176
     1
290
     1
176
     1
290
     1
176
     1
290
     0
176
     1
290
     0
176
     1
290
     0
176
     1
290
     0
176
     1
290
     0
176
     1
290
     0
176
     1
 90
       50
176
     1
 40
0.0
176
     1
 40
1.0
176
     1
 90
        0
176
     1
 62
    18
420
        0
176
     1
 90
       50
176
     1
 90
        3
176
     1
 62
     5
420
      255
176
     1
290
     0
176
     1
 90
       50
176
     1
 90
       50
176
     1
 90
       50
176
     1
290
     0
176
     1
 90
       50
176
     1
 62
   256
176
     0
 40
1.0
176
     0
 90
        2
176
     1
  1
strokes_ogs.tif
176
     1
290
     0
176
     1
 40
1.0
176
     1
 40
1.0
176
     1
  0
VISUALSTYLE
  5
FA
102
{ACAD_REACTORS
330
EF
102
}
330
EF
100
AcDbVisualStyle
  2
Dim
 70
    11
177
     3
291
     1
 70
    58
 90
        2
176
     1
 90
        2
176
     1
 90
        1
176
     1
 90
        0
176
     1
 40
0.6
176
     1
 40
30.0
176
     1
 62
     7
420
 16777215
176
     1
 90
        1
176
     1
 90
        4
176
     1
 62
     7
176
     1
 62
   257
176
     1
 90
        1
176
     1
 90
        1
176
     1
 40
1.0
176
     1
 90
        8
176
     1
 62
     7
176
     1
 40
1.0
176
     1
 90
        1
176
     1
 90
        6
176
     1
 90
        2
176
     1
 62
     7
176
     1
 90
        5
176
     1
 90
        0
176
     1
 90
        0
176
     1
290
     0
176
     1
 90
        1
176
     1
 40
-50.0
176
     1
 90
        0
176
     1
290
     0
176
     1
290
     1
176
     1
290
     1
176
     1
290
     0
176
     1
290
     0
176
     1
290
     0
176
     1
290
     0
176
     1
290
     0
176
     1
290
     0
176
     1
 90
       50
176
     1
 40
0.0
176
     1
 40
1.0
176
     1
 90
        0
176
     1
 62
    18
420
        0
176
     1
 90
       50
176
     1
 90
        3
176
     1
 62
     5
420
      255
176
     1
290
     0
176
     1
 90
       50
176
     1
 90
       50
176
     1
 90
       50
176
     1
290
     0
176
     1
 90
       50
176
     1
 62
   256
176
     0
 40
1.0
176
     0
 90
        2
176
     1
  1
strokes_ogs.tif
176
     1
290
     0
176
     1
 40
1.0
176
     1
 40
1.0
176
     1
  0
VISUALSTYLE
  5
1E6
102
{ACAD_REACTORS
330
EF
102
}
330
EF
100
AcDbVisualStyle
  2
EdgeColorOff
 70
    22
177
     3
291
     1
 70
    58
 90
        2
176
     0
 90
        2
176
     0
 90
        0
176
     0
 90
        0
176
     0
 40
0.6
176
     0
 40
30.0
176
     0
 62
     7
420
 16777215
176
     0
 90
        1
176
     0
 90
        4
176
     0
 62
     7
176
     0
 62
   257
176
     0
 90
        1
176
     0
 90
        1
176
     0
 40
1.0
176
     0
 90
        8
176
     2
 62
     7
176
     0
 40
1.0
176
     0
 90
        1
176
     0
 90
        6
176
     0
 90
        2
176
     0
 62
     7
176
     0
 90
        5
176
     0
 90
        0
176
     0
 90
        0
176
     0
290
     0
176
     0
 90
        1
176
     0
 40
0.0
176
     0
 90
        0
176
     0
290
     0
176
     1
290
     1
176
     1
290
     1
176
     1
290
     0
176
     1
290
     0
176
     1
290
     0
176
     1
290
     0
176
     1
290
     0
176
     1
290
     0
176
     1
 90
       50
176
     1
 40
0.0
176
     1
 40
1.0
176
     1
 90
        0
176
     1
 62
    18
420
        0
176
     1
 90
       50
176
     1
 90
        3
176
     1
 62
     5
420
      255
176
     1
290
     0
176
     1
 90
       50
176
     1
 90
       50
176
     1
 90
       50
176
     1
290
     0
176
     1
 90
       50
176
     1
 62
   256
176
     0
 40
1.0
176
     0
 90
        2
176
     1
  1
strokes_ogs.tif
176
     1
290
     0
176
     1
 40
1.0
176
     1
 40
1.0
176
     1
  0
VISUALSTYLE
  5
FE
102
{ACAD_REACTORS
330
EF
102
}
330
EF
100
AcDbVisualStyle
  2
Facepattern
 70
    15
177
     3
291
     1
 70
    58
 90
        2
176
     1
 90
        2
176
     1
 90
        1
176
     1
 90
        0
176
     1
 40
0.6
176
     1
 40
30.0
176
     1
 62
     7
420
 16777215
176
     1
 90
        1
176
     1
 90
        4
176
     1
 62
     7
176
     1
 62
   257
176
     1
 90
        1
176
     1
 90
        1
176
     1
 40
1.0
176
     1
 90
        8
176
     1
 62
     7
176
     1
 40
1.0
176
     1
 90
        1
176
     1
 90
        6
176
     1
 90
        2
176
     1
 62
     7
176
     1
 90
        5
176
     1
 90
        0
176
     1
 90
        0
176
     1
290
     0
176
     1
 90
        1
176
     1
 40
0.0
176
     1
 90
        0
176
     1
290
     0
176
     1
290
     1
176
     1
290
     1
176
     1
290
     0
176
     1
290
     0
176
     1
290
     0
176
     1
290
     0
176
     1
290
     0
176
     1
290
     0
176
     1
 90
       50
176
     1
 40
0.0
176
     1
 40
1.0
176
     1
 90
        0
176
     1
 62
    18
420
        0
176
     1
 90
       50
176
     1
 90
        3
176
     1
 62
     5
420
      255
176
     1
290
     0
176
     1
 90
       50
176
     1
 90
       50
176
     1
 90
       50
176
     1
290
     0
176
     1
 90
       50
176
     1
 62
   256
176
     0
 40
1.0
176
     0
 90
        2
176
     1
  1
strokes_ogs.tif
176
     1
290
     0
176
     1
 40
1.0
176
     1
 40
1.0
176
     1
  0
VISUALSTYLE
  5
F0
102
{ACAD_REACTORS
330
EF
102
}
330
EF
100
AcDbVisualStyle
  2
Flat
 70
     0
177
     3
291
     1
 70
    58
 90
        2
176
     1
 90
        1
176
     1
 90
        1
176
     1
 90
        2
176
     1
 40
0.6
176
     1
 40
30.0
176
     1
 62
     7
420
 16777215
176
     1
 90
        0
176
     1
 90
        0
176
     1
 62
     7
176
     1
 62
   257
176
     1
 90
        1
176
     1
 90
        1
176
     1
 40
1.0
176
     1
 90
        8
176
     1
 62
     7
176
     1
 40
1.0
176
     1
 90
        1
176
     1
 90
        6
176
     1
 90
        2
176
     1
 62
     7
176
     1
 90
        5
176
     1
 90
        0
176
     1
 90
        0
176
     1
290
     0
176
     1
 90
       13
176
     1
 40
0.0
176
     1
 90
        0
176
     1
290
     0
176
     1
290
     1
176
     1
290
     1
176
     1
290
     0
176
     1
290
     0
176
     1
290
     0
176
     1
290
     0
176
     1
290
     0
176
     1
290
     0
176
     1
 90
       50
176
     1
 40
0.0
176
     1
 40
1.0
176
     1
 90
        0
176
     1
 62
    18
420
        0
176
     1
 90
       50
176
     1
 90
        3
176
     1
 62
     5
420
      255
176
     1
290
     0
176
     1
 90
       50
176
     1
 90
       50
176
     1
 90
       50
176
     1
290
     0
176
     1
 90
       50
176
     1
 62
   256
176
     0
 40
1.0
176
     0
 90
        2
176
     1
  1
strokes_ogs.tif
176
     1
290
     0
176
     1
 40
1.0
176
     1
 40
1.0
176
     1
  0
VISUALSTYLE
  5
F1
102
{ACAD_REACTORS
330
EF
102
}
330
EF
100
AcDbVisualStyle
  2
FlatWithEdges
 70
     1
177
     3
291
     1
 70
    58
 90
        2
176
     1
 90
        1
176
     1
 90
        1
176
     1
 90
        2
176
     1
 40
0.6
176
     1
 40
30.0
176
     1
 62
     7
420
 16777215
176
     1
 90
        1
176
     1
 90
        0
176
     1
 62
     7
176
     1
 62
   257
176
     1
 90
        1
176
     1
 90
        1
176
     1
 40
1.0
176
     1
 90
        0
176
     1
 62
   257
176
     1
 40
1.0
176
     1
 90
        1
176
     1
 90
        6
176
     1
 90
        2
176
     1
 62
     7
176
     1
 90
        5
176
     1
 90
        0
176
     1
 90
        0
176
     1
290
     0
176
     1
 90
       13
176
     1
 40
0.0
176
     1
 90
        0
176
     1
290
     0
176
     1
290
     1
176
     1
290
     1
176
     1
290
     0
176
     1
290
     0
176
     1
290
     0
176
     1
290
     0
176
     1
290
     0
176
     1
290
     0
176
     1
 90
       50
176
     1
 40
0.0
176
     1
 40
1.0
176
     1
 90
        0
176
     1
 62
    18
420
        0
176
     1
 90
       50
176
     1
 90
        3
176
     1
 62
     5
420
      255
176
     1
290
     0
176
     1
 90
       50
176
     1
 90
       50
176
     1
 90
       50
176
     1
290
     0
176
     1
 90
       50
176
     1
 62
   256
176
     0
 40
1.0
176
     0
 90
        2
176
     1
  1
strokes_ogs.tif
176
     1
290
     0
176
     1
 40
1.0
176
     1
 40
1.0
176
     1
  0
VISUALSTYLE
  5
F2
102
{ACAD_REACTORS
330
EF
102
}
330
EF
100
AcDbVisualStyle
  2
Gouraud
 70
     2
177
     3
291
     1
 70
    58
 90
        2
176
     1
 90
        2
176
     1
 90
        1
176
     1
 90
        2
176
     1
 40
0.6
176
     1
 40
30.0
176
     1
 62
     7
420
 16777215
176
     1
 90
        0
176
     1
 90
        0
176
     1
 62
     7
176
     1
 62
   257
176
     1
 90
        1
176
     1
 90
        1
176
     1
 40
1.0
176
     1
 90
        0
176
     1
 62
     7
176
     1
 40
1.0
176
     1
 90
        1
176
     1
 90
        6
176
     1
 90
        2
176
     1
 62
     7
176
     1
 90
        5
176
     1
 90
        0
176
     1
 90
        0
176
     1
290
     0
176
     1
 90
       13
176
     1
 40
0.0
176
     1
 90
        0
176
     1
290
     0
176
     1
290
     1
176
     1
290
     1
176
     1
290
     0
176
     1
290
     0
176
     1
290
     0
176
     1
290
     0
176
     1
290
     0
176
     1
290
     0
176
     1
 90
       50
176
     1
 40
0.0
176
     1
 40
1.0
176
     1
 90
        0
176
     1
 62
    18
420
        0
176
     1
 90
       50
176
     1
 90
        3
176
     1
 62
     5
420
      255
176
     1
290
     0
176
     1
 90
       50
176
     1
 90
       50
176
     1
 90
       50
176
     1
290
     0
176
     1
 90
       50
176
     1
 62
   256
176
     0
 40
1.0
176
     0
 90
        2
176
     1
  1
strokes_ogs.tif
176
     1
290
     0
176
     1
 40
1.0
176
     1
 40
1.0
176
     1
  0
VISUALSTYLE
  5
F3
102
{ACAD_REACTORS
330
EF
102
}
330
EF
100
AcDbVisualStyle
  2
GouraudWithEdges
 70
     3
177
     3
291
     1
 70
    58
 90
        2
176
     1
 90
        2
176
     1
 90
        1
176
     1
 90
        2
176
     1
 40
0.6
176
     1
 40
30.0
176
     1
 62
     7
420
 16777215
176
     1
 90
        1
176
     1
 90
        0
176
     1
 62
     7
176
     1
 62
   257
176
     1
 90
        1
176
     1
 90
        1
176
     1
 40
1.0
176
     1
 90
        0
176
     1
 62
   257
176
     1
 40
1.0
176
     1
 90
        1
176
     1
 90
        6
176
     1
 90
        2
176
     1
 62
     7
176
     1
 90
        5
176
     1
 90
        0
176
     1
 90
        0
176
     1
290
     0
176
     1
 90
       13
176
     1
 40
0.0
176
     1
 90
        0
176
     1
290
     0
176
     1
290
     1
176
     1
290
     1
176
     1
290
     0
176
     1
290
     0
176
     1
290
     0
176
     1
290
     0
176
     1
290
     0
176
     1
290
     0
176
     1
 90
       50
176
     1
 40
0.0
176
     1
 40
1.0
176
     1
 90
        0
176
     1
 62
    18
420
        0
176
     1
 90
       50
176
     1
 90
        3
176
     1
 62
     5
420
      255
176
     1
290
     0
176
     1
 90
       50
176
     1
 90
       50
176
     1
 90
       50
176
     1
290
     0
176
     1
 90
       50
176
     1
 62
   256
176
     0
 40
1.0
176
     0
 90
        2
176
     1
  1
strokes_ogs.tif
176
     1
290
     0
176
     1
 40
1.0
176
     1
 40
1.0
176
     1
  0
VISUALSTYLE
  5
F7
102
{ACAD_REACTORS
330
EF
102
}
330
EF
100
AcDbVisualStyle
  2
Hidden
 70
     6
177
     3
291
     0
 70
    58
 90
        1
176
     1
 90
        2
176
     1
 90
        2
176
     1
 90
        0
176
     1
 40
0.6
176
     1
 40
30.0
176
     1
 62
     7
420
 16777215
176
     1
 90
        2
176
     1
 90
        2
176
     1
 62
     7
176
     1
 62
   257
176
     1
 90
        2
176
     1
 90
        1
176
     1
 40
40.0
176
     1
 90
        0
176
     1
 62
   257
176
     1
 40
1.0
176
     1
 90
        1
176
     1
 90
        6
176
     1
 90
        2
176
     1
 62
     7
176
     1
 90
        3
176
     1
 90
        0
176
     1
 90
        0
176
     1
290
     0
176
     1
 90
        1
176
     1
 40
0.0
176
     1
 90
        0
176
     1
290
     0
176
     1
290
     1
176
     1
290
     1
176
     1
290
     0
176
     1
290
     0
176
     1
290
     0
176
     1
290
     0
176
     1
290
     0
176
     1
290
     0
176
     1
 90
       50
176
     1
 40
0.0
176
     1
 40
1.0
176
     1
 90
        0
176
     1
 62
    18
420
        0
176
     1
 90
       50
176
     1
 90
        3
176
     1
 62
     5
420
      255
176
     1
290
     0
176
     1
 90
       50
176
     1
 90
       50
176
     1
 90
       50
176
     1
290
     0
176
     1
 90
       50
176
     1
 62
   256
176
     0
 40
1.0
176
     0
 90
        2
176
     1
  1
strokes_ogs.tif
176
     1
290
     0
176
     1
 40
1.0
176
     1
 40
1.0
176
     1
  0
VISUALSTYLE
  5
1E4
102
{ACAD_REACTORS
330
EF
102
}
330
EF
100
AcDbVisualStyle
  2
JitterOff
 70
    20
177
     3
291
     1
 70
    58
 90
        2
176
     0
 90
        2
176
     0
 90
        0
176
     0
 90
        0
176
     0
 40
0.6
176
     0
 40
30.0
176
     0
 62
     7
420
 16777215
176
     0
 90
        1
176
     0
 90
        4
176
     0
 62
     7
176
     0
 62
   257
176
     0
 90
        1
176
     0
 90
        1
176
     0
 40
1.0
176
     0
 90
       10
176
     2
 62
     7
176
     0
 40
1.0
176
     0
 90
        1
176
     0
 90
        6
176
     0
 90
        2
176
     0
 62
     7
176
     0
 90
        5
176
     0
 90
        0
176
     0
 90
        0
176
     0
290
     0
176
     0
 90
        1
176
     0
 40
0.0
176
     0
 90
        0
176
     0
290
     0
176
     1
290
     1
176
     1
290
     1
176
     1
290
     0
176
     1
290
     0
176
     1
290
     0
176
     1
290
     0
176
     1
290
     0
176
     1
290
     0
176
     1
 90
       50
176
     1
 40
0.0
176
     1
 40
1.0
176
     1
 90
        0
176
     1
 62
    18
420
        0
176
     1
 90
       50
176
     1
 90
        3
176
     1
 62
     5
420
      255
176
     1
290
     0
176
     1
 90
       50
176
     1
 90
       50
176
     1
 90
       50
176
     1
290
     0
176
     1
 90
       50
176
     1
 62
   256
176
     0
 40
1.0
176
     0
 90
        2
176
     1
  1
strokes_ogs.tif
176
     1
290
     0
176
     1
 40
1.0
176
     1
 40
1.0
176
     1
  0
VISUALSTYLE
  5
FD
102
{ACAD_REACTORS
330
EF
102
}
330
EF
100
AcDbVisualStyle
  2
Linepattern
 70
    14
177
     3
291
     1
 70
    58
 90
        2
176
     1
 90
        2
176
     1
 90
        1
176
     1
 90
        0
176
     1
 40
0.6
176
     1
 40
30.0
176
     1
 62
     7
420
 16777215
176
     1
 90
        1
176
     1
 90
        4
176
     1
 62
     7
176
     1
 62
   257
176
     1
 90
        7
176
     1
 90
        7
176
     1
 40
1.0
176
     1
 90
        8
176
     1
 62
     7
176
     1
 40
1.0
176
     1
 90
        1
176
     1
 90
        6
176
     1
 90
        2
176
     1
 62
     7
176
     1
 90
        5
176
     1
 90
        0
176
     1
 90
        0
176
     1
290
     0
176
     1
 90
        1
176
     1
 40
0.0
176
     1
 90
        0
176
     1
290
     0
176
     1
290
     1
176
     1
290
     1
176
     1
290
     0
176
     1
290
     0
176
     1
290
     0
176
     1
290
     0
176
     1
290
     0
176
     1
290
     0
176
     1
 90
       50
176
     1
 40
0.0
176
     1
 40
1.0
176
     1
 90
        0
176
     1
 62
    18
420
        0
176
     1
 90
       50
176
     1
 90
        3
176
     1
 62
     5
420
      255
176
     1
290
     0
176
     1
 90
       50
176
     1
 90
       50
176
     1
 90
       50
176
     1
290
     0
176
     1
 90
       50
176
     1
 62
   256
176
     0
 40
1.0
176
     0
 90
        2
176
     1
  1
strokes_ogs.tif
176
     1
290
     0
176
     1
 40
1.0
176
     1
 40
1.0
176
     1
  0
VISUALSTYLE
  5
1E5
102
{ACAD_REACTORS
330
EF
102
}
330
EF
100
AcDbVisualStyle
  2
OverhangOff
 70
    21
177
     3
291
     1
 70
    58
 90
        2
176
     0
 90
        2
176
     0
 90
        0
176
     0
 90
        0
176
     0
 40
0.6
176
     0
 40
30.0
176
     0
 62
     7
420
 16777215
176
     0
 90
        1
176
     0
 90
        4
176
     0
 62
     7
176
     0
 62
   257
176
     0
 90
        1
176
     0
 90
        1
176
     0
 40
1.0
176
     0
 90
        9
176
     2
 62
     7
176
     0
 40
1.0
176
     0
 90
        1
176
     0
 90
        6
176
     0
 90
        2
176
     0
 62
     7
176
     0
 90
        5
176
     0
 90
        0
176
     0
 90
        0
176
     0
290
     0
176
     0
 90
        1
176
     0
 40
0.0
176
     0
 90
        0
176
     0
290
     0
176
     1
290
     1
176
     1
290
     1
176
     1
290
     0
176
     1
290
     0
176
     1
290
     0
176
     1
290
     0
176
     1
290
     0
176
     1
290
     0
176
     1
 90
       50
176
     1
 40
0.0
176
     1
 40
1.0
176
     1
 90
        0
176
     1
 62
    18
420
        0
176
     1
 90
       50
176
     1
 90
        3
176
     1
 62
     5
420
      255
176
     1
290
     0
176
     1
 90
       50
176
     1
 90
       50
176
     1
 90
       50
176
     1
290
     0
176
     1
 90
       50
176
     1
 62
   256
176
     0
 40
1.0
176
     0
 90
        2
176
     1
  1
strokes_ogs.tif
176
     1
290
     0
176
     1
 40
1.0
176
     1
 40
1.0
176
     1
  0
VISUALSTYLE
  5
F9
102
{ACAD_REACTORS
330
EF
102
}
330
EF
100
AcDbVisualStyle
  2
Realistic
 70
     8
177
     3
291
     0
 70
    58
 90
        2
176
     1
 90
        3
176
     1
 90
        0
176
     1
 90
        2
176
     1
 40
0.6
176
     1
 40
30.0
176
     1
 62
     7
420
 16777215
176
     1
 90
        0
176
     1
 90
        0
176
     1
 62
     7
176
     1
 62
   257
176
     1
 90
        1
176
     1
 90
        1
176
     1
 40
1.0
176
     1
 90
        8
176
     1
 62
   257
176
     1
 40
1.0
176
     1
 90
        1
176
     1
 90
        6
176
     1
 90
        2
176
     1
 62
     7
176
     1
 90
        3
176
     1
 90
        0
176
     1
 90
        0
176
     1
290
     0
176
     1
 90
       13
176
     1
 40
0.0
176
     1
 90
        0
176
     1
290
     0
176
     1
290
     1
176
     1
290
     1
176
     1
290
     0
176
     1
290
     0
176
     1
290
     0
176
     1
290
     0
176
     1
290
     0
176
     1
290
     0
176
     1
 90
       50
176
     1
 40
0.0
176
     1
 40
1.0
176
     1
 90
        0
176
     1
 62
    18
420
        0
176
     1
 90
       50
176
     1
 90
        3
176
     1
 62
     5
420
      255
176
     1
290
     0
176
     1
 90
       50
176
     1
 90
       50
176
     1
 90
       50
176
     1
290
     0
176
     1
 90
       50
176
     1
 62
   256
176
     0
 40
1.0
176
     0
 90
        2
176
     1
  1
strokes_ogs.tif
176
     1
290
     0
176
     1
 40
1.0
176
     1
 40
1.0
176
     1
  0
VISUALSTYLE
  5
1F3
102
{ACAD_REACTORS
330
EF
102
}
330
EF
100
AcDbVisualStyle
  2
Shaded
 70
    27
177
     3
291
     0
 70
    58
 90
        2
176
     1
 90
        2
176
     1
 90
        1
176
     1
 90
        2
176
     1
 40
0.6
176
     1
 40
30.0
176
     1
 62
     7
420
 16777215
176
     1
 90
        0
176
     1
 90
        4
176
     1
 62
     7
176
     1
 62
   257
176
     1
 90
        1
176
     1
 90
        1
176
     1
 40
1.0
176
     1
 90
        8
176
     1
 62
   257
176
     1
 40
1.0
176
     1
 90
        1
176
     1
 90
        6
176
     1
 90
        2
176
     1
 62
     8
420
  7895160
176
     1
 90
        3
176
     1
 90
        0
176
     1
 90
        0
176
     1
290
     0
176
     1
 90
        5
176
     1
 40
0.0
176
     1
 90
        0
176
     1
290
     0
176
     1
290
     1
176
     1
290
     1
176
     1
290
     0
176
     1
290
     0
176
     1
290
     0
176
     1
290
     0
176
     1
290
     0
176
     1
290
     0
176
     1
 90
       50
176
     1
 40
0.0
176
     1
 40
1.0
176
     1
 90
        0
176
     1
 62
    18
420
        0
176
     1
 90
       50
176
     1
 90
        3
176
     1
 62
     5
420
      255
176
     1
290
     0
176
     1
 90
       50
176
     1
 90
       50
176
     1
 90
       50
176
     1
290
     0
176
     1
 90
       50
176
     1
 62
   256
176
     0
 40
1.0
176
     0
 90
        2
176
     1
  1
strokes_ogs.tif
176
     1
290
     0
176
     1
 40
1.0
176
     1
 40
1.0
176
     1
  0
VISUALSTYLE
  5
1F2
102
{ACAD_REACTORS
330
EF
102
}
330
EF
100
AcDbVisualStyle
  2
Shaded with edges
 70
    26
177
     3
291
     0
 70
    58
 90
        2
176
     1
 90
        2
176
     1
 90
        1
176
     1
 90
        2
176
     1
 40
0.6
176
     1
 40
30.0
176
     1
 62
     7
420
 16777215
176
     1
 90
        1
176
     1
 90
       10
176
     1
 62
     7
176
     1
 62
   257
176
     1
 90
        2
176
     1
 90
        1
176
     1
 40
1.0
176
     1
 90
        8
176
     1
 62
   257
176
     1
 40
1.0
176
     1
 90
        1
176
     1
 90
        6
176
     1
 90
        2
176
     1
 62
     7
176
     1
 90
        3
176
     1
 90
        0
176
     1
 90
        0
176
     1
290
     0
176
     1
 90
        5
176
     1
 40
0.0
176
     1
 90
        0
176
     1
290
     0
176
     1
290
     1
176
     1
290
     1
176
     1
290
     0
176
     1
290
     0
176
     1
290
     0
176
     1
290
     0
176
     1
290
     0
176
     1
290
     0
176
     1
 90
       50
176
     1
 40
0.0
176
     1
 40
1.0
176
     1
 90
        0
176
     1
 62
    18
420
        0
176
     1
 90
       50
176
     1
 90
        3
176
     1
 62
     5
420
      255
176
     1
290
     0
176
     1
 90
       50
176
     1
 90
       50
176
     1
 90
       50
176
     1
290
     0
176
     1
 90
       50
176
     1
 62
   256
176
     0
 40
1.0
176
     0
 90
        2
176
     1
  1
strokes_ogs.tif
176
     1
290
     0
176
     1
 40
1.0
176
     1
 40
1.0
176
     1
  0
VISUALSTYLE
  5
1EF
102
{ACAD_REACTORS
330
EF
102
}
330
EF
100
AcDbVisualStyle
  2
Shades of Gray
 70
    23
177
     3
291
     0
 70
    58
 90
        2
176
     1
 90
        2
176
     1
 90
        3
176
     1
 90
        0
176
     1
 40
0.6
176
     1
 40
30.0
176
     1
 62
     7
420
 16777215
176
     1
 90
        2
176
     1
 90
        2
176
     1
 62
     7
176
     1
 62
     7
176
     1
 90
        1
176
     1
 90
        1
176
     1
 40
40.0
176
     1
 90
        8
176
     1
 62
     7
176
     1
 40
1.0
176
     1
 90
        1
176
     1
 90
        6
176
     1
 90
        2
176
     1
 62
     7
176
     1
 90
        3
176
     1
 90
        0
176
     1
 90
        0
176
     1
290
     0
176
     1
 90
        1
176
     1
 40
0.0
176
     1
 90
        0
176
     1
290
     0
176
     1
290
     1
176
     1
290
     1
176
     1
290
     0
176
     1
290
     0
176
     1
290
     0
176
     1
290
     0
176
     1
290
     0
176
     1
290
     0
176
     1
 90
       50
176
     1
 40
0.0
176
     1
 40
1.0
176
     1
 90
        0
176
     1
 62
    18
420
        0
176
     1
 90
       50
176
     1
 90
        3
176
     1
 62
     5
420
      255
176
     1
290
     0
176
     1
 90
       50
176
     1
 90
       50
176
     1
 90
       50
176
     1
290
     0
176
     1
 90
       50
176
     1
 62
   256
176
     0
 40
1.0
176
     0
 90
        2
176
     1
  1
strokes_ogs.tif
176
     1
290
     0
176
     1
 40
1.0
176
     1
 40
1.0
176
     1
  0
VISUALSTYLE
  5
1F0
102
{ACAD_REACTORS
330
EF
102
}
330
EF
100
AcDbVisualStyle
  2
Sketchy
 70
    24
177
     3
291
     0
 70
    58
 90
        1
176
     1
 90
        2
176
     1
 90
        2
176
     1
 90
        0
176
     1
 40
0.6
176
     1
 40
30.0
176
     1
 62
     7
420
 16777215
176
     1
 90
        2
176
     1
 90
        2
176
     1
 62
     7
176
     1
 62
     7
176
     1
 90
        1
176
     1
 90
        1
176
     1
 40
40.0
176
     1
 90
       11
176
     1
 62
     7
176
     1
 40
1.0
176
     1
 90
        1
176
     1
 90
        6
176
     1
 90
        2
176
     1
 62
     7
176
     1
 90
        6
176
     1
 90
        0
176
     1
 90
        0
176
     1
290
     0
176
     1
 90
        1
176
     1
 40
0.0
176
     1
 90
        0
176
     1
290
     0
176
     1
290
     1
176
     1
290
     1
176
     1
290
     0
176
     1
290
     0
176
     1
290
     0
176
     1
290
     0
176
     1
290
     0
176
     1
290
     0
176
     1
 90
       50
176
     1
 40
0.0
176
     1
 40
1.0
176
     1
 90
        0
176
     1
 62
    18
420
        0
176
     1
 90
       50
176
     1
 90
        3
176
     1
 62
     5
420
      255
176
     1
290
     0
176
     1
 90
       50
176
     1
 90
       50
176
     1
 90
       50
176
     1
290
     0
176
     1
 90
       50
176
     1
 62
   256
176
     0
 40
1.0
176
     0
 90
        2
176
     1
  1
strokes_ogs.tif
176
     1
290
     0
176
     1
 40
1.0
176
     1
 40
1.0
176
     1
  0
VISUALSTYLE
  5
FC
102
{ACAD_REACTORS
330
EF
102
}
330
EF
100
AcDbVisualStyle
  2
Thicken
 70
    13
177
     3
291
     1
 70
    58
 90
        2
176
     1
 90
        2
176
     1
 90
        1
176
     1
 90
        0
176
     1
 40
0.6
176
     1
 40
30.0
176
     1
 62
     7
420
 16777215
176
     1
 90
        1
176
     1
 90
        4
176
     1
 62
     7
176
     1
 62
   257
176
     1
 90
        1
176
     1
 90
        1
176
     1
 40
1.0
176
     1
 90
       12
176
     1
 62
     7
176
     1
 40
1.0
176
     1
 90
        1
176
     1
 90
        6
176
     1
 90
        2
176
     1
 62
     7
176
     1
 90
        5
176
     1
 90
        0
176
     1
 90
        0
176
     1
290
     0
176
     1
 90
        1
176
     1
 40
0.0
176
     1
 90
        0
176
     1
290
     0
176
     1
290
     1
176
     1
290
     1
176
     1
290
     0
176
     1
290
     0
176
     1
290
     0
176
     1
290
     0
176
     1
290
     0
176
     1
290
     0
176
     1
 90
       50
176
     1
 40
0.0
176
     1
 40
1.0
176
     1
 90
        0
176
     1
 62
    18
420
        0
176
     1
 90
       50
176
     1
 90
        3
176
     1
 62
     5
420
      255
176
     1
290
     0
176
     1
 90
       50
176
     1
 90
       50
176
     1
 90
       50
176
     1
290
     0
176
     1
 90
       50
176
     1
 62
   256
176
     0
 40
1.0
176
     0
 90
        2
176
     1
  1
strokes_ogs.tif
176
     1
290
     0
176
     1
 40
1.0
176
     1
 40
1.0
176
     1
  0
VISUALSTYLE
  5
F6
102
{ACAD_REACTORS
330
EF
102
}
330
EF
100
AcDbVisualStyle
  2
Wireframe
 70
     5
177
     3
291
     0
 70
    58
 90
        0
176
     1
 90
        2
176
     1
 90
        0
176
     1
 90
        0
176
     1
 40
0.6
176
     1
 40
30.0
176
     1
 62
     7
420
 16777215
176
     1
 90
        1
176
     1
 90
        4
176
     1
 62
     7
176
     1
 62
   257
176
     1
 90
        1
176
     1
 90
        1
176
     1
 40
1.0
176
     1
 90
        0
176
     1
 62
   257
176
     1
 40
1.0
176
     1
 90
        1
176
     1
 90
        6
176
     1
 90
        2
176
     1
 62
     7
176
     1
 90
        3
176
     1
 90
        0
176
     1
 90
        0
176
     1
290
     0
176
     1
 90
        1
176
     1
 40
0.0
176
     1
 90
        0
176
     1
290
     0
176
     1
290
     1
176
     1
290
     1
176
     1
290
     0
176
     1
290
     0
176
     1
290
     0
176
     1
290
     0
176
     1
290
     0
176
     1
290
     0
176
     1
 90
       50
176
     1
 40
0.0
176
     1
 40
1.0
176
     1
 90
        0
176
     1
 62
    18
420
        0
176
     1
 90
       50
176
     1
 90
        3
176
     1
 62
     5
420
      255
176
     1
290
     0
176
     1
 90
       50
176
     1
 90
       50
176
     1
 90
       50
176
     1
290
     0
176
     1
 90
       50
176
     1
 62
   256
176
     0
 40
1.0
176
     0
 90
        2
176
     1
  1
strokes_ogs.tif
176
     1
290
     0
176
     1
 40
1.0
176
     1
 40
1.0
176
     1
  0
VISUALSTYLE
  5
1F1
102
{ACAD_REACTORS
330
EF
102
}
330
EF
100
AcDbVisualStyle
  2
X-Ray
 70
    25
177
     3
291
     0
 70
    58
 90
        2
176
     1
 90
        2
176
     1
 90
        1
176
     1
 90
        1
176
     1
 40
0.5
176
     1
 40
30.0
176
     1
 62
     7
420
 16777215
176
     1
 90
        1
176
     1
 90
        0
176
     1
 62
     7
176
     1
 62
   257
176
     1
 90
        1
176
     1
 90
        1
176
     1
 40
1.0
176
     1
 90
        8
176
     1
 62
     7
176
     1
 40
1.0
176
     1
 90
        1
176
     1
 90
        6
176
     1
 90
        2
176
     1
 62
     7
176
     1
 90
        3
176
     1
 90
        0
176
     1
 90
        0
176
     1
290
     0
176
     1
 90
       13
176
     1
 40
0.0
176
     1
 90
        0
176
     1
290
     0
176
     1
290
     1
176
     1
290
     1
176
     1
290
     0
176
     1
290
     0
176
     1
290
     0
176
     1
290
     0
176
     1
290
     0
176
     1
290
     0
176
     1
 90
       50
176
     1
 40
0.0
176
     1
 40
1.0
176
     1
 90
        0
176
     1
 62
    18
420
        0
176
     1
 90
       50
176
     1
 90
        3
176
     1
 62
     5
420
      255
176
     1
290
     0
176
     1
 90
       50
176
     1
 90
       50
176
     1
 90
       50
176
     1
290
     0
176
     1
 90
       50
176
     1
 62
   256
176
     0
 40
1.0
176
     0
 90
        2
176
     1
  1
strokes_ogs.tif
176
     1
290
     0
176
     1
 40
1.0
176
     1
 40
1.0
176
     1
  0
DICTIONARYVAR
  5
146
102
{ACAD_REACTORS
330
5E
102
}
330
5E
100
DictionaryVariables
280
     0
  1
1:1
  0
DICTIONARYVAR
  5
145
102
{ACAD_REACTORS
330
5E
102
}
330
5E
100
DictionaryVariables
280
     0
  1
STANDARD
  0
DICTIONARYVAR
  5
84
102
{ACAD_REACTORS
330
5E
102
}
330
5E
100
DictionaryVariables
280
     0
  1
STANDARD
  0
DICTIONARYVAR
  5
227
102
{ACAD_REACTORS
330
5E
102
}
330
5E
100
DictionaryVariables
280
     0
  1
Metric50
  0
DICTIONARYVAR
  5
228
102
{ACAD_REACTORS
330
5E
102
}
330
5E
100
DictionaryVariables
280
     0
  1
Metric50
  0
DICTIONARYVAR
  5
5F
102
{ACAD_REACTORS
330
5E
102
}
330
5E
100
DictionaryVariables
280
     0
  1
2
  0
DICTIONARYVAR
  5
63
102
{ACAD_REACTORS
330
5E
102
}
330
5E
100
DictionaryVariables
280
     0
  1
1
  0
DICTIONARYVAR
  5
1AE
102
{ACAD_REACTORS
330
5E
102
}
330
5E
100
DictionaryVariables
280
     0
  1
0
  0
DICTIONARYVAR
  5
1AF
102
{ACAD_REACTORS
330
5E
102
}
330
5E
100
DictionaryVariables
280
     0
  1
0
  0
XRECORD
  5
9235
102
{ACAD_REACTORS
330
9233
102
}
330
9233
100
AcDbXrecord
280
     1
  1
AcLyLayerGroup
 90
        1
300
1. Inskripzio-laukia
330
485
330
6C6
330
659
330
7AC
330
7AE
330
7AD
  0
XRECORD
  5
9236
102
{ACAD_REACTORS
330
9233
102
}
330
9233
100
AcDbXrecord
280
     1
  1
AcLyLayerGroup
 90
        1
300
2. Egitura
330
FC8
330
FC5
330
FC4
330
FC3
330
150C
330
24FF
  0
XRECORD
  5
9237
102
{ACAD_REACTORS
330
9233
102
}
330
9233
100
AcDbXrecord
280
     1
  1
AcLyLayerGroup
 90
        1
300
3. Arotzeria
330
FC9
330
FC7
330
FC6
  0
XRECORD
  5
9238
102
{ACAD_REACTORS
330
9233
102
}
330
9233
100
AcDbXrecord
280
     1
  1
AcLyLayerGroup
 90
        1
300
4. Zorua
330
8D45
330
45C5
330
4035
  0
XRECORD
  5
9239
102
{ACAD_REACTORS
330
9233
102
}
330
9233
100
AcDbXrecord
280
     1
  1
AcLyLayerGroup
 90
        1
300
5. Altzariak
330
1874
  0
XRECORD
  5
923A
102
{ACAD_REACTORS
330
9233
102
}
330
9233
100
AcDbXrecord
280
     1
  1
AcLyLayerGroup
 90
        1
300
6. Elementuak
330
253B
  0
XRECORD
  5
923B
102
{ACAD_REACTORS
330
9233
102
}
330
9233
100
AcDbXrecord
280
     1
290
     1
  1
AcLyLayerGroup
 90
        1
300
7. Datuak
330
14FC
330
4129
330
3AB1
330
9232
  0
XRECORD
  5
923C
102
{ACAD_REACTORS
330
9233
102
}
330
9233
100
AcDbXrecord
280
     1
  1
AcLyLayerGroup
 90
        1
300
8. Irisgarritasuna
330
3B73
  0
DICTIONARY
  5
22E2
330
188F
100
AcDbDictionary
280
     1
281
     1
  3
ACAD_XREC_ROUNDTRIP
360
99F0
  0
DICTIONARY
  5
236
330
21C
100
AcDbDictionary
280
     1
281
     1
  3
ACAD_XREC_ROUNDTRIP
360
99EE
  0
DICTIONARY
  5
205
330
22
100
AcDbDictionary
280
     1
281
     1
  0
DICTIONARY
  5
1F9
330
ED
100
AcDbDictionary
280
     1
281
     1
  3
FBXASSET
360
1FA
  0
DICTIONARY
  5
1F7
330
EC
100
AcDbDictionary
280
     1
281
     1
  3
FBXASSET
360
1F8
  0
DICTIONARY
  5
173
330
EE
100
AcDbDictionary
280
     1
281
     1
  3
BUMPTILE
360
175
  3
DIFFUSETILE
360
174
  3
FBXASSET
360
1FB
  3
OPACITYTILE
360
176
  3
REFLECTIONTILE
360
177
  0
DICTIONARY
  5
22E0
330
188E
100
AcDbDictionary
280
     1
281
     1
  3
ACAD_XREC_ROUNDTRIP
360
99EF
  0
DICTIONARY
  5
234
330
21A
100
AcDbDictionary
280
     1
281
     1
  3
ACAD_XREC_ROUNDTRIP
360
99ED
  0
DICTIONARY
  5
162
330
7F
100
AcDbDictionary
280
     1
281
     1
  3
ACAD_ROUNDTRIP_2008_TABLESTYLE_CELLSTYLEMAP
360
99EC
  0
XRECORD
  5
99F0
102
{ACAD_REACTORS
330
22E2
102
}
330
22E2
100
AcDbXrecord
280
     1
102
DISPLAYNAME
  1
Imperial24
102
FLAGS
 90
        0
  0
XRECORD
  5
99EE
102
{ACAD_REACTORS
330
236
102
}
330
236
100
AcDbXrecord
280
     1
102
DISPLAYNAME
  1
Metric50
102
FLAGS
 90
        0
  0
XRECORD
  5
1FA
102
{ACAD_REACTORS
330
1F9
102
}
330
1F9
100
AcDbXrecord
280
     1
 70
     1
 90
429727718
  1
D62C5603-E3A1-4AEA-B7FB-FE5D8D0755AF
310
504B03040A0000080000CC70623B3DEE336E79000000790000001B0000006175746F6465736B2D64657369676E2D7061636B6167652E786D6C3C3F786D6C2076657273696F6E3D22312E302220656E636F64696E673D227574662D3822203F3E3C666F726D6174733E3C666F726D61743E687474703A2F2F736368656D612E
310
6175746F6465736B2E636F6D2F64657369676E2D7061636B6167652F323030393C2F666F726D61743E3C2F666F726D6174733E504B0304140006080800CC70623BD486FD9CA0000000F4000000130000005B436F6E74656E745F54797065735D2E786D6C7D8EC10E82300C865F65E91D8A1E8C310C0EEA1BF002731658846E
310
D98AC1B77784ABF1D8FE5FBFBF75BBCE937A534CCEB38643598122B6FEE978D0B0485F9C41B54DDD7D022595594E1A469170414C76A4D9A4D207E29CF43ECE46F218070CC6BECC4078ACAA135ACF422C856C0E68EA1BF5669944DDD7BCDE7B1F8E415D77AECB980613C2E4AC91FC167A2B244592486606FC29C8FD7F045B9A
310
EF7053A7E60B504B0304140006080800CC70623B853B8169EB0000007C01000008000000636F72652E786D6C8D90416EC3201045AF62CDB6C206821CC7C244919D9CA01740401C94182C03558F5F9C3852BBEB6A467FFE9B197D7EFC9E1EC5975982F5AE035262288C535E5B377690E21535501C055FBC8FBF6C503839990E
310
5619041F179FE64D52DE45E362569DD7661365082642A11EB9E920A89B99642953CC8E702F67A9EE7234257977194EC9EAE275C4EABCCF5EAD5940D4AC6F0E35A568B8F43562CD7046CD199FD07E60174276A7BE677B5EADB0E0D14EEFFB6A31321A0D82627C4084204C3F096B71DD52F6819B16635EADF63F509AF53FA164
310
5DDCD1EDDD17164090FCC8732078B56691CB33A85CD7DCC40F504B0304140006080800CC70623B55019EA25F0000007C00000007000000636E782E786D6C4DCB3B0E80201045D1AD90E915ED2CF8AC45050C11660C8261F98AB1B07AC9C97D42D718D865D3E909258CFD00CCE24AC6E326A164D74DC0B4128928FF32603847
310
2BA13128B1252AC747C6BAB984FC68F0B87FE8960A5C09FE86CFB69FBA01504B0304140006080800CC70623BDBABAAF470010000D40300000C0000006662782F636F72652E786D6CC553D16E823014FD95A6AF4B694182CC941A83FA05FB810A9511A125A5257EFE2E82712ECEB8A7F100CD39F7F69E734AF9FADC366850B6
310
AF8DCE7018308C942E4C59EB2AC3DE1D498AD15A706B8CFB56869196ADCAF00863C12B6B7C374385D14E6907A836A59A41D9F7CA615434B0C8705F7CAA5606D23BA8E84F41278B93AC54100640439DE0BDB320004D43C63716C7C399D30917DCFBBA9CD9BA8469F5B156168B24CED3F7248AC8769F27244EB73B92EED8862C
310
B7F13E0C179B3C8F979C8ECD82BBBABDAA2BAC924E9558448CBD9330242CFA08E3154B5651FCC6D215639C8EE5774DBE2B5F6CF2B5768B68963BB5F5588420E442FC700B1139D4CB01F450C1E918227C2E09DF070D8140C84E1E9AAB8F1340832A9CB13130A5F1376A908D57309505ECF2A0DF179C4E9D30F5B239B87E3823
310
7A79C6F31DE1A8A5AEC08474B03C7837EAE4938639B44E5932B833D2C6B6B279CDC613877FA26EE21F4A2A4C63EC7F29A2F301D1F9F7A0E37D145F504B0304140006080800CC70623B9C113CC27E0000009D0000000B0000006662782F636E782E786D6C4DCCDF0A83201C86E15B91DFB94BFB330DD428C8FB886521330DA7
310
6397BF1A1DECE883878F57749FCDA1B7892F1BBC047A23808C7F84D9FA55424E0BE6803A256208E9EF06C84F9B91703228B1C690F78B66B34CD9A5439DF5CF0BFBF65E35BCA1B8D6A5C6F540381E886698B5741C695F9503EBA150A2F8958E3DC3EA0B504B0304140006080800CC70623B7DF2F77C2A010000120200003100
310
00006662782F41393633353835312D344632462D344230382D423046372D3739314545314133324237412F636F72652E786D6C8D51DB8EC22014FC15C2939B0D2DB4B45643319AE817EC0F6041255A68B86CFCFC856D4D76DF7CE190393373060EDB3DC707F856CE6B6B7A480A0C81328395DA5C7B18C3057510EC3873D686
310
3F34088C18550F330C39BB3A1BA7051AAC09CA84841A2BD5020AEF55806078A44B0FFD7053A328440C89E1EFC52486BBB8AA8214A99D789CF9E05200300FC927E4FB4D5B375D43103D5527440FB843077C5AA3F5861C8F645F5787F59E95B390B318B55CE45AA638FAA2957BD7248B390B7A7CC51F9C124149C82B8C378810
310
84AB2F42B7B8DD56F413775B8C5999E9FF4471926F8AA236A1AE96B8B3CC434E5839373893369E1FAF30EA395917409EB7F26AF8801C171837A4A6AC9C89E9F9C9B1A58BA30FD6A5EF5DDDCF894B9AD9B6A59C957943A9FCAE2FD5BC4DFE03504B0304140006080800CC70623BAD7543B64E01000033030000300000006662
310
782F41393633353835312D344632462D344230382D423046372D3739314545314133324237412F636E782E786D6CD593CD6EC32010845F0571AD6CE3D48AD20813A9873E410FBD12D82434182C7EAAE6EDBB2424CD25871E7B41D6EC30B3FA84F9E67BB2E40B4234DE8DB46F1925E094D7C6ED479AD3AE5951B2113C789FEE
310
6C943839C1488B4C05DF079FE72A69D8C96C13AAD6B8631503449F83828872B949AC57D26200B826A308D316B4064D6E46FCDA41C05550DC9E483A00797BFD207EFB092A45DE9514C1BBD22178396BD39D891265658C238DEA00936C654E5E433CB65A26D9F6EDB5EBC14EBF49A45CB856E66048291F6939A9A81BB5C89177
310
38143CA680F4AA299D66A042CEB3354A2684DC9D8D178FE0D9B8B41CAAD720F880EE7EF93C0C18769E099ECC04D5A102C8049A8A05632F4DDF376CF1DE0F6BB65C2F8627B65A33C6BB62177CEBBDAD973006829F89F22E814B54F4BC2BE347F8AA8F681390B50FA73F804400B5F542E796F19FF974E7F78DB802FE05E20750
310
4B0304140006080800CC70623BE75B7789680500003C100000340000006662782F41393633353835312D344632462D344230382D423046372D3739314545314133324237412F6F626A656374732E786D6CAD575B8F9B3818FD2B887D06C22499CB8AA1CA655245D5B455A356FB305264C061D8018C6C3393D95FBFC7600890
310
A4CD5EF210B0B1BFEBF98E3F7B1FF6596ABC522E1296DF9BAE3D320D9A872C4AF2F8DE2CE5CEBA358D0FBEC719939D65A691938CDE9B6ADAF4BD98B3B2D05311DD91329583D9D5FC0F438434A7A611A644887B5384CF34233629258BA878B12322891DEFF6B66BD70BFB62634E8AE781D082709A4B588AF91C528CDA28B73F
310
1C998EEF39EABBEFA97FBD6A7C7E9553F9D3D79FE442923C3C523610337627CB87ABE99D359D4CC6D6E4FACAB5E6ABF9D2726FC6A3C5F56271377BB88362213924694B38DD99FE47C48627A1E7D49F5A8BB5E1A74C0A599ED3B0F21F1E56366B89112D681E218F0915D0D6F17AD41FBA2A369DCF6335D62ABBD39779D5DDD1
310
11D4D8DE3CBB96B2E04FB8202E41051754A1AA8E8F76B4C6DFE810B580B1547F4B84911149794252234D024EF8BBE963A95AE27B3D310A9D5C215C7960FAEE415ED75694C6AFB17BCACA5D99A60A9AA65F217B0BFC53292ACB92BF283FAD0D3621576592CB5BED907C2FA8E9DF794E35E97BEA31BED21FEB401ABB94C44839
310
DCACBF0E1C5DA8DA5B2F4DFFD32AD86F543D9E565E7056502E157C00AD2671CD534549AB752FCA9CDA00677A313F04E51B22FF19E57B300579E3C97EB29F682D92935CEC18CF901B7B54FD8C51F362B56FC72FE0B3C1EAE335EDCCBF5AEC39ADB17DC238973F804BA5E6F6BFE7AF1FB32E523BE9F3BD571418E3631DCA4D48
310
5250CF639223210A9446CA30052EDF057BD35F8329C1ECD84552BF0DC8D18BE7BCE23BFE6BD960AB4A7DE79923A103BEBD80F911CBAA2C60DB19B01CF164A5583B772EE6D3FFA56666CBCDA74DC97724A48F9A58967497E489C4D979006FD7A05E227A1EBDD0F737C623387A9C844D3709995625106D157315F8B8392CD4E0
310
A0B9A720C4BE9829CEF37EA1E13111214D53925356365ADA634861B52519DD27A00AEB808EAF0628E6F435519D446F45CF2C9CF5214F0A15B2F6D06B79DA3EE3CBF7F56780D2F4E7EF73A0F5E5B02A38D07DC852C6B7C1FBB6664213E0C39E3EBA7FF4E1AD23EA2829407C85E586727488B751B2DB9502BC7B228A3FD68B6E
310
A65A22397E690AA8D158D7E404EC8CDA235CC3B7D1898680131CEC2CDF2638C65196279577750F15884AEE19F94199155B92B13297978469D4F8D358DF0AEF7631E28DC8F0D9F437D5D39A83B2231A1D52D543813A824EF8D44BCFF2FA6A31BD1E8DAD87F1CCB526B3879935BF59CDADD5C37479BB1CDD4CA7B3556B516589
310
EF352754B706114D9C885EC9131DE6EFEB43D99AFE2391C2F958179413D7CFEF6B1B6DB1E7600F00DE6E5C67454A339A4BA2E0FBA85ED26F045D454F463DBFCE484C2F90F2E5E3666003662ED8F755951A7D1BECD5B30B550B2785C8E7320B7292A4838DDA71BBC863ED7613CAF659337A3354231D4FF4A182A54904C2898C
310
98B28C4AD0CE056CCF332A80986E571EE9DBC305BB5FEB7E509220A58D25CF042D712A806AC0AD0C657FDEF80D2D9CEAA2EE4D1C76F60BFE74219A06527D6F82DF6412526107381E55E353090704D085B52408A8913C4ED159D79BDA71BB4BC506F4831350EB6F975CD22D69BF7AC49B91A2C0A9DDA3D5CA36AD20FC478E37
310
E61844E2352865EBCB61A275A65283CAAA9DD27703B4102F5AF51EF5F573B75CBB5AD38BC845F7A49F82A0966A49C2E3EA5EA0ECD326CD965F1DB402C6FA8B51A4658C5C5E2EC9E214602E55810345408596591009A82E7E7FFACA19EEA299B14A0081A705CB3296EBC14CDF658DCD336EA6D1136881AAEB87B81AB9EE53D5
310
F5EB8BC8362082DA24122F98680A4E7930C01A0079749CEA14382A0783E5EBA5A10F8C098456A03D6A4AEB6BB881E2513747552A5DB22C7EDAF83BD5528081A365F7FF06504B0304140006080000CC70623B000000000000000000000000350000006662782F41393633353835312D344632462D344230382D423046372D37
310
39314545314133324237412F76657274696365732E62696E504B0304140006080800CC70623BF270F1330600000004000000360000006662782F41393633353835312D344632462D344230382D423046372D3739314545314133324237412F747269616E676C65732E62696E636660600000504B0304140006080000CC7062
310
3B000000000000000000000000370000006662782F41393633353835312D344632462D344230382D423046372D3739314545314133324237412F617474726962757465732E62696E504B0304140006080800CC70623B08DA0BD19000000041010000360000006662782F41393633353835312D344632462D344230382D4230
310
46372D3739314545314133324237412F6469726563746F72792E786D6C858F410AC3201045AF22B36F53E9A60B35CBEEBAE80D244E44489C6234F4F835464A48035D0DF398FF9F8AF63D0E6CC63039F212F8F9020C7D47C6792B21C5FE7403D62A1188E2E60C98D7234A5830286103A55745067B9D86B8A3CF9C7F90C11DE6
310
07FB144396D7B6A82D282E9A152AD114D5EF2CB866EEE831B8EEA07A7BB5A8D7D61A2BAAEB7FD5F70921FF497D00504B0304140006080800CC70623BEDD1DC58FD000000A00100003B0000006662782F41393633353835312D344632462D344230382D423046372D3739314545314133324237412F7265736F75726365732F
310
636F72652E786D6C8D504B6E833010BD0A9A6D65B00922041947112427E8052C33A156828DFCA97AFC9A40A576D7CDCCE87D344F8F9FBFE667F689CE6B6B3A6039850C8DB2A336530731DC4903D95970676DF82583CCC8193B5861107C72362E3BA4AC096842428D1D7107A5F7182053CF7474E0D507CE32973124857FE48B
310
540F3961CEF244279DE03EB81420DB9EAC1384436FA353E879B1B182C7A8C75DA3C7F453DF353A1075D537A7BA6464B8F535A99AE14A9A2BBD90E350DD183B5CFABE3AF262350B1EF4FC9351399401471025A527C218A1E53BAB5A5AB765F5469B96525EACF23FA6B88CFF34456DC2A1DCE36E360F82A5202F42F062ED2BAD
310
579969AFDD8A6F504B010214000A0000080000CC70623B3DEE336E79000000790000001B00000000000000000000000000000000006175746F6465736B2D64657369676E2D7061636B6167652E786D6C504B01021400140006080800CC70623BD486FD9CA0000000F40000001300000000000000000000000000B20000005B
310
436F6E74656E745F54797065735D2E786D6C504B01021400140006080800CC70623B853B8169EB0000007C010000080000000000000000000000000083010000636F72652E786D6C504B01021400140006080800CC70623B55019EA25F0000007C000000070000000000000000000000000094020000636E782E786D6C504B
310
01021400140006080800CC70623BDBABAAF470010000D40300000C00000000000000000000000000180300006662782F636F72652E786D6C504B01021400140006080800CC70623B9C113CC27E0000009D0000000B00000000000000000000000000B20400006662782F636E782E786D6C504B01021400140006080800CC70
310
623B7DF2F77C2A010000120200003100000000000000000000000000590500006662782F41393633353835312D344632462D344230382D423046372D3739314545314133324237412F636F72652E786D6C504B01021400140006080800CC70623BAD7543B64E010000330300003000000000000000000000000000D2060000
310
6662782F41393633353835312D344632462D344230382D423046372D3739314545314133324237412F636E782E786D6C504B01021400140006080800CC70623BE75B7789680500003C10000034000000000000000000000000006E0800006662782F41393633353835312D344632462D344230382D423046372D3739314545
310
314133324237412F6F626A656374732E786D6C504B01021400140006080000CC70623B0000000000000000000000003500000000000000000000000000280E00006662782F41393633353835312D344632462D344230382D423046372D3739314545314133324237412F76657274696365732E62696E504B01021400140006
310
080800CC70623BF270F133060000000400000036000000000000000000000000007B0E00006662782F41393633353835312D344632462D344230382D423046372D3739314545314133324237412F747269616E676C65732E62696E504B01021400140006080000CC70623B0000000000000000000000003700000000000000
310
000000000000D50E00006662782F41393633353835312D344632462D344230382D423046372D3739314545314133324237412F617474726962757465732E62696E504B01021400140006080800CC70623B08DA0BD1900000004101000036000000000000000000000000002A0F00006662782F41393633353835312D344632
310
462D344230382D423046372D3739314545314133324237412F6469726563746F72792E786D6C504B01021400140006080800CC70623BEDD1DC58FD000000A00100003B000000000000000000000000000E1000006662782F41393633353835312D344632462D344230382D423046372D3739314545314133324237412F7265
310
736F75726365732F636F72652E786D6C504B0506000000000E000E0080040000641100000000
  0
XRECORD
  5
1F8
102
{ACAD_REACTORS
330
1F7
102
}
330
1F7
100
AcDbXrecord
280
     1
 70
     1
 90
429727718
  1
30362254-06B7-45E0-A893-8CFA70E3D6BC
310
504B03040A0000080000CC70623B3DEE336E79000000790000001B0000006175746F6465736B2D64657369676E2D7061636B6167652E786D6C3C3F786D6C2076657273696F6E3D22312E302220656E636F64696E673D227574662D3822203F3E3C666F726D6174733E3C666F726D61743E687474703A2F2F736368656D612E
310
6175746F6465736B2E636F6D2F64657369676E2D7061636B6167652F323030393C2F666F726D61743E3C2F666F726D6174733E504B0304140006080800CC70623BD486FD9CA0000000F4000000130000005B436F6E74656E745F54797065735D2E786D6C7D8EC10E82300C865F65E91D8A1E8C310C0EEA1BF002731658846E
310
D98AC1B77784ABF1D8FE5FBFBF75BBCE937A534CCEB38643598122B6FEE978D0B0485F9C41B54DDD7D022595594E1A469170414C76A4D9A4D207E29CF43ECE46F218070CC6BECC4078ACAA135ACF422C856C0E68EA1BF5669944DDD7BCDE7B1F8E415D77AECB980613C2E4AC91FC167A2B244592486606FC29C8FD7F045B9A
310
EF7053A7E60B504B0304140006080800CC70623B1EC5D7A3EB0000007C01000008000000636F72652E786D6C8D90416EC3201045AF82665B6103C6756C6122AB4D4ED00B204C5C94182C03558F5F9C3852BBEB6A467FFE9B197D71FC9E6FE8CBACC17AD7032D0820E3B41FAD9B7A48F1820F808E52ACDEC75F36404ECDA687
310
4D0629A6D5A76597B477D1B89855E747B38B2A041301E95B6E7A08FAD3CCAA50296647B8168BD2573599823EBB0CA76447F43862C7BCCF5EAC59410E4DDD9C7973C2755553CCCFA4C603E3040F1565ED3B1FDE4E432BCA0D9622DAF9795FAF464533826484B498524CD807E51D79ED187F21878E10516EF63F505AC67F42C9
310
BA58B1FDDD071640D2FCC87D2045B96591CB3DA85CB7DCE40F504B0304140006080800CC70623B55019EA25F0000007C00000007000000636E782E786D6C4DCB3B0E80201045D1AD90E915ED2CF8AC45050C11660C8261F98AB1B07AC9C97D42D718D865D3E909258CFD00CCE24AC6E326A164D74DC0B4128928FF32603847
310
2BA13128B1252AC747C6BAB984FC68F0B87FE8960A5C09FE86CFB69FBA01504B0304140006080800CC70623B8C9102E971010000D40300000C0000006662782F636F72652E786D6CC5535B6E833010BC8AE5DF0A6C08340F1947A84D4ED00B38C6A128602363A31CBFCB234A53A551FA553EC09AD9F5CE8C31DB9E9B1AF5CA
310
7695D1198E428A91D2D214952E33ECDD315861B4E5CC1AE3BE9561A445A3323CC098B3D21ADFCE9034DA29ED00D5A6503328BA4E398C640D8B0C77F253352214DE4145770A5B214FA2546114020D759C75CE8200340D19DE981F0F6746269C33EFAB6266AB02A655C74A59CCF365BADC27CB5D902ED22848F6340DF238A141
310
BE88E2F57B92BFEDF23523433367AE6A2EEAA455C2A902F398D2751045018D3FA264435F3771F242571B4A1919CA6F9A7C5B3CD9E42BED16F12C776AEB308F40C848FC700B1139D4891EF410CEC810227CC6846F8386402064270EF5C5C709A05E49676C024C61FC95EA45ED154CA5211D1FF4FB8291A913A68E9B83EBBB33
310
E2A7673CDE118E5AE8124C0807CB8377834E366998436B950D7A7746DAD846D4CFD978E0F04FD455FC5D49D2D4C6FE9722321F10997F0F32DC47FE05504B0304140006080800CC70623BFFEA85907E0000009D0000000B0000006662782F636E782E786D6C4DCCD10A83201886E15B91FFDC95D95A811AB6F23E625948A6C3
310
E9D8E5AF46073BFAE0E1E365ED67B3E8ADC3CB78C7815C7240DA3DFC64DCC221C519D7805AC182F7F1EF06C88D9BE6703008B6049F9E274D7A1E938DBB5AE3D6131B2589BA0D3D965551E0B2EA732C9B9A624AAEB41E3A557677029960D9AFB4EF11165F504B0304140006080800CC70623B4FEEA4082C0100001202000031
310
0000006662782F39464131463745442D413632322D343644302D413938332D3331353338454246344243312F636F72652E786D6C8D515B6EC32010BC0AE2AB55850DD871ED0813254D72825EC00192A2C460F1A872FC42ED48ED5F7E00CDCECCCEB26C731F6FE05B39AFADE921293004CA082BB5B9F43086336A21D870E6AC
310
0D7F68109861543DCC30E4ECE26C9C164858139409093556AA051CBC570102714B8F1E7AF1A5C6A11862480C7F2DA6415C878B2A4891CA89C7990F2E050073937C42DE1DB7E4F87ED8A36D4329AA9B3D46DBAEAD504556557BD81DEBDD0761E52CE42C462D17B996298E3E6BE59E35C962CE821E1FF18553435012728A7187
310
0841987E927A8D9B35ADDF70BBC6989599FE4F1427F9A4286A132ABAC49D651EF234CD5CE04CDA78BA3DC2A8FB645D00B9DF8B57E215725C60BCA2A463E54C4CE327C7A65E1C7DB02E7DEFCBF594B864C5CA6CDBD49C957943E9FA5D5FBAF336F90F504B0304140006080800CC70623BAD7543B64E01000033030000300000
310
006662782F39464131463745442D413632322D343644302D413938332D3331353338454246344243312F636E782E786D6CD593CD6EC32010845F0571AD6CE3D48AD20813A9873E410FBD12D82434182C7EAAE6EDBB2424CD25871E7B41D6EC30B3FA84F9E67BB2E40B4234DE8DB46F1925E094D7C6ED479AD3AE5951B2113C
310
789FEE6C943839C1488B4C05DF079FE72A69D8C96C13AAD6B8631503449F83828872B949AC57D26200B826A308D316B4064D6E46FCDA41C05550DC9E483A00797BFD207EFB092A45DE9514C1BBD22178396BD39D891265658C238DEA00936C654E5E433CB65A26D9F6EDB5EBC14EBF49A45CB856E66048291F6939A9A81BB5
310
C8917738143CA680F4AA299D66A042CEB3354A2684DC9D8D178FE0D9B8B41CAAD720F880EE7EF93C0C18769E099ECC04D5A102C8049A8A05632F4DDF376CF1DE0F6BB65C2F8627B65A33C6BB62177CEBBDAD973006829F89F22E814B54F4BC2BE347F8AA8F681390B50FA73F804400B5F542E796F19FF974E7F78DB802FE05
310
E207504B0304140006080800CC70623B16AB87BA640500003C100000340000006662782F39464131463745442D413632322D343644302D413938332D3331353338454246344243312F6F626A656374732E786D6CAD575B6FA33818FD2B887DE6924B3BED8A326A92B68A663B534DD4D13E548A0C38942D60649B369D5FBFC7
310
600890A493BDE42160637FD7F31D7FF63E6FB3D478A55C242CBF3247B66B1A340F5994E4F19559CA8D75611A9F7D8F33263BCB4C232719BD32D5B4E97B316765A1A722BA21652A07B3B7B33F0D11D29C9A46981221AE4C113ED38CD8A4942CA2E2C58E882476BCD9DA23BB5ED8171B73523C0F841684D35CC252CCE79062D4
310
468DFA43D7747CCF51DF7D4FFDEB5593E3AB9CCA9FBEFE241792E4E19EB28198C968BAB8199F5D5A67D3E9C49A9E8F47D6EC76B6B0469F26EEFC7C3EBFBCBEB98462213924694B38DD98FE1D62C393D073EA4FADC5DAF04326852CCF6958F90F0F2B9BB5C48816348F90C7840A68EB78EDF68723159BCEE7891A6B95DDE9D3
310
BCEAEEE8086A6C6F9E5D4B59F0175C10A7A0820BAA5055C7473B5AE3CFDD452D602CD5DF12616444529E90D448938013FE6EFA58AA96F85E4F8C42275708571E98FE6827AF6B2B4AE3D7D83D64E5A64C53054DD3AF90BD06FEA9149565C94FCA0F6B834DC85599E4F2423B24DF0B6AFA979E534DFA9E7A4CC6FA631D486393
310
921829879BF5D781A373557BCB85E97FB90DB62B558F8795179C15944B051F40AB495CF35451D26A4727654E6D8033BD98EF82F21D91FF8AF2DD9982BCF1643BDD4EB516C9492E368C67C88DED563FC36D5EACF66DFF057C3658BDBFA69DF9578B3DA735B64F18C7F20770A9D45CFCF7FCF563D6456A277DBEF78A02637CA2
310
43B90A490AEAB94F72244481D24819A6C0E59B606BFA4B3025981DBB48EAB701D97BF19C577CC77F2D1B6C55A9EF3C732474C0B727303F625995056C3B02963D9EAC146BE78EC5FCEC7FA999EBC5EACBAAE41B12D27B4D2C0BBA49F244E2ECDC81B76B502F113D8F5EE8FB1BE3111CDD4FC2AA9B844CAB1288B68AB90A7CDC
310
1C166AB0D3DC5310625FCC14E779BFD0709F8890A629C9292B1B2DED31A4B0DA928CEE135085754027E3018A397D4D5427D15BD1330B677DC8934285AC3DF45A9EB68FF8F2B8FC0A509AFEECFD0FF2DE25CC6047F7214B195F07EFEB9A094D800F7BFAE8FED187B78EA8A3A400F115961BCAD1215E47C966530AF0EE8128FE
310
58CEBB996A8964FFA529A046635D9353B0336A8F700DDF46271A024E70B0B37C9DE01847591E54DED53D54202AB947E4076556AC49C6CA5C9E1226B7F1A7B1BE15DEED62C41B91E1B3E9AFAAA735036547343A925075041DF0A9979E893B391F8FCFA6967B3EFB644DCF6E5CEBFAE272625DCC6FAF3FB93793C5F90CE1EF57
310
407342756B10D1C489E8953CD1617E5CEECAD6F4EF8914CE5D5D504E5C3F1F9736DA62CFC11E00BCDDB8CC8A9466349744C1F75EBDA4DF09BA8A9E8C7A7E9991989E20E5DBDD6A6003664ED8F7A04A8DBE0DF6EAD9B9AA858342E47399053949D2C146EDB85DE4B176BB0965FBAC19BD19AA918E27FA50C1D22402E144464C
310
59462568E704B6E71915404CB72B8FF4EDE184DDAF753F284990D2C6926782963815403548A70C657FDEF80D2D9CEAA2AE4C1C76F60BFE74219A06527D6582DF6412526107381E55E353090704D085B52408D0933C4ED159D79BDA71BB4BC506F4831350EB6F979CD22D69BF7AC49B91A2C0A9DDA3D5CA36AD20FC478E37E6
310
1844E2352865EBCB6EA275A652E3836BE04EFB400BF1A2556F515F1FBB35B2AB35BD889C744FFA1004B5544B121E57F70215746DD2F5E2C1412B602CBF19455AC6C8E5E9922C4E01E65215385004546899059180EAFCF7A707CE7017CD8CDB0410789AB32C63B91E5CEBBBACB17AC6CD347A022D5075FD106377347AAABA7E
310
7D11590744509B44E205134DC1290F06580320F78E537D3D73540E06CB970B431F185308AD40BBD794D6D77003C5A36E8EAA54BA64597CD8F83BD552A080A365F7FF06504B0304140006080000CC70623B000000000000000000000000350000006662782F39464131463745442D413632322D343644302D413938332D3331
310
353338454246344243312F76657274696365732E62696E504B0304140006080800CC70623BF270F1330600000004000000360000006662782F39464131463745442D413632322D343644302D413938332D3331353338454246344243312F747269616E676C65732E62696E636660600000504B0304140006080000CC70623B
310
000000000000000000000000370000006662782F39464131463745442D413632322D343644302D413938332D3331353338454246344243312F617474726962757465732E62696E504B0304140006080800CC70623B08DA0BD19000000041010000360000006662782F39464131463745442D413632322D343644302D413938
310
332D3331353338454246344243312F6469726563746F72792E786D6C858F410AC3201045AF22B36F53E9A60B35CBEEBAE80D244E44489C6234F4F835464A48035D0DF398FF9F8AF63D0E6CC63039F212F8F9020C7D47C6792B21C5FE7403D62A1188E2E60C98D7234A5830286103A55745067B9D86B8A3CF9C7F90C11DE607
310
FB144396D7B6A82D282E9A152AD114D5EF2CB866EEE831B8EEA07A7BB5A8D7D61A2BAAEB7FD5F70921FF497D00504B0304140006080800CC70623B0D6EF93BFE000000A00100003B0000006662782F39464131463745442D413632322D343644302D413938332D3331353338454246344243312F7265736F75726365732F63
310
6F72652E786D6C8D50596E833010BD0A9ADFCA60B334011947A8694ED00B586642AC041B79A97AFC9A40A5F6AF3F33A3B7689E1E3F7DCD8FEC139DD7D6F4C0720A191A65476DA61E62B892236427C19DB5E1970C322367EC618541F0C9D9B8EC90B226A009093576C41D94DE63804C3DD2D18357379C652E63480A7FCF17A9
310
EE72C29CE5894E3AC17D702940B63D59270887DE46A7D0F36263058F518FBB468FE9A7BE6A7420864373B8D4873369AA8691FA421B3294352543C5CAF65C0F6FEF43CB8BD52C78D0F34F46E550061C419494B6843142CB0F5677F4B52BEB177AEC28E5C52AFF638ACBF84F53D42654E51E77B379102C05791282176B5F693D
310
CB4C7BED567C03504B010214000A0000080000CC70623B3DEE336E79000000790000001B00000000000000000000000000000000006175746F6465736B2D64657369676E2D7061636B6167652E786D6C504B01021400140006080800CC70623BD486FD9CA0000000F40000001300000000000000000000000000B20000005B
310
436F6E74656E745F54797065735D2E786D6C504B01021400140006080800CC70623B1EC5D7A3EB0000007C010000080000000000000000000000000083010000636F72652E786D6C504B01021400140006080800CC70623B55019EA25F0000007C000000070000000000000000000000000094020000636E782E786D6C504B
310
01021400140006080800CC70623B8C9102E971010000D40300000C00000000000000000000000000180300006662782F636F72652E786D6C504B01021400140006080800CC70623BFFEA85907E0000009D0000000B00000000000000000000000000B30400006662782F636E782E786D6C504B01021400140006080800CC70
310
623B4FEEA4082C0100001202000031000000000000000000000000005A0500006662782F39464131463745442D413632322D343644302D413938332D3331353338454246344243312F636F72652E786D6C504B01021400140006080800CC70623BAD7543B64E010000330300003000000000000000000000000000D5060000
310
6662782F39464131463745442D413632322D343644302D413938332D3331353338454246344243312F636E782E786D6C504B01021400140006080800CC70623B16AB87BA640500003C1000003400000000000000000000000000710800006662782F39464131463745442D413632322D343644302D413938332D3331353338
310
454246344243312F6F626A656374732E786D6C504B01021400140006080000CC70623B0000000000000000000000003500000000000000000000000000270E00006662782F39464131463745442D413632322D343644302D413938332D3331353338454246344243312F76657274696365732E62696E504B01021400140006
310
080800CC70623BF270F133060000000400000036000000000000000000000000007A0E00006662782F39464131463745442D413632322D343644302D413938332D3331353338454246344243312F747269616E676C65732E62696E504B01021400140006080000CC70623B0000000000000000000000003700000000000000
310
000000000000D40E00006662782F39464131463745442D413632322D343644302D413938332D3331353338454246344243312F617474726962757465732E62696E504B01021400140006080800CC70623B08DA0BD190000000410100003600000000000000000000000000290F00006662782F39464131463745442D413632
310
322D343644302D413938332D3331353338454246344243312F6469726563746F72792E786D6C504B01021400140006080800CC70623B0D6EF93BFE000000A00100003B000000000000000000000000000D1000006662782F39464131463745442D413632322D343644302D413938332D3331353338454246344243312F7265
310
736F75726365732F636F72652E786D6C504B0506000000000E000E0080040000641100000000
  0
XRECORD
  5
175
102
{ACAD_REACTORS
330
173
102
}
330
173
100
AcDbXrecord
280
     1
270
     1
271
     1
  0
XRECORD
  5
174
102
{ACAD_REACTORS
330
173
102
}
330
173
100
AcDbXrecord
280
     1
270
     1
271
     1
  0
XRECORD
  5
1FB
102
{ACAD_REACTORS
330
173
102
}
330
173
100
AcDbXrecord
280
     1
 70
     0
 90
1673772943
  1
ECE7A1D2-D628-4531-984C-D00F80459256
310
504B03040A0000080000CC70623B3DEE336E79000000790000001B0000006175746F6465736B2D64657369676E2D7061636B6167652E786D6C3C3F786D6C2076657273696F6E3D22312E302220656E636F64696E673D227574662D3822203F3E3C666F726D6174733E3C666F726D61743E687474703A2F2F736368656D612E
310
6175746F6465736B2E636F6D2F64657369676E2D7061636B6167652F323030393C2F666F726D61743E3C2F666F726D6174733E504B0304140006080800CC70623BD486FD9CA0000000F4000000130000005B436F6E74656E745F54797065735D2E786D6C7D8EC10E82300C865F65E91D8A1E8C310C0EEA1BF002731658846E
310
D98AC1B77784ABF1D8FE5FBFBF75BBCE937A534CCEB38643598122B6FEE978D0B0485F9C41B54DDD7D022595594E1A469170414C76A4D9A4D207E29CF43ECE46F218070CC6BECC4078ACAA135ACF422C856C0E68EA1BF5669944DDD7BCDE7B1F8E415D77AECB980613C2E4AC91FC167A2B244592486606FC29C8FD7F045B9A
310
EF7053A7E60B504B0304140006080800CC70623BD9DDAED0EC0000007C01000008000000636F72652E786D6C8D90416EC3201045AF82665B61836D9CD8C2444DD39CA01740405C94182C03558F5F9C3852BBEB6A467FFE9B197D7EF89E6EE8CB2CC17A37002D0820E394D7D68D03A478C17B4007C117EFE32F1B20272733C0
310
2A83E0E3E2D3BC49CABB685CCCAAF3DA6CA20CC14440EA969B0182FA34932C648AD911AEC52CD5558EA6A0CF2EC329598D1E47ACCEFBECC59A050463A7EA5833865FEBDD0E37353BE3EE8DBDE3F6786A48D375FBF6CC78B9C282473B3DEFABC5C86834888A900E538A49F5419B9EB47DD5BC907D4F082F57FB1F28CDFA9F50
310
B22ED6D5F6EE030B20687EE43E10BC5CB3C8E51E54AE6B6EE207504B0304140006080800CC70623B55019EA25F0000007C00000007000000636E782E786D6C4DCB3B0E80201045D1AD90E915ED2CF8AC45050C11660C8261F98AB1B07AC9C97D42D718D865D3E909258CFD00CCE24AC6E326A164D74DC0B4128928FF326038
310
472BA13128B1252AC747C6BAB984FC68F0B87FE8960A5C09FE86CFB69FBA01504B0304140006080800CC70623BA24EB22D72010000D40300000C0000006662782F636F72652E786D6CC5535B6E833010BC8AE5DF0A6C5E49888CA3A6694ED00B38E05014B091B1518EDFE511A5A9D228FD2A1F60CDEC7A67C6986DCE4D8D7A
310
69BA4AAB0C073EC548AA5C17952A33ECECD15B61B4E1CC686DBF9561A44423333CC098B3D268D7CE50AE9595CA02AA74216750749DB418E5352C32DCE59FB211BE70162ABA93DF8AFC244AE9073ED050C759670D0840D390E18DF9F1706664C23973AE2A66B62A605A75ACA4C13C4976E1364A12EF355A2EBD384AF65EFA96
310
BC7B8BED2EA6719AAE16FB8491A199335B351775B991C2CA02F390D2D40B028F861F41BCA68B7518BFD0D59A524686F29B26D7164F36B94AD9289CE54E6D1DE6010819891F6E21228B3AD1831EC219194284CF98F06DD01008846CC5A1BEF83801D4CBDC6A1303536877A57A513B0953A94FC707FDBE6064EA84A9E3E6E0FA
310
EE8CF0E9198F7784A316AA0413C2C2F2E0ECA0934D1AE6D05A69BCDE9E91D2A611F573361E38FC1375157F5752AE6B6DFE4B11990F88CCBF0719EE23FF02504B0304140006080800CC70623B408A7D3B7C0000009D0000000B0000006662782F636E782E786D6C4DCCD10A83201886E15B91FFDC552A92A0064DBC8F581632
310
D3703A76F9ABD1C18E3E78F878E5F0D9027ABBFCF2292AE86E2D20171F69F6715550CB827B40839639A5F2770314A7CD293819B45C73AAFB45B35BA61ACAA1C1C7E7855C58C15BC331339661262CC762340413D68D77DA5B42298546CBE6573AF60CEB2F504B0304140006080800CC70623B449FB9BD290100001202000031
310
0000006662782F36394639363044362D344446342D343946362D394244322D3234314243333846323333332F636F72652E786D6C8D515B6EC32010BC0AE22B55850D98B871848994463E412FE002495162B07854397EA176A4F62F3F2C9A9D991D587EB84F37F0AD7D30CEF6905418026DA553C65E7A98E219ED203808EE9D
310
8B7F6810D871D23D2C3014FCE25D9A57483A1BB58D19B54EE9151C43D0110279CB971E06F9A5A7B11A53CC8C70ADE6515EC78BAE4895DB992778883E0700CB907242D17643D7E2538BD869608875438BBAE38922CAC8F1BDD90DB4691A5E2F42C153326A951B95E398B3D1FE599322163C9AE9115F7A3D46ADA0A018778810
310
84E907617BDCEE297BC5BB3DC6BC2EF47FA234AB2745C9D8D8D035EE220B50105E2F0DC1954B9FB747187D9F9D8FA0CCDB042D5FA0C015C65B42DF78BD10F3F3B363CB56C7109DCFDFBBB97E662ED92EB62D13BC2E1BCAE5777DB9966D8A1F504B0304140006080800CC70623BAD7543B64E01000033030000300000006662
310
782F36394639363044362D344446342D343946362D394244322D3234314243333846323333332F636E782E786D6CD593CD6EC32010845F0571AD6CE3D48AD20813A9873E410FBD12D82434182C7EAAE6EDBB2424CD25871E7B41D6EC30B3FA84F9E67BB2E40B4234DE8DB46F1925E094D7C6ED479AD3AE5951B2113C789FEE
310
6C943839C1488B4C05DF079FE72A69D8C96C13AAD6B8631503449F83828872B949AC57D26200B826A308D316B4064D6E46FCDA41C05550DC9E483A00797BFD207EFB092A45DE9514C1BBD22178396BD39D891265658C238DEA00936C654E5E433CB65A26D9F6EDB5EBC14EBF49A45CB856E66048291F6939A9A81BB5C89177
310
38143CA680F4AA299D66A042CEB3354A2684DC9D8D178FE0D9B8B41CAAD720F880EE7EF93C0C18769E099ECC04D5A102C8049A8A05632F4DDF376CF1DE0F6BB65C2F8627B65A33C6BB62177CEBBDAD973006829F89F22E814B54F4BC2BE347F8AA8F681390B50FA73F804400B5F542E796F19FF974E7F78DB802FE05E20750
310
4B0304140006080800CC70623B8D05915C650500003B100000340000006662782F36394639363044362D344446342D343946362D394244322D3234314243333846323333332F6F626A656374732E786D6CAD575B6FA33814FE2B887D06429276DA1565D4266D158D3A339A6846FB502932E050B66023DB74D2FDF5FB190C01
310
9276B2973C046C8ECFF53B17071F77456EBD502133CEAE6CDF9DD81665314F32965ED995DA3A17B6F5310C04E7AA47665B8C14F4CAD6DB7618A48257A5D94AE89654B91AEDDEDDFC61C998326A5B714EA4BCB265FC440BE2924AF184CA6737218AB8E976E7FA6E4338649B0A523E8D98964450A6A029F619B8588D52FE7039
310
B1BD30F0F4F730D0FF866AF6369557DB33949F31A9088B0F848DD8CCFCF9F2767A76E99CCDE733677E3EF59D9BBB9BA5E37F984D16E78BC5E5F5ED25044B25C0C96822E8D60EEFE11B91C581D77CEA34368A1F5329E68CD1B8B61F16D63A1B8E092D294B10C78C4A48EB593D192E7DED9BDEE7995E1B91FDEDD3ACEA9FE831
310
6A756F9F7D4D79F4274C90A7A04248AA51D5F8C718DAE06FB2F75AC4796EBE65D22A88A22223B995679120E2D50E41AA49C260C046A35368846B0BECD0DFF3EBEB8AD4F835768F69B9ADF25C43D30E6B646F807FAA64AD59F61715C7A54127C4AACA98BA3006A9D792DAE165E0D59B61A01FB3A9F9D838D2DAE62445C86166
310
F37564E842E7DE6A69879FEEA2DD5AE7E371E1A5E025154AC307D06A03D73EB5978C58FFA4C8E9033066E0F3BD53BEC1F39F91BE7B55103791EDE6BBB991A2046172CB4581D8B893FA674DDA17A77B3B7C413D1B511FD2743BFF8A38F03A658705E3ADF8015C3A3417FF3D7E439FF591DA0B5F18BC20C1B8981957AE6392A3
310
F43C640C01D1A0B4728E2DD4F26DB4B3C3152A252A3B4E913CEC1C72F012782FF88EFF8637AA552DBEF76408E8A8DE9E50F9E1CB3A2DA0DB1B6039A893B56063DC5B3E3FFB5F72E67AB9FEB4AEC496C4F4C1149625DD662C53E89D7BF0F6151A046260D1337DFDC94502430F83B0EE07A130A224BCAD7DAE1D9FB6CD422FF6
310
920702629C4BB9AE79C12F243C6432A6794E18E5552BA56B431AAB5D91317302B2B071E86C3A42B1A02F999E24061403B5D0EB639195DA655DD3EBEAB4FB862DDF579F014AD0E73C22F99E28DA57FB98E75C6CA2D74D53086D600F4786E0FE3144B771A8A7B900F03594DB8A633CBC49B2EDB69228BB479CF863B5E807AAAB
310
23872F6DFEB4129B949CA33823F58830E86D65621E10047D9DB34D862E8EAC3C2ABC2F7B2C40D67CDFE01F5545B92105AF983AC54D93D69E56FB8E797F88913F898A9FEC705D3F9D1B54EC8426FB500D40A03BD0119B06E1B95DDC7EB8F6975367793EBD70E66733DFB9BC982F9CE564727731999F5D4ECFCE3B8D6A4DC2A0
310
6D50FD148437D110834A64C6CDDF57FBACB5C307A2A477DFE4939736CFEF2B175371E0E10CF0DD1D5C15654E0BCA14D1E87DD02FF93782A162C0A3D95F1524A52770F972BF1EE9809D13CE7DD599467F8ECE9ADD85CE85A34CD45355448C64F9E8A031DC2D596ACC6E5DD93D9B82DE2EF5CAF81363A8E47996A0DE24564A79
310
4115AACE09C55E14540231FDA13C319787134EBF34E3A022514E5B4D9E0826E25C02D5805B15ABE1BEF51B26383D445DD9E875EE33FE4C22DA16427D65A3BCA92CA6D28DD01DF5DC53330704308475351050232CCD31583787BA75774AFB06E5070DD0C8EF484E19968C5D83BA5B90B244D31E54D55A372320FE4786B7EA58
310
44E135AA5467CB7EA333A61683CC6A8C3257034C10CF46F40EF9F5BE59BE5BD30C3C72D235E95D10345C1D45445A5F0BB47E46A5EBE5570F9380B5FA629579952296A773720405982B9DE04011506178964401AA8BDF1FBF0A8EAB6861DD6580C0E38217056766716DAEB2D6FA0917D3E4116581EADB879C4E7CFFB11EFACD
310
3D641311495D92C8676CB409A72D18610D803CE8A626049E8EC1887CB5B44CC39883690DDA8399B4B9855B481E7D71D4A9D22F96E5BB73BF5793020C02137BF837504B0304140006080000CC70623B000000000000000000000000350000006662782F36394639363044362D344446342D343946362D394244322D32343142
310
43333846323333332F76657274696365732E62696E504B0304140006080800CC70623BF270F1330600000004000000360000006662782F36394639363044362D344446342D343946362D394244322D3234314243333846323333332F747269616E676C65732E62696E636660600000504B0304140006080000CC70623B0000
310
00000000000000000000370000006662782F36394639363044362D344446342D343946362D394244322D3234314243333846323333332F617474726962757465732E62696E504B0304140006080800CC70623B08DA0BD19000000041010000360000006662782F36394639363044362D344446342D343946362D394244322D
310
3234314243333846323333332F6469726563746F72792E786D6C858F410AC3201045AF22B36F53E9A60B35CBEEBAE80D244E44489C6234F4F835464A48035D0DF398FF9F8AF63D0E6CC63039F212F8F9020C7D47C6792B21C5FE7403D62A1188E2E60C98D7234A5830286103A55745067B9D86B8A3CF9C7F90C11DE607FB14
310
4396D7B6A82D282E9A152AD114D5EF2CB866EEE831B8EEA07A7BB5A8D7D61A2BAAEB7FD5F70921FF497D00504B0304140006080800CC70623BCA768048FE000000A00100003B0000006662782F36394639363044362D344446342D343946362D394244322D3234314243333846323333332F7265736F75726365732F636F72
310
652E786D6C8D50596E833010BD0A9ADFCA60D600328E9AA639412F609909B1126CE4A5EAF16B0295DABFFECC8CDEA2797AECF8353F924FB44E193D409E5248504B332A3D0D10FC95B4901C39B3C6F85F3248B49871801506CE266BC2B243D2688FDA47549B11775038871E12F988C7004EDE7016A9083E2ADC3D5D84BC8B09
310
D33C8D74D471E6BC8D0192EDC93A815B742658898E651BCB59086ADC356A8C3FD555A1055ED7E7E254D615792D0F075295F585746FF53B694EE78A565DD736979A65AB9933AFE69F8CD2A2F038022F28ED489E135A7CE4554F9BBEA85E68DB53CAB255FEC71496F19FA6A0B42F8B3DEE6673C0F318E4497096AD7DC5F52C33
310
EEB55BFE0D504B010214000A0000080000CC70623B3DEE336E79000000790000001B00000000000000000000000000000000006175746F6465736B2D64657369676E2D7061636B6167652E786D6C504B01021400140006080800CC70623BD486FD9CA0000000F40000001300000000000000000000000000B20000005B436F
310
6E74656E745F54797065735D2E786D6C504B01021400140006080800CC70623BD9DDAED0EC0000007C010000080000000000000000000000000083010000636F72652E786D6C504B01021400140006080800CC70623B55019EA25F0000007C000000070000000000000000000000000095020000636E782E786D6C504B0102
310
1400140006080800CC70623BA24EB22D72010000D40300000C00000000000000000000000000190300006662782F636F72652E786D6C504B01021400140006080800CC70623B408A7D3B7C0000009D0000000B00000000000000000000000000B50400006662782F636E782E786D6C504B01021400140006080800CC70623B
310
449FB9BD290100001202000031000000000000000000000000005A0500006662782F36394639363044362D344446342D343946362D394244322D3234314243333846323333332F636F72652E786D6C504B01021400140006080800CC70623BAD7543B64E010000330300003000000000000000000000000000D20600006662
310
782F36394639363044362D344446342D343946362D394244322D3234314243333846323333332F636E782E786D6C504B01021400140006080800CC70623B8D05915C650500003B10000034000000000000000000000000006E0800006662782F36394639363044362D344446342D343946362D394244322D32343142433338
310
46323333332F6F626A656374732E786D6C504B01021400140006080000CC70623B0000000000000000000000003500000000000000000000000000250E00006662782F36394639363044362D344446342D343946362D394244322D3234314243333846323333332F76657274696365732E62696E504B010214001400060808
310
00CC70623BF270F13306000000040000003600000000000000000000000000780E00006662782F36394639363044362D344446342D343946362D394244322D3234314243333846323333332F747269616E676C65732E62696E504B01021400140006080000CC70623B00000000000000000000000037000000000000000000
310
00000000D20E00006662782F36394639363044362D344446342D343946362D394244322D3234314243333846323333332F617474726962757465732E62696E504B01021400140006080800CC70623B08DA0BD190000000410100003600000000000000000000000000270F00006662782F36394639363044362D344446342D
310
343946362D394244322D3234314243333846323333332F6469726563746F72792E786D6C504B01021400140006080800CC70623BCA768048FE000000A00100003B000000000000000000000000000B1000006662782F36394639363044362D344446342D343946362D394244322D3234314243333846323333332F7265736F
310
75726365732F636F72652E786D6C504B0506000000000E000E0080040000621100000000
  0
XRECORD
  5
176
102
{ACAD_REACTORS
330
173
102
}
330
173
100
AcDbXrecord
280
     1
270
     1
271
     1
  0
XRECORD
  5
177
102
{ACAD_REACTORS
330
173
102
}
330
173
100
AcDbXrecord
280
     1
270
     1
271
     1
  0
XRECORD
  5
99EF
102
{ACAD_REACTORS
330
22E0
102
}
330
22E0
100
AcDbXrecord
280
     1
102
DISPLAYNAME
  1
Imperial24
102
FLAGS
 90
        0
  0
XRECORD
  5
99ED
102
{ACAD_REACTORS
330
234
102
}
330
234
100
AcDbXrecord
280
     1
102
DISPLAYNAME
  1
Metric50
102
FLAGS
 90
        0
  0
CELLSTYLEMAP
  5
99EC
102
{ACAD_REACTORS
330
162
102
}
330
162
100
AcDbCellStyleMap
 90
        3
300
CELLSTYLE
  1
TABLEFORMAT_BEGIN
 90
        5
170
     1
 91
        0
 92
    32768
 62
   257
 93
        1
300
CONTENTFORMAT
  1
CONTENTFORMAT_BEGIN
 90
        0
 91
        0
 92
      512
 93
        0
300

 40
0.0
140
1.0
 94
        5
 62
     0
340
11
144
6.0
309
CONTENTFORMAT_END
171
     1
301
MARGIN
  1
CELLMARGIN_BEGIN
 40
1.5
 40
1.5
 40
1.5
 40
1.5
 40
4.5
 40
4.5
309
CELLMARGIN_END
 94
        6
 95
        1
302
GRIDFORMAT
  1
GRIDFORMAT_BEGIN
 90
        0
 91
        1
 62
     0
 92
       -2
340
14
 93
        0
 40
1.125
309
GRIDFORMAT_END
 95
        2
302
GRIDFORMAT
  1
GRIDFORMAT_BEGIN
 90
        0
 91
        1
 62
     0
 92
       -2
340
14
 93
        0
 40
1.125
309
GRIDFORMAT_END
 95
        4
302
GRIDFORMAT
  1
GRIDFORMAT_BEGIN
 90
        0
 91
        1
 62
     0
 92
       -2
340
14
 93
        0
 40
1.125
309
GRIDFORMAT_END
 95
        8
302
GRIDFORMAT
  1
GRIDFORMAT_BEGIN
 90
        0
 91
        1
 62
     0
 92
       -2
340
14
 93
        0
 40
1.125
309
GRIDFORMAT_END
 95
       16
302
GRIDFORMAT
  1
GRIDFORMAT_BEGIN
 90
        0
 91
        1
 62
     0
 92
       -2
340
14
 93
        0
 40
1.125
309
GRIDFORMAT_END
 95
       32
302
GRIDFORMAT
  1
GRIDFORMAT_BEGIN
 90
        0
 91
        1
 62
     0
 92
       -2
340
14
 93
        0
 40
1.125
309
GRIDFORMAT_END
309
TABLEFORMAT_END
  1
CELLSTYLE_BEGIN
 90
        1
 91
        1
300
_TITLE
309
CELLSTYLE_END
300
CELLSTYLE
  1
TABLEFORMAT_BEGIN
 90
        5
170
     1
 91
        0
 92
        0
 62
   257
 93
        1
300
CONTENTFORMAT
  1
CONTENTFORMAT_BEGIN
 90
        0
 91
        0
 92
      512
 93
        0
300

 40
0.0
140
1.0
 94
        5
 62
     0
340
11
144
4.5
309
CONTENTFORMAT_END
171
     1
301
MARGIN
  1
CELLMARGIN_BEGIN
 40
1.5
 40
1.5
 40
1.5
 40
1.5
 40
4.5
 40
4.5
309
CELLMARGIN_END
 94
        6
 95
        1
302
GRIDFORMAT
  1
GRIDFORMAT_BEGIN
 90
        0
 91
        1
 62
     0
 92
       -2
340
14
 93
        0
 40
1.125
309
GRIDFORMAT_END
 95
        2
302
GRIDFORMAT
  1
GRIDFORMAT_BEGIN
 90
        0
 91
        1
 62
     0
 92
       -2
340
14
 93
        0
 40
1.125
309
GRIDFORMAT_END
 95
        4
302
GRIDFORMAT
  1
GRIDFORMAT_BEGIN
 90
        0
 91
        1
 62
     0
 92
       -2
340
14
 93
        0
 40
1.125
309
GRIDFORMAT_END
 95
        8
302
GRIDFORMAT
  1
GRIDFORMAT_BEGIN
 90
        0
 91
        1
 62
     0
 92
       -2
340
14
 93
        0
 40
1.125
309
GRIDFORMAT_END
 95
       16
302
GRIDFORMAT
  1
GRIDFORMAT_BEGIN
 90
        0
 91
        1
 62
     0
 92
       -2
340
14
 93
        0
 40
1.125
309
GRIDFORMAT_END
 95
       32
302
GRIDFORMAT
  1
GRIDFORMAT_BEGIN
 90
        0
 91
        1
 62
     0
 92
       -2
340
14
 93
        0
 40
1.125
309
GRIDFORMAT_END
309
TABLEFORMAT_END
  1
CELLSTYLE_BEGIN
 90
        2
 91
        1
300
_HEADER
309
CELLSTYLE_END
300
CELLSTYLE
  1
TABLEFORMAT_BEGIN
 90
        5
170
     1
 91
        0
 92
        0
 62
   257
 93
        1
300
CONTENTFORMAT
  1
CONTENTFORMAT_BEGIN
 90
        0
 91
        0
 92
      512
 93
        0
300

 40
0.0
140
1.0
 94
        2
 62
     0
340
11
144
4.5
309
CONTENTFORMAT_END
171
     1
301
MARGIN
  1
CELLMARGIN_BEGIN
 40
1.5
 40
1.5
 40
1.5
 40
1.5
 40
4.5
 40
4.5
309
CELLMARGIN_END
 94
        6
 95
        1
302
GRIDFORMAT
  1
GRIDFORMAT_BEGIN
 90
        0
 91
        1
 62
     0
 92
       -2
340
14
 93
        0
 40
1.125
309
GRIDFORMAT_END
 95
        2
302
GRIDFORMAT
  1
GRIDFORMAT_BEGIN
 90
        0
 91
        1
 62
     0
 92
       -2
340
14
 93
        0
 40
1.125
309
GRIDFORMAT_END
 95
        4
302
GRIDFORMAT
  1
GRIDFORMAT_BEGIN
 90
        0
 91
        1
 62
     0
 92
       -2
340
14
 93
        0
 40
1.125
309
GRIDFORMAT_END
 95
        8
302
GRIDFORMAT
  1
GRIDFORMAT_BEGIN
 90
        0
 91
        1
 62
     0
 92
       -2
340
14
 93
        0
 40
1.125
309
GRIDFORMAT_END
 95
       16
302
GRIDFORMAT
  1
GRIDFORMAT_BEGIN
 90
        0
 91
        1
 62
     0
 92
       -2
340
14
 93
        0
 40
1.125
309
GRIDFORMAT_END
 95
       32
302
GRIDFORMAT
  1
GRIDFORMAT_BEGIN
 90
        0
 91
        1
 62
     0
 92
       -2
340
14
 93
        0
 40
1.125
309
GRIDFORMAT_END
309
TABLEFORMAT_END
  1
CELLSTYLE_BEGIN
 90
        3
 91
        2
300
_DATA
309
CELLSTYLE_END
  0
ENDSEC
  0
SECTION
  2
ACDSDATA
 70
     2
 71
     8
  0
ACDSSCHEMA
 90
        0
  1
AcDb_Thumbnail_Schema
  2
AcDbDs::ID
280
    10
 91
        8
  2
Thumbnail_Data
280
    15
 91
        0
101
ACDSRECORD
 95
        0
 90
        1
  2
AcDbDs::TreatedAsObjectData
280
     1
291
     1
101
ACDSRECORD
 95
        0
 90
        2
  2
AcDbDs::Legacy
280
     1
291
     1
101
ACDSRECORD
  1
AcDbDs::ID
 90
        3
  2
AcDs:Indexable
280
     1
291
     1
101
ACDSRECORD
  1
AcDbDs::ID
 90
        4
  2
AcDbDs::HandleAttribute
280
     7
282
     1
  0
ACDSSCHEMA
 90
        1
  1
AcDbDs::TreatedAsObjectDataSchema
  2
AcDbDs::TreatedAsObjectData
280
     1
 91
        0
  0
ACDSSCHEMA
 90
        2
  1
AcDbDs::LegacySchema
  2
AcDbDs::Legacy
280
     1
 91
        0
  0
ACDSSCHEMA
 90
        3
  1
AcDbDs::IndexedPropertySchema
  2
AcDs:Indexable
280
     1
 91
        0
  0
ACDSSCHEMA
 90
        4
  1
AcDbDs::HandleAttributeSchema
  2
AcDbDs::HandleAttribute
280
     7
 91
        1
284
     1
  0
ACDSRECORD
 90
        0
  2
AcDbDs::ID
280
    10
320
2CFF
  2
Thumbnail_Data
280
    15
 94
     2857
310
89504E470D0A1A0A0000000D49484452000000B40000010008030000002D3FACD700000300504C5445FFFFFF000000C8C8C80000000000000000000000000000000000000000000000000000330000660000990000CC0000FF0033000033330033660033990033CC0033FF0066000066330066660066990066CC0066FF0099
310
000099330099660099990099CC0099FF00CC0000CC3300CC6600CC9900CCCC00CCFF00FF0000FF3300FF6600FF9900FFCC00FFFF3300003300333300663300993300CC3300FF3333003333333333663333993333CC3333FF3366003366333366663366993366CC3366FF3399003399333399663399993399CC3399FF33CC00
310
33CC3333CC6633CC9933CCCC33CCFF33FF0033FF3333FF6633FF9933FFCC33FFFF6600006600336600666600996600CC6600FF6633006633336633666633996633CC6633FF6666006666336666666666996666CC6666FF6699006699336699666699996699CC6699FF66CC0066CC3366CC6666CC9966CCCC66CCFF66FF0066
310
FF3366FF6666FF9966FFCC66FFFF9900009900339900669900999900CC9900FF9933009933339933669933999933CC9933FF9966009966339966669966999966CC9966FF9999009999339999669999999999CC9999FF99CC0099CC3399CC6699CC9999CCCC99CCFF99FF0099FF3399FF6699FF9999FFCC99FFFFCC0000CC00
310
33CC0066CC0099CC00CCCC00FFCC3300CC3333CC3366CC3399CC33CCCC33FFCC6600CC6633CC6666CC6699CC66CCCC66FFCC9900CC9933CC9966CC9999CC99CCCC99FFCCCC00CCCC33CCCC66CCCC99CCCCCCCCCCFFCCFF00CCFF33CCFF66CCFF99CCFFCCCCFFFFFF0000FF0033FF0066FF0099FF00CCFF00FFFF3300FF3333
310
FF3366FF3399FF33CCFF33FFFF6600FF6633FF6666FF6699FF66CCFF66FFFF9900FF9933FF9966FF9999FF99CCFF99FFFFCC00FFCC33FFCC66FFCC99FFCCCCFFCCFFFFFF00FFFF33FFFF66FFFF99FFFFCCFFFFFF0000000D0D0D1A1A1A2828283535354343435050505D5D5D6B6B6B787878868686939393A1A1A1AEAEAEBB
310
BBBBC9C9C9D6D6D6E4E4E4F1F1F1FFFFFF000000000000000000000000000000000000000000000000000000000000B0E2D235000007E44944415478DAED9DB17ADB3610C7F1F905DC45AFA1495DF818CE12BF88BB580BDBA75017714933A553327A8AA6A693B258A3E4FBBE22E190CF62F7022040022448422A411D6C9C23
310
93B429FBE7D39F87C3E1A890EFD7DF8233F2FD9A8467113A4247E808FDEAA0AFC3310D3A10175F93081DA15F0134F2A8D1018DD8C7113A4247E8081DA12374848ED0113A4247E8083D2A74922400D51168FB44DF47069DE7D0650433746A37F675BCD0DD861C5AB896A69452CDD5F9793A990E3A2784B2474E28111BF648B9
310
A741FCC30A4DA9D444B5831F9A1252B99806E0E952BF2141B3CB8C8D2E40E50557B253FCD05041AB5047916B1A72502183B43D2DBC8F18FAA019A1C8A18528981E74E82AE4E1856E7B1ABD3C0434573154210F7FF4C825348415A7739E52532DB9A3D8877195C6B1FC4E799A86903025720817591E0D24CB9B4903E66DA60C
310
50C7329FC6ED692914303D1D0234BF3003D2B4A40D06BA635A1B42F4A847C480429E1DFAF4A20D0279A0850ED2D32F4ED331E48DEEE983314B0C441E2F061AE91CB1D6F4A1391F470EDD193D82848E212F7A3AC9E59AA19CBD286800F4D016C3AE69B0681A37345F6AB6681AB02F1425A15D88257460212F604FBF1C68D18A
310
A0BA14F041AB22642E0AD6A01520D5521D87164E870B43B3605786BC0A5A9A806EB47FB876AF7887561D084A1720CB7A16B120F2B45817D747417D63044034D0DC52DDD372BD08B5A75F0874B99C1802B499DCB1101798A603881E1DD0D6C9176A79744D7353D5D489CCD3468D292F6BD39AA7038016C08141431D0071425B
310
67B58DF13C80E801FA501348C803821FBA431B9791876C7D50ED05EE23627E394FBBB5CBE38256535200D52E1F02B45BB77C9ACE1A069AA69B73446FD075D59337F830264ACBBE797768358443E34FF6074DCACB2E2DA18984263668BD77BAAE3CEAE5DEF6EBE40B9A54D08443E76CD301DD988DB7347D21E85C42E776E8B4
310
37354D27D3F4499E4E2B2FBB4C02A681A625341D097A0A7970DABC84CEBBE491E7AE339789A08D66BB503C2DFA1955E2110C341009CD3264ECD0A243942FC8ABEA8B586043AEE90A9A549E261088A755B559415B0C1FF44CBCB07C51426CAC135874214FCE5CE4A2C40C528BB7C1DDD37E4B0806746BF6C2479A9A061FB418
310
BEA12E16415E12538A179AB351ADF2A2DD19422D13EECB16206B682AEE1D93DE2C4773E93B5AA7FCB84644E1E9FAD60403BABA9D0554091D0D747913482509430AB45EAE4096E59146AF0F69DDA275A2A787FBA9CF872E67E3E64C1B4C0C057DDA88E8135A4D5A8DCA4099A40218D004D0413745DC2E0D38C6BC29A189255E
310
C82C0AAA57004DF418806627A9F165860E3AB7043979A0B2BED9B032A6AA7B583CAD6E9E957EAFA1073C9D4E56611A80E6A58526B4D9AA7E29685E28359D26D33BB14105AD8252C7A4B51CDA352D579A6EDFEFAEBA0A2785EE152B2A4D9F010D882EC4016865B999B3F6404F11F2D246C74CE7800DCE711ABC4343BFD57D34
310
BA3CEA6F18EBB7A9F73597121A7AE5A1410FD994D043753A16FA78FC8321794095E54D02DD7B21D27A9804C784E9E2D075CE475DA1274998FAA0A976442926E81E3DF71C75CE5C2EED69DA3EC22F0F131A28A20BD14D1E60BEFB4BCFC4F6B2D1831A231E83E66BBABDD7238690471BD03264B33FA65128513659EE713234AF
310
375D1CDA4DD354AF565B7B3DB00CE3549FED5262E95A02CCC33873346082EE4FF26A7180DE5B6F9F18A0C83D44AC284DCBF2E435996BEF6C8429613232D436340404AD340D2887F1CE8E584BB4D3EAD3583CDD98B9B4EEC32E6533DD6C3C4DFB68136954AF7B5002C6D28C82D61A2F7C574D7BF5A16E064E28D5A6BAB9A90D
310
7557E594D0BD9EAEE049B9C45F66790D4F57B9073A68D19AA00274037A7A793843B730CD2E05FFD07596D65F38B224769678279BB7923449BC7A9AA8BB94D3E15398A7DBAF53ABC79741572706015DBE7293400BEB9747623FA963D09CEC166C70F9A6DBDB06B8BFB940846EBEB09DD056014C083D582C270E35F513FF8783
310
29E4E1868305FA349B521E4E12C2063D9E4579A0B371A00F87E6BB0EFA79CE08D0F5AF3A09409E703968BB9DF3B4E8E9D3ED3480739E13FF87B3081DA12374848ED0113A4247E8FF018DD7BAA1B15B848ED0CED0A1589447848ED0F8A0FF6D5BF4B427E8A238EE8EC5EE78649B63C1BFB277B0D659B6A7F983DEFDB1611FD9
310
5FFCF3665704015D3C66EB6CFDB05EB1C7BBF52E104F6FB377EBD5FD9BFBD57A9D651F43F13473F29BC5E269F10BDBF91A8CA7EF164FDC1677EBCD967D613EBAA94E54971FEDE6E9AFEBB74F4F87270E7E2334ED137A2C4F3F667346BCF8897FCAB68597403B3AF476B9382CE63FCF8141DFEF4818D01FB3F9E2E67679FBF6
310
6671976D5D2F44974BB50DED6E7B7D6BD3F46A79777F7B7BFF3B8B1E3B24D0EAE9FB7D87A6570C36BBBD61A3CBCABBA7DD4E67FEDDEB5BDB88F8F079F5F0EB928D880FBE3D3D1F099AC569368667CB65C65CEDDBD38ED07BA9E57D8FA6998797BFFDB35C7D5E658F9EA387D3E0B26F3CAC71FA81A9FAF686EB63F3E8374EBB
310
5E857A5E604F4D3F6CB8409844D69BF7C560C2D4FF9B3A9E3176C86302D93DFEF9E5FD970F7F6FCB39007EE8E258B0A90B33FE991F04017DF5E3EA87B0E74F7CE7AAF0097D66CEDAF6F433FB383E5F7D127BCFC7C2E7853812B47FA3B58D044D2DE6117A9C998B157A7F8EA83B4F75FFC9DA8F370F23F419D07270DE5B53D0
310
7A071B34E98526E77A1AFB8518EBD311FA852DC9856335746016A12374848ED0AF0AFA5B70C6A0C3B3FF001C008D385EE84A9E0000000049454E44AE426082
  0
ACDSRECORD
 90
        0
  2
AcDbDs::ID
280
    10
320
22
  2
Thumbnail_Data
280
    15
 94
     3695
310
89504E470D0A1A0A0000000D49484452000001000000007508030000009634CF9200000300504C5445FFFFFF000000C8C8C80000000000000000000000000000000000000000000000000000330000660000990000CC0000FF0033000033330033660033990033CC0033FF0066000066330066660066990066CC0066FF0099
310
000099330099660099990099CC0099FF00CC0000CC3300CC6600CC9900CCCC00CCFF00FF0000FF3300FF6600FF9900FFCC00FFFF3300003300333300663300993300CC3300FF3333003333333333663333993333CC3333FF3366003366333366663366993366CC3366FF3399003399333399663399993399CC3399FF33CC00
310
33CC3333CC6633CC9933CCCC33CCFF33FF0033FF3333FF6633FF9933FFCC33FFFF6600006600336600666600996600CC6600FF6633006633336633666633996633CC6633FF6666006666336666666666996666CC6666FF6699006699336699666699996699CC6699FF66CC0066CC3366CC6666CC9966CCCC66CCFF66FF0066
310
FF3366FF6666FF9966FFCC66FFFF9900009900339900669900999900CC9900FF9933009933339933669933999933CC9933FF9966009966339966669966999966CC9966FF9999009999339999669999999999CC9999FF99CC0099CC3399CC6699CC9999CCCC99CCFF99FF0099FF3399FF6699FF9999FFCC99FFFFCC0000CC00
310
33CC0066CC0099CC00CCCC00FFCC3300CC3333CC3366CC3399CC33CCCC33FFCC6600CC6633CC6666CC6699CC66CCCC66FFCC9900CC9933CC9966CC9999CC99CCCC99FFCCCC00CCCC33CCCC66CCCC99CCCCCCCCCCFFCCFF00CCFF33CCFF66CCFF99CCFFCCCCFFFFFF0000FF0033FF0066FF0099FF00CCFF00FFFF3300FF3333
310
FF3366FF3399FF33CCFF33FFFF6600FF6633FF6666FF6699FF66CCFF66FFFF9900FF9933FF9966FF9999FF99CCFF99FFFFCC00FFCC33FFCC66FFCC99FFCCCCFFCCFFFFFF00FFFF33FFFF66FFFF99FFFFCCFFFFFF0000000D0D0D1A1A1A2828283535354343435050505D5D5D6B6B6B787878868686939393A1A1A1AEAEAEBB
310
BBBBC9C9C9D6D6D6E4E4E4F1F1F1FFFFFF000000000000000000000000000000000000000000000000000000000000B0E2D235000001964944415478DAEDDDCD6DC3300C86612D91653A98C6EB30127820C021AABFCAF5B16D02C4FE5E06889D8B613D212959392425E235F1F9F4B81AC0DB5F100000000000000000000000
310
000000000000000000000000000000000000000000000000000000000000005E7DBFE574D8C79B0394F3C84B49E3D563BCDF1DA08FB01C00E3D38428FBFCE600650FF3074059B9908A4A09948D215602CC0200000000000048037CD8085D803CE3D704770230F76CC219506BD5069825200CD05A604803440BF51E10EA2560
310
DA4D50BD045A0EFC612D749FA5708E3E0DF424D00448AD026CCE84B200B55AE8018CBADF4D20F47A80651F0079968022806D8008C126686BF2530668E11E260B30CA5E390372B87B8E05A0D604DB77DF87ED3D0DDAD3A01EC0EA01AD09F8DC16363D8091F9DEEB40B4071C00F678E866C02A01CD5960F4BE6C83204BAE034E
310
21F738BC7E14B4EF489A00473C6B83E14A1B22B51EA70900418077BA200000000000000000000000000000000000000000000000000000000000000000000000000000000000FFBC5FF57F9CBC4A7C01860DA7AA33E4FD840000000049454E44AE42608244AE4260825A4D022F5D20082D85C7D4E7B52406D0EF06EC436853
310
F465FCE41501F85F00D7B9E2F77ECEA3C5A7E7640000000000000000000000007F74C50FFAF669BECA86F5030000000049454E44AE42608200000049454E44AE42608244AE426082FE432853001CCC80715BE1BAD64AD575AD0CB57DE86904FCD77B052D01FAE76BC36EB7FB56DBEDEB9DF64A00510DBABE33C37E7F9A55C0
310
1901D3B16DE3CA2DB16D2FA4FAFB6BC0770167A65F798AF68986BEBFEA8680FDF493EEA6EA790101372BA0D3EEF708B8A955C0D51F462000027C15E0FB3F4589EF19000110E0B1808F0D01000000000000000000000000000000000000000000805BE637198C5EF717517D810000000049454E44AE42608280000420000108
310
400002108000042000010840000210800004200001084000021080000420C01F03B83D13C77EEBE478CF7758180C0663E6F80650DD99FFE992B15F0000000049454E44AE426082F9A703B0F539C96DEEAD49E90F0078B83BE310F8E2C301000000000000000000000000000000000000000000000000000000000000000000
310
0000000000000000000000EC00B87CCBD4FEF0073EC07EB67F339B0B9C8253D1650000000049454E44AE4260825DA904610A406125C84B21BEE5674460B45FA8B4124CEB21CC07BD02E25EB2EA4AB0E4FA0A408C01A927A2BA126CD2019CB3404905E2D3E054013B1B9D1EC8E5510B80FC41BA02EC1400CFFAEEF2A9017C75
310
3A41C61FAC26B72BECA73E9000E47E8073ED5E39F0E7298807F04901C65727E760F0F0907E0083E766E343C4825D20CD9E9F77BCE791BF7E8A16F6C3EE121560F073923C2960FA2E2BA0D34D5523D091A2FDF06201ECFBF11D26FBA3B4E0C31B70FF17C8FCFC806F0460A40368353C0670D6B97800571B9FD7EF3FE6F9AF0B
310
FC0880C77EC1EF7581BBF62A40340059F60400FC4F44FEE19BBF2403C87FFE57639FE0DCFD6E110046F66F3FF02AE00D822F8017C00BE005F002F8BFF61704DAC6EF5724558A0000000049454E44AE426082C8AAF0763E298820C7663700D04C03D4FC80735FA05203EE9A2ABB39F5F96DCB2D5E6E05676C7E2FE07218BBF7
310
EDF29BAB89C5001873BE66ACD21B07E0EAE1C9C66EB381EDFC670BCFDAC0CFA85243C9144C6D6E2180651400E9C09D06A015610E00500A002C00E806C008E4FB40EE04CC59AD86AAAF60B2C6FBA524FB743DDF850F881FF7FDE7ADB94F4B008D863E1540241EC7EE8A184E0F0D067E009E0100CA01C01500A0863E1340C92B
310
45D3D91F99EE5D0FFB9C606F00BDA5ED57F80522211827B80DDECA0000000049454E44AE426082BB01740544660760FCBF641204F87700C0D7DAB6005C7D81C22200C0BD3CA7AE021F0080E4A536130348B7704E00A39DA156D1E1B05768AC2701312476F6454A649DE08A2A60105C7993D44F0008F9A4514552F301D099E3
310
CE3E3A12B76EA80ACA44E3B400CEF4D1485BEE01C4EAF3B925E0B88F0EA9DF255C55566CB0B804F4BC5011CBC7CC3309F8170030D7093707402A01B82480BE576A628983CE50321F3912B09004F4BC51128B579152550B6C4D00529E0580648F086C5509A0B71A1250E9F105301AC0206F7048C34E37F103007FDCC3FAA6A4
310
AE078B0000000049454E44AE42608204941542EAC209430780AEF77B8680DAD3C0507344BB466D262A4CCA021BB70EE846815C1B9CAC92484AFF9C8B003ED011B3A9D6CDDD50D7E4C190005D17BC0E005D16888E22B1871671E800CDB6BB5D2F785E882708B85750368BA5191C71352A2BA67049FA0000FAB20027008EDA08
310
0008180D409F754433BC104C7F621270134930E6101D6EC758BED60A6975C5A4C2B90A0ED1959EDB0E00A61DE00400B80000C400C05A286842308BE19CCFFB455EC8A5C3106735FD2A96FFE0328DEFC040E65B476E0F315E0815B880E829AD28FD5ABECF80A1F82DBD41BD8DD675F6C21EBBBAA614F4F34FCF1A80935E1275
310
333A5D6FF08DD79D37127D22EE8E7ED08900439BED804D01685B6B1FB285B657340F7557213D5BEE0F694D5F525A3D57E97A79A0751A33539766CFECF5324BEBFA99EE960FEC9A2CC6AC04159B099FAB6C9DEE6B5AEF5F689D71C7A8DECFCE15813B0C331AC3EC809ED123E33D0D1902BB1AC119C5CB18A60794E1F819ED2B
310
1CEF43E605CF50552176C9F2AF254DFF8999E3C459CF025C9F290007841EEF9E16688D0EA8AAF9D6485AA3E714B1771C3F2D7E5DA33D7AA9B3431ADED214D754007088539AA22AC6E88555D8E0C018CDCE7408EC43CC3989432601B734C6AC976BBC7C62ADB7AC35669CAD517558C47B54D3FDAF35034C48C0336552811ED0
310
7A875ED8B8408F283E4F002A8C1EB9D0578B3243EB94F57D384BD13AC40C8987E513668E316BCFF043865919735EF769B8BB7ACCB87CC4E8F7AC5C1E6629C3EBE13C017889774CEDEDD7777B3CC321DED7B74FE8AF347BBCAD9FD2789DC6748FAB678CE3B4CA30C64CDF89ADC535E318EFE27D7DC0192E99EE48EBDD990240
310
9985CBCCDD9A1FD4DCDCE5355ACB56B14D9C9F1267EAFF522A8D63791270C7885D7B5B89CFDF9DB931D8CEEDC614AFB5A82683D60ACED80E705876FAAD13342351BBB98276AF057AEE026094BA102807C6ED34462C98FC7E1D3EB79F437B7C0487DFDC77A7156B47F0AB3C653BC0A3EFC5B5A2BA66B448CD143976D41AFB45
310
9C6E2FEDF301E98083A40504FF3600665247E5436D546269C48A871959203BDCFA77C6C8E87087B22FD28C902B617F235EA886818D78B002801AD8B382A4A67810935D2700F46B7BFE6AC49B102D26AC258AD4CDE34AB0FE9500001300F25A00BE3AA9390F7DA7AF9D1830729A7A8FAAC3C14A0D28170824558D01AC2C90AE
310
03DE1F004D02ACF100D4CDE4C61820BADEB325A00540BF400F995B5920A0EBCDF707801812E0CC87EA89E216002BA4EF02C0BCC04C2E10F744F04100000D008D7332080018004047A8CBA4E8B24F9CEB2188352EDE090060A581ECE502B698D8635F5F57001CB960473E99987FC3D44D1F80C177651692D18DD304E07BE2FF
310
FB770C3C79F2E4C993274F9E3CFD185496EAD33EEC39EB6A608507C003E001F00078003C001E806F1C1E3277A39DFCAAF702C0B92FD2FE0DF6CD808DDD81F67D740778EFCD499B49D2A6E5FD0050F634EA777DD792D456F2B60DE8133BCB37B2F3ED9BD85BF76AEDBEE81D01B0DFEDBC90BEE753DFD661EEF41C07808E77C7
310
AD9A84001F0680DE032600E66DBF4D9937DAC06B2440DDA0637FD5C70040D4DB4B771DA3E5CD88EB6775BFEEAD00909EAFFA1000ACBD8244BFCDAC769B55D0A3F4AC8D52AF04C0DABC65FD57076F0778003C001E000F8007C003F02303F00FE5691FF69C7535B0E2FCC8E7053C79F2E4C993A71F97FE0FDD7D5BAF806EF9BC
310
0000000049454E44AE426082
  0
ACDSRECORD
 90
        0
  2
AcDbDs::ID
280
    10
320
D7
  2
Thumbnail_Data
280
    15
 94
     1439
310
89504E470D0A1A0A0000000D4948445200000100000000B408030000004C80028300000300504C5445FFFFFF000000C8C8C80000000000000000000000000000000000000000000000000000330000660000990000CC0000FF0033000033330033660033990033CC0033FF0066000066330066660066990066CC0066FF0099
310
000099330099660099990099CC0099FF00CC0000CC3300CC6600CC9900CCCC00CCFF00FF0000FF3300FF6600FF9900FFCC00FFFF3300003300333300663300993300CC3300FF3333003333333333663333993333CC3333FF3366003366333366663366993366CC3366FF3399003399333399663399993399CC3399FF33CC00
310
33CC3333CC6633CC9933CCCC33CCFF33FF0033FF3333FF6633FF9933FFCC33FFFF6600006600336600666600996600CC6600FF6633006633336633666633996633CC6633FF6666006666336666666666996666CC6666FF6699006699336699666699996699CC6699FF66CC0066CC3366CC6666CC9966CCCC66CCFF66FF0066
310
FF3366FF6666FF9966FFCC66FFFF9900009900339900669900999900CC9900FF9933009933339933669933999933CC9933FF9966009966339966669966999966CC9966FF9999009999339999669999999999CC9999FF99CC0099CC3399CC6699CC9999CCCC99CCFF99FF0099FF3399FF6699FF9999FFCC99FFFFCC0000CC00
310
33CC0066CC0099CC00CCCC00FFCC3300CC3333CC3366CC3399CC33CCCC33FFCC6600CC6633CC6666CC6699CC66CCCC66FFCC9900CC9933CC9966CC9999CC99CCCC99FFCCCC00CCCC33CCCC66CCCC99CCCCCCCCCCFFCCFF00CCFF33CCFF66CCFF99CCFFCCCCFFFFFF0000FF0033FF0066FF0099FF00CCFF00FFFF3300FF3333
310
FF3366FF3399FF33CCFF33FFFF6600FF6633FF6666FF6699FF66CCFF66FFFF9900FF9933FF9966FF9999FF99CCFF99FFFFCC00FFCC33FFCC66FFCC99FFCCCCFFCCFFFFFF00FFFF33FFFF66FFFF99FFFFCCFFFFFF0000000D0D0D1A1A1A2828283535354343435050505D5D5D6B6B6B787878868686939393A1A1A1AEAEAEBB
310
BBBBC9C9C9D6D6D6E4E4E4F1F1F1FFFFFF000000000000000000000000000000000000000000000000000000000000B0E2D2350000025A4944415478DAEDDD3192DA30140050DD80C3D1E4302953ED115CB117A1DA53A44A641AA7867E1708C9829191D79891F1FBCC52C86BA3797CA12F3183430C738EF83B009837400400
310
0040ABED18AD865B076E9E10C73A21BFAB5900CFFC86030000000000000A2100000000000000401F8038B518B0219257434DADE61B5A0A0300000000000000000000305780DC85C7D88B9A418BA19132208E982A5FDDB507F07580F0C40043364416E9B80058DC310A02481F6A01DCEFFD0700000000008F06884F0C100100
310
000000000000000000000000000000364400000000000000000A2100000000000000000000000000003077001B220000000000000080D90228850100000000000000000000000000C00C016C8800000000000000F30550090200000000000000000000F0B9F5297E58590600780CC0EE14B30508EBD5C763BB0B036F0937D5
310
EF0576DBD57AF37D551EC0901DA1A6599E476706ACEA4DBDD9EE9619D134AD4B2F0B05E83104FEBCD475FD2BEB33E000308D0C68BFC6218BAF67C0B7B7AA7B087401EC0FEFFF0A03B8E87C174055FDA8DE7A00B4DAE3E151F667403C76F37A06AC5F5EF7B340EE10485CBB2C80D06308FCAC3EE6C1709E0117397E6ADD0384
310
490C81D4B4D555086502A4A6C492BE17689273781BA03945DE006892D72EA912BCD2C9BF5DED0248953DFFDA5200C7E7A2009AD83AF56E00FFAFF9F91FAC066D882CDC6CAD1C8062EE375860063C340000000000000000230284FE85508971EF0D91270D00000000000000409935DF23CA48000000000000E0FACA3FB91590
310
3A70F38438D609F95D5508010000000080738099C73B55D119216D027E380000000049454E44AE426082
  0
ENDSEC
  0
EOF
