  0
SECTION
  2
HEADER
  9
$ACADVER
  1
AC1027
  9
$ACADMAINTVER
 70
    83
  9
$DWGCODEPAGE
  3
ANSI_1252
  9
$LASTSAVEDBY
  1
usuario
  9
$REQUIREDVERSIONS
160
                 0
  9
$INSBASE
 10
0.0
 20
0.0
 30
0.0
  9
$EXTMIN
 10
2646.410761224734
 20
847.9093292968554
 30
0.0
  9
$EXTMAX
 10
2694.537048320019
 20
914.832605090417
 30
0.0
  9
$LIMMIN
 10
0.0
 20
0.0
  9
$LIMMAX
 10
420.0
 20
297.0
  9
$ORTHOMODE
 70
     1
  9
$REGENMODE
 70
     1
  9
$FILLMODE
 70
     1
  9
$QTEXTMODE
 70
     0
  9
$MIRRTEXT
 70
     0
  9
$LTSCALE
 40
1.0
  9
$ATTMODE
 70
     1
  9
$TEXTSIZE
 40
2.5
  9
$TRACEWID
 40
1.0
  9
$TEXTSTYLE
  7
Standard
  9
$CLAYER
  8
-
  9
$CELTYPE
  6
ByLayer
  9
$CECOLOR
 62
   256
  9
$CELTSCALE
 40
1.0
  9
$DISPSILH
 70
     0
  9
$DIMSCALE
 40
1.0
  9
$DIMASZ
 40
0.1
  9
$DIMEXO
 40
0.1
  9
$DIMDLI
 40
3.75
  9
$DIMRND
 40
0.0
  9
$DIMDLE
 40
0.0
  9
$DIMEXE
 40
0.1
  9
$DIMTP
 40
0.0
  9
$DIMTM
 40
0.0
  9
$DIMTXT
 40
0.15
  9
$DIMCEN
 40
2.5
  9
$DIMTSZ
 40
0.0
  9
$DIMTOL
 70
     0
  9
$DIMLIM
 70
     0
  9
$DIMTIH
 70
     0
  9
$DIMTOH
 70
     0
  9
$DIMSE1
 70
     0
  9
$DIMSE2
 70
     0
  9
$DIMTAD
 70
     1
  9
$DIMZIN
 70
     1
  9
$DIMBLK
  1
ArchTick
  9
$DIMASO
 70
     1
  9
$DIMSHO
 70
     1
  9
$DIMPOST
  1

  9
$DIMAPOST
  1

  9
$DIMALT
 70
     0
  9
$DIMALTD
 70
     3
  9
$DIMALTF
 40
0.03937007874016
  9
$DIMLFAC
 40
1.0
  9
$DIMTOFL
 70
     1
  9
$DIMTVP
 40
0.0
  9
$DIMTIX
 70
     0
  9
$DIMSOXD
 70
     0
  9
$DIMSAH
 70
     0
  9
$DIMBLK1
  1

  9
$DIMBLK2
  1

  9
$DIMSTYLE
  2
Guztion
  9
$DIMCLRD
 70
   256
  9
$DIMCLRE
 70
   256
  9
$DIMCLRT
 70
   256
  9
$DIMTFAC
 40
1.0
  9
$DIMGAP
 40
0.05
  9
$DIMJUST
 70
     0
  9
$DIMSD1
 70
     0
  9
$DIMSD2
 70
     0
  9
$DIMTOLJ
 70
     0
  9
$DIMTZIN
 70
     8
  9
$DIMALTZ
 70
     0
  9
$DIMALTTZ
 70
     0
  9
$DIMUPT
 70
     0
  9
$DIMDEC
 70
     2
  9
$DIMTDEC
 70
     2
  9
$DIMALTU
 70
     2
  9
$DIMALTTD
 70
     3
  9
$DIMTXSTY
  7
Standard
  9
$DIMAUNIT
 70
     0
  9
$DIMADEC
 70
     0
  9
$DIMALTRND
 40
0.0
  9
$DIMAZIN
 70
     0
  9
$DIMDSEP
 70
    46
  9
$DIMATFIT
 70
     3
  9
$DIMFRAC
 70
     0
  9
$DIMLDRBLK
  1

  9
$DIMLUNIT
 70
     2
  9
$DIMLWD
 70
    -2
  9
$DIMLWE
 70
    -2
  9
$DIMTMOVE
 70
     0
  9
$DIMFXL
 40
1.0
  9
$DIMFXLON
 70
     0
  9
$DIMJOGANG
 40
0.7853981633974483
  9
$DIMTFILL
 70
     0
  9
$DIMTFILLCLR
 70
     0
  9
$DIMARCSYM
 70
     0
  9
$DIMLTYPE
  6

  9
$DIMLTEX1
  6

  9
$DIMLTEX2
  6

  9
$DIMTXTDIRECTION
 70
     0
  9
$LUNITS
 70
     2
  9
$LUPREC
 70
     4
  9
$SKETCHINC
 40
1.0
  9
$FILLETRAD
 40
0.0
  9
$AUNITS
 70
     0
  9
$AUPREC
 70
     0
  9
$MENU
  1
.
  9
$ELEVATION
 40
0.0
  9
$PELEVATION
 40
0.0
  9
$THICKNESS
 40
0.0
  9
$LIMCHECK
 70
     0
  9
$CHAMFERA
 40
0.0
  9
$CHAMFERB
 40
0.0
  9
$CHAMFERC
 40
0.0
  9
$CHAMFERD
 40
0.0
  9
$SKPOLY
 70
     0
  9
$TDCREATE
 40
2458543.388716400
  9
$TDUCREATE
 40
2458543.305383067
  9
$TDUPDATE
 40
2458624.823724468
  9
$TDUUPDATE
 40
2458624.740391134
  9
$TDINDWG
 40
2.8250346875
  9
$TDUSRTIMER
 40
2.8250323380
  9
$USRTIMER
 70
     1
  9
$ANGBASE
 50
0.0
  9
$ANGDIR
 70
     0
  9
$PDMODE
 70
     0
  9
$PDSIZE
 40
0.0
  9
$PLINEWID
 40
0.0
  9
$SPLFRAME
 70
     0
  9
$SPLINETYPE
 70
     6
  9
$SPLINESEGS
 70
     8
  9
$HANDSEED
  5
9A32
  9
$SURFTAB1
 70
     6
  9
$SURFTAB2
 70
     6
  9
$SURFTYPE
 70
     6
  9
$SURFU
 70
     6
  9
$SURFV
 70
     6
  9
$UCSBASE
  2

  9
$UCSNAME
  2

  9
$UCSORG
 10
0.0
 20
0.0
 30
0.0
  9
$UCSXDIR
 10
1.0
 20
0.0
 30
0.0
  9
$UCSYDIR
 10
0.0
 20
1.0
 30
0.0
  9
$UCSORTHOREF
  2

  9
$UCSORTHOVIEW
 70
     0
  9
$UCSORGTOP
 10
0.0
 20
0.0
 30
0.0
  9
$UCSORGBOTTOM
 10
0.0
 20
0.0
 30
0.0
  9
$UCSORGLEFT
 10
0.0
 20
0.0
 30
0.0
  9
$UCSORGRIGHT
 10
0.0
 20
0.0
 30
0.0
  9
$UCSORGFRONT
 10
0.0
 20
0.0
 30
0.0
  9
$UCSORGBACK
 10
0.0
 20
0.0
 30
0.0
  9
$PUCSBASE
  2

  9
$PUCSNAME
  2

  9
$PUCSORG
 10
0.0
 20
0.0
 30
0.0
  9
$PUCSXDIR
 10
1.0
 20
0.0
 30
0.0
  9
$PUCSYDIR
 10
0.0
 20
1.0
 30
0.0
  9
$PUCSORTHOREF
  2

  9
$PUCSORTHOVIEW
 70
     0
  9
$PUCSORGTOP
 10
0.0
 20
0.0
 30
0.0
  9
$PUCSORGBOTTOM
 10
0.0
 20
0.0
 30
0.0
  9
$PUCSORGLEFT
 10
0.0
 20
0.0
 30
0.0
  9
$PUCSORGRIGHT
 10
0.0
 20
0.0
 30
0.0
  9
$PUCSORGFRONT
 10
0.0
 20
0.0
 30
0.0
  9
$PUCSORGBACK
 10
0.0
 20
0.0
 30
0.0
  9
$USERI1
 70
     0
  9
$USERI2
 70
     0
  9
$USERI3
 70
     0
  9
$USERI4
 70
     0
  9
$USERI5
 70
     0
  9
$USERR1
 40
0.0
  9
$USERR2
 40
0.0
  9
$USERR3
 40
0.0
  9
$USERR4
 40
0.0
  9
$USERR5
 40
0.0
  9
$WORLDVIEW
 70
     1
  9
$SHADEDGE
 70
     3
  9
$SHADEDIF
 70
    70
  9
$TILEMODE
 70
     0
  9
$MAXACTVP
 70
    64
  9
$PINSBASE
 10
0.0
 20
0.0
 30
0.0
  9
$PLIMCHECK
 70
     0
  9
$PEXTMIN
 10
-0.0018762920232689
 20
0.2812602170592981
 30
0.0
  9
$PEXTMAX
 10
231.3
 20
175.5
 30
0.0
  9
$PLIMMIN
 10
-0.0018762934537804
 20
0.2812602232581811
  9
$PLIMMAX
 10
0.2081237065462196
 20
0.5782602232581812
  9
$UNITMODE
 70
     0
  9
$VISRETAIN
 70
     1
  9
$PLINEGEN
 70
     0
  9
$PSLTSCALE
 70
     1
  9
$TREEDEPTH
 70
  3020
  9
$CMLSTYLE
  2
Standard
  9
$CMLJUST
 70
     0
  9
$CMLSCALE
 40
20.0
  9
$PROXYGRAPHICS
 70
     1
  9
$MEASUREMENT
 70
     1
  9
$CELWEIGHT
370
    -1
  9
$ENDCAPS
280
     0
  9
$JOINSTYLE
280
     0
  9
$LWDISPLAY
290
     0
  9
$INSUNITS
 70
     4
  9
$HYPERLINKBASE
  1

  9
$STYLESHEET
  1
Guztion_Planoak_pdf.ctb
  9
$XEDIT
290
     1
  9
$CEPSNTYPE
380
     0
  9
$PSTYLEMODE
290
     1
  9
$FINGERPRINTGUID
  2
{454E2246-75CB-45FB-A2E0-00429C7F3A53}
  9
$VERSIONGUID
  2
{2EB30A6A-FCCD-43F6-B3C9-D67FD17FD950}
  9
$EXTNAMES
290
     1
  9
$PSVPSCALE
 40
0.0
  9
$OLESTARTUP
290
     0
  9
$SORTENTS
280
   127
  9
$INDEXCTL
280
     0
  9
$HIDETEXT
280
     1
  9
$XCLIPFRAME
280
     2
  9
$HALOGAP
280
     0
  9
$OBSCOLOR
 70
   257
  9
$OBSLTYPE
280
     0
  9
$INTERSECTIONDISPLAY
280
     0
  9
$INTERSECTIONCOLOR
 70
   257
  9
$DIMASSOC
280
     2
  9
$PROJECTNAME
  1

  9
$CAMERADISPLAY
290
     0
  9
$LENSLENGTH
 40
50.0
  9
$CAMERAHEIGHT
 40
0.0
  9
$STEPSPERSEC
 40
2.0
  9
$STEPSIZE
 40
6.0
  9
$3DDWFPREC
 40
2.0
  9
$PSOLWIDTH
 40
5.0
  9
$PSOLHEIGHT
 40
80.0
  9
$LOFTANG1
 40
1.570796326794896
  9
$LOFTANG2
 40
1.570796326794896
  9
$LOFTMAG1
 40
0.0
  9
$LOFTMAG2
 40
0.0
  9
$LOFTPARAM
 70
     7
  9
$LOFTNORMALS
280
     1
  9
$LATITUDE
 40
37.795
  9
$LONGITUDE
 40
-122.394
  9
$NORTHDIRECTION
 40
0.0
  9
$TIMEZONE
 70
 -8000
  9
$LIGHTGLYPHDISPLAY
280
     1
  9
$TILEMODELIGHTSYNCH
280
     1
  9
$CMATERIAL
347
EC
  9
$SOLIDHIST
280
     0
  9
$SHOWHIST
280
     1
  9
$DWFFRAME
280
     2
  9
$DGNFRAME
280
     0
  9
$REALWORLDSCALE
290
     1
  9
$INTERFERECOLOR
 62
     1
  9
$INTERFEREOBJVS
345
F9
  9
$INTERFEREVPVS
346
F6
  9
$CSHADOW
280
     0
  9
$SHADOWPLANELOCATION
 40
0.0
  0
ENDSEC
  0
SECTION
  2
CLASSES
  0
CLASS
  1
ACDBDICTIONARYWDFLT
  2
AcDbDictionaryWithDefault
  3
ObjectDBX Classes
 90
        0
 91
        1
280
     0
281
     0
  0
CLASS
  1
DICTIONARYVAR
  2
AcDbDictionaryVar
  3
ObjectDBX Classes
 90
        0
 91
        9
280
     0
281
     0
  0
CLASS
  1
TABLESTYLE
  2
AcDbTableStyle
  3
ObjectDBX Classes
 90
     4095
 91
        1
280
     0
281
     0
  0
CLASS
  1
MATERIAL
  2
AcDbMaterial
  3
ObjectDBX Classes
 90
     1153
 91
        3
280
     0
281
     0
  0
CLASS
  1
VISUALSTYLE
  2
AcDbVisualStyle
  3
ObjectDBX Classes
 90
     4095
 91
       24
280
     0
281
     0
  0
CLASS
  1
SCALE
  2
AcDbScale
  3
ObjectDBX Classes
 90
     1153
 91
       18
280
     0
281
     0
  0
CLASS
  1
MLEADERSTYLE
  2
AcDbMLeaderStyle
  3
ACDB_MLEADERSTYLE_CLASS
 90
     4095
 91
        2
280
     0
281
     0
  0
CLASS
  1
CELLSTYLEMAP
  2
AcDbCellStyleMap
  3
ObjectDBX Classes
 90
     1152
 91
        1
280
     0
281
     0
  0
CLASS
  1
EXACXREFPANELOBJECT
  2
ExAcXREFPanelObject
  3
EXAC_ESW
 90
     1025
 91
        0
280
     0
281
     0
  0
CLASS
  1
NPOCOLLECTION
  2
AcDbImpNonPersistentObjectsCollection
  3
ObjectDBX Classes
 90
     1153
 91
        0
280
     0
281
     0
  0
CLASS
  1
LAYER_INDEX
  2
AcDbLayerIndex
  3
ObjectDBX Classes
 90
        0
 91
        0
280
     0
281
     0
  0
CLASS
  1
SPATIAL_INDEX
  2
AcDbSpatialIndex
  3
ObjectDBX Classes
 90
        0
 91
        0
280
     0
281
     0
  0
CLASS
  1
IDBUFFER
  2
AcDbIdBuffer
  3
ObjectDBX Classes
 90
        0
 91
        0
280
     0
281
     0
  0
CLASS
  1
ACDBSECTIONVIEWSTYLE
  2
AcDbSectionViewStyle
  3
ObjectDBX Classes
 90
     1025
 91
        2
280
     0
281
     0
  0
CLASS
  1
ACDBDETAILVIEWSTYLE
  2
AcDbDetailViewStyle
  3
ObjectDBX Classes
 90
     1025
 91
        2
280
     0
281
     0
  0
CLASS
  1
SORTENTSTABLE
  2
AcDbSortentsTable
  3
ObjectDBX Classes
 90
        0
 91
        3
280
     0
281
     0
  0
CLASS
  1
RASTERVARIABLES
  2
AcDbRasterVariables
  3
ISM
 90
        0
 91
        1
280
     0
281
     0
  0
CLASS
  1
IMAGEDEF
  2
AcDbRasterImageDef
  3
ISM
 90
        0
 91
        7
280
     0
281
     0
  0
CLASS
  1
IMAGEDEF_REACTOR
  2
AcDbRasterImageDefReactor
  3
ISM
 90
        1
 91
        3
280
     0
281
     0
  0
CLASS
  1
IMAGE
  2
AcDbRasterImage
  3
ISM
 90
     2175
 91
        3
280
     0
281
     1
  0
CLASS
  1
DIMASSOC
  2
AcDbDimAssoc
  3
"AcDbDimAssoc|Product Desc:     AcDim ARX App For Dimension|Company:          Autodesk, Inc.|WEB Address:      www.autodesk.com"
 90
        0
 91
       14
280
     0
281
     0
  0
CLASS
  1
BREAKDATA
  2
AcDbBreakData
  3
ObjectDBX Classes
 90
     1024
 91
        0
280
     0
281
     0
  0
CLASS
  1
SOLID_BACKGROUND
  2
AcDbSolidBackground
  3
SCENEOE
 90
     4095
 91
        0
280
     0
281
     0
  0
ENDSEC
  0
SECTION
  2
TABLES
  0
TABLE
  2
VPORT
  5
8
330
0
100
AcDbSymbolTable
 70
     1
  0
VPORT
  5
EA
330
8
100
AcDbSymbolTableRecord
100
AcDbViewportTableRecord
  2
*Active
 70
     0
 10
0.0
 20
0.0
 11
1.0
 21
1.0
 12
50.86268513097412
 22
3.728714625197881
 13
0.0
 23
0.0
 14
10.0
 24
10.0
 15
10.0
 25
10.0
 16
0.0
 26
0.0
 36
0.6188922984979737
 17
2619.601320438711
 27
877.6296409676874
 37
0.0
 40
67.64758187212272
 41
2.182692307692307
 42
50.0
 43
0.0
 44
0.0
 50
0.0
 51
0.0
 71
     0
 72
  1000
 73
     1
 74
     3
 75
     0
 76
     0
 77
     0
 78
     1
281
     0
 65
     1
110
0.0
120
0.0
130
0.0
111
1.0
121
0.0
131
0.0
112
0.0
122
1.0
132
0.0
 79
     0
146
0.0
348
F5
 60
     3
 61
     5
292
     1
282
     1
141
0.0
142
0.0
 63
   250
421
  3355443
1001
ACAD_NAV_VCDISPLAY
1070
     3
  0
ENDTAB
  0
TABLE
  2
LTYPE
  5
5
330
0
100
AcDbSymbolTable
 70
     4
  0
LTYPE
  5
14
330
5
100
AcDbSymbolTableRecord
100
AcDbLinetypeTableRecord
  2
ByBlock
 70
     0
  3

 72
    65
 73
     0
 40
0.0
  0
LTYPE
  5
15
330
5
100
AcDbSymbolTableRecord
100
AcDbLinetypeTableRecord
  2
ByLayer
 70
     0
  3

 72
    65
 73
     0
 40
0.0
  0
LTYPE
  5
16
330
5
100
AcDbSymbolTableRecord
100
AcDbLinetypeTableRecord
  2
Continuous
 70
     0
  3
Solid line
 72
    65
 73
     0
 40
0.0
  0
LTYPE
  5
3B76
330
5
100
AcDbSymbolTableRecord
100
AcDbLinetypeTableRecord
  2
ACAD_ISO02W100
 70
     0
  3
 ISO trazo __ __ __ __ __ __ __ __ __ __ __ __ 
 72
    65
 73
     2
 40
15.0
 49
12.0
 74
     0
 49
-3.0
 74
     0
  0
LTYPE
  5
3B7A
330
5
100
AcDbSymbolTableRecord
100
AcDbLinetypeTableRecord
  2
ACAD_ISO04W100
 70
     0
  3
 ISO trazo largo, punto ____ . ____ . ____ . __
 72
    65
 73
     4
 40
30.0
 49
24.0
 74
     0
 49
-3.0
 74
     0
 49
0.0
 74
     0
 49
-3.0
 74
     0
  0
LTYPE
  5
9168
330
5
100
AcDbSymbolTableRecord
100
AcDbLinetypeTableRecord
  2
DISCONT
 70
     0
  3
- - - - - - -
 72
    65
 73
     2
 40
2.0
 49
1.0
 74
     0
 49
-1.0
 74
     0
  0
ENDTAB
  0
TABLE
  2
LAYER
  5
2
102
{ACAD_XDICTIONARY
360
1FF
102
}
330
0
100
AcDbSymbolTable
 70
    30
  0
LAYER
  5
10
102
{ACAD_XDICTIONARY
360
13C
102
}
330
2
100
AcDbSymbolTableRecord
100
AcDbLayerTableRecord
  2
0
 70
     0
 62
     7
  6
Continuous
370
    -3
390
F
347
EE
348
0
  0
LAYER
  5
485
330
2
100
AcDbSymbolTableRecord
100
AcDbLayerTableRecord
  2
1.7. Ventanas Gráficas
 70
     0
 62
     5
  6
Continuous
290
     0
370
    -3
390
F
347
EE
348
0
1001
AcAecLayerStandard
1000

1000

1001
AcCmTransparency
1071
        0
  0
LAYER
  5
659
330
2
100
AcDbSymbolTableRecord
100
AcDbLayerTableRecord
  2
1.5. Marra1
 70
     0
 62
   248
  6
Continuous
370
    -3
390
F
347
EE
348
0
1001
AcAecLayerStandard
1000

1000

1001
AcCmTransparency
1071
        0
  0
LAYER
  5
6C6
102
{ACAD_XDICTIONARY
360
6C7
102
}
330
2
100
AcDbSymbolTableRecord
100
AcDbLayerTableRecord
  2
1.6. Marra2
 70
     0
 62
   252
  6
Continuous
370
    -3
390
F
347
EE
348
0
1001
AcAecLayerStandard
1000

1000

  0
LAYER
  5
7AC
330
2
100
AcDbSymbolTableRecord
100
AcDbLayerTableRecord
  2
1.4. Idatzia
 70
     0
 62
     7
  6
Continuous
370
    -3
390
F
347
EE
348
0
1001
AcAecLayerStandard
1000

1000

1001
AcCmTransparency
1071
        0
  0
LAYER
  5
7AD
330
2
100
AcDbSymbolTableRecord
100
AcDbLayerTableRecord
  2
1.1. Armarria
 70
     0
 62
     7
420
 16777215
  6
Continuous
370
    -3
390
F
347
EE
348
0
1001
AcAecLayerStandard
1000

1000

1001
AcCmTransparency
1071
        0
  0
LAYER
  5
7AE
330
2
100
AcDbSymbolTableRecord
100
AcDbLayerTableRecord
  2
1.3. Eskala grafikoa
 70
     0
 62
     7
  6
Continuous
370
    -3
390
F
347
EE
348
0
1001
AcAecLayerStandard
1000

1000

1001
AcCmTransparency
1071
        0
  0
LAYER
  5
FC3
330
2
100
AcDbSymbolTableRecord
100
AcDbLayerTableRecord
  2
2.1. Kanpo Horma
 70
     0
 62
    74
  6
Continuous
370
    -3
390
F
347
EE
348
0
1001
AcAecLayerStandard
1000

1000

1001
AcCmTransparency
1071
        0
  0
LAYER
  5
FC4
330
2
100
AcDbSymbolTableRecord
100
AcDbLayerTableRecord
  2
2.2. Barne Horma
 70
     0
 62
   160
  6
Continuous
370
    -3
390
F
347
EE
348
0
1001
AcAecLayerStandard
1000

1000

1001
AcCmTransparency
1071
        0
  0
LAYER
  5
FC5
330
2
100
AcDbSymbolTableRecord
100
AcDbLayerTableRecord
  2
2.3. Mehelina
 70
     0
 62
    42
  6
Continuous
370
    -3
390
F
347
EE
348
0
1001
AcAecLayerStandard
1000

1000

1001
AcCmTransparency
1071
        0
  0
LAYER
  5
FC6
330
2
100
AcDbSymbolTableRecord
100
AcDbLayerTableRecord
  2
3.1. Atea
 70
     0
 62
   251
  6
Continuous
370
    -3
390
F
347
EE
348
0
1001
AcAecLayerStandard
1000

1000

1001
AcCmTransparency
1071
        0
  0
LAYER
  5
FC7
330
2
100
AcDbSymbolTableRecord
100
AcDbLayerTableRecord
  2
3.2. Leihoa
 70
     0
 62
   251
  6
Continuous
370
    -3
390
F
347
EE
348
0
1001
AcAecLayerStandard
1000

1000

1001
AcCmTransparency
1071
        0
  0
LAYER
  5
FC8
330
2
100
AcDbSymbolTableRecord
100
AcDbLayerTableRecord
  2
2.4. Terraza horma
 70
     0
 62
     9
  6
Continuous
370
    -3
390
F
347
EE
348
0
1001
AcAecLayerStandard
1000

1000

1001
AcCmTransparency
1071
        0
  0
LAYER
  5
FC9
330
2
100
AcDbSymbolTableRecord
100
AcDbLayerTableRecord
  2
3.3. Eskudela
 70
     0
 62
   251
  6
Continuous
370
    -3
390
F
347
EE
348
0
1001
AcAecLayerStandard
1000

1000

1001
AcCmTransparency
1071
        0
  0
LAYER
  5
14FC
330
2
100
AcDbSymbolTableRecord
100
AcDbLayerTableRecord
  2
7.3. Kota
 70
     0
 62
   251
  6
Continuous
370
    -3
390
F
347
EE
348
0
1001
AcAecLayerStandard
1000

1000

1001
AcCmTransparency
1071
        0
  0
LAYER
  5
150C
330
2
100
AcDbSymbolTableRecord
100
AcDbLayerTableRecord
  2
2.5. Horma itzala
 70
     0
 62
   253
  6
Continuous
370
    -3
390
F
347
EE
348
0
1001
AcAecLayerStandard
1000

1000

1001
AcCmTransparency
1071
        0
  0
LAYER
  5
1874
330
2
100
AcDbSymbolTableRecord
100
AcDbLayerTableRecord
  2
5.1. Komuneko altzaria
 70
     0
 62
   252
  6
Continuous
370
    -3
390
F
347
EE
348
0
1001
AcAecLayerStandard
1000

1000

1001
AcCmTransparency
1071
        0
  0
LAYER
  5
194D
330
2
100
AcDbSymbolTableRecord
100
AcDbLayerTableRecord
  2
-
 70
     0
 62
     7
  6
Continuous
370
    -3
390
F
347
EE
348
0
  0
LAYER
  5
1BDA
330
2
100
AcDbSymbolTableRecord
100
AcDbLayerTableRecord
  2
Defpoints
 70
     0
 62
     7
  6
Continuous
290
     0
370
    -3
390
F
347
EE
348
0
  0
LAYER
  5
24FF
330
2
100
AcDbSymbolTableRecord
100
AcDbLayerTableRecord
  2
2.6. Zorua
 70
     0
 62
   253
  6
Continuous
370
    -3
390
F
347
EE
348
0
1001
AcAecLayerStandard
1000

1000

1001
AcCmTransparency
1071
        0
  0
LAYER
  5
253B
330
2
100
AcDbSymbolTableRecord
100
AcDbLayerTableRecord
  2
6.1. Eskailerak
 70
     0
 62
   252
  6
Continuous
370
    -3
390
F
347
EE
348
0
1001
AcAecLayerStandard
1000

1000

1001
AcCmTransparency
1071
        0
  0
LAYER
  5
3AB1
330
2
100
AcDbSymbolTableRecord
100
AcDbLayerTableRecord
  2
7.1. Azalera erabilgarria
 70
     0
 62
   -12
  6
Continuous
290
     0
370
    -3
390
F
347
EE
348
0
1001
AcAecLayerStandard
1000

1000

1001
AcCmTransparency
1071
        0
  0
LAYER
  5
3B73
330
2
100
AcDbSymbolTableRecord
100
AcDbLayerTableRecord
  2
8.1. Irisgarritasun boloa
 70
     0
 62
   252
  6
ACAD_ISO02W100
370
    -3
390
F
347
EE
348
0
1001
AcAecLayerStandard
1000

1000

1001
AcCmTransparency
1071
        0
  0
LAYER
  5
4035
330
2
100
AcDbSymbolTableRecord
100
AcDbLayerTableRecord
  2
4.1. Zeramika-baldosa
 70
     0
 62
   253
  6
Continuous
370
    -3
390
F
347
EE
348
0
1001
AcAecLayerStandard
1000

1000

1001
AcCmTransparency
1071
        0
  0
LAYER
  5
4129
330
2
100
AcDbSymbolTableRecord
100
AcDbLayerTableRecord
  2
7.2. Idatzia
 70
     0
 62
    18
420
   526344
  6
Continuous
370
    -3
390
F
347
EE
348
0
1001
AcAecLayerStandard
1000

1000

1001
AcCmTransparency
1071
        0
  0
LAYER
  5
45C5
330
2
100
AcDbSymbolTableRecord
100
AcDbLayerTableRecord
  2
4.2. Parket
 70
     0
 62
   253
  6
Continuous
370
    -3
390
F
347
EE
348
0
1001
AcAecLayerStandard
1000

1000

1001
AcCmTransparency
1071
        0
  0
LAYER
  5
8D45
330
2
100
AcDbSymbolTableRecord
100
AcDbLayerTableRecord
  2
4.3. Moketa
 70
     0
 62
   253
  6
Continuous
370
    -3
390
F
347
EE
348
0
1001
AcAecLayerStandard
1000

1000

1001
AcCmTransparency
1071
        0
  0
LAYER
  5
9169
102
{ACAD_XDICTIONARY
360
916A
102
}
330
2
100
AcDbSymbolTableRecord
100
AcDbLayerTableRecord
  2
Basea_Eraikuntza
 70
     0
 62
     7
  6
Continuous
370
    -3
390
F
347
EE
348
0
1001
RAK
1000
{ACET-LAYISO
1070
     0
1070
     1
1000
CONTINUOUS
1071
       -3
1071
        1
1005
F
1000
ACET-LAYISO}
  0
LAYER
  5
916B
330
2
100
AcDbSymbolTableRecord
100
AcDbLayerTableRecord
  2
Azterketa Eremua_6. Gunea
 70
     0
 62
   251
  6
DISCONT
370
    53
390
F
347
EE
348
0
1001
AcAecLayerStandard
1000

1000

1001
AcCmTransparency
1071
        0
  0
LAYER
  5
9232
330
2
100
AcDbSymbolTableRecord
100
AcDbLayerTableRecord
  2
7.1.1. Azalera eraikia
 70
     0
 62
   -12
  6
Continuous
290
     0
370
    -3
390
F
347
EE
348
0
1001
AcAecLayerStandard
1000

1000

1001
AcCmTransparency
1071
        0
  0
ENDTAB
  0
TABLE
  2
STYLE
  5
3
330
0
100
AcDbSymbolTable
 70
     3
  0
STYLE
  5
11
330
3
100
AcDbSymbolTableRecord
100
AcDbTextStyleTableRecord
  2
Standard
 70
     0
 40
0.0
 41
1.0
 50
0.0
 71
     0
 42
2.5
  3
arial.ttf
  4

1001
ACAD
1000
Arial
1071
       34
  0
STYLE
  5
132
330
3
100
AcDbSymbolTableRecord
100
AcDbTextStyleTableRecord
  2
Anotativo
 70
     0
 40
0.0
 41
1.0
 50
0.0
 71
     0
 42
2.5
  3
arial.ttf
  4

1001
AcadAnnotative
1000
AnnotativeData
1002
{
1070
     1
1070
     1
1002
}
1001
ACAD
1000
Arial
1071
       34
  0
STYLE
  5
3B75
330
3
100
AcDbSymbolTableRecord
100
AcDbTextStyleTableRecord
  2

 70
     1
 40
0.0
 41
1.0
 50
0.0
 71
     0
 42
2.5
  3
ltypeshp.shx
  4

  0
ENDTAB
  0
TABLE
  2
VIEW
  5
6
330
0
100
AcDbSymbolTable
 70
     0
  0
ENDTAB
  0
TABLE
  2
UCS
  5
7
330
0
100
AcDbSymbolTable
 70
     0
  0
ENDTAB
  0
TABLE
  2
APPID
  5
9
330
0
100
AcDbSymbolTable
 70
    16
  0
APPID
  5
12
330
9
100
AcDbSymbolTableRecord
100
AcDbRegAppTableRecord
  2
ACAD
 70
     0
  0
APPID
  5
9E
330
9
100
AcDbSymbolTableRecord
100
AcDbRegAppTableRecord
  2
ACAD_PSEXT
 70
     0
  0
APPID
  5
133
330
9
100
AcDbSymbolTableRecord
100
AcDbRegAppTableRecord
  2
AcadAnnoPO
 70
     0
  0
APPID
  5
134
330
9
100
AcDbSymbolTableRecord
100
AcDbRegAppTableRecord
  2
AcadAnnotative
 70
     0
  0
APPID
  5
135
330
9
100
AcDbSymbolTableRecord
100
AcDbRegAppTableRecord
  2
ACAD_DSTYLE_DIMJAG
 70
     0
  0
APPID
  5
136
330
9
100
AcDbSymbolTableRecord
100
AcDbRegAppTableRecord
  2
ACAD_DSTYLE_DIMTALN
 70
     0
  0
APPID
  5
165
330
9
100
AcDbSymbolTableRecord
100
AcDbRegAppTableRecord
  2
ACAD_MLEADERVER
 70
     0
  0
APPID
  5
217
330
9
100
AcDbSymbolTableRecord
100
AcDbRegAppTableRecord
  2
ACAD_NAV_VCDISPLAY
 70
     0
  0
APPID
  5
24C
330
9
100
AcDbSymbolTableRecord
100
AcDbRegAppTableRecord
  2
ACAD_EXEMPT_FROM_CAD_STANDARDS
 70
     0
  0
APPID
  5
486
330
9
100
AcDbSymbolTableRecord
100
AcDbRegAppTableRecord
  2
AcAecLayerStandard
 70
     0
  0
APPID
  5
487
330
9
100
AcDbSymbolTableRecord
100
AcDbRegAppTableRecord
  2
AcCmTransparency
 70
     0
  0
APPID
  5
FCA
330
9
100
AcDbSymbolTableRecord
100
AcDbRegAppTableRecord
  2
GradientColor1ACI
 70
     0
  0
APPID
  5
FCB
330
9
100
AcDbSymbolTableRecord
100
AcDbRegAppTableRecord
  2
GradientColor2ACI
 70
     0
  0
APPID
  5
14FB
330
9
100
AcDbSymbolTableRecord
100
AcDbRegAppTableRecord
  2
ACAD_DSTYLE_DIMBREAK
 70
     0
  0
APPID
  5
916C
330
9
100
AcDbSymbolTableRecord
100
AcDbRegAppTableRecord
  2
RAK
 70
     0
  0
APPID
  5
916D
330
9
100
AcDbSymbolTableRecord
100
AcDbRegAppTableRecord
  2
IRD
 70
     0
  0
ENDTAB
  0
TABLE
  2
DIMSTYLE
  5
A
330
0
100
AcDbSymbolTable
 70
     4
100
AcDbDimStyleTable
 71
     3
340
1501
340
27
340
137
  0
DIMSTYLE
105
1B0
330
A
100
AcDbSymbolTableRecord
100
AcDbDimStyleTableRecord
  2
Standard
 70
     0
340
11
  0
DIMSTYLE
105
137
330
A
100
AcDbSymbolTableRecord
100
AcDbDimStyleTableRecord
  2
Anotativo
 70
     0
 40
0.0
 41
2.5
 42
0.625
 43
3.75
 44
1.25
 73
     0
 74
     0
 77
     1
 78
     8
140
2.5
141
2.5
143
0.03937007874016
147
0.625
171
     3
172
     1
271
     2
272
     2
274
     3
278
    44
283
     0
284
     8
340
11
1001
AcadAnnotative
1000
AnnotativeData
1002
{
1070
     1
1070
     1
1002
}
1001
ACAD_DSTYLE_DIMJAG
1070
   388
1040
1.5
1001
ACAD_DSTYLE_DIMTALN
1070
   392
1070
     0
  0
DIMSTYLE
105
27
330
A
100
AcDbSymbolTableRecord
100
AcDbDimStyleTableRecord
  2
ISO-25
 70
     0
 41
2.5
 42
0.625
 43
3.75
 44
1.25
 73
     0
 74
     0
 77
     1
 78
     8
140
2.5
141
2.5
143
0.03937007874016
147
0.625
171
     3
172
     1
271
     2
272
     2
274
     3
278
    44
283
     0
284
     8
340
11
  0
DIMSTYLE
105
1501
102
{ACAD_REACTORS
330
89D3
330
89E7
330
89FC
330
8A14
330
8A2C
330
8A44
330
8A6C
330
8A80
330
8A95
330
8AB0
330
8AC8
330
8AD5
330
8AE2
330
8AFA
330
8B0E
330
8B26
330
8B79
330
8B98
330
8BB0
102
}
330
A
100
AcDbSymbolTableRecord
100
AcDbDimStyleTableRecord
  2
Guztion
 70
     0
 41
0.1
 42
0.1
 43
3.75
 44
0.1
 73
     0
 74
     0
 77
     1
 78
     1
140
0.15
141
2.5
143
0.03937007874016
147
0.05
171
     3
172
     1
176
   256
177
   256
178
   256
271
     2
272
     2
274
     3
283
     0
284
     8
340
11
342
14FD
1001
ACAD_DSTYLE_DIMBREAK
1070
   391
1040
3.75
1001
ACAD_DSTYLE_DIMJAG
1070
   388
1040
1.5
1001
ACAD_DSTYLE_DIMTALN
1070
   392
1070
     0
  0
ENDTAB
  0
TABLE
  2
BLOCK_RECORD
  5
1
330
0
100
AcDbSymbolTable
 70
    24
  0
BLOCK_RECORD
  5
1F
102
{ACAD_XDICTIONARY
360
1CE
102
}
330
1
100
AcDbSymbolTableRecord
100
AcDbBlockTableRecord
  2
*Model_Space
340
22
 70
     0
280
     1
281
     0
  0
BLOCK_RECORD
  5
2B53
330
1
100
AcDbSymbolTableRecord
100
AcDbBlockTableRecord
  2
*Paper_Space
340
2B60
 70
     0
280
     1
281
     0
  0
BLOCK_RECORD
  5
14FD
330
1
100
AcDbSymbolTableRecord
100
AcDbBlockTableRecord
  2
_ArchTick
340
0
102
{BLKREFS
331
89E0
331
89E1
331
89F4
331
89F5
331
8A0D
331
8A0E
331
8A25
331
8A26
331
8A3D
331
8A3E
331
8A51
331
8A52
331
8A79
331
8A7A
331
8A8D
331
8A8E
331
8AAA
331
8AAB
331
8AC1
331
8AC2
331
8ACF
331
8AD0
331
8ADC
331
8ADD
331
8AF3
331
8AF4
331
8B07
331
8B08
331
8B1F
331
8B20
331
8B37
331
8B38
331
8B92
331
8B93
331
8BA9
331
8BAA
331
8BB7
331
8BB8
102
}
 70
     0
280
     1
281
     0
  0
BLOCK_RECORD
  5
194E
330
1
100
AcDbSymbolTableRecord
100
AcDbBlockTableRecord
  2
A$C6A1E31B2
340
0
 70
     0
280
     1
281
     0
  0
BLOCK_RECORD
  5
2643
102
{ACAD_XDICTIONARY
360
2645
102
}
330
1
100
AcDbSymbolTableRecord
100
AcDbBlockTableRecord
  2
A$C4C6C188E
340
0
 70
     4
280
     1
281
     0
  0
BLOCK_RECORD
  5
D6
330
1
100
AcDbSymbolTableRecord
100
AcDbBlockTableRecord
  2
*Paper_Space3
340
D7
 70
     0
280
     1
281
     0
  0
BLOCK_RECORD
  5
89D4
330
1
100
AcDbSymbolTableRecord
100
AcDbBlockTableRecord
  2
*D4
340
0
 70
     0
280
     1
281
     0
  0
BLOCK_RECORD
  5
89E8
330
1
100
AcDbSymbolTableRecord
100
AcDbBlockTableRecord
  2
*D5
340
0
 70
     0
280
     1
281
     0
  0
BLOCK_RECORD
  5
89FD
330
1
100
AcDbSymbolTableRecord
100
AcDbBlockTableRecord
  2
*D6
340
0
 70
     0
280
     1
281
     0
  0
BLOCK_RECORD
  5
8A15
330
1
100
AcDbSymbolTableRecord
100
AcDbBlockTableRecord
  2
*D7
340
0
 70
     0
280
     1
281
     0
  0
BLOCK_RECORD
  5
8A2D
330
1
100
AcDbSymbolTableRecord
100
AcDbBlockTableRecord
  2
*D8
340
0
 70
     0
280
     1
281
     0
  0
BLOCK_RECORD
  5
8A45
330
1
100
AcDbSymbolTableRecord
100
AcDbBlockTableRecord
  2
*D9
340
0
 70
     0
280
     1
281
     0
  0
BLOCK_RECORD
  5
8A6D
330
1
100
AcDbSymbolTableRecord
100
AcDbBlockTableRecord
  2
*D10
340
0
 70
     0
280
     1
281
     0
  0
BLOCK_RECORD
  5
8A81
330
1
100
AcDbSymbolTableRecord
100
AcDbBlockTableRecord
  2
*D11
340
0
 70
     0
280
     1
281
     0
  0
BLOCK_RECORD
  5
8A96
330
1
100
AcDbSymbolTableRecord
100
AcDbBlockTableRecord
  2
*D12
340
0
 70
     0
280
     1
281
     0
  0
BLOCK_RECORD
  5
8AB1
330
1
100
AcDbSymbolTableRecord
100
AcDbBlockTableRecord
  2
*D13
340
0
 70
     0
280
     1
281
     0
  0
BLOCK_RECORD
  5
8AC9
330
1
100
AcDbSymbolTableRecord
100
AcDbBlockTableRecord
  2
*D14
340
0
 70
     0
280
     1
281
     0
  0
BLOCK_RECORD
  5
8AD6
330
1
100
AcDbSymbolTableRecord
100
AcDbBlockTableRecord
  2
*D15
340
0
 70
     0
280
     1
281
     0
  0
BLOCK_RECORD
  5
8AE3
330
1
100
AcDbSymbolTableRecord
100
AcDbBlockTableRecord
  2
*D16
340
0
 70
     0
280
     1
281
     0
  0
BLOCK_RECORD
  5
8AFB
330
1
100
AcDbSymbolTableRecord
100
AcDbBlockTableRecord
  2
*D17
340
0
 70
     0
280
     1
281
     0
  0
BLOCK_RECORD
  5
8B0F
330
1
100
AcDbSymbolTableRecord
100
AcDbBlockTableRecord
  2
*D18
340
0
 70
     0
280
     1
281
     0
  0
BLOCK_RECORD
  5
8B27
330
1
100
AcDbSymbolTableRecord
100
AcDbBlockTableRecord
  2
*D19
340
0
 70
     0
280
     1
281
     0
  0
BLOCK_RECORD
  5
8B7A
330
1
100
AcDbSymbolTableRecord
100
AcDbBlockTableRecord
  2
*D20
340
0
 70
     0
280
     1
281
     0
  0
BLOCK_RECORD
  5
8B99
330
1
100
AcDbSymbolTableRecord
100
AcDbBlockTableRecord
  2
*D21
340
0
 70
     0
280
     1
281
     0
  0
BLOCK_RECORD
  5
8BB1
330
1
100
AcDbSymbolTableRecord
100
AcDbBlockTableRecord
  2
*D22
340
0
 70
     0
280
     1
281
     0
  0
BLOCK_RECORD
  5
916E
102
{ACAD_XDICTIONARY
360
9170
102
}
330
1
100
AcDbSymbolTableRecord
100
AcDbBlockTableRecord
  2
A$C56C501B1
340
0
 70
     4
280
     1
281
     0
  0
ENDTAB
  0
ENDSEC
  0
SECTION
  2
BLOCKS
  0
BLOCK
  5
20
330
1F
100
AcDbEntity
  8
0
100
AcDbBlockBegin
  2
*Model_Space
 70
     0
 10
0.0
 20
0.0
 30
0.0
  3
*Model_Space
  1

  0
ENDBLK
  5
21
330
1F
100
AcDbEntity
  8
0
100
AcDbBlockEnd
  0
BLOCK
  5
2B54
330
2B53
100
AcDbEntity
 67
     1
  8
0
100
AcDbBlockBegin
  2
*Paper_Space
 70
     0
 10
0.0
 20
0.0
 30
0.0
  3
*Paper_Space
  1

  0
ENDBLK
  5
2B5F
330
2B53
100
AcDbEntity
 67
     1
  8
0
100
AcDbBlockEnd
  0
BLOCK
  5
14FF
330
14FD
100
AcDbEntity
  8
0
100
AcDbBlockBegin
  2
_ArchTick
 70
     0
 10
0.0
 20
0.0
 30
0.0
  3
_ArchTick
  1

  0
LWPOLYLINE
  5
14FE
330
14FD
100
AcDbEntity
  8
0
  6
ByBlock
 62
     0
100
AcDbPolyline
 90
        2
 70
     0
 43
0.15
 10
-0.5
 20
-0.5
 10
0.5
 20
0.5
  0
ENDBLK
  5
1500
330
14FD
100
AcDbEntity
  8
0
100
AcDbBlockEnd
  0
BLOCK
  5
195F
330
194E
100
AcDbEntity
  8
0
100
AcDbBlockBegin
  2
A$C6A1E31B2
 70
     0
 10
0.0
 20
0.0
 30
0.0
  3
A$C6A1E31B2
  1

  0
LWPOLYLINE
  5
194F
330
194E
100
AcDbEntity
  8
-
100
AcDbPolyline
 90
        4
 70
     1
 43
0.0
 10
0.3126854446639626
 20
-0.0000000212661178
 10
0.292428219745922
 20
-0.0000000212661178
 10
0.292428219745922
 20
0.1837702092999933
 10
0.3126854446639626
 20
0.1837702092999933
  0
LINE
  5
1950
330
194E
100
AcDbEntity
  8
-
100
AcDbLine
 10
0.5600000163788366
 20
0.2499999787338809
 30
0.0
 11
0.5600000163788366
 21
0.0799999787338823
 31
0.0
  0
LINE
  5
1951
330
194E
100
AcDbEntity
  8
-
100
AcDbLine
 10
0.0400000163788263
 20
0.0799999787338828
 30
0.0
 11
0.0400000163788263
 21
0.2499999787338831
 31
0.0
  0
LINE
  5
1952
330
194E
100
AcDbEntity
  8
-
100
AcDbLine
 10
0.6000000163788357
 20
0.2499999787338809
 30
0.0
 11
0.6000000163788357
 21
-0.0000000212661178
 31
0.0
  0
LINE
  5
1953
330
194E
100
AcDbEntity
  8
-
100
AcDbLine
 10
0.0000000163788343
 20
-0.0000000212661178
 30
0.0
 11
0.0000000163788272
 21
0.2499999787338818
 31
0.0
  0
LINE
  5
1954
330
194E
100
AcDbEntity
  8
-
100
AcDbLine
 10
0.5600000163788366
 20
0.0799999787338828
 30
0.0
 11
0.3126854446639626
 21
0.0799999787338828
 31
0.0
  0
LINE
  5
1955
330
194E
100
AcDbEntity
  8
-
100
AcDbLine
 10
0.6000000163788357
 20
-0.0000000212661178
 30
0.0
 11
0.0000000163788343
 21
-0.0000000212661178
 31
0.0
  0
LINE
  5
1956
330
194E
100
AcDbEntity
  8
-
100
AcDbLine
 10
0.292428219745922
 20
0.0799999787338828
 30
0.0
 11
0.0400000163788263
 21
0.0799999787338828
 31
0.0
  0
LWPOLYLINE
  5
1957
330
194E
100
AcDbEntity
  8
-
100
AcDbPolyline
 90
        4
 70
     1
 43
0.0
 10
0.3152422604900735
 20
0.0138949237869923
 10
0.3670918531628686
 20
0.0138949237869923
 10
0.3670918531628686
 20
0.0656861417695041
 10
0.3152422604900735
 20
0.0656861417695041
  0
LWPOLYLINE
  5
1958
330
194E
100
AcDbEntity
  8
-
100
AcDbPolyline
 90
        4
 70
     1
 43
0.0
 10
0.2903543029858397
 20
0.0656861417695041
 10
0.2322827209369862
 20
0.0656861417695041
 10
0.2322827209369862
 20
0.0138949237869923
 10
0.2903543029858397
 20
0.0138949237869923
  0
ARC
  5
1959
330
194E
100
AcDbEntity
  8
-
100
AcDbCircle
 10
0.3000000163788385
 20
0.2499999787338809
 30
0.0
 40
0.26
100
AcDbArc
 50
0.0
 51
90.0
  0
ARC
  5
195A
330
194E
100
AcDbEntity
  8
-
100
AcDbCircle
 10
0.3000000163788385
 20
0.2499999787338809
 30
0.0
 40
0.3
100
AcDbArc
 50
0.0
 51
90.0
  0
CIRCLE
  5
195B
330
194E
100
AcDbEntity
  8
-
100
AcDbCircle
 10
0.3000000163788243
 20
0.3321388107524541
 30
0.0
 40
0.0367980598417717
  0
ARC
  5
195C
330
194E
100
AcDbEntity
  8
-
100
AcDbCircle
 10
0.3000000163788243
 20
0.2499999787338818
 30
0.0
 40
0.26
100
AcDbArc
 50
90.0
 51
180.0
  0
LINE
  5
195D
330
194E
100
AcDbEntity
  8
-
100
AcDbLine
 10
0.3000000163788243
 20
0.5499999787338817
 30
0.0
 11
0.3000000163788385
 21
0.5499999787338808
 31
0.0
  0
ARC
  5
195E
330
194E
100
AcDbEntity
  8
-
100
AcDbCircle
 10
0.3000000163788243
 20
0.2499999787338818
 30
0.0
 40
0.3
100
AcDbArc
 50
90.0
 51
180.0
  0
ENDBLK
  5
1960
330
194E
100
AcDbEntity
  8
0
100
AcDbBlockEnd
  0
BLOCK
  5
2647
330
2643
100
AcDbEntity
  8
0
100
AcDbBlockBegin
  2
A$C4C6C188E
 70
     0
 10
0.0
 20
0.0
 30
0.0
  3
A$C4C6C188E
  1

  0
MTEXT
  5
2644
330
2643
100
AcDbEntity
  8
1.4. Idatzia
100
AcDbMText
 10
0.0007080675713951
 20
0.0039339599218238
 30
0.0
 40
0.0025
 41
0.1852149973614974
 46
0.0
 71
     1
 72
     5
  1
{\fCalibri Light|b1|i0|c0|p34;Katastro zk.\fCalibri Light|b0|i0|c0|p34;: 7791177}
 73
     1
 44
1.0
  0
ENDBLK
  5
2648
330
2643
100
AcDbEntity
  8
0
100
AcDbBlockEnd
  0
BLOCK
  5
D8
330
D6
100
AcDbEntity
 67
     1
  8
0
100
AcDbBlockBegin
  2
*Paper_Space3
 70
     0
 10
0.0
 20
0.0
 30
0.0
  3
*Paper_Space3
  1

  0
VIEWPORT
  5
2AF3
102
{ACAD_XDICTIONARY
360
2AF4
102
}
330
D6
100
AcDbEntity
 67
     1
  8
0
100
AcDbViewport
 10
128.5
 20
97.5
 30
0.0
 40
370.9329914529915
 41
222.18
 68
     0
 69
     0
 12
128.5
 22
97.5
 13
0.0
 23
0.0
 14
10.0
 24
10.0
 15
10.0
 25
10.0
 16
0.0
 26
0.0
 36
1.0
 17
0.0
 27
0.0
 37
0.0
 42
50.0
 43
0.0
 44
0.0
 45
222.18
 50
0.0
 51
0.0
 72
  1000
 90
   819232
  1

281
     0
 71
     1
 74
     0
110
0.0
120
0.0
130
0.0
111
1.0
121
0.0
131
0.0
112
0.0
122
1.0
132
0.0
 79
     0
146
0.0
170
     0
 61
     5
348
F5
292
     1
282
     1
141
0.0
142
0.0
 63
   250
421
  3355443
  0
VIEWPORT
  5
2AF7
102
{ACAD_XDICTIONARY
360
2AF8
102
}
330
D6
100
AcDbEntity
 67
     1
  8
0
100
AcDbViewport
 10
128.5
 20
97.5
 30
0.0
 40
205.6
 41
156.0
 68
     0
 69
     0
 12
-245.0678307719495
 22
37.05995025052767
 13
0.0
 23
0.0
 14
10.0
 24
10.0
 15
10.0
 25
10.0
 16
0.0
 26
0.0
 36
0.6188922984979737
 17
2619.601320438711
 27
877.6296409676874
 37
0.0
 42
50.0
 43
0.0
 44
0.0
 45
0.3532727290029537
 50
0.0
 51
0.0
 72
  1000
 90
   819296
  1

281
     0
 71
     1
 74
     0
110
0.0
120
0.0
130
0.0
111
1.0
121
0.0
131
0.0
112
0.0
122
1.0
132
0.0
 79
     0
146
0.0
170
     0
 61
     5
348
F5
292
     1
282
     1
141
0.0
142
0.0
 63
   250
421
  3355443
  0
ENDBLK
  5
D9
330
D6
100
AcDbEntity
 67
     1
  8
0
100
AcDbBlockEnd
  0
BLOCK
  5
89D5
330
89D4
100
AcDbEntity
  8
0
100
AcDbBlockBegin
  2
*D4
 70
     1
 10
0.0
 20
0.0
 30
0.0
  3
*D4
  1

  0
LINE
  5
89DF
330
89D4
100
AcDbEntity
  8
7.3. Kota
440
 16777216
370
    -2
100
AcDbLine
 10
2661.900260248397
 20
883.563215333244
 30
0.0
 11
2665.515260248397
 21
883.563215333244
 31
0.0
  0
INSERT
  5
89E0
330
89D4
100
AcDbEntity
  8
7.3. Kota
440
 16777216
370
    -2
100
AcDbBlockReference
  2
_ArchTick
 10
2661.900260248397
 20
883.563215333244
 30
0.0
 41
0.1
 42
0.1
 43
0.1
 50
180.0
  0
INSERT
  5
89E1
330
89D4
100
AcDbEntity
  8
7.3. Kota
440
 16777216
370
    -2
100
AcDbBlockReference
  2
_ArchTick
 10
2665.515260248397
 20
883.563215333244
 30
0.0
 41
0.1
 42
0.1
 43
0.1
  0
MTEXT
  5
89E2
330
89D4
100
AcDbEntity
  8
7.3. Kota
440
 16777216
100
AcDbMText
 10
2663.707760248397
 20
883.6898524410202
 30
0.0
 40
0.15
 41
0.0
 46
0.0
 71
     5
 72
     1
  1
3.62
 73
     1
 44
1.0
  0
POINT
  5
89E3
330
89D4
100
AcDbEntity
  8
Defpoints
 62
     0
440
 16777216
100
AcDbPoint
 10
2661.900260248397
 20
883.563215333244
 30
0.0
  0
POINT
  5
89E4
330
89D4
100
AcDbEntity
  8
Defpoints
 62
     0
440
 16777216
100
AcDbPoint
 10
2665.515260248397
 20
883.563215333244
 30
0.0
  0
POINT
  5
89E5
330
89D4
100
AcDbEntity
  8
Defpoints
 62
     0
440
 16777216
100
AcDbPoint
 10
2665.515260248397
 20
883.563215333244
 30
0.0
  0
ENDBLK
  5
89D6
330
89D4
100
AcDbEntity
  8
0
100
AcDbBlockEnd
  0
BLOCK
  5
89E9
330
89E8
100
AcDbEntity
  8
0
100
AcDbBlockBegin
  2
*D5
 70
     1
 10
0.0
 20
0.0
 30
0.0
  3
*D5
  1

  0
LINE
  5
89F3
330
89E8
100
AcDbEntity
  8
7.3. Kota
440
 16777216
370
    -2
100
AcDbLine
 10
2664.070260248399
 20
887.131588547643
 30
0.0
 11
2664.070260248399
 21
881.3165885476431
 31
0.0
  0
INSERT
  5
89F4
330
89E8
100
AcDbEntity
  8
7.3. Kota
440
 16777216
370
    -2
100
AcDbBlockReference
  2
_ArchTick
 10
2664.070260248399
 20
887.131588547643
 30
0.0
 41
0.1
 42
0.1
 43
0.1
 50
90.0
  0
INSERT
  5
89F5
330
89E8
100
AcDbEntity
  8
7.3. Kota
440
 16777216
370
    -2
100
AcDbBlockReference
  2
_ArchTick
 10
2664.070260248399
 20
881.3165885476431
 30
0.0
 41
0.1
 42
0.1
 43
0.1
 50
270.0
  0
MTEXT
  5
89F6
330
89E8
100
AcDbEntity
  8
7.3. Kota
440
 16777216
100
AcDbMText
 10
2663.943674300242
 20
884.2240885476437
 30
0.0
 40
0.15
 41
0.0
 46
0.0
 71
     5
 72
     1
  1
5.82
 11
0.0000000000000001
 21
1.0
 31
0.0
 73
     1
 44
1.0
  0
POINT
  5
89F7
330
89E8
100
AcDbEntity
  8
Defpoints
 62
     0
440
 16777216
100
AcDbPoint
 10
2664.070260248399
 20
887.131588547643
 30
0.0
  0
POINT
  5
89F8
330
89E8
100
AcDbEntity
  8
Defpoints
 62
     0
440
 16777216
100
AcDbPoint
 10
2664.070260248399
 20
881.3165885476431
 30
0.0
  0
POINT
  5
89F9
330
89E8
100
AcDbEntity
  8
Defpoints
 62
     0
440
 16777216
100
AcDbPoint
 10
2664.070260248399
 20
881.3165885476431
 30
0.0
  0
ENDBLK
  5
89EA
330
89E8
100
AcDbEntity
  8
0
100
AcDbBlockEnd
  0
BLOCK
  5
89FE
330
89FD
100
AcDbEntity
  8
0
100
AcDbBlockBegin
  2
*D6
 70
     1
 10
0.0
 20
0.0
 30
0.0
  3
*D6
  1

  0
LINE
  5
8A0A
330
89FD
100
AcDbEntity
  8
7.3. Kota
440
 16777216
370
    -2
100
AcDbLine
 10
2661.600260248399
 20
878.9592225158244
 30
0.0
 11
2661.283844863799
 21
878.9592225158244
 31
0.0
  0
LINE
  5
8A0B
330
89FD
100
AcDbEntity
  8
7.3. Kota
440
 16777216
370
    -2
100
AcDbLine
 10
2661.600260248398
 20
877.7492225158244
 30
0.0
 11
2661.283844863799
 21
877.7492225158244
 31
0.0
  0
LINE
  5
8A0C
330
89FD
100
AcDbEntity
  8
7.3. Kota
440
 16777216
370
    -2
100
AcDbLine
 10
2661.3838448638
 20
878.9592225158244
 30
0.0
 11
2661.3838448638
 21
877.7492225158244
 31
0.0
  0
INSERT
  5
8A0D
330
89FD
100
AcDbEntity
  8
7.3. Kota
440
 16777216
370
    -2
100
AcDbBlockReference
  2
_ArchTick
 10
2661.3838448638
 20
878.9592225158244
 30
0.0
 41
0.1
 42
0.1
 43
0.1
 50
90.0
  0
INSERT
  5
8A0E
330
89FD
100
AcDbEntity
  8
7.3. Kota
440
 16777216
370
    -2
100
AcDbBlockReference
  2
_ArchTick
 10
2661.3838448638
 20
877.7492225158244
 30
0.0
 41
0.1
 42
0.1
 43
0.1
 50
270.0
  0
MTEXT
  5
8A0F
330
89FD
100
AcDbEntity
  8
7.3. Kota
440
 16777216
100
AcDbMText
 10
2661.258537906092
 20
878.354222515825
 30
0.0
 40
0.15
 41
0.0
 46
0.0
 71
     5
 72
     1
  1
1.21
 11
0.0000000000000001
 21
1.0
 31
0.0
 73
     1
 44
1.0
  0
POINT
  5
8A10
330
89FD
100
AcDbEntity
  8
Defpoints
 62
     0
440
 16777216
100
AcDbPoint
 10
2661.700260248399
 20
878.9592225158244
 30
0.0
  0
POINT
  5
8A11
330
89FD
100
AcDbEntity
  8
Defpoints
 62
     0
440
 16777216
100
AcDbPoint
 10
2661.700260248399
 20
877.7492225158244
 30
0.0
  0
POINT
  5
8A12
330
89FD
100
AcDbEntity
  8
Defpoints
 62
     0
440
 16777216
100
AcDbPoint
 10
2661.3838448638
 20
877.7492225158244
 30
0.0
  0
ENDBLK
  5
89FF
330
89FD
100
AcDbEntity
  8
0
100
AcDbBlockEnd
  0
BLOCK
  5
8A16
330
8A15
100
AcDbEntity
  8
0
100
AcDbBlockBegin
  2
*D7
 70
     1
 10
0.0
 20
0.0
 30
0.0
  3
*D7
  1

  0
LINE
  5
8A22
330
8A15
100
AcDbEntity
  8
7.3. Kota
440
 16777216
370
    -2
100
AcDbLine
 10
2661.900260248403
 20
879.2592225158244
 30
0.0
 11
2661.900260248403
 21
879.5147870797572
 31
0.0
  0
LINE
  5
8A23
330
8A15
100
AcDbEntity
  8
7.3. Kota
440
 16777216
370
    -2
100
AcDbLine
 10
2663.645260248395
 20
879.2592225158241
 30
0.0
 11
2663.645260248395
 21
879.5147870797572
 31
0.0
  0
LINE
  5
8A24
330
8A15
100
AcDbEntity
  8
7.3. Kota
440
 16777216
370
    -2
100
AcDbLine
 10
2661.900260248403
 20
879.4147870797571
 30
0.0
 11
2663.645260248395
 21
879.4147870797571
 31
0.0
  0
INSERT
  5
8A25
330
8A15
100
AcDbEntity
  8
7.3. Kota
440
 16777216
370
    -2
100
AcDbBlockReference
  2
_ArchTick
 10
2661.900260248403
 20
879.4147870797571
 30
0.0
 41
0.1
 42
0.1
 43
0.1
 50
180.0
  0
INSERT
  5
8A26
330
8A15
100
AcDbEntity
  8
7.3. Kota
440
 16777216
370
    -2
100
AcDbBlockReference
  2
_ArchTick
 10
2663.645260248395
 20
879.4147870797571
 30
0.0
 41
0.1
 42
0.1
 43
0.1
  0
MTEXT
  5
8A27
330
8A15
100
AcDbEntity
  8
7.3. Kota
440
 16777216
100
AcDbMText
 10
2662.7727602484
 20
879.5413730279154
 30
0.0
 40
0.15
 41
0.0
 46
0.0
 71
     5
 72
     1
  1
1.75
 73
     1
 44
1.0
  0
POINT
  5
8A28
330
8A15
100
AcDbEntity
  8
Defpoints
 62
     0
440
 16777216
100
AcDbPoint
 10
2661.900260248403
 20
879.1592225158245
 30
0.0
  0
POINT
  5
8A29
330
8A15
100
AcDbEntity
  8
Defpoints
 62
     0
440
 16777216
100
AcDbPoint
 10
2663.645260248395
 20
879.1592225158241
 30
0.0
  0
POINT
  5
8A2A
330
8A15
100
AcDbEntity
  8
Defpoints
 62
     0
440
 16777216
100
AcDbPoint
 10
2663.645260248395
 20
879.4147870797571
 30
0.0
  0
ENDBLK
  5
8A17
330
8A15
100
AcDbEntity
  8
0
100
AcDbBlockEnd
  0
BLOCK
  5
8A2E
330
8A2D
100
AcDbEntity
  8
0
100
AcDbBlockBegin
  2
*D8
 70
     1
 10
0.0
 20
0.0
 30
0.0
  3
*D8
  1

  0
LINE
  5
8A3A
330
8A2D
100
AcDbEntity
  8
7.3. Kota
440
 16777216
370
    -2
100
AcDbLine
 10
2662.905260248398
 20
877.5492225158247
 30
0.0
 11
2662.905260248398
 21
877.4016581498393
 31
0.0
  0
LINE
  5
8A3B
330
8A2D
100
AcDbEntity
  8
7.3. Kota
440
 16777216
370
    -2
100
AcDbLine
 10
2663.505260248398
 20
877.5492225158247
 30
0.0
 11
2663.505260248398
 21
877.4016581498393
 31
0.0
  0
LINE
  5
8A3C
330
8A2D
100
AcDbEntity
  8
7.3. Kota
440
 16777216
370
    -2
100
AcDbLine
 10
2662.905260248398
 20
877.5016581498393
 30
0.0
 11
2663.505260248398
 21
877.5016581498393
 31
0.0
  0
INSERT
  5
8A3D
330
8A2D
100
AcDbEntity
  8
7.3. Kota
440
 16777216
370
    -2
100
AcDbBlockReference
  2
_ArchTick
 10
2662.905260248398
 20
877.5016581498393
 30
0.0
 41
0.1
 42
0.1
 43
0.1
 50
180.0
  0
INSERT
  5
8A3E
330
8A2D
100
AcDbEntity
  8
7.3. Kota
440
 16777216
370
    -2
100
AcDbBlockReference
  2
_ArchTick
 10
2663.505260248398
 20
877.5016581498393
 30
0.0
 41
0.1
 42
0.1
 43
0.1
  0
MTEXT
  5
8A3F
330
8A2D
100
AcDbEntity
  8
7.3. Kota
440
 16777216
100
AcDbMText
 10
2663.205260248398
 20
877.6282440979976
 30
0.0
 40
0.15
 41
0.0
 46
0.0
 71
     5
 72
     1
  1
0.60
 73
     1
 44
1.0
  0
POINT
  5
8A40
330
8A2D
100
AcDbEntity
  8
Defpoints
 62
     0
440
 16777216
100
AcDbPoint
 10
2662.905260248398
 20
877.6492225158246
 30
0.0
  0
POINT
  5
8A41
330
8A2D
100
AcDbEntity
  8
Defpoints
 62
     0
440
 16777216
100
AcDbPoint
 10
2663.505260248398
 20
877.6492225158246
 30
0.0
  0
POINT
  5
8A42
330
8A2D
100
AcDbEntity
  8
Defpoints
 62
     0
440
 16777216
100
AcDbPoint
 10
2663.505260248398
 20
877.5016581498393
 30
0.0
  0
ENDBLK
  5
8A2F
330
8A2D
100
AcDbEntity
  8
0
100
AcDbBlockEnd
  0
BLOCK
  5
8A46
330
8A45
100
AcDbEntity
  8
0
100
AcDbBlockBegin
  2
*D9
 70
     1
 10
0.0
 20
0.0
 30
0.0
  3
*D9
  1

  0
LINE
  5
8A50
330
8A45
100
AcDbEntity
  8
7.3. Kota
440
 16777216
370
    -2
100
AcDbLine
 10
2663.665260248398
 20
876.4992225158245
 30
0.0
 11
2662.235260248398
 21
876.4992225158247
 31
0.0
  0
INSERT
  5
8A51
330
8A45
100
AcDbEntity
  8
7.3. Kota
440
 16777216
370
    -2
100
AcDbBlockReference
  2
_ArchTick
 10
2663.665260248398
 20
876.4992225158245
 30
0.0
 41
0.1
 42
0.1
 43
0.1
 50
359.9999999999954
  0
INSERT
  5
8A52
330
8A45
100
AcDbEntity
  8
7.3. Kota
440
 16777216
370
    -2
100
AcDbBlockReference
  2
_ArchTick
 10
2662.235260248398
 20
876.4992225158247
 30
0.0
 41
0.1
 42
0.1
 43
0.1
 50
179.9999999999954
  0
MTEXT
  5
8A53
330
8A45
100
AcDbEntity
  8
7.3. Kota
440
 16777216
100
AcDbMText
 10
2662.950260248398
 20
876.6258596236008
 30
0.0
 40
0.15
 41
0.0
 46
0.0
 71
     5
 72
     1
  1
1.43
 73
     1
 44
1.0
  0
POINT
  5
8A54
330
8A45
100
AcDbEntity
  8
Defpoints
 62
     0
440
 16777216
100
AcDbPoint
 10
2663.665260248398
 20
876.4992225158245
 30
0.0
  0
POINT
  5
8A55
330
8A45
100
AcDbEntity
  8
Defpoints
 62
     0
440
 16777216
100
AcDbPoint
 10
2662.235260248398
 20
876.4992225158247
 30
0.0
  0
POINT
  5
8A56
330
8A45
100
AcDbEntity
  8
Defpoints
 62
     0
440
 16777216
100
AcDbPoint
 10
2662.235260248398
 20
876.4992225158247
 30
0.0
  0
ENDBLK
  5
8A47
330
8A45
100
AcDbEntity
  8
0
100
AcDbBlockEnd
  0
BLOCK
  5
8A6E
330
8A6D
100
AcDbEntity
  8
0
100
AcDbBlockBegin
  2
*D10
 70
     1
 10
0.0
 20
0.0
 30
0.0
  3
*D10
  1

  0
LINE
  5
8A78
330
8A6D
100
AcDbEntity
  8
7.3. Kota
440
 16777216
370
    -2
100
AcDbLine
 10
2662.540260248399
 20
877.6492225158246
 30
0.0
 11
2662.540260248399
 21
875.3492225158245
 31
0.0
  0
INSERT
  5
8A79
330
8A6D
100
AcDbEntity
  8
7.3. Kota
440
 16777216
370
    -2
100
AcDbBlockReference
  2
_ArchTick
 10
2662.540260248399
 20
877.6492225158246
 30
0.0
 41
0.1
 42
0.1
 43
0.1
 50
90.0
  0
INSERT
  5
8A7A
330
8A6D
100
AcDbEntity
  8
7.3. Kota
440
 16777216
370
    -2
100
AcDbBlockReference
  2
_ArchTick
 10
2662.540260248399
 20
875.3492225158245
 30
0.0
 41
0.1
 42
0.1
 43
0.1
 50
270.0
  0
MTEXT
  5
8A7B
330
8A6D
100
AcDbEntity
  8
7.3. Kota
440
 16777216
100
AcDbMText
 10
2662.413623140623
 20
876.499222515825
 30
0.0
 40
0.15
 41
0.0
 46
0.0
 71
     5
 72
     1
  1
2.30
 11
0.0000000000000001
 21
1.0
 31
0.0
 73
     1
 44
1.0
  0
POINT
  5
8A7C
330
8A6D
100
AcDbEntity
  8
Defpoints
 62
     0
440
 16777216
100
AcDbPoint
 10
2662.540260248397
 20
877.6492225158246
 30
0.0
  0
POINT
  5
8A7D
330
8A6D
100
AcDbEntity
  8
Defpoints
 62
     0
440
 16777216
100
AcDbPoint
 10
2662.540260248399
 20
875.3492225158245
 30
0.0
  0
POINT
  5
8A7E
330
8A6D
100
AcDbEntity
  8
Defpoints
 62
     0
440
 16777216
100
AcDbPoint
 10
2662.540260248399
 20
875.3492225158245
 30
0.0
  0
ENDBLK
  5
8A6F
330
8A6D
100
AcDbEntity
  8
0
100
AcDbBlockEnd
  0
BLOCK
  5
8A82
330
8A81
100
AcDbEntity
  8
0
100
AcDbBlockBegin
  2
*D11
 70
     1
 10
0.0
 20
0.0
 30
0.0
  3
*D11
  1

  0
LINE
  5
8A8C
330
8A81
100
AcDbEntity
  8
7.3. Kota
440
 16777216
370
    -2
100
AcDbLine
 10
2663.745260248398
 20
876.4992225158245
 30
0.0
 11
2667.700260248397
 21
876.4992225158245
 31
0.0
  0
INSERT
  5
8A8D
330
8A81
100
AcDbEntity
  8
7.3. Kota
440
 16777216
370
    -2
100
AcDbBlockReference
  2
_ArchTick
 10
2663.745260248398
 20
876.4992225158245
 30
0.0
 41
0.1
 42
0.1
 43
0.1
 50
180.0
  0
INSERT
  5
8A8E
330
8A81
100
AcDbEntity
  8
7.3. Kota
440
 16777216
370
    -2
100
AcDbBlockReference
  2
_ArchTick
 10
2667.700260248397
 20
876.4992225158245
 30
0.0
 41
0.1
 42
0.1
 43
0.1
  0
MTEXT
  5
8A8F
330
8A81
100
AcDbEntity
  8
7.3. Kota
440
 16777216
100
AcDbMText
 10
2665.722760248397
 20
876.6258596236006
 30
0.0
 40
0.15
 41
0.0
 46
0.0
 71
     5
 72
     1
  1
3.96
 73
     1
 44
1.0
  0
POINT
  5
8A90
330
8A81
100
AcDbEntity
  8
Defpoints
 62
     0
440
 16777216
100
AcDbPoint
 10
2663.745260248398
 20
876.4992225158245
 30
0.0
  0
POINT
  5
8A91
330
8A81
100
AcDbEntity
  8
Defpoints
 62
     0
440
 16777216
100
AcDbPoint
 10
2667.700260248397
 20
876.4992225158245
 30
0.0
  0
POINT
  5
8A92
330
8A81
100
AcDbEntity
  8
Defpoints
 62
     0
440
 16777216
100
AcDbPoint
 10
2667.700260248397
 20
876.4992225158245
 30
0.0
  0
ENDBLK
  5
8A83
330
8A81
100
AcDbEntity
  8
0
100
AcDbBlockEnd
  0
BLOCK
  5
8A97
330
8A96
100
AcDbEntity
  8
0
100
AcDbBlockBegin
  2
*D12
 70
     1
 10
0.0
 20
0.0
 30
0.0
  3
*D12
  1

  0
LINE
  5
8AA9
330
8A96
100
AcDbEntity
  8
7.3. Kota
440
 16777216
370
    -2
100
AcDbLine
 10
2662.235260248397
 20
874.6936567622141
 30
0.0
 11
2667.700260248397
 21
874.6936567622141
 31
0.0
  0
INSERT
  5
8AAA
330
8A96
100
AcDbEntity
  8
7.3. Kota
440
 16777216
370
    -2
100
AcDbBlockReference
  2
_ArchTick
 10
2662.235260248397
 20
874.6936567622141
 30
0.0
 41
0.1
 42
0.1
 43
0.1
 50
180.0
  0
INSERT
  5
8AAB
330
8A96
100
AcDbEntity
  8
7.3. Kota
440
 16777216
370
    -2
100
AcDbBlockReference
  2
_ArchTick
 10
2667.700260248397
 20
874.6936567622141
 30
0.0
 41
0.1
 42
0.1
 43
0.1
  0
MTEXT
  5
8AAC
330
8A96
100
AcDbEntity
  8
7.3. Kota
440
 16777216
100
AcDbMText
 10
2664.967760248397
 20
874.8199357526644
 30
0.0
 40
0.15
 41
0.0
 46
0.0
 71
     5
 72
     1
  1
5.47
 73
     1
 44
1.0
  0
POINT
  5
8AAD
330
8A96
100
AcDbEntity
  8
Defpoints
 62
     0
440
 16777216
100
AcDbPoint
 10
2662.235260248397
 20
874.6936567622141
 30
0.0
  0
POINT
  5
8AAE
330
8A96
100
AcDbEntity
  8
Defpoints
 62
     0
440
 16777216
100
AcDbPoint
 10
2667.700260248397
 20
874.6936567622141
 30
0.0
  0
POINT
  5
8AAF
330
8A96
100
AcDbEntity
  8
Defpoints
 62
     0
440
 16777216
100
AcDbPoint
 10
2667.700260248397
 20
874.6936567622141
 30
0.0
  0
ENDBLK
  5
8A98
330
8A96
100
AcDbEntity
  8
0
100
AcDbBlockEnd
  0
BLOCK
  5
8AB2
330
8AB1
100
AcDbEntity
  8
0
100
AcDbBlockBegin
  2
*D13
 70
     1
 10
0.0
 20
0.0
 30
0.0
  3
*D13
  1

  0
LINE
  5
8ABE
330
8AB1
100
AcDbEntity
  8
7.3. Kota
440
 16777216
370
    -2
100
AcDbLine
 10
2665.33229568728
 20
877.6492225158246
 30
0.0
 11
2665.342485205831
 21
877.6492225158246
 31
0.0
  0
LINE
  5
8ABF
330
8AB1
100
AcDbEntity
  8
7.3. Kota
440
 16777216
370
    -2
100
AcDbLine
 10
2665.33229568728
 20
869.6148146755909
 30
0.0
 11
2665.342485205831
 21
869.6148146755909
 31
0.0
  0
LINE
  5
8AC0
330
8AB1
100
AcDbEntity
  8
7.3. Kota
440
 16777216
370
    -2
100
AcDbLine
 10
2665.242485205832
 20
877.6492225158246
 30
0.0
 11
2665.242485205832
 21
869.6148146755909
 31
0.0
  0
INSERT
  5
8AC1
330
8AB1
100
AcDbEntity
  8
7.3. Kota
440
 16777216
370
    -2
100
AcDbBlockReference
  2
_ArchTick
 10
2665.242485205832
 20
877.6492225158246
 30
0.0
 41
0.1
 42
0.1
 43
0.1
 50
90.0
  0
INSERT
  5
8AC2
330
8AB1
100
AcDbEntity
  8
7.3. Kota
440
 16777216
370
    -2
100
AcDbBlockReference
  2
_ArchTick
 10
2665.242485205832
 20
869.6148146755909
 30
0.0
 41
0.1
 42
0.1
 43
0.1
 50
270.0
  0
MTEXT
  5
8AC3
330
8AB1
100
AcDbEntity
  8
7.3. Kota
440
 16777216
100
AcDbMText
 10
2665.115848098055
 20
873.6320185957081
 30
0.0
 40
0.15
 41
0.0
 46
0.0
 71
     5
 72
     1
  1
8.03
 11
0.0000000000000001
 21
1.0
 31
0.0
 73
     1
 44
1.0
  0
POINT
  5
8AC4
330
8AB1
100
AcDbEntity
  8
Defpoints
 62
     0
440
 16777216
100
AcDbPoint
 10
2665.23229568728
 20
877.6492225158246
 30
0.0
  0
POINT
  5
8AC5
330
8AB1
100
AcDbEntity
  8
Defpoints
 62
     0
440
 16777216
100
AcDbPoint
 10
2665.23229568728
 20
869.6148146755909
 30
0.0
  0
POINT
  5
8AC6
330
8AB1
100
AcDbEntity
  8
Defpoints
 62
     0
440
 16777216
100
AcDbPoint
 10
2665.242485205832
 20
869.6148146755909
 30
0.0
  0
ENDBLK
  5
8AB3
330
8AB1
100
AcDbEntity
  8
0
100
AcDbBlockEnd
  0
BLOCK
  5
8ACA
330
8AC9
100
AcDbEntity
  8
0
100
AcDbBlockBegin
  2
*D14
 70
     1
 10
0.0
 20
0.0
 30
0.0
  3
*D14
  1

  0
LINE
  5
8ACC
330
8AC9
100
AcDbEntity
  8
7.3. Kota
440
 16777216
370
    -2
100
AcDbLine
 10
2664.602408970426
 20
869.7349942782798
 30
0.0
 11
2664.602408970426
 21
869.8822852374192
 31
0.0
  0
LINE
  5
8ACD
330
8AC9
100
AcDbEntity
  8
7.3. Kota
440
 16777216
370
    -2
100
AcDbLine
 10
2665.452408970426
 20
869.73499427828
 30
0.0
 11
2665.452408970426
 21
869.8822852374192
 31
0.0
  0
LINE
  5
8ACE
330
8AC9
100
AcDbEntity
  8
7.3. Kota
440
 16777216
370
    -2
100
AcDbLine
 10
2664.602408970426
 20
869.7822852374192
 30
0.0
 11
2665.452408970426
 21
869.7822852374192
 31
0.0
  0
INSERT
  5
8ACF
330
8AC9
100
AcDbEntity
  8
7.3. Kota
440
 16777216
370
    -2
100
AcDbBlockReference
  2
_ArchTick
 10
2664.602408970426
 20
869.7822852374192
 30
0.0
 41
0.1
 42
0.1
 43
0.1
 50
180.0
  0
INSERT
  5
8AD0
330
8AC9
100
AcDbEntity
  8
7.3. Kota
440
 16777216
370
    -2
100
AcDbBlockReference
  2
_ArchTick
 10
2665.452408970426
 20
869.7822852374192
 30
0.0
 41
0.1
 42
0.1
 43
0.1
  0
MTEXT
  5
8AD1
330
8AC9
100
AcDbEntity
  8
7.3. Kota
440
 16777216
100
AcDbMText
 10
2665.027408970426
 20
869.9088711855775
 30
0.0
 40
0.15
 41
0.0
 46
0.0
 71
     5
 72
     1
  1
0.85
 73
     1
 44
1.0
  0
POINT
  5
8AD2
330
8AC9
100
AcDbEntity
  8
Defpoints
 62
     0
440
 16777216
100
AcDbPoint
 10
2664.602408970426
 20
869.6349942782799
 30
0.0
  0
POINT
  5
8AD3
330
8AC9
100
AcDbEntity
  8
Defpoints
 62
     0
440
 16777216
100
AcDbPoint
 10
2665.452408970426
 20
869.6349942782799
 30
0.0
  0
POINT
  5
8AD4
330
8AC9
100
AcDbEntity
  8
Defpoints
 62
     0
440
 16777216
100
AcDbPoint
 10
2665.452408970426
 20
869.7822852374192
 30
0.0
  0
ENDBLK
  5
8ACB
330
8AC9
100
AcDbEntity
  8
0
100
AcDbBlockEnd
  0
BLOCK
  5
8AD7
330
8AD6
100
AcDbEntity
  8
0
100
AcDbBlockBegin
  2
*D15
 70
     1
 10
0.0
 20
0.0
 30
0.0
  3
*D15
  1

  0
LINE
  5
8AD9
330
8AD6
100
AcDbEntity
  8
7.3. Kota
440
 16777216
370
    -2
100
AcDbLine
 10
2666.655260248397
 20
877.8494585678037
 30
0.0
 11
2666.655260248397
 21
877.6994473389821
 31
0.0
  0
LINE
  5
8ADA
330
8AD6
100
AcDbEntity
  8
7.3. Kota
440
 16777216
370
    -2
100
AcDbLine
 10
2667.505260248398
 20
877.8494585678036
 30
0.0
 11
2667.505260248398
 21
877.6994473389821
 31
0.0
  0
LINE
  5
8ADB
330
8AD6
100
AcDbEntity
  8
7.3. Kota
440
 16777216
370
    -2
100
AcDbLine
 10
2666.655260248397
 20
877.7994473389822
 30
0.0
 11
2667.505260248398
 21
877.7994473389822
 31
0.0
  0
INSERT
  5
8ADC
330
8AD6
100
AcDbEntity
  8
7.3. Kota
440
 16777216
370
    -2
100
AcDbBlockReference
  2
_ArchTick
 10
2666.655260248397
 20
877.7994473389822
 30
0.0
 41
0.1
 42
0.1
 43
0.1
 50
180.0
  0
INSERT
  5
8ADD
330
8AD6
100
AcDbEntity
  8
7.3. Kota
440
 16777216
370
    -2
100
AcDbBlockReference
  2
_ArchTick
 10
2667.505260248398
 20
877.7994473389822
 30
0.0
 41
0.1
 42
0.1
 43
0.1
  0
MTEXT
  5
8ADE
330
8AD6
100
AcDbEntity
  8
7.3. Kota
440
 16777216
100
AcDbMText
 10
2667.080260248397
 20
877.9260332871404
 30
0.0
 40
0.15
 41
0.0
 46
0.0
 71
     5
 72
     1
  1
0.85
 73
     1
 44
1.0
  0
POINT
  5
8ADF
330
8AD6
100
AcDbEntity
  8
Defpoints
 62
     0
440
 16777216
100
AcDbPoint
 10
2666.655260248397
 20
877.9494585678037
 30
0.0
  0
POINT
  5
8AE0
330
8AD6
100
AcDbEntity
  8
Defpoints
 62
     0
440
 16777216
100
AcDbPoint
 10
2667.505260248398
 20
877.9494585678035
 30
0.0
  0
POINT
  5
8AE1
330
8AD6
100
AcDbEntity
  8
Defpoints
 62
     0
440
 16777216
100
AcDbPoint
 10
2667.505260248398
 20
877.7994473389822
 30
0.0
  0
ENDBLK
  5
8AD8
330
8AD6
100
AcDbEntity
  8
0
100
AcDbBlockEnd
  0
BLOCK
  5
8AE4
330
8AE3
100
AcDbEntity
  8
0
100
AcDbBlockBegin
  2
*D16
 70
     1
 10
0.0
 20
0.0
 30
0.0
  3
*D16
  1

  0
LINE
  5
8AF0
330
8AE3
100
AcDbEntity
  8
7.3. Kota
440
 16777216
370
    -2
100
AcDbLine
 10
2662.235260248397
 20
872.9792225158236
 30
0.0
 11
2662.235260248397
 21
872.9998402904078
 31
0.0
  0
LINE
  5
8AF1
330
8AE3
100
AcDbEntity
  8
7.3. Kota
440
 16777216
370
    -2
100
AcDbLine
 10
2663.705260248397
 20
872.9792225158243
 30
0.0
 11
2663.705260248397
 21
872.9998402904078
 31
0.0
  0
LINE
  5
8AF2
330
8AE3
100
AcDbEntity
  8
7.3. Kota
440
 16777216
370
    -2
100
AcDbLine
 10
2662.235260248397
 20
872.8998402904077
 30
0.0
 11
2663.705260248397
 21
872.8998402904077
 31
0.0
  0
INSERT
  5
8AF3
330
8AE3
100
AcDbEntity
  8
7.3. Kota
440
 16777216
370
    -2
100
AcDbBlockReference
  2
_ArchTick
 10
2662.235260248397
 20
872.8998402904077
 30
0.0
 41
0.1
 42
0.1
 43
0.1
 50
180.0
  0
INSERT
  5
8AF4
330
8AE3
100
AcDbEntity
  8
7.3. Kota
440
 16777216
370
    -2
100
AcDbBlockReference
  2
_ArchTick
 10
2663.705260248397
 20
872.8998402904077
 30
0.0
 41
0.1
 42
0.1
 43
0.1
  0
MTEXT
  5
8AF5
330
8AE3
100
AcDbEntity
  8
7.3. Kota
440
 16777216
100
AcDbMText
 10
2662.970260248397
 20
873.0251472481157
 30
0.0
 40
0.15
 41
0.0
 46
0.0
 71
     5
 72
     1
  1
1.47
 73
     1
 44
1.0
  0
POINT
  5
8AF6
330
8AE3
100
AcDbEntity
  8
Defpoints
 62
     0
440
 16777216
100
AcDbPoint
 10
2662.235260248397
 20
872.8792225158237
 30
0.0
  0
POINT
  5
8AF7
330
8AE3
100
AcDbEntity
  8
Defpoints
 62
     0
440
 16777216
100
AcDbPoint
 10
2663.705260248397
 20
872.8792225158242
 30
0.0
  0
POINT
  5
8AF8
330
8AE3
100
AcDbEntity
  8
Defpoints
 62
     0
440
 16777216
100
AcDbPoint
 10
2663.705260248397
 20
872.8998402904077
 30
0.0
  0
ENDBLK
  5
8AE5
330
8AE3
100
AcDbEntity
  8
0
100
AcDbBlockEnd
  0
BLOCK
  5
8AFC
330
8AFB
100
AcDbEntity
  8
0
100
AcDbBlockBegin
  2
*D17
 70
     1
 10
0.0
 20
0.0
 30
0.0
  3
*D17
  1

  0
LINE
  5
8B06
330
8AFB
100
AcDbEntity
  8
7.3. Kota
440
 16777216
370
    -2
100
AcDbLine
 10
2663.377326226438
 20
873.3992225158235
 30
0.0
 11
2663.377326226438
 21
872.3592225158236
 31
0.0
  0
INSERT
  5
8B07
330
8AFB
100
AcDbEntity
  8
7.3. Kota
440
 16777216
370
    -2
100
AcDbBlockReference
  2
_ArchTick
 10
2663.377326226438
 20
873.3992225158235
 30
0.0
 41
0.1
 42
0.1
 43
0.1
 50
90.0
  0
INSERT
  5
8B08
330
8AFB
100
AcDbEntity
  8
7.3. Kota
440
 16777216
370
    -2
100
AcDbBlockReference
  2
_ArchTick
 10
2663.377326226438
 20
872.3592225158236
 30
0.0
 41
0.1
 42
0.1
 43
0.1
 50
270.0
  0
MTEXT
  5
8B09
330
8AFB
100
AcDbEntity
  8
7.3. Kota
440
 16777216
100
AcDbMText
 10
2663.25074027828
 20
872.879222515824
 30
0.0
 40
0.15
 41
0.0
 46
0.0
 71
     5
 72
     1
  1
1.04
 11
0.0000000000000001
 21
1.0
 31
0.0
 73
     1
 44
1.0
  0
POINT
  5
8B0A
330
8AFB
100
AcDbEntity
  8
Defpoints
 62
     0
440
 16777216
100
AcDbPoint
 10
2663.377326226438
 20
873.3992225158235
 30
0.0
  0
POINT
  5
8B0B
330
8AFB
100
AcDbEntity
  8
Defpoints
 62
     0
440
 16777216
100
AcDbPoint
 10
2663.377326226438
 20
872.3592225158236
 30
0.0
  0
POINT
  5
8B0C
330
8AFB
100
AcDbEntity
  8
Defpoints
 62
     0
440
 16777216
100
AcDbPoint
 10
2663.377326226438
 20
872.3592225158236
 30
0.0
  0
ENDBLK
  5
8AFD
330
8AFB
100
AcDbEntity
  8
0
100
AcDbBlockEnd
  0
BLOCK
  5
8B10
330
8B0F
100
AcDbEntity
  8
0
100
AcDbBlockBegin
  2
*D18
 70
     1
 10
0.0
 20
0.0
 30
0.0
  3
*D18
  1

  0
LINE
  5
8B1C
330
8B0F
100
AcDbEntity
  8
7.3. Kota
440
 16777216
370
    -2
100
AcDbLine
 10
2662.389392204478
 20
873.2992225158236
 30
0.0
 11
2662.389392204478
 21
873.2060728923931
 31
0.0
  0
LINE
  5
8B1D
330
8B0F
100
AcDbEntity
  8
7.3. Kota
440
 16777216
370
    -2
100
AcDbLine
 10
2662.989392204479
 20
873.2992225158231
 30
0.0
 11
2662.989392204479
 21
873.2060728923931
 31
0.0
  0
LINE
  5
8B1E
330
8B0F
100
AcDbEntity
  8
7.3. Kota
440
 16777216
370
    -2
100
AcDbLine
 10
2662.389392204478
 20
873.3060728923932
 30
0.0
 11
2662.989392204479
 21
873.3060728923932
 31
0.0
  0
INSERT
  5
8B1F
330
8B0F
100
AcDbEntity
  8
7.3. Kota
440
 16777216
370
    -2
100
AcDbBlockReference
  2
_ArchTick
 10
2662.389392204478
 20
873.3060728923932
 30
0.0
 41
0.1
 42
0.1
 43
0.1
 50
180.0
  0
INSERT
  5
8B20
330
8B0F
100
AcDbEntity
  8
7.3. Kota
440
 16777216
370
    -2
100
AcDbBlockReference
  2
_ArchTick
 10
2662.989392204479
 20
873.3060728923932
 30
0.0
 41
0.1
 42
0.1
 43
0.1
  0
MTEXT
  5
8B21
330
8B0F
100
AcDbEntity
  8
7.3. Kota
440
 16777216
100
AcDbMText
 10
2662.689392204478
 20
873.4326588405513
 30
0.0
 40
0.15
 41
0.0
 46
0.0
 71
     5
 72
     1
  1
0.60
 73
     1
 44
1.0
  0
POINT
  5
8B22
330
8B0F
100
AcDbEntity
  8
Defpoints
 62
     0
440
 16777216
100
AcDbPoint
 10
2662.389392204478
 20
873.3992225158235
 30
0.0
  0
POINT
  5
8B23
330
8B0F
100
AcDbEntity
  8
Defpoints
 62
     0
440
 16777216
100
AcDbPoint
 10
2662.989392204479
 20
873.399222515823
 30
0.0
  0
POINT
  5
8B24
330
8B0F
100
AcDbEntity
  8
Defpoints
 62
     0
440
 16777216
100
AcDbPoint
 10
2662.989392204479
 20
873.3060728923932
 30
0.0
  0
ENDBLK
  5
8B11
330
8B0F
100
AcDbEntity
  8
0
100
AcDbBlockEnd
  0
BLOCK
  5
8B28
330
8B27
100
AcDbEntity
  8
0
100
AcDbBlockBegin
  2
*D19
 70
     1
 10
0.0
 20
0.0
 30
0.0
  3
*D19
  1

  0
LINE
  5
8B34
330
8B27
100
AcDbEntity
  8
7.3. Kota
440
 16777216
370
    -2
100
AcDbLine
 10
2663.660260248397
 20
872.5792225158233
 30
0.0
 11
2663.530397404111
 21
872.5792225158233
 31
0.0
  0
LINE
  5
8B35
330
8B27
100
AcDbEntity
  8
7.3. Kota
440
 16777216
370
    -2
100
AcDbLine
 10
2663.660260248397
 20
873.1792225158237
 30
0.0
 11
2663.530397404111
 21
873.1792225158237
 31
0.0
  0
LINE
  5
8B36
330
8B27
100
AcDbEntity
  8
7.3. Kota
440
 16777216
370
    -2
100
AcDbLine
 10
2663.630397404111
 20
872.5792225158233
 30
0.0
 11
2663.630397404111
 21
873.1792225158237
 31
0.0
  0
INSERT
  5
8B37
330
8B27
100
AcDbEntity
  8
7.3. Kota
440
 16777216
370
    -2
100
AcDbBlockReference
  2
_ArchTick
 10
2663.630397404111
 20
872.5792225158233
 30
0.0
 41
0.1
 42
0.1
 43
0.1
 50
270.0
  0
INSERT
  5
8B38
330
8B27
100
AcDbEntity
  8
7.3. Kota
440
 16777216
370
    -2
100
AcDbBlockReference
  2
_ArchTick
 10
2663.630397404111
 20
873.1792225158237
 30
0.0
 41
0.1
 42
0.1
 43
0.1
 50
90.0
  0
MTEXT
  5
8B39
330
8B27
100
AcDbEntity
  8
7.3. Kota
440
 16777216
100
AcDbMText
 10
2663.503811455953
 20
872.879222515824
 30
0.0
 40
0.15
 41
0.0
 46
0.0
 71
     5
 72
     1
  1
0.60
 11
0.0000000000000001
 21
1.0
 31
0.0
 73
     1
 44
1.0
  0
POINT
  5
8B3A
330
8B27
100
AcDbEntity
  8
Defpoints
 62
     0
440
 16777216
100
AcDbPoint
 10
2663.760260248396
 20
872.5792225158233
 30
0.0
  0
POINT
  5
8B3B
330
8B27
100
AcDbEntity
  8
Defpoints
 62
     0
440
 16777216
100
AcDbPoint
 10
2663.760260248396
 20
873.1792225158237
 30
0.0
  0
POINT
  5
8B3C
330
8B27
100
AcDbEntity
  8
Defpoints
 62
     0
440
 16777216
100
AcDbPoint
 10
2663.630397404111
 20
873.1792225158237
 30
0.0
  0
ENDBLK
  5
8B29
330
8B27
100
AcDbEntity
  8
0
100
AcDbBlockEnd
  0
BLOCK
  5
8B7B
330
8B7A
100
AcDbEntity
  8
0
100
AcDbBlockBegin
  2
*D20
 70
     1
 10
0.0
 20
0.0
 30
0.0
  3
*D20
  1

  0
LINE
  5
8B8F
330
8B7A
100
AcDbEntity
  8
7.3. Kota
440
 16777216
370
    -2
100
AcDbLine
 10
2668.126508276137
 20
878.0192225158243
 30
0.0
 11
2668.291532361353
 21
878.0192225158243
 31
0.0
  0
LINE
  5
8B90
330
8B7A
100
AcDbEntity
  8
7.3. Kota
440
 16777216
370
    -2
100
AcDbLine
 10
2668.12650827614
 20
869.5492225158243
 30
0.0
 11
2668.291532361353
 21
869.5492225158243
 31
0.0
  0
LINE
  5
8B91
330
8B7A
100
AcDbEntity
  8
7.3. Kota
440
 16777216
370
    -2
100
AcDbLine
 10
2668.191532361353
 20
878.0192225158243
 30
0.0
 11
2668.191532361353
 21
869.5492225158243
 31
0.0
  0
INSERT
  5
8B92
330
8B7A
100
AcDbEntity
  8
7.3. Kota
440
 16777216
370
    -2
100
AcDbBlockReference
  2
_ArchTick
 10
2668.191532361353
 20
878.0192225158243
 30
0.0
 41
0.1
 42
0.1
 43
0.1
 50
90.0
  0
INSERT
  5
8B93
330
8B7A
100
AcDbEntity
  8
7.3. Kota
440
 16777216
370
    -2
100
AcDbBlockReference
  2
_ArchTick
 10
2668.191532361353
 20
869.5492225158243
 30
0.0
 41
0.1
 42
0.1
 43
0.1
 50
270.0
  0
MTEXT
  5
8B94
330
8B7A
100
AcDbEntity
  8
7.3. Kota
440
 16777216
100
AcDbMText
 10
2668.064946413195
 20
873.7842225158242
 30
0.0
 40
0.15
 41
0.0
 46
0.0
 71
     5
 72
     1
  1
8.47
 11
0.0000000000000001
 21
1.0
 31
0.0
 73
     1
 44
1.0
  0
POINT
  5
8B95
330
8B7A
100
AcDbEntity
  8
Defpoints
 62
     0
440
 16777216
100
AcDbPoint
 10
2668.026508276137
 20
878.0192225158243
 30
0.0
  0
POINT
  5
8B96
330
8B7A
100
AcDbEntity
  8
Defpoints
 62
     0
440
 16777216
100
AcDbPoint
 10
2668.02650827614
 20
869.5492225158243
 30
0.0
  0
POINT
  5
8B97
330
8B7A
100
AcDbEntity
  8
Defpoints
 62
     0
440
 16777216
100
AcDbPoint
 10
2668.191532361353
 20
869.5492225158243
 30
0.0
  0
ENDBLK
  5
8B7C
330
8B7A
100
AcDbEntity
  8
0
100
AcDbBlockEnd
  0
BLOCK
  5
8B9A
330
8B99
100
AcDbEntity
  8
0
100
AcDbBlockBegin
  2
*D21
 70
     1
 10
0.0
 20
0.0
 30
0.0
  3
*D21
  1

  0
LINE
  5
8BA6
330
8B99
100
AcDbEntity
  8
7.3. Kota
440
 16777216
370
    -2
100
AcDbLine
 10
2662.022260248398
 20
869.4492225158244
 30
0.0
 11
2662.022260248398
 21
869.0418397517191
 31
0.0
  0
LINE
  5
8BA7
330
8B99
100
AcDbEntity
  8
7.3. Kota
440
 16777216
370
    -2
100
AcDbLine
 10
2666.682408970426
 20
869.4492225158242
 30
0.0
 11
2666.682408970426
 21
869.0418397517191
 31
0.0
  0
LINE
  5
8BA8
330
8B99
100
AcDbEntity
  8
7.3. Kota
440
 16777216
370
    -2
100
AcDbLine
 10
2662.022260248398
 20
869.1418397517193
 30
0.0
 11
2666.682408970426
 21
869.1418397517193
 31
0.0
  0
INSERT
  5
8BA9
330
8B99
100
AcDbEntity
  8
7.3. Kota
440
 16777216
370
    -2
100
AcDbBlockReference
  2
_ArchTick
 10
2662.022260248398
 20
869.1418397517193
 30
0.0
 41
0.1
 42
0.1
 43
0.1
 50
180.0
  0
INSERT
  5
8BAA
330
8B99
100
AcDbEntity
  8
7.3. Kota
440
 16777216
370
    -2
100
AcDbBlockReference
  2
_ArchTick
 10
2666.682408970426
 20
869.1418397517193
 30
0.0
 41
0.1
 42
0.1
 43
0.1
  0
MTEXT
  5
8BAB
330
8B99
100
AcDbEntity
  8
7.3. Kota
440
 16777216
100
AcDbMText
 10
2664.352334609412
 20
869.2684256998774
 30
0.0
 40
0.15
 41
0.0
 46
0.0
 71
     5
 72
     1
  1
4.66
 73
     1
 44
1.0
  0
POINT
  5
8BAC
330
8B99
100
AcDbEntity
  8
Defpoints
 62
     0
440
 16777216
100
AcDbPoint
 10
2662.022260248398
 20
869.5492225158245
 30
0.0
  0
POINT
  5
8BAD
330
8B99
100
AcDbEntity
  8
Defpoints
 62
     0
440
 16777216
100
AcDbPoint
 10
2666.682408970426
 20
869.5492225158243
 30
0.0
  0
POINT
  5
8BAE
330
8B99
100
AcDbEntity
  8
Defpoints
 62
     0
440
 16777216
100
AcDbPoint
 10
2666.682408970426
 20
869.1418397517193
 30
0.0
  0
ENDBLK
  5
8B9B
330
8B99
100
AcDbEntity
  8
0
100
AcDbBlockEnd
  0
BLOCK
  5
8BB2
330
8BB1
100
AcDbEntity
  8
0
100
AcDbBlockBegin
  2
*D22
 70
     1
 10
0.0
 20
0.0
 30
0.0
  3
*D22
  1

  0
LINE
  5
8BB4
330
8BB1
100
AcDbEntity
  8
7.3. Kota
440
 16777216
370
    -2
100
AcDbLine
 10
2662.022260248396
 20
869.0418397517191
 30
0.0
 11
2662.022260248396
 21
868.6436094002555
 31
0.0
  0
LINE
  5
8BB5
330
8BB1
100
AcDbEntity
  8
7.3. Kota
440
 16777216
370
    -2
100
AcDbLine
 10
2667.765260248398
 20
869.0418397517193
 30
0.0
 11
2667.765260248398
 21
868.6436094002555
 31
0.0
  0
LINE
  5
8BB6
330
8BB1
100
AcDbEntity
  8
7.3. Kota
440
 16777216
370
    -2
100
AcDbLine
 10
2662.022260248396
 20
868.7436094002555
 30
0.0
 11
2667.765260248398
 21
868.7436094002555
 31
0.0
  0
INSERT
  5
8BB7
330
8BB1
100
AcDbEntity
  8
7.3. Kota
440
 16777216
370
    -2
100
AcDbBlockReference
  2
_ArchTick
 10
2662.022260248396
 20
868.7436094002555
 30
0.0
 41
0.1
 42
0.1
 43
0.1
 50
180.0
  0
INSERT
  5
8BB8
330
8BB1
100
AcDbEntity
  8
7.3. Kota
440
 16777216
370
    -2
100
AcDbBlockReference
  2
_ArchTick
 10
2667.765260248398
 20
868.7436094002555
 30
0.0
 41
0.1
 42
0.1
 43
0.1
  0
MTEXT
  5
8BB9
330
8BB1
100
AcDbEntity
  8
7.3. Kota
440
 16777216
100
AcDbMText
 10
2664.893760248397
 20
868.8698883907058
 30
0.0
 40
0.15
 41
0.0
 46
0.0
 71
     5
 72
     1
  1
5.74
 73
     1
 44
1.0
  0
POINT
  5
8BBA
330
8BB1
100
AcDbEntity
  8
Defpoints
 62
     0
440
 16777216
100
AcDbPoint
 10
2662.022260248396
 20
869.1418397517193
 30
0.0
  0
POINT
  5
8BBB
330
8BB1
100
AcDbEntity
  8
Defpoints
 62
     0
440
 16777216
100
AcDbPoint
 10
2667.765260248398
 20
869.1418397517193
 30
0.0
  0
POINT
  5
8BBC
330
8BB1
100
AcDbEntity
  8
Defpoints
 62
     0
440
 16777216
100
AcDbPoint
 10
2667.765260248398
 20
868.7436094002555
 30
0.0
  0
ENDBLK
  5
8BB3
330
8BB1
100
AcDbEntity
  8
0
100
AcDbBlockEnd
  0
BLOCK
  5
9172
330
916E
100
AcDbEntity
  8
0
100
AcDbBlockBegin
  2
A$C56C501B1
 70
     0
 10
0.0
 20
0.0
 30
0.0
  3
A$C56C501B1
  1

  0
LWPOLYLINE
  5
916F
330
916E
100
AcDbEntity
  8
Basea_Eraikuntza
100
AcDbPolyline
 90
       54
 70
     1
 43
0.3
 10
6.693319272482767
 20
50.11846068780869
 10
19.8933192724362
 20
46.78846068959683
 10
21.97331927239429
 20
34.64846068900079
 10
22.35331927239895
 20
31.50846068933606
 10
22.57331927248742
 20
26.47846068814397
 10
22.75331927242223
 20
20.47846068907529
 10
23.19331927248277
 20
12.42846068926155
 10
22.75331927242223
 20
7.178460689261555
 10
22.08331927249674
 20
-0.4715393111109734
 10
21.01331927243155
 20
-9.161539310589432
 10
20.04331927245948
 20
-17.21153931040317
 10
18.25331927242223
 20
-22.17153931036591
 10
17.46331927250139
 20
-24.36153931170702
 10
16.87331927241757
 20
-24.1115393107757
 10
14.74331927241292
 20
-23.21153931040317
 10
13.88331927242689
 20
-22.85153931099921
 10
3.393319272436201
 20
-18.29153930954635
 10
0.5633192724781111
 20
-17.20153931248933
 10
0.7133192725013942
 20
-16.85153931193054
 10
3.853319272398948
 20
-9.65153931081295
 10
5.873319272417575
 20
-5.011539311148226
 10
11.10331927239895
 20
-7.39153931196779
 10
11.70331927249208
 20
-1.881539311259984
 10
8.743319272412918
 20
-1.471539311110973
 10
9.033319272566586
 20
3.528460688889026
 10
4.803319272468797
 20
5.618460687808692
 10
8.543319272459484
 20
11.41846068948507
 10
9.333319272496737
 20
11.45846068952232
 10
12.88331927231047
 20
11.62846068944782
 10
14.21331927250139
 20
22.44846068881452
 10
11.32331927248742
 20
23.11846068780869
 10
12.61331927240826
 20
28.59846068918705
 10
11.94331927248277
 20
28.74846068955958
 10
10.8033192724688
 20
23.3884606892243
 10
2.883319272426888
 20
26.08846068941057
 10
2.123319272417575
 20
24.41846068948507
 10
2.113319272408261
 20
24.39846068900079
 10
2.673319272464141
 20
23.41846068948507
 10
-2.096680727554485
 20
13.02846068888902
 10
0.2833192724501714
 20
11.94846068881452
 10
3.913319272454828
 20
10.28846068959683
 10
5.083319272496737
 20
9.758460689336061
 10
1.673319272464141
 20
2.368460687808692
 10
3.663319272454828
 20
1.488460687920451
 10
2.393319272436201
 20
-1.381539311259984
 10
-3.696680727531202
 20
-15.18153931107372
 10
-20.20668072754052
 20
-7.951539310626685
 10
-14.04668072750792
 20
5.958460690453648
 10
-13.16668072750326
 20
7.738460688851773
 10
-9.326680727419443
 20
16.2784606879577
 10
-4.346680727554485
 20
27.2784606879577
 10
-3.886680727591738
 20
28.29846068937332
 10
-0.9766807275591418
 20
34.18846068903804
 10
1.40331927256193
 20
39.00846068933606
1001
ACAD
1000
RTMaterial
1005
EC
1000
RTMaterial
1005
0
1001
IRD
1002
{
1000
TPMLINK_EDIFICIO-_-ade
1070
   515
1071
        1
1004
0100472000004706000047060000000000000CF3650C96F673400CF3650C96F6734000000000D31A0000
1002
}
  0
ENDBLK
  5
9173
330
916E
100
AcDbEntity
  8
0
100
AcDbBlockEnd
  0
ENDSEC
  0
SECTION
  2
ENTITIES
  0
MTEXT
  5
145A
330
1F
100
AcDbEntity
  8
0
100
AcDbMText
 10
2660.43748622338
 20
899.7150397102242
 30
0.0
 40
3.0
 41
942.7166960848172
 46
0.0
 71
     1
 72
     5
  1
16. Lokala
 73
     1
 44
1.0
1001
ACAD
1000
ACAD_MTEXT_COLUMN_INFO_BEGIN
1070
    75
1070
     2
1070
    79
1070
     0
1070
    76
1070
     1
1070
    78
1070
     0
1070
    48
1040
942.7166960848172
1070
    49
1040
12.5
1070
    50
1070
     1
1040
0.0
1000
ACAD_MTEXT_COLUMN_INFO_END
  0
LWPOLYLINE
  5
145B
330
1F
100
AcDbEntity
  8
0
 62
     1
100
AcDbPolyline
 90
        4
 70
     1
 43
0.0
 10
2647.157438279973
 20
914.832605090417
 10
2694.537048320019
 20
914.832605090417
 10
2694.537048320019
 20
847.9093292968554
 10
2647.157438279973
 20
847.9093292968554
  0
LINE
  5
2184
102
{ACAD_REACTORS
330
8918
102
}
330
1F
100
AcDbEntity
  8
2.1. Kanpo Horma
100
AcDbLine
 10
2667.765260248398
 20
877.8692225158243
 30
0.0
 11
2667.765260248398
 21
878.0192225158243
 31
0.0
  0
LWPOLYLINE
  5
2699
330
1F
100
AcDbEntity
  8
0
100
AcDbPolyline
 90
        4
 70
     1
 43
0.0
 10
2646.620761224733
 20
914.5356050904169
 10
2646.620761224733
 20
914.832605090417
 10
2646.410761224734
 20
914.832605090417
 10
2646.410761224734
 20
914.5356050904169
  0
MTEXT
  5
269A
330
1F
100
AcDbEntity
  8
1.4. Idatzia
100
AcDbMText
 10
2646.551669009977
 20
914.5548479839774
 30
0.0
 40
0.0018
 41
0.0172399289914779
 46
0.0
 71
     1
 72
     5
  1
{\fCalibri Light|b1|i0|c0|p34;E:\fCalibri Light|b0|i0|c0|p34; 1/100}
 73
     1
 44
1.0
  0
MTEXT
  5
269B
330
1F
100
AcDbEntity
  8
1.4. Idatzia
100
AcDbMText
 10
2646.44647825456
 20
914.5577723873371
 30
0.0
 40
0.0025
 41
0.1852149973614974
 46
0.0
 71
     1
 72
     5
  1
{\fCalibri Light|b1|i0|c0|p34;Katastro zk.\fCalibri Light|b0|i0|c0|p34;: 7791176}
 73
     1
 44
1.0
  0
MTEXT
  5
269C
330
1F
100
AcDbEntity
  8
1.4. Idatzia
100
AcDbMText
 10
2646.446477135776
 20
914.5656113842887
 30
0.0
 40
0.0025
 41
0.1852149973614974
 46
0.0
 71
     1
 72
     5
  1
{\fCalibri Light|b1|i0|c0|p34;Kokapena\fCalibri Light|b0|i0|c0|p34;: NAGUSI KALEA, 10, EZK-1. 20170 USURBIL}
 73
     1
 44
1.0
  0
HATCH
  5
269D
330
1F
100
AcDbEntity
  8
1.3. Eskala grafikoa
100
AcDbHatch
 10
0.0
 20
0.0
 30
0.0
210
0.0
220
0.0
230
1.0
  2
SOLID
 70
     1
 71
     0
 91
        1
 92
        5
 93
        4
 72
     1
 10
2646.556631959072
 20
914.549786849848
 11
2646.556631959072
 21
914.5493130727722
 72
     1
 10
2646.556631959072
 20
914.5493130727722
 11
2646.561631959072
 21
914.5493130727722
 72
     1
 10
2646.561631959072
 20
914.5493130727722
 11
2646.561631959072
 21
914.549786849848
 72
     1
 10
2646.561631959072
 20
914.549786849848
 11
2646.556631959072
 21
914.549786849848
 97
        0
 75
     1
 76
     1
 47
0.0000355507141102
 98
        1
 10
2646.559131959072
 20
914.5495499613101
450
        0
451
        0
460
0.0
461
0.0
452
        0
462
1.0
453
        2
463
0.0
 63
     5
421
      255
463
1.0
 63
     2
421
 16776960
470
LINEAR
1001
GradientColor1ACI
1070
     5
1001
GradientColor2ACI
1070
     2
1001
ACAD
1010
0.0
1020
0.0
1030
0.0
  0
HATCH
  5
269E
330
1F
100
AcDbEntity
  8
1.3. Eskala grafikoa
100
AcDbHatch
 10
0.0
 20
0.0
 30
0.0
210
0.0
220
0.0
230
1.0
  2
SOLID
 70
     1
 71
     0
 91
        1
 92
        7
 72
     0
 73
     1
 93
        4
 10
2646.581631959072
 20
914.549786849848
 10
2646.571631959073
 20
914.549786849848
 10
2646.571631959072
 20
914.5493130727723
 10
2646.581631959072
 20
914.5493130727723
 97
        0
 75
     1
 76
     1
 47
0.0000355507141102
 98
        1
 10
2646.577802979353
 20
914.5494602178793
450
        0
451
        0
460
0.0
461
0.0
452
        0
462
1.0
453
        2
463
0.0
 63
     5
421
      255
463
1.0
 63
     2
421
 16776960
470
LINEAR
1001
GradientColor1ACI
1070
     5
1001
GradientColor2ACI
1070
     2
1001
ACAD
1010
0.0
1020
0.0
1030
0.0
  0
LINE
  5
269F
330
1F
100
AcDbEntity
  8
1.3. Eskala grafikoa
 48
0.01
100
AcDbLine
 10
2646.551631959072
 20
914.5488392956961
 30
0.0
 11
2646.591631959073
 21
914.5488392956961
 31
0.0
  0
LINE
  5
26A0
330
1F
100
AcDbEntity
  8
1.3. Eskala grafikoa
 48
0.01
100
AcDbLine
 10
2646.551631959072
 20
914.549786849848
 30
0.0
 11
2646.551631959072
 21
914.5488392956961
 31
0.0
  0
HATCH
  5
26A1
330
1F
100
AcDbEntity
  8
1.3. Eskala grafikoa
100
AcDbHatch
 10
0.0
 20
0.0
 30
0.0
210
0.0
220
0.0
230
1.0
  2
SOLID
 70
     1
 71
     0
 91
        1
 92
        7
 72
     0
 73
     1
 93
        4
 10
2646.571631959072
 20
914.5493130727722
 10
2646.561631959072
 20
914.5493130727722
 10
2646.561631959072
 20
914.5488392956961
 10
2646.571631959071
 20
914.5488392956961
 97
        0
 75
     1
 76
     1
 47
0.0000355507141102
 98
        1
 10
2646.566019838338
 20
914.5490098999347
450
        0
451
        0
460
0.0
461
0.0
452
        0
462
1.0
453
        2
463
0.0
 63
     5
421
      255
463
1.0
 63
     2
421
 16776960
470
LINEAR
1001
GradientColor1ACI
1070
     5
1001
GradientColor2ACI
1070
     2
1001
ACAD
1010
0.0
1020
0.0
1030
0.0
  0
LINE
  5
26A2
330
1F
100
AcDbEntity
  8
1.3. Eskala grafikoa
 48
0.01
100
AcDbLine
 10
2646.561631959072
 20
914.549786849848
 30
0.0
 11
2646.561631959072
 21
914.5488392956961
 31
0.0
  0
LINE
  5
26A3
330
1F
100
AcDbEntity
  8
1.3. Eskala grafikoa
 48
0.01
100
AcDbLine
 10
2646.571631959073
 20
914.549786849848
 30
0.0
 11
2646.571631959072
 21
914.5488392956961
 31
0.0
  0
HATCH
  5
26A4
330
1F
100
AcDbEntity
  8
1.3. Eskala grafikoa
100
AcDbHatch
 10
0.0
 20
0.0
 30
0.0
210
0.0
220
0.0
230
1.0
  2
SOLID
 70
     1
 71
     0
 91
        1
 92
        7
 72
     0
 73
     1
 93
        4
 10
2646.591631959072
 20
914.5493130727723
 10
2646.581631959072
 20
914.5493130727723
 10
2646.581631959072
 20
914.5488392956961
 10
2646.591631959072
 20
914.5488392956961
 97
        0
 75
     1
 76
     1
 47
0.0000355507141102
 98
        1
 10
2646.588403252795
 20
914.549153003724
450
        0
451
        0
460
0.0
461
0.0
452
        0
462
1.0
453
        2
463
0.0
 63
     5
421
      255
463
1.0
 63
     2
421
 16776960
470
LINEAR
1001
GradientColor1ACI
1070
     5
1001
GradientColor2ACI
1070
     2
1001
ACAD
1010
0.0
1020
0.0
1030
0.0
  0
LINE
  5
26A5
330
1F
100
AcDbEntity
  8
1.3. Eskala grafikoa
 48
0.01
100
AcDbLine
 10
2646.581631959072
 20
914.549786849848
 30
0.0
 11
2646.581631959072
 21
914.5488392956961
 31
0.0
  0
LINE
  5
26A6
330
1F
100
AcDbEntity
  8
1.3. Eskala grafikoa
 48
0.01
100
AcDbLine
 10
2646.591631959072
 20
914.549786849848
 30
0.0
 11
2646.591631959072
 21
914.5488392956961
 31
0.0
  0
MTEXT
  5
26A7
330
1F
100
AcDbEntity
  8
1.3. Eskala grafikoa
100
AcDbMText
 10
2646.551434613626
 20
914.548463318191
 30
0.0
 40
0.001
 41
0.0010406224438389
 46
0.0
 71
     1
 72
     5
  1
{\fCalibri Light|b0|i0|c0|p34;0}
 73
     1
 44
1.0
  0
MTEXT
  5
26A8
330
1F
100
AcDbEntity
  8
1.4. Idatzia
100
AcDbMText
 10
2646.508423641444
 20
914.549710804466
 30
0.0
 40
0.0025
 41
0.0273770814300611
 46
0.0
 71
     1
 72
     5
  1
{\fCalibri Light|b0|i0|c0|p34;Martxoak 2019}
 73
     1
 44
1.0
  0
MTEXT
  5
26A9
330
1F
100
AcDbEntity
  8
1.4. Idatzia
100
AcDbMText
 10
2646.553043963228
 20
914.563557252487
 30
0.0
 40
0.0025
 41
0.0373092422454125
 46
0.0
 71
     1
 72
     5
  1
{\fCalibri Light|b1|i0|c0|p34;Planoa:\fCalibri Light|b0|i0|c0|p34; BEHE OINA}
 73
     1
 44
1.0
  0
MTEXT
  5
26AA
330
1F
100
AcDbEntity
  8
1.4. Idatzia
100
AcDbMText
 10
2646.446673031095
 20
914.5760936150081
 30
0.0
 40
0.004
 41
0.1447549525279904
 46
0.0
 71
     1
 72
     5
  1
{\fLucida Sans Unicode|b1|i0|c0|p34;MERKATARITZA LOKAL HUTSAK}
 73
     1
 44
1.0
  0
LINE
  5
26AB
330
1F
100
AcDbEntity
  8
1.6. Marra2
100
AcDbLine
 10
2646.421405561557
 20
914.5517199274886
 30
0.0
 11
2646.421405561557
 21
914.5461376158506
 31
0.0
  0
IMAGE
  5
26AC
330
1F
100
AcDbEntity
  8
1.1. Armarria
 62
     7
420
 16777215
160
               140
310
8C00000001000000840000000600000005000000242B2D11D8ACA440604607D06C948C400000000000000000242B2D11D8ACA44014CE99DC9F948C400000000000000000327466F4E2ACA44014CE99DC9F948C400000000000000000327466F4E2ACA440604607D06C948C400000000000000000242B2D11D8ACA440604607
310
D06C948C400000000000000000
100
AcDbRasterImage
 90
        0
 10
2646.422006045834
 20
914.5531311577178
 30
0.0
 11
0.0001408266873892
 21
0.0
 31
0.0
 12
0.0
 22
0.0001408266873892
 32
0.0
 13
151.0
 23
177.0
340
2E2
 70
     7
280
     0
281
    50
282
    50
283
     0
290
     0
360
26AD
 71
     1
 91
        2
 14
-0.5
 24
-0.5
 14
150.5
 24
176.5
  0
LINE
  5
26AE
330
1F
100
AcDbEntity
  8
1.6. Marra2
100
AcDbLine
 10
2646.541617225554
 20
914.5461376158506
 30
0.0
 11
2646.541617225554
 21
914.5517199274886
 31
0.0
  0
MTEXT
  5
26AF
330
1F
100
AcDbEntity
  8
1.4. Idatzia
100
AcDbMText
 10
2646.44644236784
 20
914.5502490211548
 30
0.0
 40
0.0025
 41
0.0410971974865084
 46
0.0
 71
     1
 72
     5
  1
{\fCalibri Light|b1|i0|c0|p34;Eraikuntza urtea\fCalibri Light|b0|i0|c0|p34;: 1976}
 73
     1
 44
1.0
  0
LWPOLYLINE
  5
26B0
330
1F
100
AcDbEntity
  8
1.5. Marra1
100
AcDbPolyline
 90
        2
 70
     0
 43
0.0004
 10
2646.444622692019
 20
914.5702566356071
 10
2646.53938160145
 20
914.5702566356035
  0
LWPOLYLINE
  5
26B1
330
1F
100
AcDbEntity
  8
1.5. Marra1
100
AcDbPolyline
 90
        3
 70
     0
 43
0.0003531510107016
 10
2646.551631959072
 20
914.5630521333581
 10
2646.551631959072
 20
914.5599326728751
 10
2646.591631959073
 20
914.5599326728751
  0
LWPOLYLINE
  5
26B2
330
1F
100
AcDbEntity
  8
1.5. Marra1
100
AcDbPolyline
 90
        3
 70
     0
 43
0.0003531510107016
 10
2646.551631959072
 20
914.5671371751239
 10
2646.551631959072
 20
914.5702566356071
 10
2646.591631959073
 20
914.5702566356071
  0
LWPOLYLINE
  5
26B3
330
1F
100
AcDbEntity
  8
1.6. Marra2
100
AcDbPolyline
 90
        2
 70
     0
 43
0.0002683175052431
 10
2646.54472886932
 20
914.545605090417
 10
2646.54472886932
 20
914.5702566356053
  0
LWPOLYLINE
  5
26B4
330
1F
100
AcDbEntity
  8
1.6. Marra2
100
AcDbPolyline
 90
        2
 70
     0
 43
0.0002683175052431
 10
2646.543173047437
 20
914.545605090417
 10
2646.543173047437
 20
914.5702566356053
  0
LWPOLYLINE
  5
26B5
330
1F
100
AcDbEntity
  8
1.6. Marra2
100
AcDbPolyline
 90
        2
 70
     0
 43
0.0002683175052431
 10
2646.543994991073
 20
914.545605090417
 10
2646.543994991073
 20
914.5702566356053
  0
LWPOLYLINE
  5
26B6
330
1F
100
AcDbEntity
  8
1.6. Marra2
100
AcDbPolyline
 90
        2
 70
     0
 43
0.0002683175052431
 10
2646.541617225555
 20
914.545605090417
 10
2646.541617225555
 20
914.5702566356053
  0
LWPOLYLINE
  5
26B7
330
1F
100
AcDbEntity
  8
1.6. Marra2
100
AcDbPolyline
 90
        2
 70
     0
 43
0.0002683175052431
 10
2646.54243916919
 20
914.545605090417
 10
2646.54243916919
 20
914.5702566356053
  0
LWPOLYLINE
  5
26B8
330
1F
100
AcDbEntity
  8
1.6. Marra2
100
AcDbPolyline
 90
        2
 70
     0
 43
0.0002683175052431
 10
2646.547840513085
 20
914.545605090417
 10
2646.547840513085
 20
914.5702566356053
  0
LWPOLYLINE
  5
26B9
330
1F
100
AcDbEntity
  8
1.6. Marra2
100
AcDbPolyline
 90
        2
 70
     0
 43
0.0002683175052431
 10
2646.546284691202
 20
914.545605090417
 10
2646.546284691202
 20
914.5702566356053
  0
LWPOLYLINE
  5
26BA
330
1F
100
AcDbEntity
  8
1.6. Marra2
100
AcDbPolyline
 90
        2
 70
     0
 43
0.0002683175052431
 10
2646.547106634838
 20
914.545605090417
 10
2646.547106634838
 20
914.5702566356053
  0
LWPOLYLINE
  5
26BB
330
1F
100
AcDbEntity
  8
1.6. Marra2
100
AcDbPolyline
 90
        2
 70
     0
 43
0.0002683175052431
 10
2646.545550812956
 20
914.545605090417
 10
2646.545550812956
 20
914.5702566356053
  0
LWPOLYLINE
  5
26BC
330
1F
100
AcDbEntity
  8
1.6. Marra2
100
AcDbPolyline
 90
        2
 70
     0
 43
0.0002683175052431
 10
2646.549396334967
 20
914.545605090417
 10
2646.549396334967
 20
914.5702566356053
  0
LWPOLYLINE
  5
26BD
330
1F
100
AcDbEntity
  8
1.6. Marra2
100
AcDbPolyline
 90
        2
 70
     0
 43
0.0002683175052431
 10
2646.54866245672
 20
914.545605090417
 10
2646.54866245672
 20
914.5702566356053
  0
LINE
  5
26BE
330
1F
100
AcDbEntity
  8
1.6. Marra2
100
AcDbLine
 10
2646.539239460035
 20
914.5461376158506
 30
0.0
 11
2646.539239460035
 21
914.5517199274886
 31
0.0
  0
LWPOLYLINE
  5
26BF
330
1F
100
AcDbEntity
  8
1.6. Marra2
100
AcDbPolyline
 90
        2
 70
     0
 43
0.0002683175052431
 10
2646.540795281918
 20
914.545605090417
 10
2646.540795281918
 20
914.5517199274886
  0
LWPOLYLINE
  5
26C0
330
1F
100
AcDbEntity
  8
1.6. Marra2
100
AcDbPolyline
 90
        2
 70
     0
 43
0.0002683175052431
 10
2646.539239460036
 20
914.545605090417
 10
2646.539239460036
 20
914.5517199274886
  0
LWPOLYLINE
  5
26C1
330
1F
100
AcDbEntity
  8
1.6. Marra2
100
AcDbPolyline
 90
        2
 70
     0
 43
0.0002683175052431
 10
2646.540061403672
 20
914.545605090417
 10
2646.540061403672
 20
914.5517199274886
  0
LINE
  5
26C2
330
1F
100
AcDbEntity
  8
1.6. Marra2
100
AcDbLine
 10
2646.536861694517
 20
914.5461376158506
 30
0.0
 11
2646.536861694517
 21
914.5517199274886
 31
0.0
  0
LWPOLYLINE
  5
26C3
330
1F
100
AcDbEntity
  8
1.6. Marra2
100
AcDbPolyline
 90
        2
 70
     0
 43
0.0002683175052431
 10
2646.5384175164
 20
914.545605090417
 10
2646.5384175164
 20
914.5517199274886
  0
LWPOLYLINE
  5
26C4
330
1F
100
AcDbEntity
  8
1.6. Marra2
100
AcDbPolyline
 90
        2
 70
     0
 43
0.0002683175052431
 10
2646.536861694517
 20
914.545605090417
 10
2646.536861694517
 20
914.5517199274886
  0
LWPOLYLINE
  5
26C5
330
1F
100
AcDbEntity
  8
1.6. Marra2
100
AcDbPolyline
 90
        2
 70
     0
 43
0.0002683175052431
 10
2646.537683638153
 20
914.545605090417
 10
2646.537683638153
 20
914.5517199274886
  0
LINE
  5
26C6
330
1F
100
AcDbEntity
  8
1.6. Marra2
100
AcDbLine
 10
2646.423783327076
 20
914.5461376158506
 30
0.0
 11
2646.423783327076
 21
914.5517199274886
 31
0.0
  0
LWPOLYLINE
  5
26C7
330
1F
100
AcDbEntity
  8
1.6. Marra2
100
AcDbPolyline
 90
        2
 70
     0
 43
0.0002683175052431
 10
2646.425339148958
 20
914.545605090417
 10
2646.425339148958
 20
914.5517199274886
  0
LWPOLYLINE
  5
26C8
330
1F
100
AcDbEntity
  8
1.6. Marra2
100
AcDbPolyline
 90
        2
 70
     0
 43
0.0002683175052431
 10
2646.423783327076
 20
914.545605090417
 10
2646.423783327076
 20
914.5517199274886
  0
LWPOLYLINE
  5
26C9
330
1F
100
AcDbEntity
  8
1.6. Marra2
100
AcDbPolyline
 90
        2
 70
     0
 43
0.0002683175052431
 10
2646.424605270712
 20
914.545605090417
 10
2646.424605270712
 20
914.5517199274886
  0
LWPOLYLINE
  5
26CA
330
1F
100
AcDbEntity
  8
1.6. Marra2
100
AcDbPolyline
 90
        2
 70
     0
 43
0.0002683175052431
 10
2646.42296138344
 20
914.545605090417
 10
2646.42296138344
 20
914.5517199274886
  0
LWPOLYLINE
  5
26CB
330
1F
100
AcDbEntity
  8
1.6. Marra2
100
AcDbPolyline
 90
        2
 70
     0
 43
0.0002683175052431
 10
2646.422227505193
 20
914.545605090417
 10
2646.422227505193
 20
914.5517199274886
  0
LWPOLYLINE
  5
26CC
330
1F
100
AcDbEntity
  8
1.6. Marra2
100
AcDbPolyline
 90
        2
 70
     0
 43
0.0002683175052431
 10
2646.421493626947
 20
914.545605090417
 10
2646.421493626947
 20
914.5517199274886
  0
LINE
  5
26CD
330
1F
100
AcDbEntity
  8
1.6. Marra2
100
AcDbLine
 10
2646.427628849087
 20
914.5461376158506
 30
0.0
 11
2646.427628849087
 21
914.5517199274886
 31
0.0
  0
LWPOLYLINE
  5
26CE
330
1F
100
AcDbEntity
  8
1.6. Marra2
100
AcDbPolyline
 90
        2
 70
     0
 43
0.0002683175052431
 10
2646.42918467097
 20
914.545605090417
 10
2646.42918467097
 20
914.5517199274886
  0
LWPOLYLINE
  5
26CF
330
1F
100
AcDbEntity
  8
1.6. Marra2
100
AcDbPolyline
 90
        2
 70
     0
 43
0.0002683175052431
 10
2646.427628849088
 20
914.545605090417
 10
2646.427628849088
 20
914.5517199274886
  0
LWPOLYLINE
  5
26D0
330
1F
100
AcDbEntity
  8
1.6. Marra2
100
AcDbPolyline
 90
        2
 70
     0
 43
0.0002683175052431
 10
2646.428450792724
 20
914.545605090417
 10
2646.428450792724
 20
914.5517199274886
  0
LWPOLYLINE
  5
26D1
330
1F
100
AcDbEntity
  8
1.6. Marra2
100
AcDbPolyline
 90
        2
 70
     0
 43
0.0002683175052431
 10
2646.426806905452
 20
914.545605090417
 10
2646.426806905452
 20
914.5517199274886
  0
LWPOLYLINE
  5
26D2
330
1F
100
AcDbEntity
  8
1.6. Marra2
100
AcDbPolyline
 90
        2
 70
     0
 43
0.0002683175052431
 10
2646.426073027205
 20
914.545605090417
 10
2646.426073027205
 20
914.5517199274886
  0
LINE
  5
26D3
330
1F
100
AcDbEntity
  8
1.6. Marra2
100
AcDbLine
 10
2646.431474371099
 20
914.5461376158506
 30
0.0
 11
2646.431474371099
 21
914.5517199274886
 31
0.0
  0
LWPOLYLINE
  5
26D4
330
1F
100
AcDbEntity
  8
1.6. Marra2
100
AcDbPolyline
 90
        2
 70
     0
 43
0.0002683175052431
 10
2646.433030192982
 20
914.545605090417
 10
2646.433030192982
 20
914.5517199274886
  0
LWPOLYLINE
  5
26D5
330
1F
100
AcDbEntity
  8
1.6. Marra2
100
AcDbPolyline
 90
        2
 70
     0
 43
0.0002683175052431
 10
2646.4314743711
 20
914.545605090417
 10
2646.4314743711
 20
914.5517199274886
  0
LWPOLYLINE
  5
26D6
330
1F
100
AcDbEntity
  8
1.6. Marra2
100
AcDbPolyline
 90
        2
 70
     0
 43
0.0002683175052431
 10
2646.432296314736
 20
914.545605090417
 10
2646.432296314736
 20
914.5517199274886
  0
LWPOLYLINE
  5
26D7
330
1F
100
AcDbEntity
  8
1.6. Marra2
100
AcDbPolyline
 90
        2
 70
     0
 43
0.0002683175052431
 10
2646.430652427464
 20
914.545605090417
 10
2646.430652427464
 20
914.5517199274886
  0
LWPOLYLINE
  5
26D8
330
1F
100
AcDbEntity
  8
1.6. Marra2
100
AcDbPolyline
 90
        2
 70
     0
 43
0.0002683175052431
 10
2646.429918549217
 20
914.545605090417
 10
2646.429918549217
 20
914.5517199274886
  0
LINE
  5
26D9
330
1F
100
AcDbEntity
  8
1.6. Marra2
100
AcDbLine
 10
2646.435319893111
 20
914.5461376158506
 30
0.0
 11
2646.435319893111
 21
914.5517199274886
 31
0.0
  0
LWPOLYLINE
  5
26DA
330
1F
100
AcDbEntity
  8
1.6. Marra2
100
AcDbPolyline
 90
        2
 70
     0
 43
0.0002683175052431
 10
2646.436875714994
 20
914.545605090417
 10
2646.436875714994
 20
914.5517199274886
  0
LWPOLYLINE
  5
26DB
330
1F
100
AcDbEntity
  8
1.6. Marra2
100
AcDbPolyline
 90
        2
 70
     0
 43
0.0002683175052431
 10
2646.435319893112
 20
914.545605090417
 10
2646.435319893112
 20
914.5517199274886
  0
LWPOLYLINE
  5
26DC
330
1F
100
AcDbEntity
  8
1.6. Marra2
100
AcDbPolyline
 90
        2
 70
     0
 43
0.0002683175052431
 10
2646.436141836748
 20
914.545605090417
 10
2646.436141836748
 20
914.5517199274886
  0
LWPOLYLINE
  5
26DD
330
1F
100
AcDbEntity
  8
1.6. Marra2
100
AcDbPolyline
 90
        2
 70
     0
 43
0.0002683175052431
 10
2646.434497949476
 20
914.545605090417
 10
2646.434497949476
 20
914.5517199274886
  0
LWPOLYLINE
  5
26DE
330
1F
100
AcDbEntity
  8
1.6. Marra2
100
AcDbPolyline
 90
        2
 70
     0
 43
0.0002683175052431
 10
2646.433764071229
 20
914.545605090417
 10
2646.433764071229
 20
914.5517199274886
  0
LINE
  5
26DF
330
1F
100
AcDbEntity
  8
1.6. Marra2
100
AcDbLine
 10
2646.43769765863
 20
914.5461376158506
 30
0.0
 11
2646.43769765863
 21
914.5517199274886
 31
0.0
  0
LWPOLYLINE
  5
26E0
330
1F
100
AcDbEntity
  8
1.6. Marra2
100
AcDbPolyline
 90
        2
 70
     0
 43
0.0002683175052431
 10
2646.439253480513
 20
914.545605090417
 10
2646.439253480513
 20
914.5517199274886
  0
LWPOLYLINE
  5
26E1
330
1F
100
AcDbEntity
  8
1.6. Marra2
100
AcDbPolyline
 90
        2
 70
     0
 43
0.0002683175052431
 10
2646.437697658631
 20
914.545605090417
 10
2646.437697658631
 20
914.5517199274886
  0
LWPOLYLINE
  5
26E2
330
1F
100
AcDbEntity
  8
1.6. Marra2
100
AcDbPolyline
 90
        2
 70
     0
 43
0.0002683175052431
 10
2646.438519602267
 20
914.545605090417
 10
2646.438519602267
 20
914.5517199274886
  0
LINE
  5
26E3
330
1F
100
AcDbEntity
  8
1.6. Marra2
100
AcDbLine
 10
2646.440075424149
 20
914.5461376158506
 30
0.0
 11
2646.440075424149
 21
914.5517199274886
 31
0.0
  0
LWPOLYLINE
  5
26E4
330
1F
100
AcDbEntity
  8
1.6. Marra2
100
AcDbPolyline
 90
        2
 70
     0
 43
0.0002683175052431
 10
2646.441631246032
 20
914.545605090417
 10
2646.441631246032
 20
914.5517199274886
  0
LWPOLYLINE
  5
26E5
330
1F
100
AcDbEntity
  8
1.6. Marra2
100
AcDbPolyline
 90
        2
 70
     0
 43
0.0002683175052431
 10
2646.440075424149
 20
914.545605090417
 10
2646.440075424149
 20
914.5517199274886
  0
LWPOLYLINE
  5
26E6
330
1F
100
AcDbEntity
  8
1.6. Marra2
100
AcDbPolyline
 90
        2
 70
     0
 43
0.0002683175052431
 10
2646.440897367785
 20
914.545605090417
 10
2646.440897367785
 20
914.5517199274886
  0
LWPOLYLINE
  5
26E7
330
1F
100
AcDbEntity
  8
1.6. Marra2
100
AcDbPolyline
 90
        2
 70
     0
 43
0.0002683175052431
 10
2646.443187067915
 20
914.545605090417
 10
2646.443187067915
 20
914.5517199274886
  0
LWPOLYLINE
  5
26E8
330
1F
100
AcDbEntity
  8
1.6. Marra2
100
AcDbPolyline
 90
        2
 70
     0
 43
0.0002683175052431
 10
2646.442453189667
 20
914.545605090417
 10
2646.442453189667
 20
914.5517199274886
  0
LINE
  5
26E9
330
1F
100
AcDbEntity
  8
1.7. Ventanas Gráficas
100
AcDbLine
 10
2646.615761224734
 20
914.5856050904169
 30
0.0
 11
2646.415761224734
 21
914.5856050904169
 31
0.0
  0
LINE
  5
26EA
330
1F
100
AcDbEntity
  8
1.3. Eskala grafikoa
 48
0.01
100
AcDbLine
 10
2646.551631959072
 20
914.549786849848
 30
0.0
 11
2646.591631959073
 21
914.549786849848
 31
0.0
  0
LINE
  5
26EB
330
1F
100
AcDbEntity
  8
1.3. Eskala grafikoa
 48
0.01
100
AcDbLine
 10
2646.551631959072
 20
914.549786849848
 30
0.0
 11
2646.591631959073
 21
914.549786849848
 31
0.0
  0
LINE
  5
26EC
330
1F
100
AcDbEntity
  8
1.3. Eskala grafikoa
 48
0.01
100
AcDbLine
 10
2646.551631959072
 20
914.5493130727722
 30
0.0
 11
2646.591631959073
 21
914.549313072772
 31
0.0
  0
MTEXT
  5
26ED
330
1F
100
AcDbEntity
  8
1.3. Eskala grafikoa
100
AcDbMText
 10
2646.56136221522
 20
914.548463318191
 30
0.0
 40
0.001
 41
0.0010406224438389
 46
0.0
 71
     1
 72
     5
  1
{\fCalibri Light|b0|i0|c0|p34;1}
 73
     1
 44
1.0
  0
MTEXT
  5
26EE
330
1F
100
AcDbEntity
  8
1.3. Eskala grafikoa
100
AcDbMText
 10
2646.571362215221
 20
914.548463318191
 30
0.0
 40
0.001
 41
0.0010406224438389
 46
0.0
 71
     1
 72
     5
  1
{\fCalibri Light|b0|i0|c0|p34;2}
 73
     1
 44
1.0
  0
MTEXT
  5
26EF
330
1F
100
AcDbEntity
  8
1.3. Eskala grafikoa
100
AcDbMText
 10
2646.58136221522
 20
914.548463318191
 30
0.0
 40
0.001
 41
0.0010406224438389
 46
0.0
 71
     1
 72
     5
  1
{\fCalibri Light|b0|i0|c0|p34;3}
 73
     1
 44
1.0
  0
MTEXT
  5
26F0
330
1F
100
AcDbEntity
  8
1.3. Eskala grafikoa
100
AcDbMText
 10
2646.59136221522
 20
914.548463318191
 30
0.0
 40
0.001
 41
0.0010406224438389
 46
0.0
 71
     1
 72
     5
  1
{\fCalibri Light|b0|i0|c0|p34;4m}
 73
     1
 44
1.0
  0
MTEXT
  5
26F1
330
1F
100
AcDbEntity
  8
1.3. Eskala grafikoa
100
AcDbMText
 10
2646.555796135989
 20
914.548463318191
 30
0.0
 40
0.001
 41
0.0010406224438389
 46
0.0
 71
     1
 72
     5
  1
{\fCalibri Light|b0|i0|c0|p34;0.5}
 73
     1
 44
1.0
  0
HATCH
  5
26F2
330
1F
100
AcDbEntity
  8
1.3. Eskala grafikoa
100
AcDbHatch
 10
0.0
 20
0.0
 30
0.0
210
0.0
220
0.0
230
1.0
  2
SOLID
 70
     1
 71
     0
 91
        1
 92
        5
 93
        4
 72
     1
 10
2646.551631959072
 20
914.5493130727722
 11
2646.551631959072
 21
914.5488392956961
 72
     1
 10
2646.551631959072
 20
914.5488392956961
 11
2646.556631959072
 21
914.5488392956961
 72
     1
 10
2646.556631959072
 20
914.5488392956961
 11
2646.556631959072
 21
914.5493130727722
 72
     1
 10
2646.556631959072
 20
914.5493130727722
 11
2646.551631959072
 21
914.5493130727722
 97
        0
 75
     1
 76
     1
 47
0.0000355507141102
 98
        1
 10
2646.554131959072
 20
914.5490761842342
450
        0
451
        0
460
0.0
461
0.0
452
        0
462
1.0
453
        2
463
0.0
 63
     5
421
      255
463
1.0
 63
     2
421
 16776960
470
LINEAR
1001
GradientColor1ACI
1070
     5
1001
GradientColor2ACI
1070
     2
1001
ACAD
1010
0.0
1020
0.0
1030
0.0
  0
MTEXT
  5
26F3
330
1F
100
AcDbEntity
  8
1.4. Idatzia
100
AcDbMText
 10
2646.599460257958
 20
914.549710804466
 30
0.0
 40
0.002
 41
0.0273770814300611
 46
0.0
 71
     1
 72
     5
  1
{\fCalibri Light|b0|i0|c0|p34;Lokal zk.}
 73
     1
 44
1.0
  0
MTEXT
  5
26F4
330
1F
100
AcDbEntity
  8
1.4. Idatzia
100
AcDbMText
 10
2646.595219527762
 20
914.5673775587049
 30
0.0
 40
0.012
 41
0.0273770814300611
 46
0.0
 71
     1
 72
     5
  1
{\fMicrosoft Sans Serif|b0|i0|c0|p34;16}
 73
     1
 44
1.0
  0
LWPOLYLINE
  5
26F5
330
1F
100
AcDbEntity
  8
1.7. Ventanas Gráficas
100
AcDbPolyline
 90
        4
 70
     1
 43
0.0
 10
2646.415761224734
 20
914.5406050904169
 10
2646.615761224734
 20
914.5406050904169
 10
2646.615761224734
 20
914.822605090417
 10
2646.415761224734
 20
914.822605090417
  0
MTEXT
  5
26F6
330
1F
100
AcDbEntity
  8
1.4. Idatzia
100
AcDbMText
 10
2646.508361750545
 20
914.5577723873367
 30
0.0
 40
0.0025
 41
0.1852149973614974
 46
0.0
 71
     1
 72
     5
  1
{\fCalibri Light|b1|i0|c0|p34;Finka zk.\fCalibri Light|b0|i0|c0|p34;: 3220995D}
 73
     1
 44
1.0
  0
LINE
  5
8308
102
{ACAD_REACTORS
330
8804
330
8918
102
}
330
1F
100
AcDbEntity
  8
2.3. Mehelina
100
AcDbLine
 10
2662.050260248398
 20
878.9592225158244
 30
0.0
 11
2663.645260248398
 21
878.9592225158244
 31
0.0
  0
LINE
  5
8309
102
{ACAD_REACTORS
330
8804
330
8918
102
}
330
1F
100
AcDbEntity
  8
2.3. Mehelina
100
AcDbLine
 10
2663.645260248398
 20
878.9592225158244
 30
0.0
 11
2663.645260248415
 21
877.6492225158255
 31
0.0
  0
LINE
  5
830A
102
{ACAD_REACTORS
330
8804
102
}
330
1F
100
AcDbEntity
  8
2.2. Barne Horma
100
AcDbLine
 10
2662.845260248397
 20
877.7492225158246
 30
0.0
 11
2661.900260248398
 21
877.7492225158246
 31
0.0
  0
LINE
  5
8313
330
1F
100
AcDbEntity
  8
2.2. Barne Horma
100
AcDbLine
 10
2663.565260248398
 20
877.7492225158248
 30
0.0
 11
2663.565260248398
 21
877.6492225158246
 31
0.0
  0
LWPOLYLINE
  5
8314
102
{ACAD_REACTORS
330
8804
102
}
330
1F
100
AcDbEntity
  8
3.1. Atea
100
AcDbPolyline
 90
        4
 70
     1
 43
0.0
 10
2663.515260248398
 20
878.4192225158248
 10
2663.540260248398
 20
878.4192225158248
 10
2663.540260248398
 20
877.7492225158248
 10
2663.515260248398
 20
877.7492225158248
  0
LWPOLYLINE
  5
8315
102
{ACAD_REACTORS
330
8804
102
}
330
1F
100
AcDbEntity
  8
3.1. Atea
100
AcDbPolyline
 90
        6
 70
     0
 43
0.0
 10
2662.845260248398
 20
877.7492225158248
 10
2662.870260248398
 20
877.7492225158248
 10
2662.870260248398
 20
877.7242225158246
 10
2662.905260248398
 20
877.7242225158246
 10
2662.905260248398
 20
877.6492225158246
 10
2662.845260248398
 20
877.6492225158246
  0
LWPOLYLINE
  5
8316
102
{ACAD_REACTORS
330
8804
102
}
330
1F
100
AcDbEntity
  8
3.1. Atea
100
AcDbPolyline
 90
        6
 70
     0
 43
0.0
 10
2663.565260248398
 20
877.7492225158248
 10
2663.540260248398
 20
877.7492225158248
 10
2663.540260248398
 20
877.7242225158246
 10
2663.505260248398
 20
877.7242225158246
 10
2663.505260248398
 20
877.6492225158246
 10
2663.565260248398
 20
877.6492225158246
  0
ARC
  5
8317
102
{ACAD_REACTORS
330
8804
102
}
330
1F
100
AcDbEntity
  8
3.1. Atea
100
AcDbCircle
 10
2663.539893729184
 20
877.7500417768596
 30
0.0
 40
0.6696339819465166
100
AcDbArc
 50
92.10818602847018
 51
180.0700983113021
  0
LINE
  5
8330
330
1F
100
AcDbEntity
  8
2.2. Barne Horma
100
AcDbLine
 10
2662.845260248398
 20
877.7492225158248
 30
0.0
 11
2662.845260248398
 21
877.6492225158246
 31
0.0
  0
LINE
  5
8332
102
{ACAD_REACTORS
330
8A7F
102
}
330
1F
100
AcDbEntity
  8
2.2. Barne Horma
100
AcDbLine
 10
2662.845260248398
 20
877.6492225158246
 30
0.0
 11
2662.235260248398
 21
877.6492225158246
 31
0.0
  0
LINE
  5
8334
330
1F
100
AcDbEntity
  8
2.2. Barne Horma
100
AcDbLine
 10
2663.565260248398
 20
877.6492225158245
 30
0.0
 11
2663.645260248398
 21
877.6492225158255
 31
0.0
  0
LINE
  5
8335
102
{ACAD_REACTORS
330
8804
102
}
330
1F
100
AcDbEntity
  8
2.2. Barne Horma
100
AcDbLine
 10
2663.565260248398
 20
877.7492225158244
 30
0.0
 11
2663.645260248398
 21
877.7492225158244
 31
0.0
  0
LINE
  5
834F
102
{ACAD_REACTORS
330
8804
102
}
330
1F
100
AcDbEntity
  8
5.1. Komuneko altzaria
100
AcDbLine
 10
2662.530260248399
 20
878.2080624005034
 30
0.0
 11
2662.530260248399
 21
878.3280624005033
 31
0.0
  0
ARC
  5
8350
330
1F
100
AcDbEntity
  8
5.1. Komuneko altzaria
100
AcDbCircle
 10
2662.455260248399
 20
878.3030624005032
 30
0.0
 40
0.05
100
AcDbArc
 50
0.0
 51
90.0
  0
LINE
  5
8351
102
{ACAD_REACTORS
330
8804
102
}
330
1F
100
AcDbEntity
  8
5.1. Komuneko altzaria
100
AcDbLine
 10
2661.910260248399
 20
878.4080624005031
 30
0.0
 11
2661.910260248399
 21
878.0080624005032
 31
0.0
  0
LINE
  5
8352
102
{ACAD_REACTORS
330
8804
102
}
330
1F
100
AcDbEntity
  8
5.1. Komuneko altzaria
100
AcDbLine
 10
2662.040260248399
 20
878.0080624005032
 30
0.0
 11
2662.040260248399
 21
878.4080624005031
 31
0.0
  0
LINE
  5
8353
102
{ACAD_REACTORS
330
8804
102
}
330
1F
100
AcDbEntity
  8
5.1. Komuneko altzaria
100
AcDbLine
 10
2662.480260248399
 20
878.0380624005033
 30
0.0
 11
2662.040260248399
 21
878.0380624005033
 31
0.0
  0
LINE
  5
8354
330
1F
100
AcDbEntity
  8
5.1. Komuneko altzaria
100
AcDbLine
 10
2662.455260248399
 20
878.0630624005029
 30
0.0
 11
2662.040260248399
 21
878.0630624005029
 31
0.0
  0
LINE
  5
8355
102
{ACAD_REACTORS
330
8804
102
}
330
1F
100
AcDbEntity
  8
5.1. Komuneko altzaria
100
AcDbLine
 10
2661.910260248399
 20
878.0080624005032
 30
0.0
 11
2662.040260248399
 21
878.0080624005032
 31
0.0
  0
ARC
  5
8356
102
{ACAD_REACTORS
330
8804
102
}
330
1F
100
AcDbEntity
  8
5.1. Komuneko altzaria
100
AcDbCircle
 10
2662.480260248399
 20
878.088062400503
 30
0.0
 40
0.05
100
AcDbArc
 50
270.0
 51
0.0
  0
LINE
  5
8357
102
{ACAD_REACTORS
330
8804
102
}
330
1F
100
AcDbEntity
  8
5.1. Komuneko altzaria
100
AcDbLine
 10
2662.530260248399
 20
878.2080624005034
 30
0.0
 11
2662.530260248399
 21
878.088062400503
 31
0.0
  0
LINE
  5
8358
330
1F
100
AcDbEntity
  8
5.1. Komuneko altzaria
100
AcDbLine
 10
2662.505260248399
 20
878.2080624005034
 30
0.0
 11
2662.505260248399
 21
878.3030624005032
 31
0.0
  0
ARC
  5
8359
330
1F
100
AcDbEntity
  8
5.1. Komuneko altzaria
100
AcDbCircle
 10
2662.455260248399
 20
878.1130624005031
 30
0.0
 40
0.05
100
AcDbArc
 50
270.0
 51
0.0
  0
LINE
  5
835A
330
1F
100
AcDbEntity
  8
5.1. Komuneko altzaria
100
AcDbLine
 10
2662.505260248399
 20
878.2080624005034
 30
0.0
 11
2662.505260248399
 21
878.1130624005031
 31
0.0
  0
LINE
  5
835B
102
{ACAD_REACTORS
330
8804
102
}
330
1F
100
AcDbEntity
  8
5.1. Komuneko altzaria
100
AcDbLine
 10
2662.480260248399
 20
878.378062400503
 30
0.0
 11
2662.040260248399
 21
878.378062400503
 31
0.0
  0
LINE
  5
835C
330
1F
100
AcDbEntity
  8
5.1. Komuneko altzaria
100
AcDbLine
 10
2662.455260248399
 20
878.3530624005035
 30
0.0
 11
2662.040260248399
 21
878.3530624005035
 31
0.0
  0
LINE
  5
835D
102
{ACAD_REACTORS
330
8804
102
}
330
1F
100
AcDbEntity
  8
5.1. Komuneko altzaria
100
AcDbLine
 10
2662.040260248399
 20
878.4080624005031
 30
0.0
 11
2661.910260248399
 21
878.4080624005031
 31
0.0
  0
ARC
  5
835E
102
{ACAD_REACTORS
330
8804
102
}
330
1F
100
AcDbEntity
  8
5.1. Komuneko altzaria
100
AcDbCircle
 10
2662.480260248399
 20
878.3280624005033
 30
0.0
 40
0.05
100
AcDbArc
 50
0.0
 51
90.0
  0
LINE
  5
837B
102
{ACAD_REACTORS
330
8804
330
8918
102
}
330
1F
100
AcDbEntity
  8
2.3. Mehelina
100
AcDbLine
 10
2662.050260248399
 20
878.7092225158245
 30
0.0
 11
2662.050260248399
 21
878.9592225158244
 31
0.0
  0
LINE
  5
837C
102
{ACAD_REACTORS
330
8804
330
8918
102
}
330
1F
100
AcDbEntity
  8
2.3. Mehelina
100
AcDbLine
 10
2661.900260248398
 20
878.7092225158245
 30
0.0
 11
2662.050260248399
 21
878.7092225158245
 31
0.0
  0
LWPOLYLINE
  5
837D
102
{ACAD_REACTORS
330
8804
330
891F
102
}
330
1F
100
AcDbEntity
  8
2.2. Barne Horma
100
AcDbPolyline
 90
        4
 70
     1
 43
0.0
 10
2662.100260248398
 20
878.7092225158245
 10
2662.200260248398
 20
878.7092225158245
 10
2662.200260248398
 20
878.8092225158246
 10
2662.100260248398
 20
878.8092225158246
  0
LINE
  5
837E
102
{ACAD_REACTORS
330
8804
102
}
330
1F
100
AcDbEntity
  8
5.1. Komuneko altzaria
100
AcDbLine
 10
2663.316675831082
 20
878.4493268461426
 30
0.0
 11
2662.716675831083
 21
878.4493268461426
 31
0.0
  0
LINE
  5
837F
102
{ACAD_REACTORS
330
8804
102
}
330
1F
100
AcDbEntity
  8
5.1. Komuneko altzaria
100
AcDbLine
 10
2663.316675831082
 20
878.9493268461425
 30
0.0
 11
2662.716675831083
 21
878.9493268461425
 31
0.0
  0
LINE
  5
8380
102
{ACAD_REACTORS
330
8804
102
}
330
1F
100
AcDbEntity
  8
5.1. Komuneko altzaria
100
AcDbLine
 10
2662.716675831083
 20
878.4493268461426
 30
0.0
 11
2662.716675831082
 21
878.9493268461425
 31
0.0
  0
LINE
  5
8381
102
{ACAD_REACTORS
330
8804
102
}
330
1F
100
AcDbEntity
  8
5.1. Komuneko altzaria
100
AcDbLine
 10
2663.316675831082
 20
878.4493268461433
 30
0.0
 11
2663.316675831082
 21
878.9493268461425
 31
0.0
  0
LWPOLYLINE
  5
8382
102
{ACAD_REACTORS
330
8804
102
}
330
1F
100
AcDbEntity
  8
5.1. Komuneko altzaria
100
AcDbPolyline
 90
        6
 70
     0
 43
0.0
 10
2663.026804443541
 20
878.8139928912793
 10
2663.266675831082
 20
878.8139928912793
 10
2663.266675831082
 20
878.4993268461425
 10
2662.766675831082
 20
878.4993268461425
 10
2662.766675831082
 20
878.8139928912793
 10
2663.006547218623
 20
878.8139928912793
  0
LWPOLYLINE
  5
8383
102
{ACAD_REACTORS
330
8804
102
}
330
1F
100
AcDbEntity
  8
5.1. Komuneko altzaria
100
AcDbPolyline
 90
        4
 70
     1
 43
0.0
 10
2663.026804443541
 20
878.9058780065623
 10
2663.006547218623
 20
878.9058780065623
 10
2663.006547218623
 20
878.7221077759962
 10
2663.026804443541
 20
878.7221077759962
  0
LWPOLYLINE
  5
8384
102
{ACAD_REACTORS
330
8804
102
}
330
1F
100
AcDbEntity
  8
5.1. Komuneko altzaria
100
AcDbPolyline
 90
        4
 70
     1
 43
0.0
 10
2663.029361259368
 20
878.8919830615093
 10
2663.08121085204
 20
878.8919830615093
 10
2663.08121085204
 20
878.8401918435267
 10
2663.029361259368
 20
878.8401918435267
  0
LWPOLYLINE
  5
8385
102
{ACAD_REACTORS
330
8804
102
}
330
1F
100
AcDbEntity
  8
5.1. Komuneko altzaria
100
AcDbPolyline
 90
        4
 70
     1
 43
0.0
 10
2663.004473301863
 20
878.8401918435267
 10
2662.946401719815
 20
878.8401918435267
 10
2662.946401719815
 20
878.8919830615093
 10
2663.004473301863
 20
878.8919830615093
  0
CIRCLE
  5
8386
102
{ACAD_REACTORS
330
8804
102
}
330
1F
100
AcDbEntity
  8
5.1. Komuneko altzaria
100
AcDbCircle
 10
2663.014119015257
 20
878.6669281006503
 30
0.0
 40
0.0183990299208858
  0
LINE
  5
8397
330
1F
100
AcDbEntity
  8
2.2. Barne Horma
100
AcDbLine
 10
2663.745260248398
 20
877.6492225158245
 30
0.0
 11
2663.745260248398
 21
875.2692225158245
 31
0.0
  0
LINE
  5
8399
102
{ACAD_REACTORS
330
8918
330
8AC7
102
}
330
1F
100
AcDbEntity
  8
2.3. Mehelina
100
AcDbLine
 10
2663.645260248398
 20
877.6492225158255
 30
0.0
 11
2665.435260248398
 21
877.6492225158245
 31
0.0
  0
LINE
  5
839A
102
{ACAD_REACTORS
330
8918
102
}
330
1F
100
AcDbEntity
  8
2.3. Mehelina
100
AcDbLine
 10
2665.435260248398
 20
877.6492225158245
 30
0.0
 11
2665.435260248398
 21
877.8692225158243
 31
0.0
  0
LINE
  5
839B
330
1F
100
AcDbEntity
  8
2.2. Barne Horma
100
AcDbLine
 10
2663.745260248398
 20
875.2692225158245
 30
0.0
 11
2663.095260248398
 21
875.2692225158245
 31
0.0
  0
LINE
  5
839C
330
1F
100
AcDbEntity
  8
2.2. Barne Horma
100
AcDbLine
 10
2663.095260248398
 20
875.2692225158245
 30
0.0
 11
2663.095260248398
 21
875.3492225158245
 31
0.0
  0
LINE
  5
839D
330
1F
100
AcDbEntity
  8
2.2. Barne Horma
100
AcDbLine
 10
2663.095260248398
 20
875.3492225158245
 30
0.0
 11
2663.665260248398
 21
875.3492225158245
 31
0.0
  0
LINE
  5
839E
102
{ACAD_REACTORS
330
8A57
102
}
330
1F
100
AcDbEntity
  8
2.2. Barne Horma
100
AcDbLine
 10
2663.665260248398
 20
875.3492225158245
 30
0.0
 11
2663.665260248398
 21
877.6492225158245
 31
0.0
  0
LINE
  5
83A2
102
{ACAD_REACTORS
330
8A57
102
}
330
1F
100
AcDbEntity
  8
2.2. Barne Horma
100
AcDbLine
 10
2662.235260248398
 20
877.6492225158246
 30
0.0
 11
2662.235260248397
 21
873.4792225158239
 31
0.0
  0
LINE
  5
83A3
330
1F
100
AcDbEntity
  8
2.2. Barne Horma
100
AcDbLine
 10
2662.235260248398
 20
873.4792225158239
 30
0.0
 11
2662.329392204478
 21
873.4792225158237
 31
0.0
  0
LINE
  5
83B2
330
1F
100
AcDbEntity
  8
2.2. Barne Horma
100
AcDbLine
 10
2662.235260248398
 20
873.3992225158235
 30
0.0
 11
2662.329392204479
 21
873.3992225158235
 31
0.0
  0
LINE
  5
83DF
102
{ACAD_REACTORS
330
8918
102
}
330
1F
100
AcDbEntity
  8
2.1. Kanpo Horma
100
AcDbLine
 10
2667.765260248398
 20
877.8692225158243
 30
0.0
 11
2667.565260248398
 21
877.8692225158248
 31
0.0
  0
LINE
  5
83F0
102
{ACAD_REACTORS
330
8A93
102
}
330
1F
100
AcDbEntity
  8
3.2. Leihoa
100
AcDbLine
 10
2667.700260248397
 20
877.8692225158243
 30
0.0
 11
2667.700260248397
 21
872.6792225158233
 31
0.0
  0
LINE
  5
83F1
330
1F
100
AcDbEntity
  8
3.2. Leihoa
100
AcDbLine
 10
2667.765260248398
 20
872.6792225158233
 30
0.0
 11
2667.765260248398
 21
877.8692225158243
 31
0.0
  0
LINE
  5
83F2
330
1F
100
AcDbEntity
  8
3.2. Leihoa
100
AcDbLine
 10
2667.750260248397
 20
877.8192225158241
 30
0.0
 11
2667.750260248398
 21
872.7292225158238
 31
0.0
  0
LINE
  5
83F3
330
1F
100
AcDbEntity
  8
3.2. Leihoa
100
AcDbLine
 10
2667.765260248398
 20
877.8192225158241
 30
0.0
 11
2667.700260248397
 21
877.8192225158241
 31
0.0
  0
LINE
  5
83F4
330
1F
100
AcDbEntity
  8
3.2. Leihoa
100
AcDbLine
 10
2667.750260248397
 20
877.7792225158242
 30
0.0
 11
2667.700260248397
 21
877.7792225158242
 31
0.0
  0
LINE
  5
83F5
330
1F
100
AcDbEntity
  8
3.2. Leihoa
100
AcDbLine
 10
2667.765260248398
 20
870.6820737937958
 30
0.0
 11
2667.700260248398
 21
870.6820737937958
 31
0.0
  0
LINE
  5
83F6
330
1F
100
AcDbEntity
  8
3.2. Leihoa
100
AcDbLine
 10
2667.750260248398
 20
870.7220737937962
 30
0.0
 11
2667.700260248398
 21
870.7220737937962
 31
0.0
  0
LINE
  5
83F7
330
1F
100
AcDbEntity
  8
3.2. Leihoa
100
AcDbLine
 10
2667.725260248398
 20
877.7792225158242
 30
0.0
 11
2667.725260248398
 21
872.7692225158239
 31
0.0
  0
LINE
  5
8409
330
1F
100
AcDbEntity
  8
2.2. Barne Horma
100
AcDbLine
 10
2662.155260248398
 20
877.6492225158246
 30
0.0
 11
2662.155260248398
 21
872.359222515824
 31
0.0
  0
LINE
  5
840A
330
1F
100
AcDbEntity
  8
2.2. Barne Horma
100
AcDbLine
 10
2662.155260248398
 20
877.6492225158246
 30
0.0
 11
2661.900260248398
 21
877.6492225158246
 31
0.0
  0
LINE
  5
840B
102
{ACAD_REACTORS
330
8804
330
8918
330
8A2B
102
}
330
1F
100
AcDbEntity
  8
2.3. Mehelina
100
AcDbLine
 10
2661.900260248403
 20
878.7092225158245
 30
0.0
 11
2661.900260248399
 21
872.3592225158245
 31
0.0
  0
LINE
  5
8436
102
{ACAD_REACTORS
330
8918
330
8A2B
102
}
330
1F
100
AcDbEntity
  8
2.3. Mehelina
100
AcDbLine
 10
2661.700260248399
 20
879.1592225158245
 30
0.0
 11
2663.845260248395
 21
879.1592225158245
 31
0.0
  0
LINE
  5
8437
102
{ACAD_REACTORS
330
8918
330
8A13
102
}
330
1F
100
AcDbEntity
  8
2.3. Mehelina
100
AcDbLine
 10
2661.700260248399
 20
872.1592225158245
 30
0.0
 11
2661.700260248399
 21
879.1592225158245
 31
0.0
  0
LINE
  5
8438
102
{ACAD_REACTORS
330
8918
102
}
330
1F
100
AcDbEntity
  8
2.3. Mehelina
100
AcDbLine
 10
2663.845260248395
 20
879.1592225158245
 30
0.0
 11
2663.845260248397
 21
877.8492225158245
 31
0.0
  0
LWPOLYLINE
  5
8471
330
1F
100
AcDbEntity
  8
3.1. Atea
100
AcDbPolyline
 90
        4
 70
     1
 43
0.0
 10
2665.462408970426
 20
870.5342225158242
 10
2665.487408970426
 20
870.5342225158242
 10
2665.487408970426
 20
869.6142225158244
 10
2665.462408970426
 20
869.6142225158244
  0
LWPOLYLINE
  5
8472
330
1F
100
AcDbEntity
  8
3.1. Atea
100
AcDbPolyline
 90
        6
 70
     0
 43
0.0
 10
2664.542408970426
 20
869.6142225158244
 10
2664.567408970426
 20
869.6142225158244
 10
2664.567408970426
 20
869.5892225158244
 10
2664.602408970426
 20
869.5892225158244
 10
2664.602408970426
 20
869.5492225158245
 10
2664.542408970426
 20
869.5492225158245
  0
LWPOLYLINE
  5
8473
330
1F
100
AcDbEntity
  8
3.1. Atea
100
AcDbPolyline
 90
        6
 70
     0
 43
0.0
 10
2665.512408970426
 20
869.6142225158244
 10
2665.487408970426
 20
869.6142225158244
 10
2665.487408970426
 20
869.5892225158244
 10
2665.452408970426
 20
869.5892225158244
 10
2665.452408970426
 20
869.5492225158243
 10
2665.512408970426
 20
869.5492225158243
  0
ARC
  5
8477
330
1F
100
AcDbEntity
  8
3.1. Atea
100
AcDbCircle
 10
2665.487149431895
 20
869.6148146755909
 30
0.0
 40
0.9197406520948669
100
AcDbArc
 50
91.54140738029861
 51
180.03688894004
  0
LINE
  5
8497
330
1F
100
AcDbEntity
  8
3.2. Leihoa
100
AcDbLine
 10
2664.542408970426
 20
869.5492225158245
 30
0.0
 11
2664.542408970426
 21
869.6142225158244
 31
0.0
  0
LINE
  5
8498
330
1F
100
AcDbEntity
  8
3.2. Leihoa
100
AcDbLine
 10
2665.512408970426
 20
869.5492225158243
 30
0.0
 11
2665.512408970426
 21
869.6142225158244
 31
0.0
  0
LINE
  5
849A
330
1F
100
AcDbEntity
  8
3.2. Leihoa
100
AcDbLine
 10
2664.542408970426
 20
869.6142225158244
 30
0.0
 11
2662.095260248398
 21
869.6142225158244
 31
0.0
  0
LINE
  5
849B
330
1F
100
AcDbEntity
  8
3.2. Leihoa
100
AcDbLine
 10
2662.095260248398
 20
869.5492225158242
 30
0.0
 11
2664.542408970426
 21
869.5492225158245
 31
0.0
  0
LINE
  5
849C
330
1F
100
AcDbEntity
  8
3.2. Leihoa
100
AcDbLine
 10
2664.492408970426
 20
869.5642225158245
 30
0.0
 11
2662.145260248398
 21
869.5642225158245
 31
0.0
  0
LINE
  5
849D
330
1F
100
AcDbEntity
  8
3.2. Leihoa
100
AcDbLine
 10
2664.492408970426
 20
869.5492225158245
 30
0.0
 11
2664.492408970426
 21
869.6142225158244
 31
0.0
  0
LINE
  5
849E
330
1F
100
AcDbEntity
  8
3.2. Leihoa
100
AcDbLine
 10
2664.452408970426
 20
869.5642225158245
 30
0.0
 11
2664.452408970426
 21
869.6142225158244
 31
0.0
  0
LINE
  5
849F
330
1F
100
AcDbEntity
  8
3.2. Leihoa
100
AcDbLine
 10
2662.145260248398
 20
869.5492225158245
 30
0.0
 11
2662.145260248398
 21
869.6142225158244
 31
0.0
  0
LINE
  5
84A0
330
1F
100
AcDbEntity
  8
3.2. Leihoa
100
AcDbLine
 10
2662.185260248398
 20
869.5642225158245
 30
0.0
 11
2662.185260248398
 21
869.6142225158244
 31
0.0
  0
LINE
  5
84A1
330
1F
100
AcDbEntity
  8
3.2. Leihoa
100
AcDbLine
 10
2664.452408970426
 20
869.5892225158244
 30
0.0
 11
2662.185260248398
 21
869.5892225158244
 31
0.0
  0
LINE
  5
84B3
330
1F
100
AcDbEntity
  8
3.2. Leihoa
100
AcDbLine
 10
2666.655485088872
 20
869.6142225158244
 30
0.0
 11
2665.512408970426
 21
869.6142225158244
 31
0.0
  0
LINE
  5
84B4
330
1F
100
AcDbEntity
  8
3.2. Leihoa
100
AcDbLine
 10
2665.512408970426
 20
869.5492225158245
 30
0.0
 11
2666.682408970426
 21
869.5492225158243
 31
0.0
  0
LINE
  5
84B5
330
1F
100
AcDbEntity
  8
3.2. Leihoa
100
AcDbLine
 10
2666.632408970426
 20
869.5642225158245
 30
0.0
 11
2665.562408970426
 21
869.5642225158245
 31
0.0
  0
LINE
  5
84B6
330
1F
100
AcDbEntity
  8
3.2. Leihoa
100
AcDbLine
 10
2666.632408970426
 20
869.5492225158243
 30
0.0
 11
2666.632408970426
 21
869.6142225158242
 31
0.0
  0
LINE
  5
84B7
330
1F
100
AcDbEntity
  8
3.2. Leihoa
100
AcDbLine
 10
2666.592408970426
 20
869.5642225158243
 30
0.0
 11
2666.592408970426
 21
869.6142225158242
 31
0.0
  0
LINE
  5
84B8
330
1F
100
AcDbEntity
  8
3.2. Leihoa
100
AcDbLine
 10
2665.562408970426
 20
869.5492225158245
 30
0.0
 11
2665.562408970426
 21
869.6142225158244
 31
0.0
  0
LINE
  5
84B9
330
1F
100
AcDbEntity
  8
3.2. Leihoa
100
AcDbLine
 10
2665.602408970426
 20
869.5642225158245
 30
0.0
 11
2665.602408970426
 21
869.6142225158244
 31
0.0
  0
LINE
  5
84BA
330
1F
100
AcDbEntity
  8
3.2. Leihoa
100
AcDbLine
 10
2666.592408970426
 20
869.5892225158244
 30
0.0
 11
2665.602408970426
 21
869.5892225158244
 31
0.0
  0
LINE
  5
84D8
330
1F
100
AcDbEntity
  8
3.2. Leihoa
100
AcDbLine
 10
2667.72990490934
 20
870.5967184547381
 30
0.0
 11
2667.683942968562
 21
870.6426803955151
 31
0.0
  0
LINE
  5
84D9
330
1F
100
AcDbEntity
  8
3.2. Leihoa
100
AcDbLine
 10
2667.700260248398
 20
870.6589976753509
 30
0.0
 11
2666.655485088872
 21
869.6142225158242
 31
0.0
  0
LINE
  5
84DA
102
{ACAD_REACTORS
330
8BAF
102
}
330
1F
100
AcDbEntity
  8
3.2. Leihoa
100
AcDbLine
 10
2666.682408970426
 20
869.5492225158243
 30
0.0
 11
2667.765260248398
 21
870.6320737937968
 31
0.0
  0
LINE
  5
84DB
330
1F
100
AcDbEntity
  8
3.2. Leihoa
100
AcDbLine
 10
2667.719298307622
 20
870.6073250564559
 30
0.0
 11
2666.707157707768
 21
869.5951844566017
 31
0.0
  0
LINE
  5
84DC
330
1F
100
AcDbEntity
  8
3.2. Leihoa
100
AcDbLine
 10
2667.683942968563
 20
870.5719697173964
 30
0.0
 11
2667.648587629503
 21
870.6073250564559
 31
0.0
  0
LINE
  5
84DE
330
1F
100
AcDbEntity
  8
3.2. Leihoa
100
AcDbLine
 10
2666.717764309486
 20
869.5845778548839
 30
0.0
 11
2666.671802368709
 21
869.6305397956614
 31
0.0
  0
LINE
  5
84DF
330
1F
100
AcDbEntity
  8
3.2. Leihoa
100
AcDbLine
 10
2666.735441979016
 20
869.6234687278495
 30
0.0
 11
2666.700086639956
 21
869.6588240669091
 31
0.0
  0
LINE
  5
84E0
330
1F
100
AcDbEntity
  8
3.2. Leihoa
100
AcDbLine
 10
2667.666265299033
 20
870.5896473869266
 30
0.0
 11
2666.717764309486
 21
869.6411463973793
 31
0.0
  0
LINE
  5
852E
330
1F
100
AcDbEntity
  8
2.2. Barne Horma
100
AcDbLine
 10
2663.785260248398
 20
873.4792225158235
 30
0.0
 11
2663.785260248398
 21
873.2392225158237
 31
0.0
  0
LINE
  5
852F
330
1F
100
AcDbEntity
  8
2.2. Barne Horma
100
AcDbLine
 10
2663.705260248399
 20
873.3992225158235
 30
0.0
 11
2663.705260248397
 21
873.2392225158235
 31
0.0
  0
LINE
  5
8565
330
1F
100
AcDbEntity
  8
6.1. Eskailerak
100
AcDbLine
 10
2664.035260248395
 20
872.5192225158242
 30
0.0
 11
2664.035260248397
 21
869.6142225158244
 31
0.0
  0
LINE
  5
8568
330
1F
100
AcDbEntity
  8
6.1. Eskailerak
100
AcDbLine
 10
2664.035260248395
 20
872.5192225158243
 30
0.0
 11
2663.785260248396
 21
872.5192225158235
 31
0.0
  0
LWPOLYLINE
  5
8576
102
{ACAD_REACTORS
330
8978
102
}
330
1F
100
AcDbEntity
  8
3.1. Atea
100
AcDbPolyline
 90
        4
 70
     1
 43
0.0
 10
2664.455260248397
 20
873.1892225158235
 10
2664.455260248397
 20
873.2142225158236
 10
2663.785260248396
 20
873.2142225158236
 10
2663.785260248396
 20
873.1892225158235
  0
LWPOLYLINE
  5
8577
102
{ACAD_REACTORS
330
8B3D
102
}
330
1F
100
AcDbEntity
  8
3.1. Atea
100
AcDbPolyline
 90
        6
 70
     0
 43
0.0
 10
2663.785260248396
 20
872.5192225158235
 10
2663.785260248396
 20
872.5442225158236
 10
2663.760260248396
 20
872.5442225158236
 10
2663.760260248396
 20
872.5792225158233
 10
2663.705260248397
 20
872.5792225158233
 10
2663.705260248397
 20
872.5192225158235
  0
LWPOLYLINE
  5
8578
102
{ACAD_REACTORS
330
8B3D
102
}
330
1F
100
AcDbEntity
  8
3.1. Atea
100
AcDbPolyline
 90
        6
 70
     0
 43
0.0
 10
2663.785260248396
 20
873.2392225158237
 10
2663.785260248396
 20
873.2142225158236
 10
2663.760260248396
 20
873.2142225158236
 10
2663.760260248396
 20
873.1792225158237
 10
2663.705260248397
 20
873.1792225158237
 10
2663.705260248397
 20
873.2392225158237
  0
ARC
  5
8579
102
{ACAD_REACTORS
330
8978
102
}
330
1F
100
AcDbEntity
  8
3.1. Atea
100
AcDbCircle
 10
2663.786079509431
 20
873.2138559966092
 30
0.0
 40
0.6696339819465166
100
AcDbArc
 50
269.9299016886978
 51
357.8918139715296
  0
LINE
  5
857A
330
1F
100
AcDbEntity
  8
2.2. Barne Horma
100
AcDbLine
 10
2663.785260248396
 20
873.2392225158237
 30
0.0
 11
2663.705260248397
 21
873.2392225158235
 31
0.0
  0
LINE
  5
857B
330
1F
100
AcDbEntity
  8
2.2. Barne Horma
100
AcDbLine
 10
2663.235260248397
 20
872.2792225158235
 30
0.0
 11
2663.785260248398
 21
872.2792225158235
 31
0.0
  0
LWPOLYLINE
  5
857C
102
{ACAD_REACTORS
330
8971
102
}
330
1F
100
AcDbEntity
  8
3.1. Atea
100
AcDbPolyline
 90
        4
 70
     1
 43
0.0
 10
2662.379392204478
 20
874.149222515823
 10
2662.354392204478
 20
874.149222515823
 10
2662.354392204478
 20
873.479222515823
 10
2662.379392204478
 20
873.479222515823
  0
LWPOLYLINE
  5
857D
102
{ACAD_REACTORS
330
8B25
102
}
330
1F
100
AcDbEntity
  8
3.1. Atea
100
AcDbPolyline
 90
        6
 70
     0
 43
0.0
 10
2663.049392204479
 20
873.479222515823
 10
2663.024392204479
 20
873.479222515823
 10
2663.024392204479
 20
873.4542225158229
 10
2662.989392204479
 20
873.4542225158229
 10
2662.989392204479
 20
873.399222515823
 10
2663.049392204479
 20
873.399222515823
  0
LWPOLYLINE
  5
857E
102
{ACAD_REACTORS
330
8B25
102
}
330
1F
100
AcDbEntity
  8
3.1. Atea
100
AcDbPolyline
 90
        6
 70
     0
 43
0.0
 10
2662.329392204478
 20
873.479222515823
 10
2662.354392204478
 20
873.479222515823
 10
2662.354392204478
 20
873.4542225158229
 10
2662.389392204478
 20
873.4542225158229
 10
2662.389392204478
 20
873.3992225158235
 10
2662.329392204478
 20
873.3992225158235
  0
ARC
  5
857F
102
{ACAD_REACTORS
330
8971
102
}
330
1F
100
AcDbEntity
  8
3.1. Atea
100
AcDbCircle
 10
2662.354758723693
 20
873.4800417768578
 30
0.0
 40
0.6696339819465166
100
AcDbArc
 50
359.9299016886978
 51
87.89181397152978
  0
LINE
  5
8580
330
1F
100
AcDbEntity
  8
2.2. Barne Horma
100
AcDbLine
 10
2662.329392204478
 20
873.479222515823
 30
0.0
 11
2662.329392204479
 21
873.3992225158235
 31
0.0
  0
LINE
  5
8581
330
1F
100
AcDbEntity
  8
2.2. Barne Horma
100
AcDbLine
 10
2663.049392204479
 20
873.4792225158223
 30
0.0
 11
2663.049392204479
 21
873.3992225158228
 31
0.0
  0
LINE
  5
8582
102
{ACAD_REACTORS
330
8B0D
102
}
330
1F
100
AcDbEntity
  8
2.2. Barne Horma
100
AcDbLine
 10
2663.049392204479
 20
873.3992225158235
 30
0.0
 11
2663.705260248398
 21
873.3992225158235
 31
0.0
  0
LINE
  5
8583
330
1F
100
AcDbEntity
  8
2.2. Barne Horma
100
AcDbLine
 10
2663.049392204479
 20
873.4792225158235
 30
0.0
 11
2663.785260248398
 21
873.4792225158235
 31
0.0
  0
LINE
  5
85A0
330
1F
100
AcDbEntity
  8
2.2. Barne Horma
100
AcDbLine
 10
2663.785260248398
 20
872.2792225158235
 30
0.0
 11
2663.785260248398
 21
872.5192225158235
 31
0.0
  0
LINE
  5
85A1
330
1F
100
AcDbEntity
  8
2.2. Barne Horma
100
AcDbLine
 10
2663.785260248396
 20
872.5192225158235
 30
0.0
 11
2663.705260248397
 21
872.5192225158235
 31
0.0
  0
LINE
  5
85A2
330
1F
100
AcDbEntity
  8
2.2. Barne Horma
100
AcDbLine
 10
2663.705260248398
 20
872.5192225158235
 30
0.0
 11
2663.705260248398
 21
872.3592225158236
 31
0.0
  0
LINE
  5
85A3
102
{ACAD_REACTORS
330
8B0D
102
}
330
1F
100
AcDbEntity
  8
2.2. Barne Horma
100
AcDbLine
 10
2663.235260248397
 20
872.3592225158238
 30
0.0
 11
2663.705260248398
 21
872.3592225158236
 31
0.0
  0
LINE
  5
85C2
330
1F
100
AcDbEntity
  8
2.2. Barne Horma
100
AcDbLine
 10
2663.235260248397
 20
872.2792225158224
 30
0.0
 11
2663.235260248397
 21
872.3592225158238
 31
0.0
  0
LINE
  5
85D2
330
1F
100
AcDbEntity
  8
6.1. Eskailerak
100
AcDbLine
 10
2663.235260248397
 20
871.7775625158237
 30
0.0
 11
2663.235260248397
 21
869.6142225158244
 31
0.0
  0
LINE
  5
85E3
330
1F
100
AcDbEntity
  8
6.1. Eskailerak
  6
ACAD_ISO02W100
 48
0.00018
100
AcDbLine
 10
2663.235260248397
 20
872.3592225158238
 30
0.0
 11
2662.235260248398
 21
872.3592225158236
 31
0.0
  0
LINE
  5
85F4
330
1F
100
AcDbEntity
  8
6.1. Eskailerak
100
AcDbLine
 10
2664.035260248398
 20
870.6142225158247
 30
0.0
 11
2663.235260248397
 21
870.6142225158245
 31
0.0
  0
CIRCLE
  5
8603
330
1F
100
AcDbEntity
  8
5.1. Komuneko altzaria
100
AcDbCircle
 10
2663.635260248397
 20
870.6142225158247
 30
0.0
 40
0.03
  0
LINE
  5
8606
330
1F
100
AcDbEntity
  8
6.1. Eskailerak
100
AcDbLine
 10
2663.635260248397
 20
870.6142225158247
 30
0.0
 11
2663.635260248398
 21
870.373392515825
 31
0.0
  0
LWPOLYLINE
  5
8607
330
1F
100
AcDbEntity
  8
5.1. Komuneko altzaria
100
AcDbPolyline
 90
        3
 70
     1
 43
0.0
 10
2663.635260248397
 20
870.3233925158247
 10
2663.582400160807
 20
870.373392515825
 10
2663.688120335988
 20
870.373392515825
  0
LINE
  5
8609
330
1F
100
AcDbEntity
  8
6.1. Eskailerak
100
AcDbLine
 10
2663.635260248396
 20
870.3233925158256
 30
0.0
 11
2663.635260248396
 21
870.0142225158245
 31
0.0
  0
LINE
  5
860A
330
1F
100
AcDbEntity
  8
6.1. Eskailerak
100
AcDbLine
 10
2663.635260248396
 20
870.0142225158245
 30
0.0
 11
2663.235260248397
 21
870.0142225158243
 31
0.0
  0
LINE
  5
860B
330
1F
100
AcDbEntity
  8
6.1. Eskailerak
100
AcDbLine
 10
2663.235260248397
 20
870.0142225158243
 30
0.0
 11
2662.735260248398
 21
870.0142225158243
 31
0.0
  0
LINE
  5
860D
330
1F
100
AcDbEntity
  8
6.1. Eskailerak
100
AcDbLine
 10
2662.735260248398
 20
871.5821475158223
 30
0.0
 11
2662.735260248398
 21
870.0142225158243
 31
0.0
  0
LWPOLYLINE
  5
860F
330
1F
100
AcDbEntity
  8
6.1. Eskailerak
  6
ACAD_ISO02W100
 48
0.00018
100
AcDbPolyline
 90
        3
 70
     1
 43
0.0
 10
2662.735260248397
 20
872.3592225158219
 10
2662.682400160807
 20
872.3092225158216
 10
2662.788120335987
 20
872.3092225158216
  0
LINE
  5
861E
330
1F
100
AcDbEntity
  8
6.1. Eskailerak
100
AcDbLine
 10
2662.235260248397
 20
871.4867325158236
 30
0.0
 11
2663.235260248397
 21
871.7775625158237
 31
0.0
  0
LWPOLYLINE
  5
861F
330
1F
100
AcDbEntity
  8
5.1. Komuneko altzaria
100
AcDbPolyline
 90
        3
 70
     1
 43
0.0
 10
2662.735260248398
 20
871.6321475158226
 10
2662.682400160809
 20
871.5821475158223
 10
2662.788120335989
 20
871.5821475158223
  0
LINE
  5
8620
330
1F
100
AcDbEntity
  8
6.1. Eskailerak
  6
ACAD_ISO02W100
 48
0.00018
100
AcDbLine
 10
2662.7352602484
 20
871.6321475158245
 30
0.0
 11
2662.735260248398
 21
872.3092225158216
 31
0.0
  0
LINE
  5
8630
102
{ACAD_REACTORS
330
8918
102
}
330
1F
100
AcDbEntity
  8
2.3. Mehelina
100
AcDbLine
 10
2662.082260248398
 20
869.8492225158243
 30
0.0
 11
2662.235260248398
 21
870.6142225158243
 31
0.0
  0
LINE
  5
8633
330
1F
100
AcDbEntity
  8
2.1. Kanpo Horma
100
AcDbLine
 10
2662.095260248398
 20
869.6142225158244
 30
0.0
 11
2662.095260248398
 21
869.5492225158245
 31
0.0
  0
LINE
  5
8634
330
1F
100
AcDbEntity
  8
2.1. Kanpo Horma
100
AcDbLine
 10
2662.035260248398
 20
869.6142225158244
 30
0.0
 11
2662.095260248398
 21
869.6142225158244
 31
0.0
  0
LINE
  5
8635
102
{ACAD_REACTORS
330
8918
102
}
330
1F
100
AcDbEntity
  8
2.1. Kanpo Horma
100
AcDbLine
 10
2662.022260248399
 20
869.5492225158245
 30
0.0
 11
2661.518299467855
 21
869.5492225158236
 31
0.0
  0
LWPOLYLINE
  5
867E
330
1F
100
AcDbEntity
  8
6.1. Eskailerak
100
AcDbPolyline
 90
        3
 70
     0
 43
0.0
 10
2663.195260248396
 20
881.8415885476424
 10
2661.900260248397
 20
881.8415885476433
 10
2661.900260248397
 20
886.7815885476431
  0
LWPOLYLINE
  5
867F
330
1F
100
AcDbEntity
  8
7.1. Azalera erabilgarria
100
AcDbPolyline
 90
        3
 70
     0
 43
0.0
 10
2665.590260248397
 20
871.7592225158245
 10
2663.195260248396
 20
871.7592225158245
 10
2663.195260248397
 20
872.3592225158238
  0
LWPOLYLINE
  5
8680
330
1F
100
AcDbEntity
  8
2.3. Mehelina
100
AcDbPolyline
 90
        4
 70
     0
 43
0.0
 10
2661.900260248402
 20
886.7815885476431
 10
2662.250260248402
 20
886.7815885476431
 10
2662.250260248402
 20
887.1315885476432
 10
2662.250260248402
 20
887.1315885476432
  0
LINE
  5
86A5
330
1F
100
AcDbEntity
  8
6.1. Eskailerak
100
AcDbLine
 10
2662.235260248398
 20
870.6142225158243
 30
0.0
 11
2663.235260248397
 21
870.6142225158245
 31
0.0
  0
LINE
  5
86A6
330
1F
100
AcDbEntity
  8
6.1. Eskailerak
  6
ACAD_ISO02W100
 48
0.00018
100
AcDbLine
 10
2663.235260248397
 20
872.0683925158239
 30
0.0
 11
2662.235260248398
 21
872.0683925158237
 31
0.0
  0
LINE
  5
86A7
330
1F
100
AcDbEntity
  8
6.1. Eskailerak
  6
ACAD_ISO02W100
 48
0.00018
100
AcDbLine
 10
2663.235260248397
 20
871.7775625158237
 30
0.0
 11
2662.235260248398
 21
871.7775625158237
 31
0.0
  0
LINE
  5
86A8
330
1F
100
AcDbEntity
  8
6.1. Eskailerak
 48
0.00018
100
AcDbLine
 10
2663.235260248397
 20
871.4867325158238
 30
0.0
 11
2662.235260248398
 21
871.4867325158236
 31
0.0
  0
LINE
  5
86A9
330
1F
100
AcDbEntity
  8
6.1. Eskailerak
 48
0.00018
100
AcDbLine
 10
2663.235260248397
 20
871.1959025158236
 30
0.0
 11
2662.235260248398
 21
871.1959025158236
 31
0.0
  0
LINE
  5
86AA
330
1F
100
AcDbEntity
  8
6.1. Eskailerak
 48
0.00018
100
AcDbLine
 10
2663.235260248397
 20
870.9050725158236
 30
0.0
 11
2662.235260248398
 21
870.9050725158235
 31
0.0
  0
LINE
  5
86AC
330
1F
100
AcDbEntity
  8
6.1. Eskailerak
  6
ACAD_ISO02W100
 48
0.00018
100
AcDbLine
 10
2663.235260248397
 20
871.7775625158237
 30
0.0
 11
2663.235260248397
 21
872.2792225158224
 31
0.0
  0
LINE
  5
86BB
330
1F
100
AcDbEntity
  8
6.1. Eskailerak
100
AcDbLine
 10
2664.035260248398
 20
870.3233925158247
 30
0.0
 11
2663.235260248397
 21
870.3233925158246
 31
0.0
  0
LINE
  5
86D8
102
{ACAD_REACTORS
330
8918
102
}
330
1F
100
AcDbEntity
  8
2.3. Mehelina
100
AcDbLine
 10
2662.235260248398
 20
872.3592225158238
 30
0.0
 11
2662.235260248398
 21
870.6142225158243
 31
0.0
  0
LINE
  5
86F5
102
{ACAD_REACTORS
330
8918
102
}
330
1F
100
AcDbEntity
  8
2.3. Mehelina
100
AcDbLine
 10
2662.235260248398
 20
872.3592225158236
 30
0.0
 11
2661.900260248399
 21
872.3592225158245
 31
0.0
  0
LINE
  5
86F6
102
{ACAD_REACTORS
330
8918
102
}
330
1F
100
AcDbEntity
  8
2.3. Mehelina
100
AcDbLine
 10
2661.878299467854
 20
869.8492225158242
 30
0.0
 11
2662.035260248398
 21
870.6340264185433
 31
0.0
  0
LINE
  5
86F7
102
{ACAD_REACTORS
330
8918
102
}
330
1F
100
AcDbEntity
  8
2.3. Mehelina
100
AcDbLine
 10
2662.035260248398
 20
872.1592225158243
 30
0.0
 11
2662.035260248398
 21
870.6340264185444
 31
0.0
  0
LINE
  5
86F8
102
{ACAD_REACTORS
330
8918
102
}
330
1F
100
AcDbEntity
  8
2.3. Mehelina
100
AcDbLine
 10
2662.035260248398
 20
872.1592225158241
 30
0.0
 11
2661.700260248399
 21
872.1592225158245
 31
0.0
  0
LINE
  5
86F9
102
{ACAD_REACTORS
330
8AF9
102
}
330
1F
100
AcDbEntity
  8
2.2. Barne Horma
100
AcDbLine
 10
2662.235260248397
 20
873.3992225158235
 30
0.0
 11
2662.235260248397
 21
872.3592225158238
 31
0.0
  0
LINE
  5
86FC
102
{ACAD_REACTORS
330
8918
102
}
330
1F
100
AcDbEntity
  8
2.1. Kanpo Horma
100
AcDbLine
 10
2661.878299467854
 20
869.8492225158242
 30
0.0
 11
2661.578299467854
 21
869.8492225158238
 31
0.0
  0
LINE
  5
86FD
102
{ACAD_REACTORS
330
8918
330
8BAF
102
}
330
1F
100
AcDbEntity
  8
2.1. Kanpo Horma
100
AcDbLine
 10
2662.082260248398
 20
869.8492225158243
 30
0.0
 11
2662.022260248398
 21
869.5492225158243
 31
0.0
  0
LINE
  5
86FE
102
{ACAD_REACTORS
330
8BAF
102
}
330
1F
100
AcDbEntity
  8
2.1. Kanpo Horma
100
AcDbLine
 10
2662.095260248398
 20
869.5492225158242
 30
0.0
 11
2662.022260248399
 21
869.5492225158245
 31
0.0
  0
LINE
  5
86FF
102
{ACAD_REACTORS
330
8918
102
}
330
1F
100
AcDbEntity
  8
2.1. Kanpo Horma
100
AcDbLine
 10
2661.578299467854
 20
869.8492225158238
 30
0.0
 11
2661.518299467855
 21
869.5492225158238
 31
0.0
  0
LWPOLYLINE
  5
871C
330
1F
100
AcDbEntity
  8
3.1. Atea
100
AcDbPolyline
 90
        4
 70
     1
 43
0.0
 10
2666.645260248398
 20
877.0342225158245
 10
2666.620260248398
 20
877.0342225158245
 10
2666.620260248398
 20
877.9542225158243
 10
2666.645260248398
 20
877.9542225158243
  0
LWPOLYLINE
  5
871D
330
1F
100
AcDbEntity
  8
3.1. Atea
100
AcDbPolyline
 90
        6
 70
     0
 43
0.0
 10
2667.565260248398
 20
877.9542225158243
 10
2667.540260248398
 20
877.9542225158243
 10
2667.540260248398
 20
877.9792225158242
 10
2667.505260248398
 20
877.9792225158242
 10
2667.505260248398
 20
878.0192225158243
 10
2667.565260248398
 20
878.0192225158243
  0
LWPOLYLINE
  5
871E
330
1F
100
AcDbEntity
  8
3.1. Atea
100
AcDbPolyline
 90
        6
 70
     0
 43
0.0
 10
2666.595260248398
 20
877.9542225158243
 10
2666.620260248398
 20
877.9542225158243
 10
2666.620260248398
 20
877.9792225158242
 10
2666.655260248397
 20
877.9792225158242
 10
2666.655260248397
 20
878.0192225158243
 10
2666.595260248398
 20
878.0192225158243
  0
ARC
  5
871F
330
1F
100
AcDbEntity
  8
3.1. Atea
100
AcDbCircle
 10
2666.620519786928
 20
877.9536303560577
 30
0.0
 40
0.9197406520948669
100
AcDbArc
 50
271.5414073803008
 51
0.0368889400342947
  0
LINE
  5
8721
330
1F
100
AcDbEntity
  8
3.2. Leihoa
100
AcDbLine
 10
2666.595260248398
 20
878.0192225158243
 30
0.0
 11
2666.595260248398
 21
877.9542225158243
 31
0.0
  0
LINE
  5
8726
102
{ACAD_REACTORS
330
8918
102
}
330
1F
100
AcDbEntity
  8
2.1. Kanpo Horma
100
AcDbLine
 10
2667.565260248398
 20
877.8692225158243
 30
0.0
 11
2667.565260248398
 21
878.0192225158243
 31
0.0
  0
LINE
  5
8727
330
1F
100
AcDbEntity
  8
2.1. Kanpo Horma
100
AcDbLine
 10
2667.700260248397
 20
878.0192225158243
 30
0.0
 11
2667.765260248398
 21
878.0192225158243
 31
0.0
  0
LINE
  5
8729
102
{ACAD_REACTORS
330
8918
102
}
330
1F
100
AcDbEntity
  8
2.1. Kanpo Horma
100
AcDbLine
 10
2665.435260248398
 20
878.0192225158243
 30
0.0
 11
2666.295260248398
 21
878.0192225158241
 31
0.0
  0
LINE
  5
872A
102
{ACAD_REACTORS
330
8918
102
}
330
1F
100
AcDbEntity
  8
2.1. Kanpo Horma
100
AcDbLine
 10
2666.295260248398
 20
877.8692225158241
 30
0.0
 11
2666.295260248398
 21
878.0192225158241
 31
0.0
  0
LINE
  5
872B
102
{ACAD_REACTORS
330
8918
102
}
330
1F
100
AcDbEntity
  8
2.1. Kanpo Horma
100
AcDbLine
 10
2666.295260248398
 20
877.8692225158241
 30
0.0
 11
2665.435260248398
 21
877.8692225158243
 31
0.0
  0
LINE
  5
872D
102
{ACAD_REACTORS
330
8918
102
}
330
1F
100
AcDbEntity
  8
2.1. Kanpo Horma
100
AcDbLine
 10
2665.435260248398
 20
878.3192225158241
 30
0.0
 11
2665.235260248398
 21
878.3192225158241
 31
0.0
  0
LINE
  5
872E
102
{ACAD_REACTORS
330
8918
102
}
330
1F
100
AcDbEntity
  8
2.1. Kanpo Horma
100
AcDbLine
 10
2665.235260248398
 20
878.3192225158241
 30
0.0
 11
2665.235260248398
 21
877.8492225158245
 31
0.0
  0
LINE
  5
872F
102
{ACAD_REACTORS
330
8918
102
}
330
1F
100
AcDbEntity
  8
2.1. Kanpo Horma
100
AcDbLine
 10
2665.435260248398
 20
878.3192225158241
 30
0.0
 11
2665.435260248398
 21
878.0192225158243
 31
0.0
  0
LINE
  5
8730
102
{ACAD_REACTORS
330
8918
102
}
330
1F
100
AcDbEntity
  8
2.3. Mehelina
100
AcDbLine
 10
2663.845260248397
 20
877.8492225158245
 30
0.0
 11
2665.235260248398
 21
877.8492225158245
 31
0.0
  0
LINE
  5
8731
330
1F
100
AcDbEntity
  8
3.1. Atea
100
AcDbLine
 10
2666.595260248398
 20
878.0192225158243
 30
0.0
 11
2666.295260248398
 21
878.0192225158241
 31
0.0
  0
LINE
  5
8732
330
1F
100
AcDbEntity
  8
3.1. Atea
100
AcDbLine
 10
2666.595260248398
 20
877.9542225158243
 30
0.0
 11
2666.295260248398
 21
877.9542225158241
 31
0.0
  0
LINE
  5
8733
330
1F
100
AcDbEntity
  8
3.1. Atea
100
AcDbLine
 10
2666.595260248398
 20
877.9867225158243
 30
0.0
 11
2666.295260248398
 21
877.9867225158243
 31
0.0
  0
LINE
  5
8742
102
{ACAD_REACTORS
330
8918
102
}
330
1F
100
AcDbEntity
  8
2.1. Kanpo Horma
100
AcDbLine
 10
2667.765260248398
 20
878.0192225158243
 30
0.0
 11
2667.565260248398
 21
878.0192225158243
 31
0.0
  0
LINE
  5
8771
102
{ACAD_REACTORS
330
8918
102
}
330
1F
100
AcDbEntity
  8
2.1. Kanpo Horma
100
AcDbLine
 10
2667.765260248398
 20
872.2792225158235
 30
0.0
 11
2667.565260248398
 21
872.2792225158235
 31
0.0
  0
LINE
  5
8772
102
{ACAD_REACTORS
330
8918
102
}
330
1F
100
AcDbEntity
  8
2.1. Kanpo Horma
100
AcDbLine
 10
2667.565260248398
 20
872.2792225158235
 30
0.0
 11
2667.565260248399
 21
872.6792225158234
 31
0.0
  0
LINE
  5
8773
102
{ACAD_REACTORS
330
8918
102
}
330
1F
100
AcDbEntity
  8
2.1. Kanpo Horma
100
AcDbLine
 10
2667.565260248398
 20
872.6792225158234
 30
0.0
 11
2667.765260248398
 21
872.6792225158234
 31
0.0
  0
LINE
  5
8774
102
{ACAD_REACTORS
330
8918
102
}
330
1F
100
AcDbEntity
  8
2.1. Kanpo Horma
100
AcDbLine
 10
2667.765260248398
 20
872.2792225158235
 30
0.0
 11
2667.765260248398
 21
872.6792225158234
 31
0.0
  0
LINE
  5
8775
330
1F
100
AcDbEntity
  8
3.2. Leihoa
100
AcDbLine
 10
2667.765260248398
 20
872.2292225158231
 30
0.0
 11
2667.700260248397
 21
872.2292225158231
 31
0.0
  0
LINE
  5
8776
330
1F
100
AcDbEntity
  8
3.2. Leihoa
100
AcDbLine
 10
2667.750260248397
 20
872.1892225158232
 30
0.0
 11
2667.700260248397
 21
872.1892225158232
 31
0.0
  0
LINE
  5
8777
330
1F
100
AcDbEntity
  8
3.2. Leihoa
100
AcDbLine
 10
2667.700260248398
 20
872.2792225158235
 30
0.0
 11
2667.700260248398
 21
870.6589976753509
 31
0.0
  0
LINE
  5
8778
330
1F
100
AcDbEntity
  8
3.2. Leihoa
100
AcDbLine
 10
2667.765260248398
 20
870.6320737937968
 30
0.0
 11
2667.765260248398
 21
872.2792225158235
 31
0.0
  0
LINE
  5
8779
330
1F
100
AcDbEntity
  8
3.2. Leihoa
100
AcDbLine
 10
2667.750260248398
 20
872.2292225158234
 30
0.0
 11
2667.750260248399
 21
870.682073793796
 31
0.0
  0
LINE
  5
877A
330
1F
100
AcDbEntity
  8
3.2. Leihoa
100
AcDbLine
 10
2667.725260248398
 20
872.1892225158233
 30
0.0
 11
2667.725260248398
 21
870.7220737937964
 31
0.0
  0
LINE
  5
877B
330
1F
100
AcDbEntity
  8
3.2. Leihoa
100
AcDbLine
 10
2667.765260248398
 20
872.7292225158238
 30
0.0
 11
2667.700260248397
 21
872.7292225158238
 31
0.0
  0
LINE
  5
877C
330
1F
100
AcDbEntity
  8
3.2. Leihoa
100
AcDbLine
 10
2667.750260248397
 20
872.7692225158238
 30
0.0
 11
2667.700260248397
 21
872.7692225158238
 31
0.0
  0
LINE
  5
878B
330
1F
100
AcDbEntity
  8
6.1. Eskailerak
  6
ACAD_ISO02W100
 48
0.00018
100
AcDbLine
 10
2661.900260248398
 20
877.6492225158246
 30
0.0
 11
2662.155260248398
 21
872.359222515824
 31
0.0
  0
LINE
  5
878C
330
1F
100
AcDbEntity
  8
6.1. Eskailerak
  6
ACAD_ISO02W100
 48
0.00018
100
AcDbLine
 10
2661.900260248399
 20
872.3592225158245
 30
0.0
 11
2662.155260248398
 21
877.6492225158246
 31
0.0
  0
LINE
  5
87C5
102
{ACAD_REACTORS
330
8804
330
8A43
102
}
330
1F
100
AcDbEntity
  8
4.1. Zeramika-baldosa
100
AcDbLine
 10
2662.905260248398
 20
877.6492225158246
 30
0.0
 11
2663.505260248398
 21
877.6492225158246
 31
0.0
  0
HATCH
  5
8804
330
1F
100
AcDbEntity
  8
4.1. Zeramika-baldosa
100
AcDbHatch
 10
0.0
 20
0.0
 30
0.0
210
0.0
220
0.0
230
1.0
  2
ANSI37
 70
     0
 71
     1
 91
        7
 92
        7
 72
     1
 73
     1
 93
       12
 10
2662.050260248399
 20
878.9592225158244
 42
0.0
 10
2662.050260248399
 20
878.7092225158245
 42
0.0
 10
2661.900260248403
 20
878.7092225158245
 42
0.0
 10
2661.900260248402
 20
877.7492225158246
 42
0.0
 10
2662.845260248397
 20
877.7492225158246
 42
0.0
 10
2662.870260248398
 20
877.7492225158248
 42
-0.4038329215684094
 10
2663.515260248401
 20
878.4192225158248
 42
0.0
 10
2663.540260248398
 20
878.4192225158248
 42
0.0
 10
2663.540260248398
 20
877.7492225158248
 42
0.0
 10
2663.565260248398
 20
877.7492225158248
 42
0.0
 10
2663.645260248414
 20
877.7492225158244
 42
0.0
 10
2663.645260248398
 20
878.9592225158244
 42
0.0
 97
       11
330
8308
330
837B
330
837C
330
840B
330
830A
330
8315
330
8317
330
8314
330
8316
330
8335
330
8309
 92
       22
 72
     1
 73
     1
 93
       11
 10
2662.480260248399
 20
878.3780624005032
 42
-0.4142135623730951
 10
2662.530260248399
 20
878.3280624005032
 42
0.0
 10
2662.530260248399
 20
878.2080624005034
 42
0.0
 10
2662.530260248399
 20
878.0880624005032
 42
-0.4142135623730951
 10
2662.480260248399
 20
878.0380624005031
 42
0.0
 10
2662.040260248399
 20
878.0380624005033
 42
0.0
 10
2662.040260248399
 20
878.0080624005032
 42
0.0
 10
2661.910260248399
 20
878.0080624005032
 42
0.0
 10
2661.910260248399
 20
878.4080624005031
 42
0.0
 10
2662.040260248399
 20
878.4080624005031
 42
0.0
 10
2662.040260248399
 20
878.378062400503
 42
0.0
 97
       10
330
835E
330
834F
330
8357
330
8356
330
8353
330
8352
330
8355
330
8351
330
835D
330
835B
 92
       22
 72
     0
 73
     1
 93
        4
 10
2662.716675831082
 20
878.9493268461425
 10
2663.316675831082
 20
878.9493268461425
 10
2663.316675831082
 20
878.4493268461426
 10
2662.716675831083
 20
878.4493268461426
 97
        4
330
837F
330
8381
330
837E
330
8380
 92
       22
 72
     0
 73
     1
 93
        4
 10
2662.200260248398
 20
878.7092225158245
 10
2662.100260248398
 20
878.7092225158245
 10
2662.100260248398
 20
878.8092225158246
 10
2662.200260248398
 20
878.8092225158246
 97
        1
330
837D
 92
        6
 72
     0
 73
     1
 93
        8
 10
2662.766675831082
 20
878.8139928912793
 10
2663.006547218623
 20
878.8139928912793
 10
2663.006547218623
 20
878.9058780065623
 10
2663.026804443541
 20
878.9058780065623
 10
2663.026804443541
 20
878.8139928912793
 10
2663.266675831082
 20
878.8139928912793
 10
2663.266675831082
 20
878.4993268461425
 10
2662.766675831082
 20
878.4993268461425
 97
        4
330
8382
330
8383
330
8385
330
8384
 92
        6
 72
     1
 73
     1
 93
        2
 10
2662.995719985335
 20
878.6669281006503
 42
-1.0
 10
2663.032518045178
 20
878.6669281006503
 42
-1.0
 97
        1
330
8386
 92
        7
 72
     1
 73
     1
 93
       10
 10
2662.870260248398
 20
877.7492225158248
 42
0.0
 10
2662.870260248398
 20
877.7242225158246
 42
0.0
 10
2662.905260248398
 20
877.7242225158246
 42
0.0
 10
2662.905260248398
 20
877.6492225158246
 42
0.0
 10
2663.505260248398
 20
877.6492225158246
 42
0.0
 10
2663.505260248398
 20
877.7242225158246
 42
0.0
 10
2663.540260248398
 20
877.7242225158246
 42
0.0
 10
2663.540260248398
 20
877.7492225158248
 42
0.0
 10
2663.515260248398
 20
877.7492225158248
 42
0.0
 10
2663.515260248398
 20
878.4192225158246
 42
0.4038329215668743
 97
        5
330
8317
330
8315
330
87C5
330
8316
330
8314
 75
     1
 76
     1
 52
45.0
 41
0.13
 77
     0
 78
     2
 53
90.0
 43
0.0
 44
0.0
 45
-0.41275
 46
0.0000000000000001
 79
     0
 53
180.0
 43
0.0
 44
0.0
 45
-0.0000000000000001
 46
-0.41275
 79
     0
 47
0.0052620880340593
 98
        7
 10
2662.459938806243
 20
878.6078869968479
 10
2662.459938806243
 20
878.6078869968479
 10
2662.459938806243
 20
878.6078869968479
 10
2662.459938806243
 20
878.6078869968479
 10
2662.459938806243
 20
878.6078869968479
 10
2662.459938806243
 20
878.6078869968479
 10
2663.128882089069
 20
878.1132509390761
1001
GradientColor1ACI
1070
     5
1001
GradientColor2ACI
1070
     2
1001
ACAD
1010
0.0
1020
0.0
1030
0.0
  0
LINE
  5
8805
330
1F
100
AcDbEntity
  8
4.2. Parket
100
AcDbLine
 10
2666.655260248397
 20
878.0192225158243
 30
0.0
 11
2667.505260248398
 21
878.0192225158243
 31
0.0
  0
LINE
  5
8806
330
1F
100
AcDbEntity
  8
4.2. Parket
100
AcDbLine
 10
2664.602408970426
 20
869.5492225158245
 30
0.0
 11
2665.452408970426
 21
869.5492225158243
 31
0.0
  0
HATCH
  5
8854
330
1F
100
AcDbEntity
  8
4.2. Parket
100
AcDbHatch
 10
0.0
 20
0.0
 30
0.0
210
0.0
220
0.0
230
1.0
  2
ANSI31
 70
     0
 71
     0
 91
        3
 92
        7
 72
     1
 73
     1
 93
       53
 10
2667.700260248397
 20
877.8692225158245
 42
0.0
 10
2667.565260248398
 20
877.8692225158248
 42
0.0
 10
2667.565260248398
 20
877.9542225158243
 42
0.0
 10
2667.540260248397
 20
877.9542225158243
 42
-0.406543284531665
 10
2666.645260248398
 20
877.0342225158245
 42
0.0
 10
2666.620260248398
 20
877.0342225158245
 42
0.0
 10
2666.620260248398
 20
877.9542225158243
 42
0.0
 10
2666.595260248398
 20
877.9542225158243
 42
0.0
 10
2666.295260248398
 20
877.9542225158241
 42
0.0
 10
2666.295260248398
 20
877.8692225158241
 42
0.0
 10
2665.435260248398
 20
877.8692225158243
 42
0.0
 10
2665.435260248398
 20
877.6492225158245
 42
0.0
 10
2663.745260248398
 20
877.6492225158245
 42
0.0
 10
2663.745260248398
 20
875.2692225158245
 42
0.0
 10
2663.095260248398
 20
875.2692225158245
 42
0.0
 10
2663.095260248398
 20
875.3492225158245
 42
0.0
 10
2663.665260248398
 20
875.3492225158245
 42
0.0
 10
2663.665260248398
 20
877.6492225158245
 42
0.0
 10
2663.565260248398
 20
877.6492225158245
 42
0.0
 10
2663.505260248398
 20
877.6492225158246
 42
0.0
 10
2662.905260248398
 20
877.6492225158246
 42
0.0
 10
2662.845260248398
 20
877.6492225158246
 42
0.0
 10
2662.235260248398
 20
877.6492225158246
 42
0.0
 10
2662.235260248397
 20
873.4792225158239
 42
0.0
 10
2662.329392204478
 20
873.4792225158237
 42
0.0
 10
2662.354392204478
 20
873.479222515823
 42
0.0
 10
2662.354392204478
 20
874.149222515823
 42
0.0
 10
2662.379392204475
 20
874.149222515823
 42
-0.4031216135876292
 10
2663.024392204479
 20
873.4808610378927
 42
0.0
 10
2663.024392204479
 20
873.479222515823
 42
0.0
 10
2663.049392204479
 20
873.479222515823
 42
0.0
 10
2663.785260248398
 20
873.4792225158235
 42
0.0
 10
2663.785260248398
 20
873.2392225158237
 42
0.0
 10
2663.785260248396
 20
873.2142225158236
 42
0.0
 10
2664.455260248397
 20
873.2142225158236
 42
0.0
 10
2664.455260248397
 20
873.189222515824
 42
-0.4031216136668352
 10
2663.786898770281
 20
872.5442225158236
 42
0.0
 10
2663.785260248396
 20
872.5442225158236
 42
0.0
 10
2663.785260248396
 20
872.5192225158235
 42
0.0
 10
2664.035260248395
 20
872.5192225158243
 42
0.0
 10
2664.035260248397
 20
869.6142225158244
 42
0.0
 10
2664.542408970426
 20
869.6142225158244
 42
0.0
 10
2664.567408970427
 20
869.6142225158244
 42
-0.4065432845316755
 10
2665.462408970426
 20
870.5342225158242
 42
0.0
 10
2665.487408970426
 20
870.5342225158242
 42
0.0
 10
2665.487408970426
 20
869.6142225158244
 42
0.0
 10
2665.512408970426
 20
869.6142225158244
 42
0.0
 10
2666.655485088872
 20
869.6142225158244
 42
0.0
 10
2667.700260248398
 20
870.6589976753509
 42
0.0
 10
2667.700260248398
 20
872.2792225158235
 42
0.0
 10
2667.565260248398
 20
872.2792225158235
 42
0.0
 10
2667.565260248399
 20
872.6792225158234
 42
0.0
 10
2667.700260248397
 20
872.6792225158234
 42
0.0
 97
        0
 92
        7
 72
     1
 73
     1
 93
       10
 10
2667.540260248398
 20
877.9542225151175
 42
0.0
 10
2667.540260248398
 20
877.9792225158242
 42
0.0
 10
2667.505260248398
 20
877.9792225158242
 42
0.0
 10
2667.505260248398
 20
878.0192225158243
 42
0.0
 10
2666.655260248397
 20
878.0192225158243
 42
0.0
 10
2666.655260248397
 20
877.9792225158242
 42
0.0
 10
2666.620260248398
 20
877.9792225158242
 42
0.0
 10
2666.620260248398
 20
877.9542225158243
 42
0.0
 10
2666.645260248398
 20
877.9542225158243
 42
0.0
 10
2666.645260248398
 20
877.0342225158245
 42
0.4065432843077905
 97
        0
 92
        7
 72
     1
 73
     1
 93
       10
 10
2665.462408970426
 20
870.5342225158242
 42
0.4065432843079413
 10
2664.567408970426
 20
869.6142225165306
 42
0.0
 10
2664.567408970426
 20
869.5892225158244
 42
0.0
 10
2664.602408970426
 20
869.5892225158244
 42
0.0
 10
2664.602408970426
 20
869.5492225158245
 42
0.0
 10
2665.452408970426
 20
869.5492225158243
 42
0.0
 10
2665.452408970426
 20
869.5892225158244
 42
0.0
 10
2665.487408970426
 20
869.5892225158244
 42
0.0
 10
2665.487408970426
 20
869.6142225158244
 42
0.0
 10
2665.462408970426
 20
869.6142225158244
 42
0.0
 97
        0
 75
     1
 76
     1
 52
135.0
 41
0.06
 77
     0
 78
     1
 53
180.0
 43
0.0
 44
0.0
 45
0.0
 46
-0.1905
 79
     0
 47
0.0230331304744977
 98
        3
 10
2665.468569543519
 20
875.1929851613136
 10
2666.82886127586
 20
877.6344969242019
 10
2665.168842999304
 20
869.9414312776502
1001
GradientColor1ACI
1070
     5
1001
GradientColor2ACI
1070
     2
1001
ACAD
1010
0.0
1020
0.0
1030
0.0
  0
LWPOLYLINE
  5
888D
330
1F
100
AcDbEntity
  8
2.6. Zorua
  6
ACAD_ISO02W100
 48
0.0002
100
AcDbPolyline
 90
        5
 70
     0
 43
0.0
 10
2663.195260248396
 20
872.3592225158238
 10
2663.195260248396
 20
871.7592225158245
 10
2665.590260248397
 20
871.7592225158245
 10
2665.590260248397
 20
877.6492225158246
 10
2665.590260248397
 20
877.8692225158243
  0
MTEXT
  5
889C
330
1F
100
AcDbEntity
  8
7.2. Idatzia
100
AcDbMText
 10
2663.908654721489
 20
867.8296020242353
 30
0.0
 40
0.25
 41
3.934541634584093
 46
0.0
 71
     1
 72
     5
  1
A{\H0.5x;erabilgarria }= 43.80 m²
 73
     1
 44
1.0
1001
ACAD
1000
ACAD_MTEXT_COLUMN_INFO_BEGIN
1070
    75
1070
     2
1070
    79
1070
     0
1070
    76
1070
     1
1070
    78
1070
     0
1070
    48
1040
3.934541634584093
1070
    49
1040
12.5
1070
    50
1070
     1
1040
0.0
1000
ACAD_MTEXT_COLUMN_INFO_END
  0
MTEXT
  5
889D
330
1F
100
AcDbEntity
  8
7.2. Idatzia
100
AcDbMText
 10
2663.894155734996
 20
867.2527474236023
 30
0.0
 40
0.25
 41
3.934541634584093
 46
0.0
 71
     1
 72
     5
  1
A{\H0.5x;Osoa }= 65.80 m²
 73
     1
 44
1.0
1001
ACAD
1000
ACAD_MTEXT_COLUMN_INFO_BEGIN
1070
    75
1070
     2
1070
    79
1070
     0
1070
    76
1070
     1
1070
    78
1070
     0
1070
    48
1040
3.934541634584093
1070
    49
1040
12.5
1070
    50
1070
     1
1040
0.0
1000
ACAD_MTEXT_COLUMN_INFO_END
  0
MTEXT
  5
889E
330
1F
100
AcDbEntity
  8
7.2. Idatzia
100
AcDbMText
 10
2661.532038712961
 20
867.8296020242353
 30
0.0
 40
0.25
 41
3.934541634584093
 46
0.0
 71
     1
 72
     5
  1
BEHE OINA
 73
     1
 44
1.0
1001
ACAD
1000
ACAD_MTEXT_COLUMN_INFO_BEGIN
1070
    75
1070
     2
1070
    79
1070
     0
1070
    76
1070
     1
1070
    78
1070
     0
1070
    48
1040
3.934541634584093
1070
    49
1040
12.5
1070
    50
1070
     1
1040
0.0
1000
ACAD_MTEXT_COLUMN_INFO_END
  0
MTEXT
  5
88AD
330
1F
100
AcDbEntity
  8
7.2. Idatzia
100
AcDbMText
 10
2664.011658032069
 20
880.8169578807911
 30
0.0
 40
0.25
 41
3.934541634584093
 46
0.0
 71
     1
 72
     5
  1
A{\H0.5x;erabilgarria }= 20.18 m²
 73
     1
 44
1.0
1001
ACAD
1000
ACAD_MTEXT_COLUMN_INFO_BEGIN
1070
    75
1070
     2
1070
    79
1070
     0
1070
    76
1070
     1
1070
    78
1070
     0
1070
    48
1040
3.934541634584093
1070
    49
1040
12.5
1070
    50
1070
     1
1040
0.0
1000
ACAD_MTEXT_COLUMN_INFO_END
  0
MTEXT
  5
88AE
330
1F
100
AcDbEntity
  8
7.2. Idatzia
100
AcDbMText
 10
2660.864357664092
 20
880.8178239578042
 30
0.0
 40
0.25
 41
3.934541634584093
 46
0.0
 71
     1
 72
     5
  1
SOLAIRUARTEA
 73
     1
 44
1.0
1001
ACAD
1000
ACAD_MTEXT_COLUMN_INFO_BEGIN
1070
    75
1070
     2
1070
    79
1070
     0
1070
    76
1070
     1
1070
    78
1070
     0
1070
    48
1040
3.934541634584093
1070
    49
1040
12.5
1070
    50
1070
     1
1040
0.0
1000
ACAD_MTEXT_COLUMN_INFO_END
  0
LWPOLYLINE
  5
88BD
102
{ACAD_REACTORS
330
89E6
102
}
330
1F
100
AcDbEntity
  8
2.3. Mehelina
100
AcDbPolyline
 90
        4
 70
     0
 43
0.0
 10
2662.235260248398
 20
881.341588547643
 10
2662.235260248397
 20
881.8415885476424
 10
2661.900260248397
 20
881.8415885476055
 10
2661.900260248397
 20
886.7815885476431
  0
LWPOLYLINE
  5
88BE
330
1F
100
AcDbEntity
  8
2.3. Mehelina
100
AcDbPolyline
 90
        4
 70
     0
 43
0.0
 10
2662.035260248396
 20
881.2599285476045
 10
2662.035260248398
 20
881.6415885476429
 10
2661.700260248399
 20
881.6415885476432
 10
2661.700260248399
 20
887.4315885476381
  0
HATCH
  5
8918
330
1F
100
AcDbEntity
  8
2.5. Horma itzala
100
AcDbHatch
 10
0.0
 20
0.0
 30
0.0
210
0.0
220
0.0
230
1.0
  2
SOLID
 70
     1
 71
     1
 91
        3
 92
        7
 72
     0
 73
     1
 93
       27
 10
2663.845260248395
 20
879.1592225158245
 10
2661.700260248399
 20
879.1592225158245
 10
2661.700260248399
 20
872.1592225158245
 10
2662.035260248398
 20
872.1592225158241
 10
2662.035260248398
 20
870.6340264185433
 10
2661.878299467854
 20
869.8492225158242
 10
2661.578299467854
 20
869.8492225158238
 10
2661.518299467855
 20
869.5492225158236
 10
2662.022260248398
 20
869.5492225158245
 10
2662.082260248398
 20
869.8492225158243
 10
2662.235260248398
 20
870.6142225158266
 10
2662.235260248398
 20
872.3592225158236
 10
2661.900260248399
 20
872.3592225158245
 10
2661.900260248403
 20
878.7092225158245
 10
2662.050260248399
 20
878.7092225158245
 10
2662.050260248399
 20
878.9592225158244
 10
2663.645260248398
 20
878.9592225158244
 10
2663.645260248415
 20
877.6492225158255
 10
2665.435260248398
 20
877.6492225158245
 10
2665.435260248398
 20
877.8692225158243
 10
2666.295260248398
 20
877.8692225158241
 10
2666.295260248398
 20
878.0192225158241
 10
2665.435260248398
 20
878.0192225158243
 10
2665.435260248398
 20
878.3192225158241
 10
2665.235260248398
 20
878.3192225158241
 10
2665.235260248398
 20
877.8492225158245
 10
2663.845260248397
 20
877.8492225158245
 97
       27
330
8436
330
8437
330
86F8
330
86F7
330
86F6
330
86FC
330
86FF
330
8635
330
86FD
330
8630
330
86D8
330
86F5
330
840B
330
837C
330
837B
330
8308
330
8309
330
8399
330
839A
330
872B
330
872A
330
8729
330
872F
330
872D
330
872E
330
8730
330
8438
 92
        7
 72
     0
 73
     1
 93
        4
 10
2667.765260248398
 20
872.6792225158234
 10
2667.565260248399
 20
872.6792225158234
 10
2667.565260248398
 20
872.2792225158235
 10
2667.765260248398
 20
872.2792225158235
 97
        4
330
8773
330
8772
330
8771
330
8774
 92
        7
 72
     0
 73
     1
 93
        4
 10
2667.765260248398
 20
878.0192225158243
 10
2667.565260248398
 20
878.0192225158243
 10
2667.565260248398
 20
877.8692225158248
 10
2667.765260248398
 20
877.8692225158243
 97
        4
330
8742
330
8726
330
83DF
330
2184
 75
     1
 76
     1
 47
0.0069994044532543
 98
        3
 10
2663.749976661769
 20
878.63033293794
 10
2667.674957621446
 20
872.4500366553735
 10
2667.710314318698
 20
877.9834948538796
450
        0
451
        0
460
0.0
461
0.0
452
        0
462
1.0
453
        2
463
0.0
 63
     5
421
      255
463
1.0
 63
     2
421
 16776960
470
LINEAR
1001
GradientColor1ACI
1070
     5
1001
GradientColor2ACI
1070
     2
1001
ACAD
1010
0.0
1020
0.0
1030
0.0
  0
HATCH
  5
891F
330
1F
100
AcDbEntity
  8
2.5. Horma itzala
100
AcDbHatch
 10
0.0
 20
0.0
 30
0.0
210
0.0
220
0.0
230
1.0
  2
SOLID
 70
     1
 71
     1
 91
        1
 92
        7
 72
     0
 73
     1
 93
        4
 10
2662.200260248398
 20
878.8092225158246
 10
2662.100260248398
 20
878.8092225158246
 10
2662.100260248398
 20
878.7092225158245
 10
2662.200260248398
 20
878.7092225158245
 97
        1
330
837D
 75
     1
 76
     1
 47
0.004402256368762
 98
        1
 10
2662.175942157541
 20
878.7742736404037
450
        0
451
        0
460
0.0
461
0.0
452
        0
462
1.0
453
        2
463
0.0
 63
     5
421
      255
463
1.0
 63
     2
421
 16776960
470
LINEAR
1001
GradientColor1ACI
1070
     5
1001
GradientColor2ACI
1070
     2
1001
ACAD
1010
0.0
1020
0.0
1030
0.0
  0
LINE
  5
892E
330
1F
100
AcDbEntity
  8
2.6. Zorua
100
AcDbLine
 10
2665.590260248397
 20
881.2415885476433
 30
0.0
 11
2663.195260248396
 21
881.2415885476433
 31
0.0
  0
LINE
  5
892F
330
1F
100
AcDbEntity
  8
2.6. Zorua
100
AcDbLine
 10
2663.195260248396
 20
881.2415885476433
 30
0.0
 11
2663.195260248396
 21
881.8415885476424
 31
0.0
  0
MTEXT
  5
893E
330
1F
100
AcDbEntity
  8
7.2. Idatzia
100
AcDbMText
 10
2665.938203679742
 20
874.5336932468426
 30
0.0
 40
0.25
 41
3.934541634584093
 46
0.0
 71
     1
 72
     5
  1
H=4.00m
 73
     1
 44
1.0
1001
ACAD
1000
ACAD_MTEXT_COLUMN_INFO_BEGIN
1070
    75
1070
     2
1070
    79
1070
     0
1070
    76
1070
     1
1070
    78
1070
     0
1070
    48
1040
3.934541634584093
1070
    49
1040
12.5
1070
    50
1070
     1
1040
0.0
1000
ACAD_MTEXT_COLUMN_INFO_END
  0
MTEXT
  5
893F
330
1F
100
AcDbEntity
  8
7.2. Idatzia
100
AcDbMText
 10
2663.249848594387
 20
874.5336932468426
 30
0.0
 40
0.25
 41
3.934541634584093
 46
0.0
 71
     1
 72
     5
  1
H=1.97m
 73
     1
 44
1.0
1001
ACAD
1000
ACAD_MTEXT_COLUMN_INFO_BEGIN
1070
    75
1070
     2
1070
    79
1070
     0
1070
    76
1070
     1
1070
    78
1070
     0
1070
    48
1040
3.934541634584093
1070
    49
1040
12.5
1070
    50
1070
     1
1040
0.0
1000
ACAD_MTEXT_COLUMN_INFO_END
  0
MTEXT
  5
8940
330
1F
100
AcDbEntity
  8
7.2. Idatzia
100
AcDbMText
 10
2663.315172059001
 20
885.0198862173119
 30
0.0
 40
0.25
 41
3.934541634584093
 46
0.0
 71
     1
 72
     5
  1
H=1.93m
 73
     1
 44
1.0
1001
ACAD
1000
ACAD_MTEXT_COLUMN_INFO_BEGIN
1070
    75
1070
     2
1070
    79
1070
     0
1070
    76
1070
     1
1070
    78
1070
     0
1070
    48
1040
3.934541634584093
1070
    49
1040
12.5
1070
    50
1070
     1
1040
0.0
1000
ACAD_MTEXT_COLUMN_INFO_END
  0
LINE
  5
896B
102
{ACAD_REACTORS
330
8971
102
}
330
1F
100
AcDbEntity
  8
4.2. Parket
100
AcDbLine
 10
2662.379392204478
 20
873.479222515823
 30
0.0
 11
2663.024392705639
 21
873.4800417768578
 31
0.0
  0
HATCH
  5
8971
330
1F
100
AcDbEntity
  8
4.2. Parket
100
AcDbHatch
 10
0.0
 20
0.0
 30
0.0
210
0.0
220
0.0
230
1.0
  2
ANSI31
 70
     0
 71
     1
 91
        1
 92
        7
 72
     1
 73
     1
 93
        3
 10
2662.379392204478
 20
874.149222515823
 42
0.0
 10
2662.379392204478
 20
873.479222515823
 42
0.0
 10
2663.02439270564
 20
873.4800417768578
 42
0.4034772236858551
 97
        3
330
857C
330
896B
330
857F
 75
     1
 76
     1
 52
135.0
 41
0.06
 77
     0
 78
     1
 53
180.0
 43
0.0
 44
0.0
 45
0.0
 46
-0.1905
 79
     0
 47
0.0029051296459386
 98
        1
 10
2662.717780558511
 20
873.8314565625634
1001
GradientColor1ACI
1070
     5
1001
GradientColor2ACI
1070
     2
1001
ACAD
1010
0.0
1020
0.0
1030
0.0
  0
LINE
  5
8972
102
{ACAD_REACTORS
330
8978
102
}
330
1F
100
AcDbEntity
  8
4.2. Parket
100
AcDbLine
 10
2663.785260248396
 20
873.1892225158235
 30
0.0
 11
2663.786079509431
 21
872.5442220146627
 31
0.0
  0
HATCH
  5
8978
330
1F
100
AcDbEntity
  8
4.2. Parket
100
AcDbHatch
 10
0.0
 20
0.0
 30
0.0
210
0.0
220
0.0
230
1.0
  2
ANSI31
 70
     0
 71
     1
 91
        1
 92
        7
 72
     1
 73
     1
 93
        3
 10
2664.455260248397
 20
873.1892225158235
 42
0.0
 10
2663.785260248396
 20
873.1892225158235
 42
0.0
 10
2663.786079509431
 20
872.5442220146627
 42
0.4034772236858544
 97
        3
330
8576
330
8972
330
8579
 75
     1
 76
     1
 52
135.0
 41
0.06
 77
     0
 78
     1
 53
180.0
 43
0.0
 44
0.0
 45
0.0
 46
-0.1905
 79
     0
 47
0.0018271729225339
 98
        1
 10
2664.089311668319
 20
872.9550682063928
1001
GradientColor1ACI
1070
     5
1001
GradientColor2ACI
1070
     2
1001
ACAD
1010
0.0
1020
0.0
1030
0.0
  0
LINE
  5
8987
330
1F
100
AcDbEntity
  8
2.3. Mehelina
100
AcDbLine
 10
2662.035260248396
 20
881.2599285476045
 30
0.0
 11
2662.235260248396
 21
881.2599285476046
 31
0.0
  0
LWPOLYLINE
  5
8989
330
1F
100
AcDbEntity
  8
2.6. Zorua
100
AcDbPolyline
 90
        3
 70
     0
 43
0.0
 10
2665.590260248397
 20
887.1315885476432
 10
2665.590260248397
 20
887.1315885476432
 10
2665.590260248397
 20
881.2415885476433
  0
LINE
  5
898A
102
{ACAD_REACTORS
330
89FA
102
}
330
1F
100
AcDbEntity
  8
2.3. Mehelina
100
AcDbLine
 10
2662.250260248402
 20
887.1315885476432
 30
0.0
 11
2665.890260248397
 21
887.131588547643
 31
0.0
  0
LINE
  5
898C
330
1F
100
AcDbEntity
  8
2.3. Mehelina
100
AcDbLine
 10
2661.900260248393
 20
887.4315885476381
 30
0.0
 11
2661.700260248399
 21
887.4315885476381
 31
0.0
  0
LWPOLYLINE
  5
899F
330
1F
100
AcDbEntity
  8
3.3. Eskudela
100
AcDbPolyline
 90
        4
 70
     0
 43
0.0
 10
2663.220260248396
 20
881.8815885476423
 10
2663.220260248396
 20
881.2665885476432
 10
2665.565260248397
 20
881.2665885476432
 10
2665.565260248397
 20
887.1315885476432
  0
LWPOLYLINE
  5
89A0
102
{ACAD_REACTORS
330
89E6
330
89FA
102
}
330
1F
100
AcDbEntity
  8
3.3. Eskudela
100
AcDbPolyline
 90
        4
 70
     0
 43
0.0
 10
2663.270260248396
 20
881.8815885476423
 10
2663.270260248396
 20
881.3165885476431
 10
2665.515260248397
 20
881.3165885476431
 10
2665.515260248397
 20
887.1315885476432
  0
LINE
  5
89A1
330
1F
100
AcDbEntity
  8
2.5. Horma itzala
100
AcDbLine
 10
2663.220260248396
 20
881.8815885476423
 30
0.0
 11
2663.270260248396
 21
881.8815885476423
 31
0.0
  0
LINE
  5
89A2
330
1F
100
AcDbEntity
  8
2.3. Mehelina
100
AcDbLine
 10
2661.900260248397
 20
887.3315885476433
 30
0.0
 11
2665.890260248398
 21
887.3315885476433
 31
0.0
  0
LINE
  5
89A3
330
1F
100
AcDbEntity
  8
2.3. Mehelina
100
AcDbLine
 10
2665.890260248398
 20
887.3315885476433
 30
0.0
 11
2665.890260248397
 21
887.131588547643
 31
0.0
  0
LINE
  5
89A4
330
1F
100
AcDbEntity
  8
2.3. Mehelina
100
AcDbLine
 10
2661.900260248397
 20
887.3315885476433
 30
0.0
 11
2661.900260248393
 21
887.4315885476381
 31
0.0
  0
HATCH
  5
89B5
330
1F
100
AcDbEntity
  8
2.5. Horma itzala
100
AcDbHatch
 10
0.0
 20
0.0
 30
0.0
210
0.0
220
0.0
230
1.0
  2
SOLID
 70
     1
 71
     0
 91
        1
 92
        1
 93
       14
 72
     1
 10
2661.700260248399
 20
881.6415885476432
 11
2662.035260248398
 21
881.6415885476429
 72
     1
 10
2662.035260248398
 20
881.6415885476429
 11
2662.035260248396
 21
881.2599285476046
 72
     1
 10
2662.035260248396
 20
881.2599285476046
 11
2662.235260248396
 21
881.2599285476048
 72
     1
 10
2662.235260248396
 20
881.2599285476048
 11
2662.235260248397
 21
881.8415885476424
 72
     1
 10
2662.235260248397
 20
881.8415885476424
 11
2661.900260248397
 21
881.8415885476055
 72
     1
 10
2661.900260248397
 20
881.8415885476055
 11
2661.900260248397
 21
886.7815885476431
 72
     1
 10
2661.900260248397
 20
886.7815885476431
 11
2662.250260248402
 21
886.7815885476431
 72
     1
 10
2662.250260248402
 20
886.7815885476431
 11
2662.250260248402
 21
887.1315885476432
 72
     1
 10
2662.250260248402
 20
887.1315885476432
 11
2665.890260248397
 21
887.131588547643
 72
     1
 10
2665.890260248397
 20
887.131588547643
 11
2665.890260248398
 21
887.3315885476433
 72
     1
 10
2665.890260248398
 20
887.3315885476433
 11
2661.900260248397
 21
887.3315885476433
 72
     1
 10
2661.900260248397
 20
887.3315885476433
 11
2661.900260248393
 21
887.4315885476381
 72
     1
 10
2661.900260248393
 20
887.4315885476381
 11
2661.700260248399
 21
887.4315885476381
 72
     1
 10
2661.700260248399
 20
887.4315885476381
 11
2661.700260248399
 21
881.6415885476432
 97
        0
 75
     1
 76
     1
 98
        1
 10
2661.834916256724
 20
886.9478692988716
450
        0
451
        0
460
0.0
461
0.0
452
        0
462
1.0
453
        2
463
0.0
 63
     5
421
      255
463
1.0
 63
     2
421
 16776960
470
LINEAR
1001
GradientColor1ACI
1070
     5
1001
GradientColor2ACI
1070
     2
1001
ACAD
1010
0.0
1020
0.0
1030
0.0
  0
DIMENSION
  5
89D3
102
{ACAD_XDICTIONARY
360
89DE
102
}
102
{ACAD_REACTORS
330
89E6
102
}
330
1F
100
AcDbEntity
  8
7.3. Kota
100
AcDbDimension
280
     0
  2
*D4
 10
2665.515260248397
 20
883.563215333244
 30
0.0
 11
2663.707760248397
 21
883.6898524410202
 31
0.0
 70
    33
 71
     5
 42
3.614999999999781
 73
     0
 74
     0
 75
     0
  3
Guztion
100
AcDbAlignedDimension
 13
2661.900260248397
 23
883.563215333244
 33
0.0
 14
2665.515260248397
 24
883.563215333244
 34
0.0
  0
DIMENSION
  5
89E7
102
{ACAD_XDICTIONARY
360
89F2
102
}
102
{ACAD_REACTORS
330
89FA
102
}
330
1F
100
AcDbEntity
  8
7.3. Kota
100
AcDbDimension
280
     0
  2
*D5
 10
2664.070260248399
 20
881.3165885476431
 30
0.0
 11
2663.943674300242
 21
884.2240885476437
 31
0.0
 70
    33
 71
     5
 42
5.81499999999994
 73
     0
 74
     0
 75
     0
  3
Guztion
100
AcDbAlignedDimension
 13
2664.070260248399
 23
887.131588547643
 33
0.0
 14
2664.070260248399
 24
881.3165885476431
 34
0.0
  0
LWPOLYLINE
  5
89FB
330
1F
100
AcDbEntity
  8
7.1. Azalera erabilgarria
100
AcDbPolyline
 90
       10
 70
     1
 43
0.0
 10
2662.250260248402
 20
887.1315885476432
 10
2665.515260248397
 20
887.131588547643
 10
2665.515260248397
 20
881.3165885476431
 10
2663.270260248396
 20
881.3165885476431
 10
2663.270260248396
 20
881.8815885476423
 10
2663.220260248396
 20
881.8815885476423
 10
2663.220260248396
 20
881.8415885476424
 10
2661.900260248397
 20
881.8415885476433
 10
2661.900260248402
 20
886.7815885476431
 10
2662.250260248402
 20
886.7815885476431
  0
DIMENSION
  5
89FC
102
{ACAD_XDICTIONARY
360
8A09
102
}
102
{ACAD_REACTORS
330
8A13
102
}
330
1F
100
AcDbEntity
  8
7.3. Kota
100
AcDbDimension
280
     0
  2
*D6
 10
2661.3838448638
 20
877.7492225158244
 30
0.0
 11
2661.258537906092
 21
878.354222515825
 31
0.0
 70
    33
 71
     5
 42
1.210000000000036
 73
     0
 74
     0
 75
     0
  3
Guztion
100
AcDbAlignedDimension
 13
2661.700260248399
 23
878.9592225158244
 33
0.0
 14
2661.700260248399
 24
877.7492225158244
 34
0.0
  0
DIMENSION
  5
8A14
102
{ACAD_XDICTIONARY
360
8A21
102
}
102
{ACAD_REACTORS
330
8A2B
102
}
330
1F
100
AcDbEntity
  8
7.3. Kota
100
AcDbDimension
280
     0
  2
*D7
 10
2663.645260248395
 20
879.4147870797571
 30
0.0
 11
2662.7727602484
 21
879.5413730279154
 31
0.0
 70
    33
 71
     5
 42
1.744999999991705
 73
     0
 74
     0
 75
     0
  3
Guztion
100
AcDbAlignedDimension
 13
2661.900260248403
 23
879.1592225158245
 33
0.0
 14
2663.645260248395
 24
879.1592225158241
 34
0.0
  0
DIMENSION
  5
8A2C
102
{ACAD_XDICTIONARY
360
8A39
102
}
102
{ACAD_REACTORS
330
8A43
102
}
330
1F
100
AcDbEntity
  8
7.3. Kota
100
AcDbDimension
280
     0
  2
*D8
 10
2663.505260248398
 20
877.5016581498393
 30
0.0
 11
2663.205260248398
 21
877.6282440979976
 31
0.0
 70
    33
 71
     5
 42
0.6000000000003638
 73
     0
 74
     0
 75
     0
  3
Guztion
100
AcDbAlignedDimension
 13
2662.905260248398
 23
877.6492225158246
 33
0.0
 14
2663.505260248398
 24
877.6492225158246
 34
0.0
  0
DIMENSION
  5
8A44
102
{ACAD_XDICTIONARY
360
8A4F
102
}
102
{ACAD_REACTORS
330
8A57
102
}
330
1F
100
AcDbEntity
  8
7.3. Kota
100
AcDbDimension
280
     0
  2
*D9
 10
2662.235260248398
 20
876.4992225158247
 30
0.0
 11
2662.950260248398
 21
876.6258596236008
 31
0.0
 70
    33
 71
     5
 42
1.430000000000291
 73
     0
 74
     0
 75
     0
  3
Guztion
100
AcDbAlignedDimension
 13
2663.665260248398
 23
876.4992225158245
 33
0.0
 14
2662.235260248398
 24
876.4992225158247
 34
0.0
  0
DIMENSION
  5
8A6C
102
{ACAD_XDICTIONARY
360
8A77
102
}
102
{ACAD_REACTORS
330
8A7F
102
}
330
1F
100
AcDbEntity
  8
7.3. Kota
100
AcDbDimension
280
     0
  2
*D10
 10
2662.540260248399
 20
875.3492225158245
 30
0.0
 11
2662.413623140623
 21
876.499222515825
 31
0.0
 70
    33
 71
     5
 42
2.300000000000068
 73
     0
 74
     0
 75
     0
  3
Guztion
100
AcDbAlignedDimension
 13
2662.540260248397
 23
877.6492225158246
 33
0.0
 14
2662.540260248399
 24
875.3492225158245
 34
0.0
  0
DIMENSION
  5
8A80
102
{ACAD_XDICTIONARY
360
8A8B
102
}
102
{ACAD_REACTORS
330
8A93
102
}
330
1F
100
AcDbEntity
  8
7.3. Kota
100
AcDbDimension
280
     0
  2
*D11
 10
2667.700260248397
 20
876.4992225158245
 30
0.0
 11
2665.722760248397
 21
876.6258596236006
 31
0.0
 70
    33
 71
     5
 42
3.954999999999472
 73
     0
 74
     0
 75
     0
  3
Guztion
100
AcDbAlignedDimension
 13
2663.745260248398
 23
876.4992225158245
 33
0.0
 14
2667.700260248397
 24
876.4992225158245
 34
0.0
  0
DIMENSION
  5
8A95
330
1F
100
AcDbEntity
  8
7.3. Kota
100
AcDbDimension
280
     0
  2
*D12
 10
2667.700260248397
 20
874.6936567622141
 30
0.0
 11
2664.967760248397
 21
874.8199357526644
 31
0.0
 70
    33
 71
     5
 42
5.465000000000145
 73
     0
 74
     0
 75
     0
  3
Guztion
100
AcDbAlignedDimension
 13
2662.235260248397
 23
874.6936567622141
 33
0.0
 14
2667.700260248397
 24
874.6936567622141
 34
0.0
  0
DIMENSION
  5
8AB0
102
{ACAD_XDICTIONARY
360
8ABD
102
}
102
{ACAD_REACTORS
330
8AC7
102
}
330
1F
100
AcDbEntity
  8
7.3. Kota
100
AcDbDimension
280
     0
  2
*D13
 10
2665.242485205832
 20
869.6148146755909
 30
0.0
 11
2665.115848098055
 21
873.6320185957081
 31
0.0
 70
    33
 71
     5
 42
8.034407840233598
 73
     0
 74
     0
 75
     0
  3
Guztion
100
AcDbAlignedDimension
 13
2665.23229568728
 23
877.6492225158246
 33
0.0
 14
2665.23229568728
 24
869.6148146755909
 34
0.0
  0
DIMENSION
  5
8AC8
330
1F
100
AcDbEntity
  8
7.3. Kota
100
AcDbDimension
280
     0
  2
*D14
 10
2665.452408970426
 20
869.7822852374192
 30
0.0
 11
2665.027408970426
 21
869.9088711855775
 31
0.0
 70
    33
 71
     5
 42
0.849999999999909
 73
     0
 74
     0
 75
     0
  3
Guztion
100
AcDbAlignedDimension
 13
2664.602408970426
 23
869.6349942782799
 33
0.0
 14
2665.452408970426
 24
869.6349942782799
 34
0.0
  0
DIMENSION
  5
8AD5
330
1F
100
AcDbEntity
  8
7.3. Kota
100
AcDbDimension
280
     0
  2
*D15
 10
2667.505260248398
 20
877.7994473389822
 30
0.0
 11
2667.080260248397
 21
877.9260332871404
 31
0.0
 70
    33
 71
     5
 42
0.849999999999909
 73
     0
 74
     0
 75
     0
  3
Guztion
100
AcDbAlignedDimension
 13
2666.655260248397
 23
877.9494585678037
 33
0.0
 14
2667.505260248398
 24
877.9494585678035
 34
0.0
  0
DIMENSION
  5
8AE2
102
{ACAD_XDICTIONARY
360
8AEF
102
}
102
{ACAD_REACTORS
330
8AF9
102
}
330
1F
100
AcDbEntity
  8
7.3. Kota
100
AcDbDimension
280
     0
  2
*D16
 10
2663.705260248397
 20
872.8998402904077
 30
0.0
 11
2662.970260248397
 21
873.0251472481157
 31
0.0
 70
    33
 71
     5
 42
1.469999999999799
 73
     0
 74
     0
 75
     0
  3
Guztion
100
AcDbAlignedDimension
 13
2662.235260248397
 23
872.8792225158237
 33
0.0
 14
2663.705260248397
 24
872.8792225158242
 34
0.0
  0
DIMENSION
  5
8AFA
102
{ACAD_XDICTIONARY
360
8B05
102
}
102
{ACAD_REACTORS
330
8B0D
102
}
330
1F
100
AcDbEntity
  8
7.3. Kota
100
AcDbDimension
280
     0
  2
*D17
 10
2663.377326226438
 20
872.3592225158236
 30
0.0
 11
2663.25074027828
 21
872.879222515824
 31
0.0
 70
    33
 71
     5
 42
1.039999999999963
 73
     0
 74
     0
 75
     0
  3
Guztion
100
AcDbAlignedDimension
 13
2663.377326226438
 23
873.3992225158235
 33
0.0
 14
2663.377326226438
 24
872.3592225158236
 34
0.0
  0
DIMENSION
  5
8B0E
102
{ACAD_XDICTIONARY
360
8B1B
102
}
102
{ACAD_REACTORS
330
8B25
102
}
330
1F
100
AcDbEntity
  8
7.3. Kota
100
AcDbDimension
280
     0
  2
*D18
 10
2662.989392204479
 20
873.3060728923932
 30
0.0
 11
2662.689392204478
 21
873.4326588405513
 31
0.0
 70
    33
 71
     5
 42
0.6000000000003638
 73
     0
 74
     0
 75
     0
  3
Guztion
100
AcDbAlignedDimension
 13
2662.389392204478
 23
873.3992225158235
 33
0.0
 14
2662.989392204479
 24
873.399222515823
 34
0.0
  0
DIMENSION
  5
8B26
102
{ACAD_XDICTIONARY
360
8B33
102
}
102
{ACAD_REACTORS
330
8B3D
102
}
330
1F
100
AcDbEntity
  8
7.3. Kota
100
AcDbDimension
280
     0
  2
*D19
 10
2663.630397404111
 20
873.1792225158237
 30
0.0
 11
2663.503811455953
 21
872.879222515824
 31
0.0
 70
    33
 71
     5
 42
0.6000000000003638
 73
     0
 74
     0
 75
     0
  3
Guztion
100
AcDbAlignedDimension
 13
2663.760260248396
 23
872.5792225158233
 33
0.0
 14
2663.760260248396
 24
873.1792225158237
 34
0.0
  0
CIRCLE
  5
8B4C
330
1F
100
AcDbEntity
  8
8.1. Irisgarritasun boloa
 48
0.0005
100
AcDbCircle
 10
2665.372835732157
 20
871.4490718643117
 30
0.0
 40
0.9
  0
CIRCLE
  5
8B4D
330
1F
100
AcDbEntity
  8
8.1. Irisgarritasun boloa
 48
0.0005
100
AcDbCircle
 10
2663.959447630402
 20
874.3792425948873
 30
0.0
 40
0.9
  0
CIRCLE
  5
8B4E
330
1F
100
AcDbEntity
  8
8.1. Irisgarritasun boloa
 48
0.0005
100
AcDbCircle
 10
2666.600443337883
 20
876.1344407144651
 30
0.0
 40
0.9
  0
DIMENSION
  5
8B79
330
1F
100
AcDbEntity
  8
7.3. Kota
100
AcDbDimension
280
     0
  2
*D20
 10
2668.191532361353
 20
869.5492225158243
 30
0.0
 11
2668.191532361353
 21
873.7842225158242
 31
0.0
 70
   161
 71
     5
 42
8.469999999999913
 73
     0
 74
     0
 75
     0
  3
Guztion
100
AcDbAlignedDimension
 13
2668.026508276137
 23
878.0192225158243
 33
0.0
 14
2668.02650827614
 24
869.5492225158243
 34
0.0
  0
DIMENSION
  5
8B98
102
{ACAD_XDICTIONARY
360
8BA5
102
}
102
{ACAD_REACTORS
330
8BAF
102
}
330
1F
100
AcDbEntity
  8
7.3. Kota
100
AcDbDimension
280
     0
  2
*D21
 10
2666.682408970426
 20
869.1418397517193
 30
0.0
 11
2664.352334609412
 21
869.2684256998774
 31
0.0
 70
    33
 71
     5
 42
4.66014872202777
 73
     0
 74
     0
 75
     0
  3
Guztion
100
AcDbAlignedDimension
 13
2662.022260248398
 23
869.5492225158245
 33
0.0
 14
2666.682408970426
 24
869.5492225158243
 34
0.0
  0
DIMENSION
  5
8BB0
330
1F
100
AcDbEntity
  8
7.3. Kota
100
AcDbDimension
280
     0
  2
*D22
 10
2667.765260248398
 20
868.7436094002555
 30
0.0
 11
2664.893760248397
 21
868.8698883907058
 31
0.0
 70
    33
 71
     5
 42
5.743000000002211
 73
     0
 74
     0
 75
     0
  3
Guztion
100
AcDbAlignedDimension
 13
2662.022260248396
 23
869.1418397517193
 33
0.0
 14
2667.765260248398
 24
869.1418397517193
 34
0.0
  0
LWPOLYLINE
  5
8BD9
330
1F
100
AcDbEntity
  8
7.1. Azalera erabilgarria
100
AcDbPolyline
 90
       42
 70
     0
 43
0.0
 10
2664.035260248397
 20
869.6142225158244
 10
2666.655485088873
 20
869.6142225158244
 10
2667.700260248398
 20
870.6589976753509
 10
2667.700260248398
 20
872.2792225158235
 10
2667.565260248398
 20
872.2792225158235
 10
2667.565260248399
 20
872.6792225158234
 10
2667.700260248397
 20
872.6792225158233
 10
2667.700260248413
 20
877.8692225158245
 10
2665.435260248398
 20
877.8692225158245
 10
2665.435260248398
 20
877.6492225158246
 10
2663.745260248398
 20
877.6492225158245
 10
2663.745260248398
 20
875.2692225158245
 10
2663.095260248398
 20
875.2692225158245
 10
2663.095260248398
 20
875.3492225158245
 10
2663.665260248398
 20
875.3492225158245
 10
2663.665260248398
 20
877.6492225158255
 10
2663.565260248398
 20
877.6492225158255
 10
2663.565260248398
 20
877.7492225158248
 10
2663.645260248398
 20
877.7492225158244
 10
2663.645260248398
 20
878.9592225158243
 10
2662.050260248399
 20
878.9592225158244
 10
2662.050260248399
 20
878.7092225158245
 10
2661.900260248398
 20
878.7092225158245
 10
2661.900260248402
 20
877.7492225158246
 10
2662.845260248398
 20
877.7492225158248
 10
2662.845260248398
 20
877.6492225158246
 10
2662.235260248398
 20
877.6492225158246
 10
2662.235260248392
 20
873.4792225158239
 10
2663.785260248398
 20
873.4792225158235
 10
2663.785260248398
 20
873.2392225158237
 10
2663.705260248397
 20
873.2392225158237
 10
2663.705260248399
 20
873.3992225158152
 10
2662.235260248398
 20
873.3992225158235
 10
2662.235260248398
 20
872.3592225158236
 10
2663.705260248398
 20
872.3592225158236
 10
2663.705260248397
 20
872.5192225158235
 10
2663.785260248396
 20
872.5192225158235
 10
2663.785260248398
 20
872.2792225158235
 10
2663.235260248397
 20
872.2792225158224
 10
2663.235260248398
 20
870.6142225158245
 10
2664.035260248398
 20
870.6142225158247
 10
2664.035260248397
 20
869.6142225158244
  0
LWPOLYLINE
  5
8BDA
330
1F
100
AcDbEntity
  8
7.1. Azalera erabilgarria
100
AcDbPolyline
 90
        7
 70
     1
 43
0.0
 10
2662.235260248398
 20
872.3592225158236
 10
2663.235260248397
 20
872.3592225158238
 10
2663.235260248398
 20
870.6142225158245
 10
2664.035260248398
 20
870.6142225158243
 10
2664.035260248398
 20
869.6142225158244
 10
2662.035260248398
 20
869.6142225158244
 10
2662.235260248398
 20
870.6142225158243
  0
LINE
  5
8C1C
330
1F
100
AcDbEntity
  8
6.1. Eskailerak
 48
0.00018
100
AcDbLine
 10
2663.195260248397
 20
881.5507585476048
 30
0.0
 11
2662.235260248396
 21
881.5507585476046
 31
0.0
  0
LINE
  5
8C1D
330
1F
100
AcDbEntity
  8
6.1. Eskailerak
 48
0.00018
100
AcDbLine
 10
2663.195260248397
 20
881.2599285476048
 30
0.0
 11
2662.235260248396
 21
881.2599285476045
 31
0.0
  0
LWPOLYLINE
  5
8C1E
330
1F
100
AcDbEntity
  8
6.1. Eskailerak
 48
0.00018
100
AcDbPolyline
 90
        3
 70
     1
 43
0.0
 10
2662.735260248394
 20
881.8415885476028
 10
2662.682400160805
 20
881.7915885476026
 10
2662.788120335985
 20
881.7915885476026
  0
LINE
  5
8C1F
330
1F
100
AcDbEntity
  8
6.1. Eskailerak
 48
0.00018
100
AcDbLine
 10
2662.735260248398
 20
881.2599285476046
 30
0.0
 11
2662.735260248397
 21
881.7915885476026
 31
0.0
  0
LINE
  5
8C20
330
1F
100
AcDbEntity
  8
6.1. Eskailerak
 48
0.00018
100
AcDbLine
 10
2662.235260248398
 20
881.341588547643
 30
0.0
 11
2662.235260248396
 21
881.2599285476045
 31
0.0
  0
MTEXT
  5
9304
330
1F
100
AcDbEntity
  8
7.2. Idatzia
100
AcDbMText
 10
2667.546671307501
 20
867.2527474236023
 30
0.0
 40
0.25
 41
3.934541634584093
 46
0.0
 71
     1
 72
     5
  1
A{\H0.5x;Osoa }= 72.65 m²
 73
     1
 44
1.0
1001
ACAD
1000
ACAD_MTEXT_COLUMN_INFO_BEGIN
1070
    75
1070
     2
1070
    79
1070
     0
1070
    76
1070
     1
1070
    78
1070
     0
1070
    48
1040
3.934541634584093
1070
    49
1040
12.5
1070
    50
1070
     1
1040
0.0
1000
ACAD_MTEXT_COLUMN_INFO_END
  0
MTEXT
  5
9305
330
1F
100
AcDbEntity
  8
7.2. Idatzia
100
AcDbMText
 10
2667.561170293993
 20
867.8296020242353
 30
0.0
 40
0.25
 41
3.934541634584093
 46
0.0
 71
     1
 72
     5
  1
A{\H0.5x;eraikia }= 50.75 m²
 73
     1
 44
1.0
1001
ACAD
1000
ACAD_MTEXT_COLUMN_INFO_BEGIN
1070
    75
1070
     2
1070
    79
1070
     0
1070
    76
1070
     1
1070
    78
1070
     0
1070
    48
1040
3.934541634584093
1070
    49
1040
12.5
1070
    50
1070
     1
1040
0.0
1000
ACAD_MTEXT_COLUMN_INFO_END
  0
MTEXT
  5
9307
330
1F
100
AcDbEntity
  8
7.2. Idatzia
100
AcDbMText
 10
2664.011658032069
 20
880.2425312466917
 30
0.0
 40
0.25
 41
3.934541634584093
 46
0.0
 71
     1
 72
     5
  1
A{\H0.5x;eraikia }= 21.90 m²
 73
     1
 44
1.0
1001
ACAD
1000
ACAD_MTEXT_COLUMN_INFO_BEGIN
1070
    75
1070
     2
1070
    79
1070
     0
1070
    76
1070
     1
1070
    78
1070
     0
1070
    48
1040
3.934541634584093
1070
    49
1040
12.5
1070
    50
1070
     1
1040
0.0
1000
ACAD_MTEXT_COLUMN_INFO_END
  0
LWPOLYLINE
  5
931A
330
1F
100
AcDbEntity
  8
7.1.1. Azalera eraikia
100
AcDbPolyline
 90
        8
 70
     1
 43
0.0
 10
2661.800260248396
 20
887.2315885476432
 10
2665.590260248397
 20
887.2315885476432
 10
2665.590260248397
 20
881.2415885476431
 10
2663.195260248396
 20
881.2415885476433
 10
2663.195260248396
 20
881.8415885476424
 10
2662.135260248395
 20
881.8415885476424
 10
2662.135260248396
 20
881.7415885476432
 10
2661.800260248396
 20
881.7415885476432
  0
LINE
  5
9339
330
1F
100
AcDbEntity
  8
7.1.1. Azalera eraikia
100
AcDbLine
 10
2662.035260248398
 20
870.6340264185444
 30
0.0
 11
2662.235260248398
 21
870.6142225158243
 31
0.0
  0
LINE
  5
933A
330
1F
100
AcDbEntity
  8
7.1.1. Azalera eraikia
100
AcDbLine
 10
2661.878299467854
 20
869.8492225158242
 30
0.0
 11
2662.074415602992
 21
869.8099992887966
 31
0.0
  0
LINE
  5
933B
330
1F
100
AcDbEntity
  8
7.1.1. Azalera eraikia
100
AcDbLine
 10
2662.135260248398
 20
870.6241244671844
 30
0.0
 11
2661.920279858126
 21
869.5492225158243
 31
0.0
  0
LWPOLYLINE
  5
933C
330
1F
100
AcDbEntity
  8
7.1.1. Azalera eraikia
100
AcDbPolyline
 90
       13
 70
     1
 43
0.0
 10
2661.920279858126
 20
869.5492225158243
 10
2666.682408970426
 20
869.5492225158243
 10
2667.765260248398
 20
870.6320737937968
 10
2667.765260248398
 20
878.0192225158243
 10
2665.435260248398
 20
878.0192225158243
 10
2665.337655299642
 20
878.0192225158243
 10
2665.337655299642
 20
877.7492225158249
 10
2663.745260248405
 20
877.7492225158249
 10
2663.745260248405
 20
879.0592225158244
 10
2661.800260248401
 20
879.0592225158244
 10
2661.800260248401
 20
872.2592225158241
 10
2662.138249273406
 20
872.2592225158241
 10
2662.135260248398
 20
870.6241244671844
  0
IMAGE
  5
9888
330
1F
100
AcDbEntity
  8
1.1. Armarria
 62
     7
420
 16777215
160
               140
310
8C00000001000000840000000600000005000000242B2D11D8ACA440CCC05BBB6D948C400000000000000000242B2D11D8ACA4408048EEC7A0948C400000000000000000327466F4E2ACA4408048EEC7A0948C400000000000000000327466F4E2ACA440CCC05BBB6D948C400000000000000000242B2D11D8ACA440CCC05B
310
BB6D948C400000000000000000
100
AcDbRasterImage
 90
        0
 10
2646.422006045834
 20
914.5535800140583
 30
0.0
 11
0.0001408266873892
 21
0.0
 31
0.0
 12
0.0
 22
0.0001408266873892
 32
0.0
 13
151.0
 23
177.0
340
2E2
 70
     7
280
     0
281
    50
282
    50
283
     0
290
     0
360
9889
 71
     1
 91
        2
 14
-0.5
 24
-0.5
 14
150.5
 24
176.5
  0
IMAGE
  5
988A
330
1F
100
AcDbEntity
  8
1.1. Armarria
160
               140
310
8C000000010000008400000006000000050000007B4278C2D7ACA44058A377D76A948C4000000000000000007B4278C2D7ACA44054E491219F948C40000000000000000067556AE9E2ACA44054E491219F948C40000000000000000067556AE9E2ACA44058A377D76A948C4000000000000000007B4278C2D7ACA44058A377
310
D76A948C400000000000000000
100
AcDbRasterImage
 90
        0
 10
2646.421405561557
 20
914.5521687838291
 30
0.0
 11
0.0001442483864702
 21
0.0
 31
0.0
 12
0.0
 22
0.0001442483864702
 32
0.0
 13
151.0
 23
177.0
340
9835
 70
     7
280
     0
281
    50
282
    50
283
     0
290
     0
360
988B
 71
     1
 91
        2
 14
-0.5
 24
-0.5
 14
150.5
 24
176.5
  0
VIEWPORT
  5
2B55
102
{ACAD_XDICTIONARY
360
2B56
102
}
330
2B53
100
AcDbEntity
 67
     1
  8
0
100
AcDbViewport
 10
0.1497701106773074
 20
0.4392206589255925
 30
0.0
 40
0.7968230384910421
 41
0.3043765022807397
 68
     2
 69
     1
 12
0.1497701106773074
 22
0.4392206589255925
 13
0.0
 23
0.0
 14
10.0
 24
10.0
 15
10.0
 25
10.0
 16
0.0
 26
0.0
 36
1.0
 17
0.0
 27
0.0
 37
0.0
 42
50.0
 43
0.0
 44
0.0
 45
0.3043765022807397
 50
0.0
 51
0.0
 72
  1000
 90
   819232
  1

281
     0
 71
     1
 74
     0
110
0.0
120
0.0
130
0.0
111
1.0
121
0.0
131
0.0
112
0.0
122
1.0
132
0.0
 79
     0
146
0.0
170
     0
 61
     5
348
F5
292
     1
282
     1
141
0.0
142
0.0
 63
   250
421
  3355443
  0
VIEWPORT
  5
2B58
102
{ACAD_XDICTIONARY
360
2B59
102
}
330
2B53
100
AcDbEntity
 67
     1
  8
0
100
AcDbViewport
 10
128.5
 20
97.5
 30
0.0
 40
205.6
 41
156.0
 68
    -1
 69
     2
 12
2430.557043024972
 22
927.4626459547476
 13
0.0
 23
0.0
 14
10.0
 24
10.0
 15
10.0
 25
10.0
 16
0.0
 26
0.0
 36
1.0
 17
0.0
 27
0.0
 37
0.0
 42
50.0
 43
0.0
 44
0.0
 45
103.1514029277946
 50
0.0
 51
0.0
 72
  1000
 90
   819296
  1

281
     0
 71
     1
 74
     0
110
0.0
120
0.0
130
0.0
111
1.0
121
0.0
131
0.0
112
0.0
122
1.0
132
0.0
 79
     0
146
0.0
170
     0
 61
     5
348
F5
292
     1
282
     1
141
0.0
142
0.0
 63
   250
421
  3355443
  0
LWPOLYLINE
  5
2B5B
330
2B53
100
AcDbEntity
 67
     1
  8
1.7. Ventanas Gráficas
100
AcDbPolyline
 90
        4
 70
     1
 43
0.0
 10
-0.0018762920232689
 20
0.2812602170592981
 10
0.2081237079767311
 20
0.2812602170592981
 10
0.2081237079767311
 20
0.5782602170592981
 10
-0.0018762920232689
 20
0.5782602170592981
  0
VIEWPORT
  5
2B5C
102
{ACAD_XDICTIONARY
360
2B5D
102
}
330
2B53
100
AcDbEntity
 67
     1
  8
1.7. Ventanas Gráficas
100
AcDbViewport
 10
0.1031310771647043
 20
0.4297528240861653
 30
0.0
 40
0.1983417124039874
 41
0.275393485691211
 68
     1
 69
     3
 12
2646.517807661548
 22
914.6778143547823
 13
0.0
 23
0.0
 14
10.0
 24
10.0
 15
10.0
 25
10.0
 16
0.0
 26
0.0
 36
1.0
 17
0.0
 27
0.0
 37
0.0
 42
50.0
 43
0.0
 44
0.0
 45
0.2753935178382654
 50
0.0
 51
0.0
 72
  1000
 90
   819296
  1

281
     0
 71
     1
 74
     0
110
0.0
120
0.0
130
0.0
111
1.0
121
0.0
131
0.0
112
0.0
122
1.0
132
0.0
 79
     0
146
0.0
170
     0
 61
     5
348
F5
292
     1
282
     1
141
0.0
142
0.0
 63
   250
421
  3355443
  0
VIEWPORT
  5
8C12
102
{ACAD_XDICTIONARY
360
8C13
102
}
330
2B53
100
AcDbEntity
 67
     1
  8
1.7. Ventanas Gráficas
100
AcDbViewport
 10
0.1028961237403409
 20
0.4528449069111577
 30
0.0
 40
0.1978718055552607
 41
0.2292093200412259
 68
     3
 69
     4
 12
2665.074850758736
 22
877.3200417462611
 13
0.0
 23
0.0
 14
10.0
 24
10.0
 15
10.0
 25
10.0
 16
0.0
 26
0.0
 36
1.0
 17
0.0
 27
0.0
 37
0.0
 42
50.0
 43
0.0
 44
0.0
 45
22.92093227455784
 50
0.0
 51
0.0
 72
  1000
 90
   819296
  1

281
     0
 71
     1
 74
     0
110
0.0
120
0.0
130
0.0
111
1.0
121
0.0
131
0.0
112
0.0
122
1.0
132
0.0
 79
     0
146
0.0
170
     0
 61
     5
348
F5
292
     1
282
     1
141
0.0
142
0.0
 63
   250
421
  3355443
  0
ENDSEC
  0
SECTION
  2
OBJECTS
  0
DICTIONARY
  5
C
330
0
100
AcDbDictionary
281
     1
  3
ACAD_BACKGROUND
350
222A
  3
ACAD_CIP_PREVIOUS_PRODUCT_INFO
350
216
  3
ACAD_COLOR
350
6B
  3
ACAD_DETAILVIEWSTYLE
350
21B
  3
ACAD_GROUP
350
D
  3
ACAD_IMAGE_DICT
350
2E0
  3
ACAD_IMAGE_VARS
350
2E1
  3
ACAD_LAYOUT
350
1A
  3
ACAD_MATERIAL
350
6A
  3
ACAD_MLEADERSTYLE
350
12D
  3
ACAD_MLINESTYLE
350
17
  3
ACAD_PLOTSETTINGS
350
19
  3
ACAD_PLOTSTYLENAME
350
E
  3
ACAD_SCALELIST
350
10C
  3
ACAD_SECTIONVIEWSTYLE
350
219
  3
ACAD_TABLESTYLE
350
7E
  3
ACAD_VISUALSTYLE
350
EF
  3
ACDB_RECOMPOSE_DATA
350
9A31
  3
AcDbVariableDictionary
350
5E
  3
AEC_PROPERTY_SET_DEFS
350
18A3
  0
DICTIONARY
  5
1FF
330
2
100
AcDbDictionary
280
     1
281
     1
  3
ACAD_LAYERFILTERS
360
9234
  3
ACAD_LAYERSTATES
360
200
  3
ACLYDICTIONARY
360
9233
  0
DICTIONARY
  5
13C
330
10
100
AcDbDictionary
280
     1
281
     1
  0
DICTIONARY
  5
6C7
330
6C6
100
AcDbDictionary
280
     1
281
     1
  0
DICTIONARY
  5
916A
330
9169
100
AcDbDictionary
280
     1
281
     1
  0
DICTIONARY
  5
1CE
330
1F
100
AcDbDictionary
280
     1
281
     1
  3
ACAD_SORTENTS
360
254
  0
DICTIONARY
  5
2645
330
2643
100
AcDbDictionary
280
     1
281
     1
  3
ACAD_SORTENTS
360
2646
  0
DICTIONARY
  5
9170
330
916E
100
AcDbDictionary
280
     1
281
     1
  3
ACAD_SORTENTS
360
9171
  0
DICTIONARY
  5
2AF4
330
2AF3
100
AcDbDictionary
280
     1
281
     1
  3
ASDK_XREC_ANNOTATION_SCALE_INFO
360
2AF5
  0
DICTIONARY
  5
2AF8
330
2AF7
100
AcDbDictionary
280
     1
281
     1
  3
ASDK_XREC_ANNOTATION_SCALE_INFO
360
2AF9
  0
IMAGEDEF_REACTOR
  5
26AD
330
26AC
100
AcDbRasterImageDefReactor
 90
        2
330
26AC
  0
DICTIONARY
  5
89DE
330
89D3
100
AcDbDictionary
280
     1
281
     1
  3
ACAD_DIMASSOC
360
89E6
  0
DICTIONARY
  5
89F2
330
89E7
100
AcDbDictionary
280
     1
281
     1
  3
ACAD_DIMASSOC
360
89FA
  0
DICTIONARY
  5
8A09
330
89FC
100
AcDbDictionary
280
     1
281
     1
  3
ACAD_DIMASSOC
360
8A13
  0
DICTIONARY
  5
8A21
330
8A14
100
AcDbDictionary
280
     1
281
     1
  3
ACAD_DIMASSOC
360
8A2B
  0
DICTIONARY
  5
8A39
330
8A2C
100
AcDbDictionary
280
     1
281
     1
  3
ACAD_DIMASSOC
360
8A43
  0
DICTIONARY
  5
8A4F
330
8A44
100
AcDbDictionary
280
     1
281
     1
  3
ACAD_DIMASSOC
360
8A57
  0
DICTIONARY
  5
8A77
330
8A6C
100
AcDbDictionary
280
     1
281
     1
  3
ACAD_DIMASSOC
360
8A7F
  0
DICTIONARY
  5
8A8B
330
8A80
100
AcDbDictionary
280
     1
281
     1
  3
ACAD_DIMASSOC
360
8A93
  0
DICTIONARY
  5
8ABD
330
8AB0
100
AcDbDictionary
280
     1
281
     1
  3
ACAD_DIMASSOC
360
8AC7
  0
DICTIONARY
  5
8AEF
330
8AE2
100
AcDbDictionary
280
     1
281
     1
  3
ACAD_DIMASSOC
360
8AF9
  0
DICTIONARY
  5
8B05
330
8AFA
100
AcDbDictionary
280
     1
281
     1
  3
ACAD_DIMASSOC
360
8B0D
  0
DICTIONARY
  5
8B1B
330
8B0E
100
AcDbDictionary
280
     1
281
     1
  3
ACAD_DIMASSOC
360
8B25
  0
DICTIONARY
  5
8B33
330
8B26
100
AcDbDictionary
280
     1
281
     1
  3
ACAD_DIMASSOC
360
8B3D
  0
DICTIONARY
  5
8BA5
330
8B98
100
AcDbDictionary
280
     1
281
     1
  3
ACAD_DIMASSOC
360
8BAF
  0
IMAGEDEF_REACTOR
  5
9889
330
9888
100
AcDbRasterImageDefReactor
 90
        2
330
9888
  0
IMAGEDEF_REACTOR
  5
988B
330
988A
100
AcDbRasterImageDefReactor
 90
        2
330
988A
  0
DICTIONARY
  5
2B56
330
2B55
100
AcDbDictionary
280
     1
281
     1
  3
ASDK_XREC_ANNOTATION_SCALE_INFO
360
2B57
  0
DICTIONARY
  5
2B59
330
2B58
100
AcDbDictionary
280
     1
281
     1
  3
ASDK_XREC_ANNOTATION_SCALE_INFO
360
2B5A
  0
DICTIONARY
  5
2B5D
330
2B5C
100
AcDbDictionary
280
     1
281
     1
  3
ASDK_XREC_ANNOTATION_SCALE_INFO
360
2B5E
  0
DICTIONARY
  5
8C13
330
8C12
100
AcDbDictionary
280
     1
281
     1
  3
ASDK_XREC_ANNOTATION_SCALE_INFO
360
8C14
  0
DICTIONARY
  5
222A
102
{ACAD_REACTORS
330
C
102
}
330
C
100
AcDbDictionary
281
     1
  0
XRECORD
  5
216
102
{ACAD_REACTORS
330
C
102
}
330
C
100
AcDbXrecord
280
     1
300
ACD
300
2015
300
ACD_F_S
  0
DICTIONARY
  5
6B
102
{ACAD_REACTORS
330
C
102
}
330
C
100
AcDbDictionary
281
     1
  0
DICTIONARY
  5
21B
102
{ACAD_REACTORS
330
C
102
}
330
C
100
AcDbDictionary
281
     1
  3
Imperial24
350
188F
  3
Metric50
350
21C
  0
DICTIONARY
  5
D
102
{ACAD_REACTORS
330
C
102
}
330
C
100
AcDbDictionary
281
     1
  0
DICTIONARY
  5
2E0
102
{ACAD_REACTORS
330
C
102
}
330
C
100
AcDbDictionary
281
     1
  3
Andoain
350
883
  3
Astigarraga
350
A1D
  3
Hernani
350
A20
  3
Lasarte_Oria
350
A38
  3
Urnieta
350
A0E
  3
Usurbil
350
2E2
  3
Usurbil_1
350
9835
  0
RASTERVARIABLES
  5
2E1
102
{ACAD_REACTORS
330
C
102
}
330
C
100
AcDbRasterVariables
 90
        0
 70
     1
 71
     1
 72
     1
  0
DICTIONARY
  5
1A
102
{ACAD_REACTORS
330
C
102
}
330
C
100
AcDbDictionary
281
     1
  3
16
350
2B60
  3
Model
350
22
  3
Presentación2
350
D7
  0
DICTIONARY
  5
6A
102
{ACAD_REACTORS
330
C
102
}
330
C
100
AcDbDictionary
281
     1
  3
ByBlock
350
ED
  3
ByLayer
350
EC
  3
Global
350
EE
  0
DICTIONARY
  5
12D
102
{ACAD_REACTORS
330
C
102
}
330
C
100
AcDbDictionary
281
     1
  3
Anotativo
350
13B
  3
Standard
350
12E
  0
DICTIONARY
  5
17
102
{ACAD_REACTORS
330
C
102
}
330
C
100
AcDbDictionary
281
     1
  3
Standard
350
18
  0
DICTIONARY
  5
19
102
{ACAD_REACTORS
330
C
102
}
330
C
100
AcDbDictionary
281
     1
  0
ACDBDICTIONARYWDFLT
  5
E
102
{ACAD_REACTORS
330
C
102
}
330
C
100
AcDbDictionary
281
     1
  3
Normal
350
F
100
AcDbDictionaryWithDefault
340
F
  0
DICTIONARY
  5
10C
102
{ACAD_REACTORS
330
C
102
}
330
C
100
AcDbDictionary
281
     1
  3
A0
350
10D
  3
A1
350
4B1
  3
A2
350
4B2
  3
A3
350
4B3
  3
A4
350
4B4
  3
A5
350
4B5
  3
A6
350
4B6
  3
A7
350
4B7
  3
A8
350
4B8
  3
A9
350
4B9
  3
B0
350
4BA
  3
B1
350
4BB
  3
B2
350
1C8
  3
B3
350
4BC
  3
B4
350
4BD
  3
B5
350
4BE
  3
B6
350
4BF
  3
B7
350
4C0
  0
DICTIONARY
  5
219
102
{ACAD_REACTORS
330
C
102
}
330
C
100
AcDbDictionary
281
     1
  3
Imperial24
350
188E
  3
Metric50
350
21A
  0
DICTIONARY
  5
7E
102
{ACAD_REACTORS
330
C
102
}
330
C
100
AcDbDictionary
281
     1
  3
Standard
350
7F
  0
DICTIONARY
  5
EF
102
{ACAD_REACTORS
330
C
102
}
330
C
100
AcDbDictionary
281
     1
  3
2dWireframe
350
F5
  3
Basic
350
F4
  3
Brighten
350
FB
  3
ColorChange
350
FF
  3
Conceptual
350
F8
  3
Dim
350
FA
  3
EdgeColorOff
350
1E6
  3
Facepattern
350
FE
  3
Flat
350
F0
  3
FlatWithEdges
350
F1
  3
Gouraud
350
F2
  3
GouraudWithEdges
350
F3
  3
Hidden
350
F7
  3
JitterOff
350
1E4
  3
Linepattern
350
FD
  3
OverhangOff
350
1E5
  3
Realistic
350
F9
  3
Shaded
350
1F3
  3
Shaded with edges
350
1F2
  3
Shades of Gray
350
1EF
  3
Sketchy
350
1F0
  3
Thicken
350
FC
  3
Wireframe
350
F6
  3
X-Ray
350
1F1
  0
XRECORD
  5
9A31
102
{ACAD_REACTORS
330
C
102
}
330
C
100
AcDbXrecord
280
     1
 90
        1
330
7F
330
21A
330
21C
330
145A
330
188E
330
188F
330
889C
330
889D
330
889E
330
88AD
330
88AE
330
893E
330
893F
330
8940
330
9304
330
9305
330
9307
  0
DICTIONARY
  5
5E
102
{ACAD_REACTORS
330
C
102
}
330
C
100
AcDbDictionary
281
     1
  3
CANNOSCALE
350
146
  3
CMLEADERSTYLE
350
145
  3
CTABLESTYLE
350
84
  3
CVIEWDETAILSTYLE
350
227
  3
CVIEWSECTIONSTYLE
350
228
  3
DIMASSOC
350
5F
  3
HIDETEXT
350
63
  3
LAYEREVAL
350
1AE
  3
LAYERNOTIFY
350
1AF
  0
DICTIONARY
  5
18A3
102
{ACAD_REACTORS
330
C
102
}
330
C
100
AcDbDictionary
281
     1
  0
DICTIONARY
  5
9234
102
{ACAD_REACTORS
330
1FF
102
}
330
1FF
100
AcDbDictionary
281
     1
  0
DICTIONARY
  5
200
102
{ACAD_REACTORS
330
1FF
102
}
330
1FF
100
AcDbDictionary
281
     1
  0
DICTIONARY
  5
9233
102
{ACAD_REACTORS
330
1FF
102
}
330
1FF
100
AcDbDictionary
281
     1
  3
*A1
350
9235
  3
*A2
350
9236
  3
*A3
350
9237
  3
*A4
350
9238
  3
*A5
350
9239
  3
*A6
350
923A
  3
*A7
350
923B
  3
*A8
350
923C
1001
ACAD
1000
<All
  0
SORTENTSTABLE
  5
254
102
{ACAD_REACTORS
330
1CE
102
}
330
1CE
100
AcDbSortentsTable
330
1F
331
8498
  5
85D2
331
852F
  5
8566
331
85D2
  5
871F
331
145B
  5
1AB0
331
88AD
  5
898A
331
86F7
  5
8568
331
8776
  5
899F
331
889D
  5
88C3
331
8772
  5
8988
331
8332
  5
835A
331
26EC
  5
27EE
331
839D
  5
84D8
331
26E8
  5
27EA
331
8316
  5
83A2
331
26E4
  5
27E6
331
8399
  5
8477
331
26E0
  5
27E2
331
85C2
  5
871D
331
933B
  5
935E
331
85A2
  5
871E
331
8438
  5
8395
331
26AC
  5
27A7
331
26A8
  5
27A3
331
888D
  5
89A5
331
8742
  5
88CA
331
86BB
  5
872E
331
8940
  5
89FC
331
8732
  5
8772
331
8AB0
  5
8C1C
331
830A
  5
8385
331
26DC
  5
27DE
331
8385
  5
84BA
331
26D8
  5
27DA
331
8381
  5
8407
331
26D4
  5
27D6
331
8C1D
  5
8E04
331
9307
  5
9339
331
84DF
  5
86A3
331
26D0
  5
27D2
331
8582
  5
852E
331
84DB
  5
86A0
331
857E
  5
86FA
331
860D
  5
8775
331
26A4
  5
717
331
857A
  5
86D8
331
8609
  5
8742
331
26A0
  5
279D
331
269C
  5
279B
331
86A7
  5
8729
331
872E
  5
8771
331
8805
  5
8808
331
872A
  5
88BE
331
8726
  5
872C
331
87C5
  5
889C
331
899F
  5
8AB0
331
837D
  5
839A
331
26CC
  5
27CE
331
835D
  5
84A1
331
26C8
  5
27CA
331
8359
  5
849B
331
26C4
  5
27BE
331
84B7
  5
8634
331
8576
  5
86A8
331
26C0
  5
27BA
331
83F4
  5
857F
331
84B3
  5
8620
331
8BD9
  5
8D49
331
83F0
  5
857B
331
867F
  5
869E
331
871E
  5
8809
331
8918
  5
12DC
331
86FE
  5
8805
331
8779
  5
89A3
331
8633
  5
877C
331
8987
  5
8A44
331
8A80
  5
8BD9
331
8355
  5
8437
331
26BC
  5
27B6
331
8B4E
  5
8D10
331
8351
  5
840B
331
26B8
  5
27B2
331
26B4
  5
27AE
331
849F
  5
860F
331
8AC8
  5
8AD5
331
26F3
  5
27F4
331
849B
  5
85E9
331
26B0
  5
27AA
331
8497
  5
85D1
331
852E
  5
86A6
331
145A
  5
1AAF
331
8775
  5
898B
331
889C
  5
8987
331
8771
  5
88C2
331
8335
  5
83C6
331
26EF
  5
27F1
331
26EB
  5
27ED
331
26E7
  5
27E9
331
8315
  5
839E
331
26E3
  5
27E5
331
8477
  5
85C2
331
8473
  5
85A2
331
933A
  5
933C
331
8620
  5
8779
331
26AF
  5
27A9
331
85A1
  5
85A3
331
26AB
  5
27A6
331
896B
  5
8A14
331
8854
  5
12FC
331
86AA
  5
872B
331
8731
  5
891F
331
8A6C
  5
8B98
331
89A2
  5
8A80
331
26DF
  5
27E1
331
8309
  5
8386
331
26DB
  5
27DD
331
8384
  5
84B8
331
8C20
  5
8E05
331
26D7
  5
27D9
331
931A
  5
933A
331
8380
  5
84B6
331
26D3
  5
27D5
331
8C1C
  5
8C1E
331
8B26
  5
8CD0
331
84DE
  5
86A2
331
8437
  5
8397
331
8581
  5
8583
331
26A7
  5
27A2
331
84DA
  5
869D
331
857D
  5
86F9
331
2184
  5
2538
331
26A3
  5
279F
331
8579
  5
857A
331
840B
  5
85A0
331
269F
  5
279C
331
84BA
  5
867F
331
269B
  5
279A
331
893F
  5
89FB
331
86A6
  5
8726
331
872D
  5
88C1
331
8804
  5
12FB
331
8729
  5
88AE
331
892F
  5
89D3
331
8721
  5
88AD
331
8A44
  5
8B79
331
898A
  5
8A6C
331
26CF
  5
27D1
331
837C
  5
84B4
331
26CB
  5
27CD
331
835C
  5
84A0
331
26C7
  5
27C9
331
8358
  5
849A
331
83F7
  5
8582
331
84B6
  5
8633
331
26C3
  5
27BD
331
83F3
  5
857E
331
8B79
  5
8BB0
331
85F4
  5
872D
331
891F
  5
12FF
331
867E
  5
878C
331
871D
  5
888D
331
878C
  5
880B
331
86FD
  5
871C
331
877C
  5
889D
331
86F9
  5
8565
331
8778
  5
89A2
331
8354
  5
8471
331
26BF
  5
27B9
331
26BB
  5
27B5
331
8B4D
  5
8CF8
331
8350
  5
8409
331
26F6
  5
27F7
331
26B7
  5
27B1
331
26B3
  5
27AD
331
26F2
  5
1247
331
849E
  5
860D
331
8565
  5
86A7
331
849A
  5
85E3
331
8BB0
  5
8D48
331
83A3
  5
8577
331
86F5
  5
86F5
331
8774
  5
8774
331
8972
  5
8A2C
331
8334
  5
83B5
331
26EE
  5
27F0
331
8330
  5
83B2
331
26EA
  5
27EC
331
839B
  5
84DC
331
26E6
  5
27E8
331
8AFA
  5
8B0E
331
8314
  5
8354
331
26E2
  5
27E4
331
8472
  5
85A1
331
9339
  5
933B
331
26AE
  5
27A8
331
85A0
  5
86FF
331
26AA
  5
27A5
331
86A9
  5
872A
331
8730
  5
84D9
331
8A14
  5
8B4E
331
89B5
  5
1300
331
8397
  5
8472
331
89A1
  5
8AC8
331
26DE
  5
27E0
331
8308
  5
8384
331
26DA
  5
27DC
331
8383
  5
84B7
331
26D6
  5
27D8
331
861F
  5
8778
331
8B98
  5
8D47
331
8C1F
  5
8D4A
331
26D2
  5
27D4
331
9305
  5
931A
331
8436
  5
8497
331
8AE2
  5
8C1F
331
26A6
  5
27A1
331
8580
  5
86FE
331
860F
  5
8776
331
857C
  5
86F8
331
26A2
  5
279E
331
8578
  5
86BB
331
840A
  5
8581
331
269E
  5
715
331
84B9
  5
867E
331
269A
  5
2799
331
893E
  5
89E7
331
86A5
  5
86AA
331
892E
  5
89B5
331
89FC
  5
8B4D
331
8989
  5
898C
331
837F
  5
84B5
331
26CE
  5
27D0
331
837B
  5
8399
331
26CA
  5
27CC
331
835B
  5
849D
331
8607
  5
8732
331
26C6
  5
27C0
331
26C2
  5
27BC
331
84B5
  5
8631
331
8603
  5
8731
331
83F2
  5
857D
331
84A1
  5
861F
331
871C
  5
8720
331
878B
  5
87C7
331
88BE
  5
89A1
331
8635
  5
869F
331
86FC
  5
87C5
331
877B
  5
878B
331
86F8
  5
8807
331
8357
  5
8499
331
8353
  5
8438
331
26BE
  5
27B8
331
26BA
  5
27B4
331
8B4C
  5
8CC2
331
834F
  5
840A
331
26F5
  5
27F6
331
26B6
  5
27B0
331
85E3
  5
8721
331
849D
  5
860A
331
26B2
  5
27AC
331
26F1
  5
27F3
331
83B2
  5
84E0
331
88AE
  5
89A6
331
8777
  5
89A0
331
889E
  5
89A4
331
8971
  5
12FE
331
8773
  5
8989
331
86D8
  5
852F
331
26ED
  5
27EF
331
8317
  5
83A3
331
26E9
  5
27EB
331
839E
  5
84DE
331
839A
  5
84DB
331
26E5
  5
27E7
331
8313
  5
8353
331
933C
  5
935F
331
26E1
  5
27E3
331
85A3
  5
86F6
331
84E0
  5
86A5
331
26A9
  5
27A4
331
86AC
  5
86F7
331
8733
  5
8974
331
86A8
  5
86A9
331
89A4
  5
8AFA
331
26DD
  5
27DF
331
8386
  5
84B9
331
26D9
  5
27DB
331
8382
  5
8408
331
26D5
  5
27D7
331
861E
  5
8777
331
8C1E
  5
8C20
331
26D1
  5
27D3
331
8583
  5
8578
331
9304
  5
9307
331
84DC
  5
86A1
331
857F
  5
86FD
331
26A5
  5
27A0
331
84D8
  5
84DA
331
860A
  5
860C
331
26A1
  5
716
331
8409
  5
84DF
331
269D
  5
714
331
84B8
  5
8635
331
2699
  5
2798
331
872F
  5
88C0
331
8806
  5
880A
331
872B
  5
8579
331
8727
  5
88BD
331
8680
  5
87C8
331
89FB
  5
8B4C
331
8A95
  5
8BDA
331
898C
  5
8A95
331
837E
  5
84B3
331
26CD
  5
27CF
331
835E
  5
8398
331
26C9
  5
27CB
331
835A
  5
849C
331
8606
  5
860B
331
26C5
  5
27BF
331
8577
  5
86AC
331
26C1
  5
27BB
331
83F5
  5
8580
331
84B4
  5
8630
331
8AD5
  5
8AE2
331
8BDA
  5
8C1D
331
83F1
  5
857C
331
84A0
  5
861E
331
871F
  5
889E
331
86FF
  5
8806
331
88BD
  5
898D
331
8634
  5
877B
331
877A
  5
87C6
331
8630
  5
877A
331
89E7
  5
8B26
331
8356
  5
8498
331
8978
  5
12FD
331
26BD
  5
27B7
331
8352
  5
8436
331
26B9
  5
27B3
331
26F4
  5
27F5
331
26B5
  5
27AF
331
849C
  5
8606
331
26B1
  5
27AB
331
26F0
  5
27F2
  0
SORTENTSTABLE
  5
2646
102
{ACAD_REACTORS
330
2645
102
}
330
2645
100
AcDbSortentsTable
330
2643
  0
SORTENTSTABLE
  5
9171
102
{ACAD_REACTORS
330
9170
102
}
330
9170
100
AcDbSortentsTable
330
916E
  0
XRECORD
  5
2AF5
102
{ACAD_REACTORS
330
2AF4
102
}
330
2AF4
100
AcDbXrecord
280
     1
 90
        1
340
10D
  0
XRECORD
  5
2AF9
102
{ACAD_REACTORS
330
2AF8
102
}
330
2AF8
100
AcDbXrecord
280
     1
 90
        1
340
10D
  0
DIMASSOC
  5
89E6
102
{ACAD_REACTORS
330
89DE
102
}
330
89DE
100
AcDbDimAssoc
330
89D3
 90
        3
 70
     0
 71
     0
  1
AcDbOsnapPointRef
 72
     8
331
88BD
 73
     2
 91
        3
 40
0.3485074464828632
 10
0.0
 20
0.0
 30
0.0
 75
     1
  1
AcDbOsnapPointRef
 72
     0
 40
0.0
 10
2663.644063558264
 20
883.563215333244
 30
0.0
 75
     0
  1
AcDbOsnapPointRef
 72
     8
331
89A0
 73
     2
 91
        3
 40
0.3863502640758045
 10
0.0
 20
0.0
 30
0.0
 75
     1
  1
AcDbOsnapPointRef
 72
     8
331
88BD
 73
     2
 91
        3
 40
0.3485074464828632
 10
0.0
 20
0.0
 30
0.0
 75
     1
  1
AcDbOsnapPointRef
 72
     0
 40
0.0
 10
2663.644063558264
 20
883.563215333244
 30
0.0
 75
     0
  0
DIMASSOC
  5
89FA
102
{ACAD_REACTORS
330
89F2
102
}
330
89F2
100
AcDbDimAssoc
330
89E7
 90
        3
 70
     0
 71
     0
  1
AcDbOsnapPointRef
 72
     2
331
898A
 73
     2
 91
        0
 40
0.5
 10
0.0
 20
0.0
 30
0.0
 75
     0
  1
AcDbOsnapPointRef
 72
     8
331
89A0
 73
     2
 91
        2
 40
0.3563474387541559
 10
0.0
 20
0.0
 30
0.0
 75
     1
  1
AcDbOsnapPointRef
 72
     2
331
898A
 73
     2
 91
        0
 40
0.5
 10
0.0
 20
0.0
 30
0.0
 75
     0
  0
DIMASSOC
  5
8A13
102
{ACAD_REACTORS
330
8A09
102
}
330
8A09
100
AcDbDimAssoc
330
89FC
 90
        2
 70
     0
 71
     0
  1
AcDbOsnapPointRef
 72
     8
331
8437
 73
     2
 91
        0
 40
0.7985714285714332
 10
0.0
 20
0.0
 30
0.0
 75
     1
  1
AcDbOsnapPointRef
 72
     0
 40
0.0
 10
2661.700260248399
 20
878.9592225158244
 30
0.0
 75
     0
  0
DIMASSOC
  5
8A2B
102
{ACAD_REACTORS
330
8A21
102
}
330
8A21
100
AcDbDimAssoc
330
8A14
 90
        3
 70
     0
 71
     0
  1
AcDbOsnapPointRef
 72
     6
331
840B
 73
     2
 91
        0
 40
-0.0708661417322737
 10
0.0
 20
0.0
 30
0.0
332
8436
 74
     2
 92
        0
 75
     0
  1
AcDbOsnapPointRef
 72
     1
331
8436
 73
     2
 91
        0
 40
0.9067599067598129
 10
0.0
 20
0.0
 30
2.000000000000000E+50
 75
     0
  0
DIMASSOC
  5
8A43
102
{ACAD_REACTORS
330
8A39
102
}
330
8A39
100
AcDbDimAssoc
330
8A2C
 90
        3
 70
     0
 71
     0
  1
AcDbOsnapPointRef
 72
    13
331
87C5
 73
     2
 91
        0
 40
0.0
 10
0.0
 20
0.0
 30
2.000000000000000E+50
 75
     0
  1
AcDbOsnapPointRef
 72
     1
331
87C5
 73
     2
 91
        0
 40
1.0
 10
0.0
 20
0.0
 30
2.000000000000000E+50
 75
     0
  0
DIMASSOC
  5
8A57
102
{ACAD_REACTORS
330
8A4F
102
}
330
8A4F
100
AcDbDimAssoc
330
8A44
 90
        3
 70
     0
 71
     0
  1
AcDbOsnapPointRef
 72
     2
331
839E
 73
     2
 91
        0
 40
0.5
 10
0.0
 20
0.0
 30
0.0
 75
     0
  1
AcDbOsnapPointRef
 72
     8
331
83A2
 73
     2
 91
        0
 40
0.2757793764987653
 10
0.0
 20
0.0
 30
0.0
 75
     1
  1
AcDbOsnapPointRef
 72
     2
331
839E
 73
     2
 91
        0
 40
0.5
 10
0.0
 20
0.0
 30
0.0
 75
     0
  0
DIMASSOC
  5
8A7F
102
{ACAD_REACTORS
330
8A77
102
}
330
8A77
100
AcDbDimAssoc
330
8A6C
 90
        1
 70
     0
 71
     0
  1
AcDbOsnapPointRef
 72
     2
331
8332
 73
     2
 91
        0
 40
0.5000000000003727
 10
0.0
 20
0.0
 30
0.0
 75
     0
  0
DIMASSOC
  5
8A93
102
{ACAD_REACTORS
330
8A8B
102
}
330
8A8B
100
AcDbDimAssoc
330
8A80
 90
        2
 70
     0
 71
     0
  1
AcDbOsnapPointRef
 72
     8
331
83F0
 73
     2
 91
        0
 40
0.2639691714835304
 10
0.0
 20
0.0
 30
0.0
 75
     1
  1
AcDbOsnapPointRef
 72
     0
 40
0.0
 10
2663.745260248398
 20
876.4992225158245
 30
0.0
 75
     0
  0
DIMASSOC
  5
8AC7
102
{ACAD_REACTORS
330
8ABD
102
}
330
8ABD
100
AcDbDimAssoc
330
8AB0
 90
        1
 70
     0
 71
     0
  1
AcDbOsnapPointRef
 72
     1
331
8399
 73
     2
 91
        0
 40
0.8866119770294291
 10
0.0
 20
0.0
 30
2.000000000000000E+50
 75
     0
  0
DIMASSOC
  5
8AF9
102
{ACAD_REACTORS
330
8AEF
102
}
330
8AEF
100
AcDbDimAssoc
330
8AE2
 90
        1
 70
     0
 71
     0
  1
AcDbOsnapPointRef
 72
     2
331
86F9
 73
     2
 91
        0
 40
0.5
 10
0.0
 20
0.0
 30
0.0
 75
     0
  0
DIMASSOC
  5
8B0D
102
{ACAD_REACTORS
330
8B05
102
}
330
8B05
100
AcDbDimAssoc
330
8AFA
 90
        3
 70
     0
 71
     0
  1
AcDbOsnapPointRef
 72
     2
331
8582
 73
     2
 91
        0
 40
0.5000000000003468
 10
0.0
 20
0.0
 30
0.0
 75
     0
  1
AcDbOsnapPointRef
 72
     8
331
85A3
 73
     2
 91
        0
 40
0.3022680383847481
 10
0.0
 20
0.0
 30
0.0
 75
     1
  1
AcDbOsnapPointRef
 72
     2
331
8582
 73
     2
 91
        0
 40
0.5000000000003468
 10
0.0
 20
0.0
 30
0.0
 75
     0
  0
DIMASSOC
  5
8B25
102
{ACAD_REACTORS
330
8B1B
102
}
330
8B1B
100
AcDbDimAssoc
330
8B0E
 90
        3
 70
     0
 71
     0
  1
AcDbOsnapPointRef
 72
     1
331
857E
 73
     2
 91
        4
 40
1.0
 10
0.0
 20
0.0
 30
2.000000000000000E+50
 75
     0
  1
AcDbOsnapPointRef
 72
     1
331
857D
 73
     2
 91
        4
 40
1.0
 10
0.0
 20
0.0
 30
2.000000000000000E+50
 75
     0
  0
DIMASSOC
  5
8B3D
102
{ACAD_REACTORS
330
8B33
102
}
330
8B33
100
AcDbDimAssoc
330
8B26
 90
        3
 70
     0
 71
     0
  1
AcDbOsnapPointRef
 72
     1
331
8577
 73
     2
 91
        3
 40
1.0
 10
0.0
 20
0.0
 30
2.000000000000000E+50
 75
     0
  1
AcDbOsnapPointRef
 72
     1
331
8578
 73
     2
 91
        3
 40
1.0
 10
0.0
 20
0.0
 30
2.000000000000000E+50
 75
     0
  0
DIMASSOC
  5
8BAF
102
{ACAD_REACTORS
330
8BA5
102
}
330
8BA5
100
AcDbDimAssoc
330
8B98
 90
        3
 70
     0
 71
     0
  1
AcDbOsnapPointRef
 72
     6
331
86FE
 73
     2
 91
        0
 40
1.0
 10
0.0
 20
0.0
 30
0.0
332
86FD
 74
     2
 92
        0
 75
     0
  1
AcDbOsnapPointRef
 72
    13
331
84DA
 73
     2
 91
        0
 40
0.0
 10
0.0
 20
0.0
 30
2.000000000000000E+50
 75
     0
  0
XRECORD
  5
2B57
102
{ACAD_REACTORS
330
2B56
102
}
330
2B56
100
AcDbXrecord
280
     1
 90
        1
340
10D
  0
XRECORD
  5
2B5A
102
{ACAD_REACTORS
330
2B59
102
}
330
2B59
100
AcDbXrecord
280
     1
 90
        1
340
10D
  0
XRECORD
  5
2B5E
102
{ACAD_REACTORS
330
2B5D
102
}
330
2B5D
100
AcDbXrecord
280
     1
 90
        1
340
4B1
  0
XRECORD
  5
8C14
102
{ACAD_REACTORS
330
8C13
102
}
330
8C13
100
AcDbXrecord
280
     1
 90
        1
340
10D
  0
ACDBDETAILVIEWSTYLE
  5
188F
102
{ACAD_XDICTIONARY
360
22E2
102
}
102
{ACAD_REACTORS
330
21B
102
}
330
21B
100
AcDbModelDocViewStyle
 70
     0
  3
Imperial24
290
     0
100
AcDbDetailViewStyle
 70
     0
 71
     0
 90
        3
 71
     1
340
11
 62
   256
 40
0.24
340
0
 62
   256
 40
0.24
300

 40
0.36
280
     3
 71
     2
340
16
 90
       25
 62
   256
 71
     3
340
11
 62
   256
 40
0.24
 90
        1
 40
0.75
 90
        1
300
%<\AcVar ViewType \f "%tc1">% %<\AcVar ViewDetailId>%\PESCALA %<\AcVar ViewScale \f "%sn">%
 71
     4
340
16
 90
       25
 62
   256
340
16
 90
       25
 62
   256
280
     0
  0
ACDBDETAILVIEWSTYLE
  5
21C
102
{ACAD_XDICTIONARY
360
236
102
}
102
{ACAD_REACTORS
330
21B
102
}
330
21B
100
AcDbModelDocViewStyle
 70
     0
  3
Metric50
290
     0
100
AcDbDetailViewStyle
 70
     0
 71
     0
 90
        3
 71
     1
340
11
 62
   256
 40
5.0
340
0
 62
   256
 40
5.0
300

 40
0.0
280
     1
 71
     2
340
16
 90
       25
 62
   256
 71
     3
340
11
 62
   256
 40
5.0
 90
        0
 40
15.0
 90
        1
300
%<\AcVar ViewDetailId>% (%<\AcVar ViewScale \f "%sn">%)
 71
     4
340
16
 90
       25
 62
   256
340
16
 90
       25
 62
   256
280
     0
  0
IMAGEDEF
  5
883
102
{ACAD_REACTORS
330
2E0
102
}
330
2E0
100
AcDbRasterImageDef
 90
        0
  1
\\zerbitzaria\pertsonalak$\guztion1\Downloads\Andoain.jpg
 10
400.0
 20
400.0
 11
0.2645833333333333
 21
0.2645833333333333
280
     1
281
     5
  0
IMAGEDEF
  5
A1D
102
{ACAD_REACTORS
330
2E0
102
}
330
2E0
100
AcDbRasterImageDef
 90
        0
  1
\\zerbitzaria\pertsonalak$\guztion1\Downloads\Astigarraga.jpg
 10
306.0
 20
278.0
 11
0.2645833333333333
 21
0.2645833333333333
280
     1
281
     5
  0
IMAGEDEF
  5
A20
102
{ACAD_REACTORS
330
2E0
102
}
330
2E0
100
AcDbRasterImageDef
 90
        0
  1
\\zerbitzaria\pertsonalak$\guztion1\Downloads\Hernani.jpg
 10
512.0
 20
512.0
 11
0.2645833333333333
 21
0.2645833333333333
280
     1
281
     5
  0
IMAGEDEF
  5
A38
102
{ACAD_REACTORS
330
2E0
102
}
330
2E0
100
AcDbRasterImageDef
 90
        0
  1
\\zerbitzaria\pertsonalak$\guztion1\Downloads\Lasarte_Oria.jpg
 10
306.0
 20
278.0
 11
0.2645833333333333
 21
0.2645833333333333
280
     1
281
     5
  0
IMAGEDEF
  5
A0E
102
{ACAD_REACTORS
330
2E0
102
}
330
2E0
100
AcDbRasterImageDef
 90
        0
  1
\\zerbitzaria\pertsonalak$\guztion1\Downloads\Urnieta.jpg
 10
512.0
 20
686.0
 11
0.2645833333333333
 21
0.2645833333333333
280
     1
281
     5
  0
IMAGEDEF
  5
2E2
102
{ACAD_REACTORS
330
2E0
330
26AD
330
9889
102
}
330
2E0
100
AcDbRasterImageDef
 90
        0
  1
\\zerbitzaria\pertsonalak$\guztion1\Downloads\Usurbil.jpg
 10
151.0
 20
177.0
 11
0.2645833333333333
 21
0.2645833333333333
280
     1
281
     5
  0
IMAGEDEF
  5
9835
102
{ACAD_REACTORS
330
2E0
330
988B
102
}
330
2E0
100
AcDbRasterImageDef
 90
        0
  1
G:\Udalerriak\US_Usurbil\Usurbil.jpg
 10
151.0
 20
177.0
 11
0.2645833333333333
 21
0.2645833333333333
280
     1
281
     5
  0
LAYOUT
  5
2B60
102
{ACAD_REACTORS
330
1A
102
}
330
1A
100
AcDbPlotSettings
  1

  2
DWG To PDF.pc3
  4
ISO_expand_A4_(210.00_x_297.00_MM)
  6

 40
5.793749809265136
 41
10.79374980926513
 42
5.793746948242187
 43
10.79376220703125
 44
210.0
 45
297.0
 46
-5.793748378753662
 47
-10.79375600814816
 48
-0.0018762920232689
 49
0.2812602170592981
140
0.2081237079767311
141
0.5782602170592981
142
1000.0
143
1.0
 70
   676
 72
     1
 73
     0
 74
     4
  7
Guztion_Planoak_pdf.ctb
 75
     0
147
1000.0
 76
     0
 77
     2
 78
   300
148
0.0018762920232689
149
-0.2812602170592981
100
AcDbLayout
  1
16
 70
     1
 71
     1
 10
-0.0018762934537804
 20
0.2812602232581811
 11
0.2081237065462196
 21
0.5782602232581812
 12
0.0
 22
0.0
 32
0.0
 14
-0.0018762920232689
 24
0.2812602170592981
 34
0.0
 15
231.3
 25
175.5
 35
0.0
146
0.0
 13
0.0
 23
0.0
 33
0.0
 16
1.0
 26
0.0
 36
0.0
 17
0.0
 27
1.0
 37
0.0
 76
     0
330
2B53
331
2B5C
1001
ACAD_PSEXT
1000
DWG To PDF.pc3
1000
DWG To PDF
1000
Archivo
1000

1070
     0
  0
LAYOUT
  5
22
102
{ACAD_XDICTIONARY
360
205
102
}
102
{ACAD_REACTORS
330
1A
102
}
330
1A
100
AcDbPlotSettings
  1

  2
DWG To PDF.pc3
  4
UserDefinedMetric (210.00 x 297.00mm)
  6

 40
0.0
 41
0.0
 42
0.0
 43
0.0
 44
210.0
 45
297.0
 46
0.0
 47
87.12725628375705
 48
-64.87770755501651
 49
-10.86078803921714
140
-49.28250067704721
141
-1.74535342089905
142
1.0
143
0.0742628898950919
 70
 11956
 72
     1
 73
     0
 74
     4
  7
Guztion_Planoak_pdf.ctb
 75
     0
147
13.46567580944747
 76
     0
 77
     2
 78
   300
148
64.87770755501651
149
10.86078803921714
100
AcDbLayout
  1
Model
 70
     1
 71
     0
 10
0.0
 20
0.0
 11
12.0
 21
9.0
 12
0.0
 22
0.0
 32
0.0
 14
0.0
 24
0.0
 34
0.0
 15
0.0
 25
0.0
 35
0.0
146
0.0
 13
0.0
 23
0.0
 33
0.0
 16
1.0
 26
0.0
 36
0.0
 17
0.0
 27
1.0
 37
0.0
 76
     0
330
1F
331
EA
1001
ACAD_PSEXT
1000
DWG To PDF.pc3
1000
DWG To PDF
1000
Archivo
1000

1070
     0
  0
LAYOUT
  5
D7
102
{ACAD_REACTORS
330
1A
102
}
330
1A
100
AcDbPlotSettings
  1

  2
none_device
  4
ISO_A4_(210.00_x_297.00_MM)
  6

 40
7.5
 41
20.0
 42
7.5
 43
20.0
 44
210.0
 45
297.0
 46
0.0
 47
0.0
 48
0.0
 49
0.0
140
0.0
141
0.0
142
1.0
143
1.0
 70
   688
 72
     1
 73
     1
 74
     5
  7
Guztion_Planoak_pdf.ctb
 75
    16
147
1.0
 76
     0
 77
     2
 78
   300
148
0.0
149
0.0
100
AcDbLayout
  1
Presentación2
 70
     1
 71
     2
 10
-20.0
 20
-7.5
 11
277.0
 21
202.5
 12
0.0
 22
0.0
 32
0.0
 14
25.69999999999999
 24
19.5
 34
0.0
 15
231.3
 25
175.5
 35
0.0
146
0.0
 13
0.0
 23
0.0
 33
0.0
 16
1.0
 26
0.0
 36
0.0
 17
0.0
 27
1.0
 37
0.0
 76
     0
330
D6
331
2AF3
1001
ACAD_PSEXT
1000
Ninguno
1000
Ninguno
1000
No aplicable
1000
La presentación no se trazará a menos que se seleccione un nuevo nombre de configuración de trazador.
1070
     0
  0
MATERIAL
  5
ED
102
{ACAD_XDICTIONARY
360
1F9
102
}
102
{ACAD_REACTORS
330
6A
102
}
330
6A
100
AcDbMaterial
  1
ByBlock
 94
       63
  0
MATERIAL
  5
EC
102
{ACAD_XDICTIONARY
360
1F7
102
}
102
{ACAD_REACTORS
330
6A
102
}
330
6A
100
AcDbMaterial
  1
ByLayer
 94
       63
  0
MATERIAL
  5
EE
102
{ACAD_XDICTIONARY
360
173
102
}
102
{ACAD_REACTORS
330
6A
102
}
330
6A
100
AcDbMaterial
  1
Global
 43
0.0007999999797903
 43
0.0
 43
0.0
 43
0.0
 43
0.0
 43
0.0007999999797903
 43
0.0
 43
0.0
 43
0.0
 43
0.0
 43
1.0
 43
0.0
 43
0.0
 43
0.0
 43
0.0
 43
1.0
 49
0.0007999999797903
 49
0.0
 49
0.0
 49
0.0
 49
0.0
 49
0.0007999999797903
 49
0.0
 49
0.0
 49
0.0
 49
0.0
 49
1.0
 49
0.0
 49
0.0
 49
0.0
 49
0.0
 49
1.0
142
0.0007999999797903
142
0.0
142
0.0
142
0.0
142
0.0
142
0.0007999999797903
142
0.0
142
0.0
142
0.0
142
0.0
142
1.0
142
0.0
142
0.0
142
0.0
142
0.0
142
1.0
144
0.0007999999797903
144
0.0
144
0.0
144
0.0
144
0.0
144
0.0007999999797903
144
0.0
144
0.0
144
0.0
144
0.0
144
1.0
144
0.0
144
0.0
144
0.0
144
0.0
144
1.0
 94
       63
1001
ACAD
1070
    -1
1070
     3
1070
     0
1000

1071
        0
1070
     0
  0
MLEADERSTYLE
  5
13B
102
{ACAD_REACTORS
330
12D
102
}
330
12D
100
AcDbMLeaderStyle
179
     2
170
     2
171
     1
172
     0
 90
        2
 40
0.0
 41
0.0
173
     1
 91
-1056964608
340
14
 92
       -2
290
     1
 42
2.0
291
     1
 43
8.0
  3
Standard
 44
4.0
300

342
11
174
     1
178
     1
175
     1
176
     0
 93
-1056964608
 45
4.0
292
     0
297
     0
 46
4.0
 94
-1056964608
 47
1.0
 49
1.0
140
1.0
293
     1
141
0.0
294
     1
177
     0
142
1.0
295
     0
296
     1
143
3.75
271
     0
272
     9
273
     9
298
     0
  0
MLEADERSTYLE
  5
12E
102
{ACAD_REACTORS
330
12D
102
}
330
12D
100
AcDbMLeaderStyle
179
     2
170
     2
171
     1
172
     0
 90
        2
 40
0.0
 41
0.0
173
     1
 91
-1056964608
340
14
 92
       -2
290
     1
 42
2.0
291
     1
 43
8.0
  3
Standard
 44
4.0
300

342
11
174
     1
178
     1
175
     1
176
     0
 93
-1056964608
 45
4.0
292
     0
297
     0
 46
4.0
 94
-1056964608
 47
1.0
 49
1.0
140
1.0
293
     1
141
0.0
294
     1
177
     0
142
1.0
295
     0
296
     0
143
3.75
271
     0
272
     9
273
     9
298
     0
  0
MLINESTYLE
  5
18
102
{ACAD_REACTORS
330
17
102
}
330
17
100
AcDbMlineStyle
  2
STANDARD
 70
     0
  3

 62
   256
 51
90.0
 52
90.0
 71
     2
 49
0.5
 62
   256
  6
BYLAYER
 49
-0.5
 62
   256
  6
BYLAYER
  0
ACDBPLACEHOLDER
  5
F
102
{ACAD_REACTORS
330
E
102
}
330
E
  0
SCALE
  5
10D
102
{ACAD_REACTORS
330
10C
102
}
330
10C
100
AcDbScale
 70
     0
300
1:1
140
1.0
141
1.0
290
     1
  0
SCALE
  5
4B1
102
{ACAD_REACTORS
330
10C
102
}
330
10C
100
AcDbScale
 70
     0
300
1/100 eskala
140
1000.0
141
1.0
290
     0
  0
SCALE
  5
4B2
102
{ACAD_REACTORS
330
10C
102
}
330
10C
100
AcDbScale
 70
     0
300
1:2
140
1.0
141
2.0
290
     0
  0
SCALE
  5
4B3
102
{ACAD_REACTORS
330
10C
102
}
330
10C
100
AcDbScale
 70
     0
300
1:4
140
1.0
141
4.0
290
     0
  0
SCALE
  5
4B4
102
{ACAD_REACTORS
330
10C
102
}
330
10C
100
AcDbScale
 70
     0
300
1:5
140
1.0
141
5.0
290
     0
  0
SCALE
  5
4B5
102
{ACAD_REACTORS
330
10C
102
}
330
10C
100
AcDbScale
 70
     0
300
1:8
140
1.0
141
8.0
290
     0
  0
SCALE
  5
4B6
102
{ACAD_REACTORS
330
10C
102
}
330
10C
100
AcDbScale
 70
     0
300
1:10
140
1.0
141
10.0
290
     0
  0
SCALE
  5
4B7
102
{ACAD_REACTORS
330
10C
102
}
330
10C
100
AcDbScale
 70
     0
300
1:16
140
1.0
141
16.0
290
     0
  0
SCALE
  5
4B8
102
{ACAD_REACTORS
330
10C
102
}
330
10C
100
AcDbScale
 70
     0
300
1:20
140
1.0
141
20.0
290
     0
  0
SCALE
  5
4B9
102
{ACAD_REACTORS
330
10C
102
}
330
10C
100
AcDbScale
 70
     0
300
1:30
140
1.0
141
30.0
290
     0
  0
SCALE
  5
4BA
102
{ACAD_REACTORS
330
10C
102
}
330
10C
100
AcDbScale
 70
     0
300
1:40
140
1.0
141
40.0
290
     0
  0
SCALE
  5
4BB
102
{ACAD_REACTORS
330
10C
102
}
330
10C
100
AcDbScale
 70
     0
300
1:50
140
1.0
141
50.0
290
     0
  0
SCALE
  5
1C8
102
{ACAD_REACTORS
330
10C
102
}
330
10C
100
AcDbScale
 70
     0
300
1:100
140
1.0
141
100.0
290
     0
  0
SCALE
  5
4BC
102
{ACAD_REACTORS
330
10C
102
}
330
10C
100
AcDbScale
 70
     0
300
2:1
140
2.0
141
1.0
290
     0
  0
SCALE
  5
4BD
102
{ACAD_REACTORS
330
10C
102
}
330
10C
100
AcDbScale
 70
     0
300
4:1
140
4.0
141
1.0
290
     0
  0
SCALE
  5
4BE
102
{ACAD_REACTORS
330
10C
102
}
330
10C
100
AcDbScale
 70
     0
300
8:1
140
8.0
141
1.0
290
     0
  0
SCALE
  5
4BF
102
{ACAD_REACTORS
330
10C
102
}
330
10C
100
AcDbScale
 70
     0
300
10:1
140
10.0
141
1.0
290
     0
  0
SCALE
  5
4C0
102
{ACAD_REACTORS
330
10C
102
}
330
10C
100
AcDbScale
 70
     0
300
100:1
140
100.0
141
1.0
290
     0
  0
ACDBSECTIONVIEWSTYLE
  5
188E
102
{ACAD_XDICTIONARY
360
22E0
102
}
102
{ACAD_REACTORS
330
219
102
}
330
219
100
AcDbModelDocViewStyle
 70
     0
  3
Imperial24
290
     0
100
AcDbSectionViewStyle
 70
     0
 71
     0
 90
       78
 71
     1
340
11
 62
   256
 40
0.24
340
0
340
0
 62
   256
 40
0.24
300
I, O, Q, S, X, Z
 40
0.48
 90
        3
 40
0.18
 90
        1
 71
     2
340
16
 90
       25
 62
   256
340
16
 90
       50
 62
   256
 40
0.24
 40
0.0
 40
0.24
 71
     3
340
11
 62
   256
 40
0.24
 90
        1
 40
0.75
 90
        1
300
%<\AcVar ViewType \f "%tc1">% %<\AcVar ViewSectionStartId>%-%<\AcVar ViewSectionEndId>%\PESCALA %<\AcVar ViewScale \f "%sn">%
 71
     4
 62
   256
 62
   257
300
ANSI31
 40
1.0
 90
        0
290
     0
290
     0
 90
        6
 40
0.0
 40
1.570796326794896
 40
0.2617993877991494
 40
1.308996938995747
 40
-0.2617993877991494
 40
1.832595714594046
  0
ACDBSECTIONVIEWSTYLE
  5
21A
102
{ACAD_XDICTIONARY
360
234
102
}
102
{ACAD_REACTORS
330
219
102
}
330
219
100
AcDbModelDocViewStyle
 70
     0
  3
Metric50
290
     0
100
AcDbSectionViewStyle
 70
     0
 71
     0
 90
      102
 71
     1
340
11
 62
   256
 40
5.0
340
0
340
0
 62
   256
 40
5.0
300
I, O, Q, S, X, Z
 40
10.0
 90
        0
 40
2.5
 90
        0
 71
     2
340
16
 90
       25
 62
   256
340
16
 90
       50
 62
   256
 40
5.0
 40
2.5
 40
5.0
 71
     3
340
11
 62
   256
 40
5.0
 90
        0
 40
15.0
 90
        1
300
%<\AcVar ViewSectionStartId>%-%<\AcVar ViewSectionEndId>% (%<\AcVar ViewScale \f "%sn">%)
 71
     4
 62
   256
 62
   257
300
ANSI31
 40
1.0
 90
        0
290
     0
290
     0
 90
        6
 40
0.0
 40
1.570796326794896
 40
0.2617993877991494
 40
1.308996938995747
 40
-0.2617993877991494
 40
1.832595714594046
  0
TABLESTYLE
  5
7F
102
{ACAD_XDICTIONARY
360
162
102
}
102
{ACAD_REACTORS
330
7E
102
}
330
7E
100
AcDbTableStyle
280
     0
  3
Standard
 70
     0
 71
     0
 40
1.5
 41
1.5
280
     0
281
     0
  7
Standard
140
4.5
170
     2
 62
     0
 63
     7
283
     0
 90
      512
 91
        0
  1

274
    -2
284
     1
 64
     0
275
    -2
285
     1
 65
     0
276
    -2
286
     1
 66
     0
277
    -2
287
     1
 67
     0
278
    -2
288
     1
 68
     0
279
    -2
289
     1
 69
     0
  7
Standard
140
6.0
170
     5
 62
     0
 63
     7
283
     0
 90
      512
 91
        0
  1

274
    -2
284
     1
 64
     0
275
    -2
285
     1
 65
     0
276
    -2
286
     1
 66
     0
277
    -2
287
     1
 67
     0
278
    -2
288
     1
 68
     0
279
    -2
289
     1
 69
     0
  7
Standard
140
4.5
170
     5
 62
     0
 63
     7
283
     0
 90
      512
 91
        0
  1

274
    -2
284
     1
 64
     0
275
    -2
285
     1
 65
     0
276
    -2
286
     1
 66
     0
277
    -2
287
     1
 67
     0
278
    -2
288
     1
 68
     0
279
    -2
289
     1
 69
     0
  0
VISUALSTYLE
  5
F5
102
{ACAD_REACTORS
330
EF
102
}
330
EF
100
AcDbVisualStyle
  2
2dWireframe
 70
     4
177
     3
291
     0
 70
    58
 90
        0
176
     1
 90
        2
176
     1
 90
        1
176
     1
 90
        0
176
     1
 40
0.6
176
     1
 40
30.0
176
     1
 62
     7
420
 16777215
176
     1
 90
        1
176
     1
 90
        4
176
     1
 62
     7
176
     1
 62
   257
176
     1
 90
        1
176
     1
 90
        1
176
     1
 40
1.0
176
     1
 90
        0
176
     1
 62
   257
176
     1
 40
1.0
176
     1
 90
        1
176
     1
 90
        6
176
     1
 90
        2
176
     1
 62
     7
176
     1
 90
        5
176
     1
 90
        0
176
     1
 90
        0
176
     1
290
     0
176
     1
 90
        1
176
     1
 40
0.0
176
     1
 90
        0
176
     1
290
     1
176
     1
290
     1
176
     1
290
     0
176
     1
290
     0
176
     1
290
     0
176
     1
290
     0
176
     1
290
     0
176
     1
290
     0
176
     1
290
     0
176
     1
 90
       50
176
     1
 40
0.0
176
     1
 40
1.0
176
     1
 90
        0
176
     1
 62
    18
420
        0
176
     1
 90
       50
176
     1
 90
        3
176
     1
 62
     5
420
      255
176
     1
290
     0
176
     1
 90
       50
176
     1
 90
       50
176
     1
 90
       50
176
     1
290
     0
176
     1
 90
       50
176
     1
 62
   256
176
     0
 40
1.0
176
     0
 90
        2
176
     1
  1
strokes_ogs.tif
176
     1
290
     0
176
     1
 40
1.0
176
     1
 40
1.0
176
     1
  0
VISUALSTYLE
  5
F4
102
{ACAD_REACTORS
330
EF
102
}
330
EF
100
AcDbVisualStyle
  2
Basic
 70
     7
177
     3
291
     1
 70
    58
 90
        1
176
     1
 90
        0
176
     1
 90
        1
176
     1
 90
        0
176
     1
 40
0.6
176
     1
 40
30.0
176
     1
 62
     7
420
 16777215
176
     1
 90
        0
176
     1
 90
        4
176
     1
 62
     7
176
     1
 62
   257
176
     1
 90
        1
176
     1
 90
        1
176
     1
 40
1.0
176
     1
 90
        8
176
     1
 62
     7
176
     1
 40
1.0
176
     1
 90
        1
176
     1
 90
        6
176
     1
 90
        2
176
     1
 62
     7
176
     1
 90
        5
176
     1
 90
        0
176
     1
 90
        0
176
     1
290
     0
176
     1
 90
        1
176
     1
 40
0.0
176
     1
 90
        0
176
     1
290
     0
176
     1
290
     1
176
     1
290
     1
176
     1
290
     0
176
     1
290
     0
176
     1
290
     0
176
     1
290
     0
176
     1
290
     0
176
     1
290
     0
176
     1
 90
       50
176
     1
 40
0.0
176
     1
 40
1.0
176
     1
 90
        0
176
     1
 62
    18
420
        0
176
     1
 90
       50
176
     1
 90
        3
176
     1
 62
     5
420
      255
176
     1
290
     0
176
     1
 90
       50
176
     1
 90
       50
176
     1
 90
       50
176
     1
290
     0
176
     1
 90
       50
176
     1
 62
   256
176
     0
 40
1.0
176
     0
 90
        2
176
     1
  1
strokes_ogs.tif
176
     1
290
     0
176
     1
 40
1.0
176
     1
 40
1.0
176
     1
  0
VISUALSTYLE
  5
FB
102
{ACAD_REACTORS
330
EF
102
}
330
EF
100
AcDbVisualStyle
  2
Brighten
 70
    12
177
     3
291
     1
 70
    58
 90
        2
176
     1
 90
        2
176
     1
 90
        1
176
     1
 90
        0
176
     1
 40
0.6
176
     1
 40
30.0
176
     1
 62
     7
420
 16777215
176
     1
 90
        1
176
     1
 90
        4
176
     1
 62
     7
176
     1
 62
   257
176
     1
 90
        1
176
     1
 90
        1
176
     1
 40
1.0
176
     1
 90
        8
176
     1
 62
     7
176
     1
 40
1.0
176
     1
 90
        1
176
     1
 90
        6
176
     1
 90
        2
176
     1
 62
     7
176
     1
 90
        5
176
     1
 90
        0
176
     1
 90
        0
176
     1
290
     0
176
     1
 90
        1
176
     1
 40
50.0
176
     1
 90
        0
176
     1
290
     0
176
     1
290
     1
176
     1
290
     1
176
     1
290
     0
176
     1
290
     0
176
     1
290
     0
176
     1
290
     0
176
     1
290
     0
176
     1
290
     0
176
     1
 90
       50
176
     1
 40
0.0
176
     1
 40
1.0
176
     1
 90
        0
176
     1
 62
    18
420
        0
176
     1
 90
       50
176
     1
 90
        3
176
     1
 62
     5
420
      255
176
     1
290
     0
176
     1
 90
       50
176
     1
 90
       50
176
     1
 90
       50
176
     1
290
     0
176
     1
 90
       50
176
     1
 62
   256
176
     0
 40
1.0
176
     0
 90
        2
176
     1
  1
strokes_ogs.tif
176
     1
290
     0
176
     1
 40
1.0
176
     1
 40
1.0
176
     1
  0
VISUALSTYLE
  5
FF
102
{ACAD_REACTORS
330
EF
102
}
330
EF
100
AcDbVisualStyle
  2
ColorChange
 70
    16
177
     3
291
     1
 70
    58
 90
        2
176
     1
 90
        2
176
     1
 90
        3
176
     1
 90
        0
176
     1
 40
0.6
176
     1
 40
30.0
176
     1
 62
     8
420
  8421504
176
     1
 90
        1
176
     1
 90
        4
176
     1
 62
     7
176
     1
 62
   257
176
     1
 90
        1
176
     1
 90
        1
176
     1
 40
1.0
176
     1
 90
        8
176
     1
 62
     8
420
  8421504
176
     1
 40
1.0
176
     1
 90
        1
176
     1
 90
        6
176
     1
 90
        2
176
     1
 62
     7
176
     1
 90
        5
176
     1
 90
        0
176
     1
 90
        0
176
     1
290
     0
176
     1
 90
        1
176
     1
 40
0.0
176
     1
 90
        0
176
     1
290
     0
176
     1
290
     1
176
     1
290
     1
176
     1
290
     0
176
     1
290
     0
176
     1
290
     0
176
     1
290
     0
176
     1
290
     0
176
     1
290
     0
176
     1
 90
       50
176
     1
 40
0.0
176
     1
 40
1.0
176
     1
 90
        0
176
     1
 62
    18
420
        0
176
     1
 90
       50
176
     1
 90
        3
176
     1
 62
     5
420
      255
176
     1
290
     0
176
     1
 90
       50
176
     1
 90
       50
176
     1
 90
       50
176
     1
290
     0
176
     1
 90
       50
176
     1
 62
   256
176
     0
 40
1.0
176
     0
 90
        2
176
     1
  1
strokes_ogs.tif
176
     1
290
     0
176
     1
 40
1.0
176
     1
 40
1.0
176
     1
  0
VISUALSTYLE
  5
F8
102
{ACAD_REACTORS
330
EF
102
}
330
EF
100
AcDbVisualStyle
  2
Conceptual
 70
     9
177
     3
291
     0
 70
    58
 90
        3
176
     1
 90
        2
176
     1
 90
        1
176
     1
 90
        0
176
     1
 40
0.6
176
     1
 40
30.0
176
     1
 62
     7
420
 16777215
176
     1
 90
        2
176
     1
 90
        2
176
     1
 62
     7
176
     1
 62
   257
176
     1
 90
        1
176
     1
 90
        1
176
     1
 40
40.0
176
     1
 90
        8
176
     1
 62
     7
176
     1
 40
1.0
176
     1
 90
        1
176
     1
 90
        6
176
     1
 90
        2
176
     1
 62
     7
176
     1
 90
        3
176
     1
 90
        0
176
     1
 90
        0
176
     1
290
     0
176
     1
 90
        1
176
     1
 40
0.0
176
     1
 90
        0
176
     1
290
     0
176
     1
290
     1
176
     1
290
     1
176
     1
290
     0
176
     1
290
     0
176
     1
290
     0
176
     1
290
     0
176
     1
290
     0
176
     1
290
     0
176
     1
 90
       50
176
     1
 40
0.0
176
     1
 40
1.0
176
     1
 90
        0
176
     1
 62
    18
420
        0
176
     1
 90
       50
176
     1
 90
        3
176
     1
 62
     5
420
      255
176
     1
290
     0
176
     1
 90
       50
176
     1
 90
       50
176
     1
 90
       50
176
     1
290
     0
176
     1
 90
       50
176
     1
 62
   256
176
     0
 40
1.0
176
     0
 90
        2
176
     1
  1
strokes_ogs.tif
176
     1
290
     0
176
     1
 40
1.0
176
     1
 40
1.0
176
     1
  0
VISUALSTYLE
  5
FA
102
{ACAD_REACTORS
330
EF
102
}
330
EF
100
AcDbVisualStyle
  2
Dim
 70
    11
177
     3
291
     1
 70
    58
 90
        2
176
     1
 90
        2
176
     1
 90
        1
176
     1
 90
        0
176
     1
 40
0.6
176
     1
 40
30.0
176
     1
 62
     7
420
 16777215
176
     1
 90
        1
176
     1
 90
        4
176
     1
 62
     7
176
     1
 62
   257
176
     1
 90
        1
176
     1
 90
        1
176
     1
 40
1.0
176
     1
 90
        8
176
     1
 62
     7
176
     1
 40
1.0
176
     1
 90
        1
176
     1
 90
        6
176
     1
 90
        2
176
     1
 62
     7
176
     1
 90
        5
176
     1
 90
        0
176
     1
 90
        0
176
     1
290
     0
176
     1
 90
        1
176
     1
 40
-50.0
176
     1
 90
        0
176
     1
290
     0
176
     1
290
     1
176
     1
290
     1
176
     1
290
     0
176
     1
290
     0
176
     1
290
     0
176
     1
290
     0
176
     1
290
     0
176
     1
290
     0
176
     1
 90
       50
176
     1
 40
0.0
176
     1
 40
1.0
176
     1
 90
        0
176
     1
 62
    18
420
        0
176
     1
 90
       50
176
     1
 90
        3
176
     1
 62
     5
420
      255
176
     1
290
     0
176
     1
 90
       50
176
     1
 90
       50
176
     1
 90
       50
176
     1
290
     0
176
     1
 90
       50
176
     1
 62
   256
176
     0
 40
1.0
176
     0
 90
        2
176
     1
  1
strokes_ogs.tif
176
     1
290
     0
176
     1
 40
1.0
176
     1
 40
1.0
176
     1
  0
VISUALSTYLE
  5
1E6
102
{ACAD_REACTORS
330
EF
102
}
330
EF
100
AcDbVisualStyle
  2
EdgeColorOff
 70
    22
177
     3
291
     1
 70
    58
 90
        2
176
     0
 90
        2
176
     0
 90
        0
176
     0
 90
        0
176
     0
 40
0.6
176
     0
 40
30.0
176
     0
 62
     7
420
 16777215
176
     0
 90
        1
176
     0
 90
        4
176
     0
 62
     7
176
     0
 62
   257
176
     0
 90
        1
176
     0
 90
        1
176
     0
 40
1.0
176
     0
 90
        8
176
     2
 62
     7
176
     0
 40
1.0
176
     0
 90
        1
176
     0
 90
        6
176
     0
 90
        2
176
     0
 62
     7
176
     0
 90
        5
176
     0
 90
        0
176
     0
 90
        0
176
     0
290
     0
176
     0
 90
        1
176
     0
 40
0.0
176
     0
 90
        0
176
     0
290
     0
176
     1
290
     1
176
     1
290
     1
176
     1
290
     0
176
     1
290
     0
176
     1
290
     0
176
     1
290
     0
176
     1
290
     0
176
     1
290
     0
176
     1
 90
       50
176
     1
 40
0.0
176
     1
 40
1.0
176
     1
 90
        0
176
     1
 62
    18
420
        0
176
     1
 90
       50
176
     1
 90
        3
176
     1
 62
     5
420
      255
176
     1
290
     0
176
     1
 90
       50
176
     1
 90
       50
176
     1
 90
       50
176
     1
290
     0
176
     1
 90
       50
176
     1
 62
   256
176
     0
 40
1.0
176
     0
 90
        2
176
     1
  1
strokes_ogs.tif
176
     1
290
     0
176
     1
 40
1.0
176
     1
 40
1.0
176
     1
  0
VISUALSTYLE
  5
FE
102
{ACAD_REACTORS
330
EF
102
}
330
EF
100
AcDbVisualStyle
  2
Facepattern
 70
    15
177
     3
291
     1
 70
    58
 90
        2
176
     1
 90
        2
176
     1
 90
        1
176
     1
 90
        0
176
     1
 40
0.6
176
     1
 40
30.0
176
     1
 62
     7
420
 16777215
176
     1
 90
        1
176
     1
 90
        4
176
     1
 62
     7
176
     1
 62
   257
176
     1
 90
        1
176
     1
 90
        1
176
     1
 40
1.0
176
     1
 90
        8
176
     1
 62
     7
176
     1
 40
1.0
176
     1
 90
        1
176
     1
 90
        6
176
     1
 90
        2
176
     1
 62
     7
176
     1
 90
        5
176
     1
 90
        0
176
     1
 90
        0
176
     1
290
     0
176
     1
 90
        1
176
     1
 40
0.0
176
     1
 90
        0
176
     1
290
     0
176
     1
290
     1
176
     1
290
     1
176
     1
290
     0
176
     1
290
     0
176
     1
290
     0
176
     1
290
     0
176
     1
290
     0
176
     1
290
     0
176
     1
 90
       50
176
     1
 40
0.0
176
     1
 40
1.0
176
     1
 90
        0
176
     1
 62
    18
420
        0
176
     1
 90
       50
176
     1
 90
        3
176
     1
 62
     5
420
      255
176
     1
290
     0
176
     1
 90
       50
176
     1
 90
       50
176
     1
 90
       50
176
     1
290
     0
176
     1
 90
       50
176
     1
 62
   256
176
     0
 40
1.0
176
     0
 90
        2
176
     1
  1
strokes_ogs.tif
176
     1
290
     0
176
     1
 40
1.0
176
     1
 40
1.0
176
     1
  0
VISUALSTYLE
  5
F0
102
{ACAD_REACTORS
330
EF
102
}
330
EF
100
AcDbVisualStyle
  2
Flat
 70
     0
177
     3
291
     1
 70
    58
 90
        2
176
     1
 90
        1
176
     1
 90
        1
176
     1
 90
        2
176
     1
 40
0.6
176
     1
 40
30.0
176
     1
 62
     7
420
 16777215
176
     1
 90
        0
176
     1
 90
        0
176
     1
 62
     7
176
     1
 62
   257
176
     1
 90
        1
176
     1
 90
        1
176
     1
 40
1.0
176
     1
 90
        8
176
     1
 62
     7
176
     1
 40
1.0
176
     1
 90
        1
176
     1
 90
        6
176
     1
 90
        2
176
     1
 62
     7
176
     1
 90
        5
176
     1
 90
        0
176
     1
 90
        0
176
     1
290
     0
176
     1
 90
       13
176
     1
 40
0.0
176
     1
 90
        0
176
     1
290
     0
176
     1
290
     1
176
     1
290
     1
176
     1
290
     0
176
     1
290
     0
176
     1
290
     0
176
     1
290
     0
176
     1
290
     0
176
     1
290
     0
176
     1
 90
       50
176
     1
 40
0.0
176
     1
 40
1.0
176
     1
 90
        0
176
     1
 62
    18
420
        0
176
     1
 90
       50
176
     1
 90
        3
176
     1
 62
     5
420
      255
176
     1
290
     0
176
     1
 90
       50
176
     1
 90
       50
176
     1
 90
       50
176
     1
290
     0
176
     1
 90
       50
176
     1
 62
   256
176
     0
 40
1.0
176
     0
 90
        2
176
     1
  1
strokes_ogs.tif
176
     1
290
     0
176
     1
 40
1.0
176
     1
 40
1.0
176
     1
  0
VISUALSTYLE
  5
F1
102
{ACAD_REACTORS
330
EF
102
}
330
EF
100
AcDbVisualStyle
  2
FlatWithEdges
 70
     1
177
     3
291
     1
 70
    58
 90
        2
176
     1
 90
        1
176
     1
 90
        1
176
     1
 90
        2
176
     1
 40
0.6
176
     1
 40
30.0
176
     1
 62
     7
420
 16777215
176
     1
 90
        1
176
     1
 90
        0
176
     1
 62
     7
176
     1
 62
   257
176
     1
 90
        1
176
     1
 90
        1
176
     1
 40
1.0
176
     1
 90
        0
176
     1
 62
   257
176
     1
 40
1.0
176
     1
 90
        1
176
     1
 90
        6
176
     1
 90
        2
176
     1
 62
     7
176
     1
 90
        5
176
     1
 90
        0
176
     1
 90
        0
176
     1
290
     0
176
     1
 90
       13
176
     1
 40
0.0
176
     1
 90
        0
176
     1
290
     0
176
     1
290
     1
176
     1
290
     1
176
     1
290
     0
176
     1
290
     0
176
     1
290
     0
176
     1
290
     0
176
     1
290
     0
176
     1
290
     0
176
     1
 90
       50
176
     1
 40
0.0
176
     1
 40
1.0
176
     1
 90
        0
176
     1
 62
    18
420
        0
176
     1
 90
       50
176
     1
 90
        3
176
     1
 62
     5
420
      255
176
     1
290
     0
176
     1
 90
       50
176
     1
 90
       50
176
     1
 90
       50
176
     1
290
     0
176
     1
 90
       50
176
     1
 62
   256
176
     0
 40
1.0
176
     0
 90
        2
176
     1
  1
strokes_ogs.tif
176
     1
290
     0
176
     1
 40
1.0
176
     1
 40
1.0
176
     1
  0
VISUALSTYLE
  5
F2
102
{ACAD_REACTORS
330
EF
102
}
330
EF
100
AcDbVisualStyle
  2
Gouraud
 70
     2
177
     3
291
     1
 70
    58
 90
        2
176
     1
 90
        2
176
     1
 90
        1
176
     1
 90
        2
176
     1
 40
0.6
176
     1
 40
30.0
176
     1
 62
     7
420
 16777215
176
     1
 90
        0
176
     1
 90
        0
176
     1
 62
     7
176
     1
 62
   257
176
     1
 90
        1
176
     1
 90
        1
176
     1
 40
1.0
176
     1
 90
        0
176
     1
 62
     7
176
     1
 40
1.0
176
     1
 90
        1
176
     1
 90
        6
176
     1
 90
        2
176
     1
 62
     7
176
     1
 90
        5
176
     1
 90
        0
176
     1
 90
        0
176
     1
290
     0
176
     1
 90
       13
176
     1
 40
0.0
176
     1
 90
        0
176
     1
290
     0
176
     1
290
     1
176
     1
290
     1
176
     1
290
     0
176
     1
290
     0
176
     1
290
     0
176
     1
290
     0
176
     1
290
     0
176
     1
290
     0
176
     1
 90
       50
176
     1
 40
0.0
176
     1
 40
1.0
176
     1
 90
        0
176
     1
 62
    18
420
        0
176
     1
 90
       50
176
     1
 90
        3
176
     1
 62
     5
420
      255
176
     1
290
     0
176
     1
 90
       50
176
     1
 90
       50
176
     1
 90
       50
176
     1
290
     0
176
     1
 90
       50
176
     1
 62
   256
176
     0
 40
1.0
176
     0
 90
        2
176
     1
  1
strokes_ogs.tif
176
     1
290
     0
176
     1
 40
1.0
176
     1
 40
1.0
176
     1
  0
VISUALSTYLE
  5
F3
102
{ACAD_REACTORS
330
EF
102
}
330
EF
100
AcDbVisualStyle
  2
GouraudWithEdges
 70
     3
177
     3
291
     1
 70
    58
 90
        2
176
     1
 90
        2
176
     1
 90
        1
176
     1
 90
        2
176
     1
 40
0.6
176
     1
 40
30.0
176
     1
 62
     7
420
 16777215
176
     1
 90
        1
176
     1
 90
        0
176
     1
 62
     7
176
     1
 62
   257
176
     1
 90
        1
176
     1
 90
        1
176
     1
 40
1.0
176
     1
 90
        0
176
     1
 62
   257
176
     1
 40
1.0
176
     1
 90
        1
176
     1
 90
        6
176
     1
 90
        2
176
     1
 62
     7
176
     1
 90
        5
176
     1
 90
        0
176
     1
 90
        0
176
     1
290
     0
176
     1
 90
       13
176
     1
 40
0.0
176
     1
 90
        0
176
     1
290
     0
176
     1
290
     1
176
     1
290
     1
176
     1
290
     0
176
     1
290
     0
176
     1
290
     0
176
     1
290
     0
176
     1
290
     0
176
     1
290
     0
176
     1
 90
       50
176
     1
 40
0.0
176
     1
 40
1.0
176
     1
 90
        0
176
     1
 62
    18
420
        0
176
     1
 90
       50
176
     1
 90
        3
176
     1
 62
     5
420
      255
176
     1
290
     0
176
     1
 90
       50
176
     1
 90
       50
176
     1
 90
       50
176
     1
290
     0
176
     1
 90
       50
176
     1
 62
   256
176
     0
 40
1.0
176
     0
 90
        2
176
     1
  1
strokes_ogs.tif
176
     1
290
     0
176
     1
 40
1.0
176
     1
 40
1.0
176
     1
  0
VISUALSTYLE
  5
F7
102
{ACAD_REACTORS
330
EF
102
}
330
EF
100
AcDbVisualStyle
  2
Hidden
 70
     6
177
     3
291
     0
 70
    58
 90
        1
176
     1
 90
        2
176
     1
 90
        2
176
     1
 90
        0
176
     1
 40
0.6
176
     1
 40
30.0
176
     1
 62
     7
420
 16777215
176
     1
 90
        2
176
     1
 90
        2
176
     1
 62
     7
176
     1
 62
   257
176
     1
 90
        2
176
     1
 90
        1
176
     1
 40
40.0
176
     1
 90
        0
176
     1
 62
   257
176
     1
 40
1.0
176
     1
 90
        1
176
     1
 90
        6
176
     1
 90
        2
176
     1
 62
     7
176
     1
 90
        3
176
     1
 90
        0
176
     1
 90
        0
176
     1
290
     0
176
     1
 90
        1
176
     1
 40
0.0
176
     1
 90
        0
176
     1
290
     0
176
     1
290
     1
176
     1
290
     1
176
     1
290
     0
176
     1
290
     0
176
     1
290
     0
176
     1
290
     0
176
     1
290
     0
176
     1
290
     0
176
     1
 90
       50
176
     1
 40
0.0
176
     1
 40
1.0
176
     1
 90
        0
176
     1
 62
    18
420
        0
176
     1
 90
       50
176
     1
 90
        3
176
     1
 62
     5
420
      255
176
     1
290
     0
176
     1
 90
       50
176
     1
 90
       50
176
     1
 90
       50
176
     1
290
     0
176
     1
 90
       50
176
     1
 62
   256
176
     0
 40
1.0
176
     0
 90
        2
176
     1
  1
strokes_ogs.tif
176
     1
290
     0
176
     1
 40
1.0
176
     1
 40
1.0
176
     1
  0
VISUALSTYLE
  5
1E4
102
{ACAD_REACTORS
330
EF
102
}
330
EF
100
AcDbVisualStyle
  2
JitterOff
 70
    20
177
     3
291
     1
 70
    58
 90
        2
176
     0
 90
        2
176
     0
 90
        0
176
     0
 90
        0
176
     0
 40
0.6
176
     0
 40
30.0
176
     0
 62
     7
420
 16777215
176
     0
 90
        1
176
     0
 90
        4
176
     0
 62
     7
176
     0
 62
   257
176
     0
 90
        1
176
     0
 90
        1
176
     0
 40
1.0
176
     0
 90
       10
176
     2
 62
     7
176
     0
 40
1.0
176
     0
 90
        1
176
     0
 90
        6
176
     0
 90
        2
176
     0
 62
     7
176
     0
 90
        5
176
     0
 90
        0
176
     0
 90
        0
176
     0
290
     0
176
     0
 90
        1
176
     0
 40
0.0
176
     0
 90
        0
176
     0
290
     0
176
     1
290
     1
176
     1
290
     1
176
     1
290
     0
176
     1
290
     0
176
     1
290
     0
176
     1
290
     0
176
     1
290
     0
176
     1
290
     0
176
     1
 90
       50
176
     1
 40
0.0
176
     1
 40
1.0
176
     1
 90
        0
176
     1
 62
    18
420
        0
176
     1
 90
       50
176
     1
 90
        3
176
     1
 62
     5
420
      255
176
     1
290
     0
176
     1
 90
       50
176
     1
 90
       50
176
     1
 90
       50
176
     1
290
     0
176
     1
 90
       50
176
     1
 62
   256
176
     0
 40
1.0
176
     0
 90
        2
176
     1
  1
strokes_ogs.tif
176
     1
290
     0
176
     1
 40
1.0
176
     1
 40
1.0
176
     1
  0
VISUALSTYLE
  5
FD
102
{ACAD_REACTORS
330
EF
102
}
330
EF
100
AcDbVisualStyle
  2
Linepattern
 70
    14
177
     3
291
     1
 70
    58
 90
        2
176
     1
 90
        2
176
     1
 90
        1
176
     1
 90
        0
176
     1
 40
0.6
176
     1
 40
30.0
176
     1
 62
     7
420
 16777215
176
     1
 90
        1
176
     1
 90
        4
176
     1
 62
     7
176
     1
 62
   257
176
     1
 90
        7
176
     1
 90
        7
176
     1
 40
1.0
176
     1
 90
        8
176
     1
 62
     7
176
     1
 40
1.0
176
     1
 90
        1
176
     1
 90
        6
176
     1
 90
        2
176
     1
 62
     7
176
     1
 90
        5
176
     1
 90
        0
176
     1
 90
        0
176
     1
290
     0
176
     1
 90
        1
176
     1
 40
0.0
176
     1
 90
        0
176
     1
290
     0
176
     1
290
     1
176
     1
290
     1
176
     1
290
     0
176
     1
290
     0
176
     1
290
     0
176
     1
290
     0
176
     1
290
     0
176
     1
290
     0
176
     1
 90
       50
176
     1
 40
0.0
176
     1
 40
1.0
176
     1
 90
        0
176
     1
 62
    18
420
        0
176
     1
 90
       50
176
     1
 90
        3
176
     1
 62
     5
420
      255
176
     1
290
     0
176
     1
 90
       50
176
     1
 90
       50
176
     1
 90
       50
176
     1
290
     0
176
     1
 90
       50
176
     1
 62
   256
176
     0
 40
1.0
176
     0
 90
        2
176
     1
  1
strokes_ogs.tif
176
     1
290
     0
176
     1
 40
1.0
176
     1
 40
1.0
176
     1
  0
VISUALSTYLE
  5
1E5
102
{ACAD_REACTORS
330
EF
102
}
330
EF
100
AcDbVisualStyle
  2
OverhangOff
 70
    21
177
     3
291
     1
 70
    58
 90
        2
176
     0
 90
        2
176
     0
 90
        0
176
     0
 90
        0
176
     0
 40
0.6
176
     0
 40
30.0
176
     0
 62
     7
420
 16777215
176
     0
 90
        1
176
     0
 90
        4
176
     0
 62
     7
176
     0
 62
   257
176
     0
 90
        1
176
     0
 90
        1
176
     0
 40
1.0
176
     0
 90
        9
176
     2
 62
     7
176
     0
 40
1.0
176
     0
 90
        1
176
     0
 90
        6
176
     0
 90
        2
176
     0
 62
     7
176
     0
 90
        5
176
     0
 90
        0
176
     0
 90
        0
176
     0
290
     0
176
     0
 90
        1
176
     0
 40
0.0
176
     0
 90
        0
176
     0
290
     0
176
     1
290
     1
176
     1
290
     1
176
     1
290
     0
176
     1
290
     0
176
     1
290
     0
176
     1
290
     0
176
     1
290
     0
176
     1
290
     0
176
     1
 90
       50
176
     1
 40
0.0
176
     1
 40
1.0
176
     1
 90
        0
176
     1
 62
    18
420
        0
176
     1
 90
       50
176
     1
 90
        3
176
     1
 62
     5
420
      255
176
     1
290
     0
176
     1
 90
       50
176
     1
 90
       50
176
     1
 90
       50
176
     1
290
     0
176
     1
 90
       50
176
     1
 62
   256
176
     0
 40
1.0
176
     0
 90
        2
176
     1
  1
strokes_ogs.tif
176
     1
290
     0
176
     1
 40
1.0
176
     1
 40
1.0
176
     1
  0
VISUALSTYLE
  5
F9
102
{ACAD_REACTORS
330
EF
102
}
330
EF
100
AcDbVisualStyle
  2
Realistic
 70
     8
177
     3
291
     0
 70
    58
 90
        2
176
     1
 90
        3
176
     1
 90
        0
176
     1
 90
        2
176
     1
 40
0.6
176
     1
 40
30.0
176
     1
 62
     7
420
 16777215
176
     1
 90
        0
176
     1
 90
        0
176
     1
 62
     7
176
     1
 62
   257
176
     1
 90
        1
176
     1
 90
        1
176
     1
 40
1.0
176
     1
 90
        8
176
     1
 62
   257
176
     1
 40
1.0
176
     1
 90
        1
176
     1
 90
        6
176
     1
 90
        2
176
     1
 62
     7
176
     1
 90
        3
176
     1
 90
        0
176
     1
 90
        0
176
     1
290
     0
176
     1
 90
       13
176
     1
 40
0.0
176
     1
 90
        0
176
     1
290
     0
176
     1
290
     1
176
     1
290
     1
176
     1
290
     0
176
     1
290
     0
176
     1
290
     0
176
     1
290
     0
176
     1
290
     0
176
     1
290
     0
176
     1
 90
       50
176
     1
 40
0.0
176
     1
 40
1.0
176
     1
 90
        0
176
     1
 62
    18
420
        0
176
     1
 90
       50
176
     1
 90
        3
176
     1
 62
     5
420
      255
176
     1
290
     0
176
     1
 90
       50
176
     1
 90
       50
176
     1
 90
       50
176
     1
290
     0
176
     1
 90
       50
176
     1
 62
   256
176
     0
 40
1.0
176
     0
 90
        2
176
     1
  1
strokes_ogs.tif
176
     1
290
     0
176
     1
 40
1.0
176
     1
 40
1.0
176
     1
  0
VISUALSTYLE
  5
1F3
102
{ACAD_REACTORS
330
EF
102
}
330
EF
100
AcDbVisualStyle
  2
Shaded
 70
    27
177
     3
291
     0
 70
    58
 90
        2
176
     1
 90
        2
176
     1
 90
        1
176
     1
 90
        2
176
     1
 40
0.6
176
     1
 40
30.0
176
     1
 62
     7
420
 16777215
176
     1
 90
        0
176
     1
 90
        4
176
     1
 62
     7
176
     1
 62
   257
176
     1
 90
        1
176
     1
 90
        1
176
     1
 40
1.0
176
     1
 90
        8
176
     1
 62
   257
176
     1
 40
1.0
176
     1
 90
        1
176
     1
 90
        6
176
     1
 90
        2
176
     1
 62
     8
420
  7895160
176
     1
 90
        3
176
     1
 90
        0
176
     1
 90
        0
176
     1
290
     0
176
     1
 90
        5
176
     1
 40
0.0
176
     1
 90
        0
176
     1
290
     0
176
     1
290
     1
176
     1
290
     1
176
     1
290
     0
176
     1
290
     0
176
     1
290
     0
176
     1
290
     0
176
     1
290
     0
176
     1
290
     0
176
     1
 90
       50
176
     1
 40
0.0
176
     1
 40
1.0
176
     1
 90
        0
176
     1
 62
    18
420
        0
176
     1
 90
       50
176
     1
 90
        3
176
     1
 62
     5
420
      255
176
     1
290
     0
176
     1
 90
       50
176
     1
 90
       50
176
     1
 90
       50
176
     1
290
     0
176
     1
 90
       50
176
     1
 62
   256
176
     0
 40
1.0
176
     0
 90
        2
176
     1
  1
strokes_ogs.tif
176
     1
290
     0
176
     1
 40
1.0
176
     1
 40
1.0
176
     1
  0
VISUALSTYLE
  5
1F2
102
{ACAD_REACTORS
330
EF
102
}
330
EF
100
AcDbVisualStyle
  2
Shaded with edges
 70
    26
177
     3
291
     0
 70
    58
 90
        2
176
     1
 90
        2
176
     1
 90
        1
176
     1
 90
        2
176
     1
 40
0.6
176
     1
 40
30.0
176
     1
 62
     7
420
 16777215
176
     1
 90
        1
176
     1
 90
       10
176
     1
 62
     7
176
     1
 62
   257
176
     1
 90
        2
176
     1
 90
        1
176
     1
 40
1.0
176
     1
 90
        8
176
     1
 62
   257
176
     1
 40
1.0
176
     1
 90
        1
176
     1
 90
        6
176
     1
 90
        2
176
     1
 62
     7
176
     1
 90
        3
176
     1
 90
        0
176
     1
 90
        0
176
     1
290
     0
176
     1
 90
        5
176
     1
 40
0.0
176
     1
 90
        0
176
     1
290
     0
176
     1
290
     1
176
     1
290
     1
176
     1
290
     0
176
     1
290
     0
176
     1
290
     0
176
     1
290
     0
176
     1
290
     0
176
     1
290
     0
176
     1
 90
       50
176
     1
 40
0.0
176
     1
 40
1.0
176
     1
 90
        0
176
     1
 62
    18
420
        0
176
     1
 90
       50
176
     1
 90
        3
176
     1
 62
     5
420
      255
176
     1
290
     0
176
     1
 90
       50
176
     1
 90
       50
176
     1
 90
       50
176
     1
290
     0
176
     1
 90
       50
176
     1
 62
   256
176
     0
 40
1.0
176
     0
 90
        2
176
     1
  1
strokes_ogs.tif
176
     1
290
     0
176
     1
 40
1.0
176
     1
 40
1.0
176
     1
  0
VISUALSTYLE
  5
1EF
102
{ACAD_REACTORS
330
EF
102
}
330
EF
100
AcDbVisualStyle
  2
Shades of Gray
 70
    23
177
     3
291
     0
 70
    58
 90
        2
176
     1
 90
        2
176
     1
 90
        3
176
     1
 90
        0
176
     1
 40
0.6
176
     1
 40
30.0
176
     1
 62
     7
420
 16777215
176
     1
 90
        2
176
     1
 90
        2
176
     1
 62
     7
176
     1
 62
     7
176
     1
 90
        1
176
     1
 90
        1
176
     1
 40
40.0
176
     1
 90
        8
176
     1
 62
     7
176
     1
 40
1.0
176
     1
 90
        1
176
     1
 90
        6
176
     1
 90
        2
176
     1
 62
     7
176
     1
 90
        3
176
     1
 90
        0
176
     1
 90
        0
176
     1
290
     0
176
     1
 90
        1
176
     1
 40
0.0
176
     1
 90
        0
176
     1
290
     0
176
     1
290
     1
176
     1
290
     1
176
     1
290
     0
176
     1
290
     0
176
     1
290
     0
176
     1
290
     0
176
     1
290
     0
176
     1
290
     0
176
     1
 90
       50
176
     1
 40
0.0
176
     1
 40
1.0
176
     1
 90
        0
176
     1
 62
    18
420
        0
176
     1
 90
       50
176
     1
 90
        3
176
     1
 62
     5
420
      255
176
     1
290
     0
176
     1
 90
       50
176
     1
 90
       50
176
     1
 90
       50
176
     1
290
     0
176
     1
 90
       50
176
     1
 62
   256
176
     0
 40
1.0
176
     0
 90
        2
176
     1
  1
strokes_ogs.tif
176
     1
290
     0
176
     1
 40
1.0
176
     1
 40
1.0
176
     1
  0
VISUALSTYLE
  5
1F0
102
{ACAD_REACTORS
330
EF
102
}
330
EF
100
AcDbVisualStyle
  2
Sketchy
 70
    24
177
     3
291
     0
 70
    58
 90
        1
176
     1
 90
        2
176
     1
 90
        2
176
     1
 90
        0
176
     1
 40
0.6
176
     1
 40
30.0
176
     1
 62
     7
420
 16777215
176
     1
 90
        2
176
     1
 90
        2
176
     1
 62
     7
176
     1
 62
     7
176
     1
 90
        1
176
     1
 90
        1
176
     1
 40
40.0
176
     1
 90
       11
176
     1
 62
     7
176
     1
 40
1.0
176
     1
 90
        1
176
     1
 90
        6
176
     1
 90
        2
176
     1
 62
     7
176
     1
 90
        6
176
     1
 90
        0
176
     1
 90
        0
176
     1
290
     0
176
     1
 90
        1
176
     1
 40
0.0
176
     1
 90
        0
176
     1
290
     0
176
     1
290
     1
176
     1
290
     1
176
     1
290
     0
176
     1
290
     0
176
     1
290
     0
176
     1
290
     0
176
     1
290
     0
176
     1
290
     0
176
     1
 90
       50
176
     1
 40
0.0
176
     1
 40
1.0
176
     1
 90
        0
176
     1
 62
    18
420
        0
176
     1
 90
       50
176
     1
 90
        3
176
     1
 62
     5
420
      255
176
     1
290
     0
176
     1
 90
       50
176
     1
 90
       50
176
     1
 90
       50
176
     1
290
     0
176
     1
 90
       50
176
     1
 62
   256
176
     0
 40
1.0
176
     0
 90
        2
176
     1
  1
strokes_ogs.tif
176
     1
290
     0
176
     1
 40
1.0
176
     1
 40
1.0
176
     1
  0
VISUALSTYLE
  5
FC
102
{ACAD_REACTORS
330
EF
102
}
330
EF
100
AcDbVisualStyle
  2
Thicken
 70
    13
177
     3
291
     1
 70
    58
 90
        2
176
     1
 90
        2
176
     1
 90
        1
176
     1
 90
        0
176
     1
 40
0.6
176
     1
 40
30.0
176
     1
 62
     7
420
 16777215
176
     1
 90
        1
176
     1
 90
        4
176
     1
 62
     7
176
     1
 62
   257
176
     1
 90
        1
176
     1
 90
        1
176
     1
 40
1.0
176
     1
 90
       12
176
     1
 62
     7
176
     1
 40
1.0
176
     1
 90
        1
176
     1
 90
        6
176
     1
 90
        2
176
     1
 62
     7
176
     1
 90
        5
176
     1
 90
        0
176
     1
 90
        0
176
     1
290
     0
176
     1
 90
        1
176
     1
 40
0.0
176
     1
 90
        0
176
     1
290
     0
176
     1
290
     1
176
     1
290
     1
176
     1
290
     0
176
     1
290
     0
176
     1
290
     0
176
     1
290
     0
176
     1
290
     0
176
     1
290
     0
176
     1
 90
       50
176
     1
 40
0.0
176
     1
 40
1.0
176
     1
 90
        0
176
     1
 62
    18
420
        0
176
     1
 90
       50
176
     1
 90
        3
176
     1
 62
     5
420
      255
176
     1
290
     0
176
     1
 90
       50
176
     1
 90
       50
176
     1
 90
       50
176
     1
290
     0
176
     1
 90
       50
176
     1
 62
   256
176
     0
 40
1.0
176
     0
 90
        2
176
     1
  1
strokes_ogs.tif
176
     1
290
     0
176
     1
 40
1.0
176
     1
 40
1.0
176
     1
  0
VISUALSTYLE
  5
F6
102
{ACAD_REACTORS
330
EF
102
}
330
EF
100
AcDbVisualStyle
  2
Wireframe
 70
     5
177
     3
291
     0
 70
    58
 90
        0
176
     1
 90
        2
176
     1
 90
        0
176
     1
 90
        0
176
     1
 40
0.6
176
     1
 40
30.0
176
     1
 62
     7
420
 16777215
176
     1
 90
        1
176
     1
 90
        4
176
     1
 62
     7
176
     1
 62
   257
176
     1
 90
        1
176
     1
 90
        1
176
     1
 40
1.0
176
     1
 90
        0
176
     1
 62
   257
176
     1
 40
1.0
176
     1
 90
        1
176
     1
 90
        6
176
     1
 90
        2
176
     1
 62
     7
176
     1
 90
        3
176
     1
 90
        0
176
     1
 90
        0
176
     1
290
     0
176
     1
 90
        1
176
     1
 40
0.0
176
     1
 90
        0
176
     1
290
     0
176
     1
290
     1
176
     1
290
     1
176
     1
290
     0
176
     1
290
     0
176
     1
290
     0
176
     1
290
     0
176
     1
290
     0
176
     1
290
     0
176
     1
 90
       50
176
     1
 40
0.0
176
     1
 40
1.0
176
     1
 90
        0
176
     1
 62
    18
420
        0
176
     1
 90
       50
176
     1
 90
        3
176
     1
 62
     5
420
      255
176
     1
290
     0
176
     1
 90
       50
176
     1
 90
       50
176
     1
 90
       50
176
     1
290
     0
176
     1
 90
       50
176
     1
 62
   256
176
     0
 40
1.0
176
     0
 90
        2
176
     1
  1
strokes_ogs.tif
176
     1
290
     0
176
     1
 40
1.0
176
     1
 40
1.0
176
     1
  0
VISUALSTYLE
  5
1F1
102
{ACAD_REACTORS
330
EF
102
}
330
EF
100
AcDbVisualStyle
  2
X-Ray
 70
    25
177
     3
291
     0
 70
    58
 90
        2
176
     1
 90
        2
176
     1
 90
        1
176
     1
 90
        1
176
     1
 40
0.5
176
     1
 40
30.0
176
     1
 62
     7
420
 16777215
176
     1
 90
        1
176
     1
 90
        0
176
     1
 62
     7
176
     1
 62
   257
176
     1
 90
        1
176
     1
 90
        1
176
     1
 40
1.0
176
     1
 90
        8
176
     1
 62
     7
176
     1
 40
1.0
176
     1
 90
        1
176
     1
 90
        6
176
     1
 90
        2
176
     1
 62
     7
176
     1
 90
        3
176
     1
 90
        0
176
     1
 90
        0
176
     1
290
     0
176
     1
 90
       13
176
     1
 40
0.0
176
     1
 90
        0
176
     1
290
     0
176
     1
290
     1
176
     1
290
     1
176
     1
290
     0
176
     1
290
     0
176
     1
290
     0
176
     1
290
     0
176
     1
290
     0
176
     1
290
     0
176
     1
 90
       50
176
     1
 40
0.0
176
     1
 40
1.0
176
     1
 90
        0
176
     1
 62
    18
420
        0
176
     1
 90
       50
176
     1
 90
        3
176
     1
 62
     5
420
      255
176
     1
290
     0
176
     1
 90
       50
176
     1
 90
       50
176
     1
 90
       50
176
     1
290
     0
176
     1
 90
       50
176
     1
 62
   256
176
     0
 40
1.0
176
     0
 90
        2
176
     1
  1
strokes_ogs.tif
176
     1
290
     0
176
     1
 40
1.0
176
     1
 40
1.0
176
     1
  0
DICTIONARYVAR
  5
146
102
{ACAD_REACTORS
330
5E
102
}
330
5E
100
DictionaryVariables
280
     0
  1
1:1
  0
DICTIONARYVAR
  5
145
102
{ACAD_REACTORS
330
5E
102
}
330
5E
100
DictionaryVariables
280
     0
  1
STANDARD
  0
DICTIONARYVAR
  5
84
102
{ACAD_REACTORS
330
5E
102
}
330
5E
100
DictionaryVariables
280
     0
  1
STANDARD
  0
DICTIONARYVAR
  5
227
102
{ACAD_REACTORS
330
5E
102
}
330
5E
100
DictionaryVariables
280
     0
  1
Metric50
  0
DICTIONARYVAR
  5
228
102
{ACAD_REACTORS
330
5E
102
}
330
5E
100
DictionaryVariables
280
     0
  1
Metric50
  0
DICTIONARYVAR
  5
5F
102
{ACAD_REACTORS
330
5E
102
}
330
5E
100
DictionaryVariables
280
     0
  1
2
  0
DICTIONARYVAR
  5
63
102
{ACAD_REACTORS
330
5E
102
}
330
5E
100
DictionaryVariables
280
     0
  1
1
  0
DICTIONARYVAR
  5
1AE
102
{ACAD_REACTORS
330
5E
102
}
330
5E
100
DictionaryVariables
280
     0
  1
0
  0
DICTIONARYVAR
  5
1AF
102
{ACAD_REACTORS
330
5E
102
}
330
5E
100
DictionaryVariables
280
     0
  1
0
  0
XRECORD
  5
9235
102
{ACAD_REACTORS
330
9233
102
}
330
9233
100
AcDbXrecord
280
     1
  1
AcLyLayerGroup
 90
        1
300
1. Inskripzio-laukia
330
485
330
6C6
330
659
330
7AC
330
7AE
330
7AD
  0
XRECORD
  5
9236
102
{ACAD_REACTORS
330
9233
102
}
330
9233
100
AcDbXrecord
280
     1
  1
AcLyLayerGroup
 90
        1
300
2. Egitura
330
FC8
330
FC5
330
FC4
330
FC3
330
150C
330
24FF
  0
XRECORD
  5
9237
102
{ACAD_REACTORS
330
9233
102
}
330
9233
100
AcDbXrecord
280
     1
  1
AcLyLayerGroup
 90
        1
300
3. Arotzeria
330
FC9
330
FC7
330
FC6
  0
XRECORD
  5
9238
102
{ACAD_REACTORS
330
9233
102
}
330
9233
100
AcDbXrecord
280
     1
  1
AcLyLayerGroup
 90
        1
300
4. Zorua
330
8D45
330
45C5
330
4035
  0
XRECORD
  5
9239
102
{ACAD_REACTORS
330
9233
102
}
330
9233
100
AcDbXrecord
280
     1
  1
AcLyLayerGroup
 90
        1
300
5. Altzariak
330
1874
  0
XRECORD
  5
923A
102
{ACAD_REACTORS
330
9233
102
}
330
9233
100
AcDbXrecord
280
     1
  1
AcLyLayerGroup
 90
        1
300
6. Elementuak
330
253B
  0
XRECORD
  5
923B
102
{ACAD_REACTORS
330
9233
102
}
330
9233
100
AcDbXrecord
280
     1
  1
AcLyLayerGroup
 90
        1
300
7. Datuak
330
14FC
330
4129
330
3AB1
330
9232
  0
XRECORD
  5
923C
102
{ACAD_REACTORS
330
9233
102
}
330
9233
100
AcDbXrecord
280
     1
  1
AcLyLayerGroup
 90
        1
300
8. Irisgarritasuna
330
3B73
  0
DICTIONARY
  5
22E2
330
188F
100
AcDbDictionary
280
     1
281
     1
  3
ACAD_XREC_ROUNDTRIP
360
9A30
  0
DICTIONARY
  5
236
330
21C
100
AcDbDictionary
280
     1
281
     1
  3
ACAD_XREC_ROUNDTRIP
360
9A2E
  0
DICTIONARY
  5
205
330
22
100
AcDbDictionary
280
     1
281
     1
  0
DICTIONARY
  5
1F9
330
ED
100
AcDbDictionary
280
     1
281
     1
  3
FBXASSET
360
1FA
  0
DICTIONARY
  5
1F7
330
EC
100
AcDbDictionary
280
     1
281
     1
  3
FBXASSET
360
1F8
  0
DICTIONARY
  5
173
330
EE
100
AcDbDictionary
280
     1
281
     1
  3
BUMPTILE
360
175
  3
DIFFUSETILE
360
174
  3
FBXASSET
360
1FB
  3
OPACITYTILE
360
176
  3
REFLECTIONTILE
360
177
  0
DICTIONARY
  5
22E0
330
188E
100
AcDbDictionary
280
     1
281
     1
  3
ACAD_XREC_ROUNDTRIP
360
9A2F
  0
DICTIONARY
  5
234
330
21A
100
AcDbDictionary
280
     1
281
     1
  3
ACAD_XREC_ROUNDTRIP
360
9A2D
  0
DICTIONARY
  5
162
330
7F
100
AcDbDictionary
280
     1
281
     1
  3
ACAD_ROUNDTRIP_2008_TABLESTYLE_CELLSTYLEMAP
360
9A2C
  0
XRECORD
  5
9A30
102
{ACAD_REACTORS
330
22E2
102
}
330
22E2
100
AcDbXrecord
280
     1
102
DISPLAYNAME
  1
Imperial24
102
FLAGS
 90
        0
  0
XRECORD
  5
9A2E
102
{ACAD_REACTORS
330
236
102
}
330
236
100
AcDbXrecord
280
     1
102
DISPLAYNAME
  1
Metric50
102
FLAGS
 90
        0
  0
XRECORD
  5
1FA
102
{ACAD_REACTORS
330
1F9
102
}
330
1F9
100
AcDbXrecord
280
     1
 70
     1
 90
429727718
  1
D62C5603-E3A1-4AEA-B7FB-FE5D8D0755AF
310
504B03040A0000080000CC70623B3DEE336E79000000790000001B0000006175746F6465736B2D64657369676E2D7061636B6167652E786D6C3C3F786D6C2076657273696F6E3D22312E302220656E636F64696E673D227574662D3822203F3E3C666F726D6174733E3C666F726D61743E687474703A2F2F736368656D612E
310
6175746F6465736B2E636F6D2F64657369676E2D7061636B6167652F323030393C2F666F726D61743E3C2F666F726D6174733E504B0304140006080800CC70623BD486FD9CA0000000F4000000130000005B436F6E74656E745F54797065735D2E786D6C7D8EC10E82300C865F65E91D8A1E8C310C0EEA1BF002731658846E
310
D98AC1B77784ABF1D8FE5FBFBF75BBCE937A534CCEB38643598122B6FEE978D0B0485F9C41B54DDD7D022595594E1A469170414C76A4D9A4D207E29CF43ECE46F218070CC6BECC4078ACAA135ACF422C856C0E68EA1BF5669944DDD7BCDE7B1F8E415D77AECB980613C2E4AC91FC167A2B244592486606FC29C8FD7F045B9A
310
EF7053A7E60B504B0304140006080800CC70623B853B8169EB0000007C01000008000000636F72652E786D6C8D90416EC3201045AF62CDB6C206821CC7C244919D9CA01740401C94182C03558F5F9C3852BBEB6A467FFE9B197D7EFC9E1EC5975982F5AE035262288C535E5B377690E21535501C055FBC8FBF6C503839990E
310
5619041F179FE64D52DE45E362569DD7661365082642A11EB9E920A89B99642953CC8E702F67A9EE7234257977194EC9EAE275C4EABCCF5EAD5940D4AC6F0E35A568B8F43562CD7046CD199FD07E60174276A7BE677B5EADB0E0D14EEFFB6A31321A0D82627C4084204C3F096B71DD52F6819B16635EADF63F509AF53FA164
310
5DDCD1EDDD17164090FCC8732078B56691CB33A85CD7DCC40F504B0304140006080800CC70623B55019EA25F0000007C00000007000000636E782E786D6C4DCB3B0E80201045D1AD90E915ED2CF8AC45050C11660C8261F98AB1B07AC9C97D42D718D865D3E909258CFD00CCE24AC6E326A164D74DC0B4128928FF32603847
310
2BA13128B1252AC747C6BAB984FC68F0B87FE8960A5C09FE86CFB69FBA01504B0304140006080800CC70623BDBABAAF470010000D40300000C0000006662782F636F72652E786D6CC553D16E823014FD95A6AF4B694182CC941A83FA05FB810A9511A125A5257EFE2E82712ECEB8A7F100CD39F7F69E734AF9FADC366850B6
310
AF8DCE7018308C942E4C59EB2AC3DE1D498AD15A706B8CFB56869196ADCAF00863C12B6B7C374385D14E6907A836A59A41D9F7CA615434B0C8705F7CAA5606D23BA8E84F41278B93AC54100640439DE0BDB320004D43C63716C7C399D30917DCFBBA9CD9BA8469F5B156168B24CED3F7248AC8769F27244EB73B92EED8862C
310
B7F13E0C179B3C8F979C8ECD82BBBABDAA2BAC924E9558448CBD9330242CFA08E3154B5651FCC6D215639C8EE5774DBE2B5F6CF2B5768B68963BB5F5588420E442FC700B1139D4CB01F450C1E918227C2E09DF070D8140C84E1E9AAB8F1340832A9CB13130A5F1376A908D57309505ECF2A0DF179C4E9D30F5B239B87E3823
310
7A79C6F31DE1A8A5AEC08474B03C7837EAE4938639B44E5932B833D2C6B6B279CDC613877FA26EE21F4A2A4C63EC7F29A2F301D1F9F7A0E37D145F504B0304140006080800CC70623B9C113CC27E0000009D0000000B0000006662782F636E782E786D6C4DCCDF0A83201C86E15B91DFB94BFB330DD428C8FB886521330DA7
310
6397BF1A1DECE883878F57749FCDA1B7892F1BBC047A23808C7F84D9FA55424E0BE6803A256208E9EF06C84F9B91703228B1C690F78B66B34CD9A5439DF5CF0BFBF65E35BCA1B8D6A5C6F540381E886698B5741C695F9503EBA150A2F8958E3DC3EA0B504B0304140006080800CC70623B7DF2F77C2A010000120200003100
310
00006662782F41393633353835312D344632462D344230382D423046372D3739314545314133324237412F636F72652E786D6C8D51DB8EC22014FC15C2939B0D2DB4B45643319AE817EC0F6041255A68B86CFCFC856D4D76DF7CE190393373060EDB3DC707F856CE6B6B7A480A0C81328395DA5C7B18C3057510EC3873D686
310
3F34088C18550F330C39BB3A1BA7051AAC09CA84841A2BD5020AEF55806078A44B0FFD7053A328440C89E1EFC52486BBB8AA8214A99D789CF9E05200300FC927E4FB4D5B375D43103D5527440FB843077C5AA3F5861C8F645F5787F59E95B390B318B55CE45AA638FAA2957BD7248B390B7A7CC51F9C124149C82B8C378810
310
84AB2F42B7B8DD56F413775B8C5999E9FF4471926F8AA236A1AE96B8B3CC434E5839373893369E1FAF30EA395917409EB7F26AF8801C171837A4A6AC9C89E9F9C9B1A58BA30FD6A5EF5DDDCF894B9AD9B6A59C957943A9FCAE2FD5BC4DFE03504B0304140006080800CC70623BAD7543B64E01000033030000300000006662
310
782F41393633353835312D344632462D344230382D423046372D3739314545314133324237412F636E782E786D6CD593CD6EC32010845F0571AD6CE3D48AD20813A9873E410FBD12D82434182C7EAAE6EDBB2424CD25871E7B41D6EC30B3FA84F9E67BB2E40B4234DE8DB46F1925E094D7C6ED479AD3AE5951B2113C789FEE
310
6C943839C1488B4C05DF079FE72A69D8C96C13AAD6B8631503449F83828872B949AC57D26200B826A308D316B4064D6E46FCDA41C05550DC9E483A00797BFD207EFB092A45DE9514C1BBD22178396BD39D891265658C238DEA00936C654E5E433CB65A26D9F6EDB5EBC14EBF49A45CB856E66048291F6939A9A81BB5C89177
310
38143CA680F4AA299D66A042CEB3354A2684DC9D8D178FE0D9B8B41CAAD720F880EE7EF93C0C18769E099ECC04D5A102C8049A8A05632F4DDF376CF1DE0F6BB65C2F8627B65A33C6BB62177CEBBDAD973006829F89F22E814B54F4BC2BE347F8AA8F681390B50FA73F804400B5F542E796F19FF974E7F78DB802FE05E20750
310
4B0304140006080800CC70623BE75B7789680500003C100000340000006662782F41393633353835312D344632462D344230382D423046372D3739314545314133324237412F6F626A656374732E786D6CAD575B8F9B3818FD2B887D06C22499CB8AA1CA655245D5B455A356FB305264C061D8018C6C3393D95FBFC7600890
310
A4CD5EF210B0B1BFEBF98E3F7B1FF6596ABC522E1296DF9BAE3D320D9A872C4AF2F8DE2CE5CEBA358D0FBEC719939D65A691938CDE9B6ADAF4BD98B3B2D05311DD91329583D9D5FC0F438434A7A611A644887B5384CF34233629258BA878B12322891DEFF6B66BD70BFB62634E8AE781D082709A4B588AF91C528CDA28B73F
310
1C998EEF39EABBEFA97FBD6A7C7E9553F9D3D79FE442923C3C523610337627CB87ABE99D359D4CC6D6E4FACAB5E6ABF9D2726FC6A3C5F56271377BB88362213924694B38DD99FE47C48627A1E7D49F5A8BB5E1A74C0A599ED3B0F21F1E56366B89112D681E218F0915D0D6F17AD41FBA2A369DCF6335D62ABBD39779D5DDD1
310
11D4D8DE3CBB96B2E04FB8202E41051754A1AA8E8F76B4C6DFE810B580B1547F4B84911149794252234D024EF8BBE963A95AE27B3D310A9D5C215C7960FAEE415ED75694C6AFB17BCACA5D99A60A9AA65F217B0BFC53292ACB92BF283FAD0D3621576592CB5BED907C2FA8E9DF794E35E97BEA31BED21FEB401ABB94C44839
310
DCACBF0E1C5DA8DA5B2F4DFFD32AD86F543D9E565E7056502E157C00AD2671CD534549AB752FCA9CDA00677A313F04E51B22FF19E57B300579E3C97EB29F682D92935CEC18CF901B7B54FD8C51F362B56FC72FE0B3C1EAE335EDCCBF5AEC39ADB17DC238973F804BA5E6F6BFE7AF1FB32E523BE9F3BD571418E3631DCA4D48
310
5250CF639223210A9446CA30052EDF057BD35F8329C1ECD84552BF0DC8D18BE7BCE23BFE6BD960AB4A7DE79923A103BEBD80F911CBAA2C60DB19B01CF164A5583B772EE6D3FFA56666CBCDA74DC97724A48F9A58967497E489C4D979006FD7A05E227A1EBDD0F737C623387A9C844D3709995625106D157315F8B8392CD4E0
310
A0B9A720C4BE9829CEF37EA1E13111214D53925356365ADA634861B52519DD27A00AEB808EAF0628E6F435519D446F45CF2C9CF5214F0A15B2F6D06B79DA3EE3CBF7F56780D2F4E7EF73A0F5E5B02A38D07DC852C6B7C1FBB6664213E0C39E3EBA7FF4E1AD23EA2829407C85E586727488B751B2DB9502BC7B228A3FD68B6E
310
A65A22397E690AA8D158D7E404EC8CDA235CC3B7D1898680131CEC2CDF2638C65196279577750F15884AEE19F94199155B92B13297978469D4F8D358DF0AEF7631E28DC8F0D9F437D5D39A83B2231A1D52D543813A824EF8D44BCFF2FA6A31BD1E8DAD87F1CCB526B3879935BF59CDADD5C37479BB1CDD4CA7B3556B516589
310
EF352754B706114D9C885EC9131DE6EFEB43D99AFE2391C2F958179413D7CFEF6B1B6DB1E7600F00DE6E5C67454A339A4BA2E0FBA85ED26F045D454F463DBFCE484C2F90F2E5E3666003662ED8F755951A7D1BECD5B30B550B2785C8E7320B7292A4838DDA71BBC863ED7613CAF659337A3354231D4FF4A182A54904C2898C
310
98B28C4AD0CE056CCF332A80986E571EE9DBC305BB5FEB7E509220A58D25CF042D712A806AC0AD0C657FDEF80D2D9CEAA2EE4D1C76F60BFE74219A06527D6F82DF6412526107381E55E353090704D085B52408A8913C4ED159D79BDA71BB4BC506F4831350EB6F975CD22D69BF7AC49B91A2C0A9DDA3D5CA36AD20FC478E37
310
E61844E2352865EBCB61A275A65283CAAA9DD27703B4102F5AF51EF5F573B75CBB5AD38BC845F7A49F82A0966A49C2E3EA5EA0ECD326CD965F1DB402C6FA8B51A4658C5C5E2EC9E214602E55810345408596591009A82E7E7FFACA19EEA299B14A0081A705CB3296EBC14CDF658DCD336EA6D1136881AAEB87B81AB9EE53D5
310
F5EB8BC8362082DA24122F98680A4E7930C01A0079749CEA14382A0783E5EBA5A10F8C098456A03D6A4AEB6BB881E2513747552A5DB22C7EDAF83BD5528081A365F7FF06504B0304140006080000CC70623B000000000000000000000000350000006662782F41393633353835312D344632462D344230382D423046372D37
310
39314545314133324237412F76657274696365732E62696E504B0304140006080800CC70623BF270F1330600000004000000360000006662782F41393633353835312D344632462D344230382D423046372D3739314545314133324237412F747269616E676C65732E62696E636660600000504B0304140006080000CC7062
310
3B000000000000000000000000370000006662782F41393633353835312D344632462D344230382D423046372D3739314545314133324237412F617474726962757465732E62696E504B0304140006080800CC70623B08DA0BD19000000041010000360000006662782F41393633353835312D344632462D344230382D4230
310
46372D3739314545314133324237412F6469726563746F72792E786D6C858F410AC3201045AF22B36F53E9A60B35CBEEBAE80D244E44489C6234F4F835464A48035D0DF398FF9F8AF63D0E6CC63039F212F8F9020C7D47C6792B21C5FE7403D62A1188E2E60C98D7234A5830286103A55745067B9D86B8A3CF9C7F90C11DE6
310
07FB144396D7B6A82D282E9A152AD114D5EF2CB866EEE831B8EEA07A7BB5A8D7D61A2BAAEB7FD5F70921FF497D00504B0304140006080800CC70623BEDD1DC58FD000000A00100003B0000006662782F41393633353835312D344632462D344230382D423046372D3739314545314133324237412F7265736F75726365732F
310
636F72652E786D6C8D504B6E833010BD0A9A6D65B00922041947112427E8052C33A156828DFCA97AFC9A40A576D7CDCCE87D344F8F9FBFE667F689CE6B6B3A6039850C8DB2A336530731DC4903D95970676DF82583CCC8193B5861107C72362E3BA4AC096842428D1D7107A5F7182053CF7474E0D507CE32973124857FE48B
310
540F3961CEF244279DE03EB81420DB9EAC1384436FA353E879B1B182C7A8C75DA3C7F453DF353A1075D537A7BA6464B8F535A99AE14A9A2BBD90E350DD183B5CFABE3AF262350B1EF4FC9351399401471025A527C218A1E53BAB5A5AB765F5469B96525EACF23FA6B88CFF34456DC2A1DCE36E360F82A5202F42F062ED2BAD
310
579969AFDD8A6F504B010214000A0000080000CC70623B3DEE336E79000000790000001B00000000000000000000000000000000006175746F6465736B2D64657369676E2D7061636B6167652E786D6C504B01021400140006080800CC70623BD486FD9CA0000000F40000001300000000000000000000000000B20000005B
310
436F6E74656E745F54797065735D2E786D6C504B01021400140006080800CC70623B853B8169EB0000007C010000080000000000000000000000000083010000636F72652E786D6C504B01021400140006080800CC70623B55019EA25F0000007C000000070000000000000000000000000094020000636E782E786D6C504B
310
01021400140006080800CC70623BDBABAAF470010000D40300000C00000000000000000000000000180300006662782F636F72652E786D6C504B01021400140006080800CC70623B9C113CC27E0000009D0000000B00000000000000000000000000B20400006662782F636E782E786D6C504B01021400140006080800CC70
310
623B7DF2F77C2A010000120200003100000000000000000000000000590500006662782F41393633353835312D344632462D344230382D423046372D3739314545314133324237412F636F72652E786D6C504B01021400140006080800CC70623BAD7543B64E010000330300003000000000000000000000000000D2060000
310
6662782F41393633353835312D344632462D344230382D423046372D3739314545314133324237412F636E782E786D6C504B01021400140006080800CC70623BE75B7789680500003C10000034000000000000000000000000006E0800006662782F41393633353835312D344632462D344230382D423046372D3739314545
310
314133324237412F6F626A656374732E786D6C504B01021400140006080000CC70623B0000000000000000000000003500000000000000000000000000280E00006662782F41393633353835312D344632462D344230382D423046372D3739314545314133324237412F76657274696365732E62696E504B01021400140006
310
080800CC70623BF270F133060000000400000036000000000000000000000000007B0E00006662782F41393633353835312D344632462D344230382D423046372D3739314545314133324237412F747269616E676C65732E62696E504B01021400140006080000CC70623B0000000000000000000000003700000000000000
310
000000000000D50E00006662782F41393633353835312D344632462D344230382D423046372D3739314545314133324237412F617474726962757465732E62696E504B01021400140006080800CC70623B08DA0BD1900000004101000036000000000000000000000000002A0F00006662782F41393633353835312D344632
310
462D344230382D423046372D3739314545314133324237412F6469726563746F72792E786D6C504B01021400140006080800CC70623BEDD1DC58FD000000A00100003B000000000000000000000000000E1000006662782F41393633353835312D344632462D344230382D423046372D3739314545314133324237412F7265
310
736F75726365732F636F72652E786D6C504B0506000000000E000E0080040000641100000000
  0
XRECORD
  5
1F8
102
{ACAD_REACTORS
330
1F7
102
}
330
1F7
100
AcDbXrecord
280
     1
 70
     1
 90
429727718
  1
30362254-06B7-45E0-A893-8CFA70E3D6BC
310
504B03040A0000080000CC70623B3DEE336E79000000790000001B0000006175746F6465736B2D64657369676E2D7061636B6167652E786D6C3C3F786D6C2076657273696F6E3D22312E302220656E636F64696E673D227574662D3822203F3E3C666F726D6174733E3C666F726D61743E687474703A2F2F736368656D612E
310
6175746F6465736B2E636F6D2F64657369676E2D7061636B6167652F323030393C2F666F726D61743E3C2F666F726D6174733E504B0304140006080800CC70623BD486FD9CA0000000F4000000130000005B436F6E74656E745F54797065735D2E786D6C7D8EC10E82300C865F65E91D8A1E8C310C0EEA1BF002731658846E
310
D98AC1B77784ABF1D8FE5FBFBF75BBCE937A534CCEB38643598122B6FEE978D0B0485F9C41B54DDD7D022595594E1A469170414C76A4D9A4D207E29CF43ECE46F218070CC6BECC4078ACAA135ACF422C856C0E68EA1BF5669944DDD7BCDE7B1F8E415D77AECB980613C2E4AC91FC167A2B244592486606FC29C8FD7F045B9A
310
EF7053A7E60B504B0304140006080800CC70623B1EC5D7A3EB0000007C01000008000000636F72652E786D6C8D90416EC3201045AF82665B6103C6756C6122AB4D4ED00B204C5C94182C03558F5F9C3852BBEB6A467FFE9B197D71FC9E6FE8CBACC17AD7032D0820E3B41FAD9B7A48F1820F808E52ACDEC75F36404ECDA687
310
4D0629A6D5A76597B477D1B89855E747B38B2A041301E95B6E7A08FAD3CCAA50296647B8168BD2573599823EBB0CA76447F43862C7BCCF5EAC59410E4DDD9C7973C2755553CCCFA4C603E3040F1565ED3B1FDE4E432BCA0D9622DAF9795FAF464533826484B498524CD807E51D79ED187F21878E10516EF63F505AC67F42C9
310
BA58B1FDDD071640D2FCC87D2045B96591CB3DA85CB7DCE40F504B0304140006080800CC70623B55019EA25F0000007C00000007000000636E782E786D6C4DCB3B0E80201045D1AD90E915ED2CF8AC45050C11660C8261F98AB1B07AC9C97D42D718D865D3E909258CFD00CCE24AC6E326A164D74DC0B4128928FF32603847
310
2BA13128B1252AC747C6BAB984FC68F0B87FE8960A5C09FE86CFB69FBA01504B0304140006080800CC70623B8C9102E971010000D40300000C0000006662782F636F72652E786D6CC5535B6E833010BC8AE5DF0A6C08340F1947A84D4ED00B38C6A128602363A31CBFCB234A53A551FA553EC09AD9F5CE8C31DB9E9B1AF5CA
310
7695D1198E428A91D2D214952E33ECDD315861B4E5CC1AE3BE9561A445A3323CC098B3D21ADFCE9034DA29ED00D5A6503328BA4E398C640D8B0C77F253352214DE4145770A5B214FA2546114020D759C75CE8200340D19DE981F0F6746269C33EFAB6266AB02A655C74A59CCF365BADC27CB5D902ED22848F6340DF238A141
310
BE88E2F57B92BFEDF23523433367AE6A2EEAA455C2A902F398D2751045018D3FA264435F3771F242571B4A1919CA6F9A7C5B3CD9E42BED16F12C776AEB308F40C848FC700B1139D4891EF410CEC810227CC6846F8386402064270EF5C5C709A05E49676C024C61FC95EA45ED154CA5211D1FF4FB8291A913A68E9B83EBBB33
310
E2A7673CDE118E5AE8124C0807CB8377834E366998436B950D7A7746DAD846D4CFD978E0F04FD455FC5D49D2D4C6FE9722321F10997F0F32DC47FE05504B0304140006080800CC70623BFFEA85907E0000009D0000000B0000006662782F636E782E786D6C4DCCD10A83201886E15B91FFDC95D95A811AB6F23E625948A6C3
310
E9D8E5AF46073BFAE0E1E365ED67B3E8ADC3CB78C7815C7240DA3DFC64DCC221C519D7805AC182F7F1EF06C88D9BE6703008B6049F9E274D7A1E938DBB5AE3D6131B2589BA0D3D965551E0B2EA732C9B9A624AAEB41E3A557677029960D9AFB4EF11165F504B0304140006080800CC70623B4FEEA4082C0100001202000031
310
0000006662782F39464131463745442D413632322D343644302D413938332D3331353338454246344243312F636F72652E786D6C8D515B6EC32010BC0AE2AB55850DD871ED0813254D72825EC00192A2C460F1A872FC42ED48ED5F7E00CDCECCCEB26C731F6FE05B39AFADE921293004CA082BB5B9F43086336A21D870E6AC
310
0D7F68109861543DCC30E4ECE26C9C164858139409093556AA051CBC570102714B8F1E7AF1A5C6A11862480C7F2DA6415C878B2A4891CA89C7990F2E050073937C42DE1DB7E4F87ED8A36D4329AA9B3D46DBAEAD504556557BD81DEBDD0761E52CE42C462D17B996298E3E6BE59E35C962CE821E1FF18553435012728A7187
310
0841987E927A8D9B35ADDF70BBC6989599FE4F1427F9A4286A132ABAC49D651EF234CD5CE04CDA78BA3DC2A8FB645D00B9DF8B57E215725C60BCA2A463E54C4CE327C7A65E1C7DB02E7DEFCBF594B864C5CA6CDBD49C957943E9FA5D5FBAF336F90F504B0304140006080800CC70623BAD7543B64E01000033030000300000
310
006662782F39464131463745442D413632322D343644302D413938332D3331353338454246344243312F636E782E786D6CD593CD6EC32010845F0571AD6CE3D48AD20813A9873E410FBD12D82434182C7EAAE6EDBB2424CD25871E7B41D6EC30B3FA84F9E67BB2E40B4234DE8DB46F1925E094D7C6ED479AD3AE5951B2113C
310
789FEE6C943839C1488B4C05DF079FE72A69D8C96C13AAD6B8631503449F83828872B949AC57D26200B826A308D316B4064D6E46FCDA41C05550DC9E483A00797BFD207EFB092A45DE9514C1BBD22178396BD39D891265658C238DEA00936C654E5E433CB65A26D9F6EDB5EBC14EBF49A45CB856E66048291F6939A9A81BB5
310
C8917738143CA680F4AA299D66A042CEB3354A2684DC9D8D178FE0D9B8B41CAAD720F880EE7EF93C0C18769E099ECC04D5A102C8049A8A05632F4DDF376CF1DE0F6BB65C2F8627B65A33C6BB62177CEBBDAD973006829F89F22E814B54F4BC2BE347F8AA8F681390B50FA73F804400B5F542E796F19FF974E7F78DB802FE05
310
E207504B0304140006080800CC70623B16AB87BA640500003C100000340000006662782F39464131463745442D413632322D343644302D413938332D3331353338454246344243312F6F626A656374732E786D6CAD575B6FA33818FD2B887DE6924B3BED8A326A92B68A663B534DD4D13E548A0C38942D60649B369D5FBFC7
310
600890A493BDE42160637FD7F31D7FF63E6FB3D478A55C242CBF3247B66B1A340F5994E4F19559CA8D75611A9F7D8F33263BCB4C232719BD32D5B4E97B316765A1A722BA21652A07B3B7B33F0D11D29C9A46981221AE4C113ED38CD8A4942CA2E2C58E882476BCD9DA23BB5ED8171B73523C0F841684D35CC252CCE79062D4
310
468DFA43D7747CCF51DF7D4FFDEB5593E3AB9CCA9FBEFE241792E4E19EB28198C968BAB8199F5D5A67D3E9C49A9E8F47D6EC76B6B0469F26EEFC7C3EBFBCBEB98462213924694B38DD98FE1D62C393D073EA4FADC5DAF04326852CCF6958F90F0F2B9BB5C48816348F90C7840A68EB78EDF68723159BCEE7891A6B95DDE9D3
310
BCEAEEE8086A6C6F9E5D4B59F0175C10A7A0820BAA5055C7473B5AE3CFDD452D602CD5DF12616444529E90D448938013FE6EFA58AA96F85E4F8C42275708571E98FE6827AF6B2B4AE3D7D83D64E5A64C53054DD3AF90BD06FEA9149565C94FCA0F6B834DC85599E4F2423B24DF0B6AFA979E534DFA9E7A4CC6FA631D486393
310
921829879BF5D781A373557BCB85E97FB90DB62B558F8795179C15944B051F40AB495CF35451D26A4727654E6D8033BD98EF82F21D91FF8AF2DD9982BCF1643BDD4EB516C9492E368C67C88DED563FC36D5EACF66DFF057C3658BDBFA69DF9578B3DA735B64F18C7F20770A9D45CFCF7FCF563D6456A277DBEF78A02637CA2
310
43B90A490AEAB94F72244481D24819A6C0E59B606BFA4B3025981DBB48EAB701D97BF19C577CC77F2D1B6C55A9EF3C732474C0B727303F625995056C3B02963D9EAC146BE78EC5FCEC7FA999EBC5EACBAAE41B12D27B4D2C0BBA49F244E2ECDC81B76B502F113D8F5EE8FB1BE3111CDD4FC2AA9B844CAB1288B68AB90A7CDC
310
1C166AB0D3DC5310625FCC14E779BFD0709F8890A629C9292B1B2DED31A4B0DA928CEE135085754027E3018A397D4D5427D15BD1330B677DC8934285AC3DF45A9EB68FF8F2B8FC0A509AFEECFD0FF2DE25CC6047F7214B195F07EFEB9A094D800F7BFAE8FED187B78EA8A3A400F115961BCAD1215E47C966530AF0EE8128FE
310
58CEBB996A8964FFA529A046635D9353B0336A8F700DDF46271A024E70B0B37C9DE01847591E54DED53D54202AB947E4076556AC49C6CA5C9E1226B7F1A7B1BE15DEED62C41B91E1B3E9AFAAA735036547343A925075041DF0A9979E893B391F8FCFA6967B3EFB644DCF6E5CEBFAE272625DCC6FAF3FB93793C5F90CE1EF57
310
407342756B10D1C489E8953CD1617E5CEECAD6F4EF8914CE5D5D504E5C3F1F9736DA62CFC11E00BCDDB8CC8A9466349744C1F75EBDA4DF09BA8A9E8C7A7E9991989E20E5DBDD6A6003664ED8F7A04A8DBE0DF6EAD9B9AA858342E47399053949D2C146EDB85DE4B176BB0965FBAC19BD19AA918E27FA50C1D22402E144464C
310
59462568E704B6E71915404CB72B8FF4EDE184DDAF753F284990D2C6926782963815403548A70C657FDEF80D2D9CEAA2AE4C1C76F60BFE74219A06527D6582DF6412526107381E55E353090704D085B52408D0933C4ED159D79BDA71BB4BC506F4831350EB6F979CD22D69BF7AC49B91A2C0A9DDA3D5CA36AD20FC478E37E6
310
1844E2352865EBCB6EA275A652E3836BE04EFB400BF1A2556F515F1FBB35B2AB35BD889C744FFA1004B5544B121E57F70215746DD2F5E2C1412B602CBF19455AC6C8E5E9922C4E01E65215385004546899059180EAFCF7A707CE7017CD8CDB0410789AB32C63B91E5CEBBBACB17AC6CD347A022D5075FD106377347AAABA7E
310
7D11590744509B44E205134DC1290F06580320F78E537D3D73540E06CB970B431F185308AD40BBD794D6D77003C5A36E8EAA54BA64597CD8F83BD552A080A365F7FF06504B0304140006080000CC70623B000000000000000000000000350000006662782F39464131463745442D413632322D343644302D413938332D3331
310
353338454246344243312F76657274696365732E62696E504B0304140006080800CC70623BF270F1330600000004000000360000006662782F39464131463745442D413632322D343644302D413938332D3331353338454246344243312F747269616E676C65732E62696E636660600000504B0304140006080000CC70623B
310
000000000000000000000000370000006662782F39464131463745442D413632322D343644302D413938332D3331353338454246344243312F617474726962757465732E62696E504B0304140006080800CC70623B08DA0BD19000000041010000360000006662782F39464131463745442D413632322D343644302D413938
310
332D3331353338454246344243312F6469726563746F72792E786D6C858F410AC3201045AF22B36F53E9A60B35CBEEBAE80D244E44489C6234F4F835464A48035D0DF398FF9F8AF63D0E6CC63039F212F8F9020C7D47C6792B21C5FE7403D62A1188E2E60C98D7234A5830286103A55745067B9D86B8A3CF9C7F90C11DE607
310
FB144396D7B6A82D282E9A152AD114D5EF2CB866EEE831B8EEA07A7BB5A8D7D61A2BAAEB7FD5F70921FF497D00504B0304140006080800CC70623B0D6EF93BFE000000A00100003B0000006662782F39464131463745442D413632322D343644302D413938332D3331353338454246344243312F7265736F75726365732F63
310
6F72652E786D6C8D50596E833010BD0A9ADFCA60B334011947A8694ED00B586642AC041B79A97AFC9A40A5F6AF3F33A3B7689E1E3F7DCD8FEC139DD7D6F4C0720A191A65476DA61E62B892236427C19DB5E1970C322367EC618541F0C9D9B8EC90B226A009093576C41D94DE63804C3DD2D18357379C652E63480A7FCF17A9
310
EE72C29CE5894E3AC17D702940B63D59270887DE46A7D0F36263058F518FBB468FE9A7BE6A7420864373B8D4873369AA8691FA421B3294352543C5CAF65C0F6FEF43CB8BD52C78D0F34F46E550061C419494B6843142CB0F5677F4B52BEB177AEC28E5C52AFF638ACBF84F53D42654E51E77B379102C05791282176B5F693D
310
CB4C7BED567C03504B010214000A0000080000CC70623B3DEE336E79000000790000001B00000000000000000000000000000000006175746F6465736B2D64657369676E2D7061636B6167652E786D6C504B01021400140006080800CC70623BD486FD9CA0000000F40000001300000000000000000000000000B20000005B
310
436F6E74656E745F54797065735D2E786D6C504B01021400140006080800CC70623B1EC5D7A3EB0000007C010000080000000000000000000000000083010000636F72652E786D6C504B01021400140006080800CC70623B55019EA25F0000007C000000070000000000000000000000000094020000636E782E786D6C504B
310
01021400140006080800CC70623B8C9102E971010000D40300000C00000000000000000000000000180300006662782F636F72652E786D6C504B01021400140006080800CC70623BFFEA85907E0000009D0000000B00000000000000000000000000B30400006662782F636E782E786D6C504B01021400140006080800CC70
310
623B4FEEA4082C0100001202000031000000000000000000000000005A0500006662782F39464131463745442D413632322D343644302D413938332D3331353338454246344243312F636F72652E786D6C504B01021400140006080800CC70623BAD7543B64E010000330300003000000000000000000000000000D5060000
310
6662782F39464131463745442D413632322D343644302D413938332D3331353338454246344243312F636E782E786D6C504B01021400140006080800CC70623B16AB87BA640500003C1000003400000000000000000000000000710800006662782F39464131463745442D413632322D343644302D413938332D3331353338
310
454246344243312F6F626A656374732E786D6C504B01021400140006080000CC70623B0000000000000000000000003500000000000000000000000000270E00006662782F39464131463745442D413632322D343644302D413938332D3331353338454246344243312F76657274696365732E62696E504B01021400140006
310
080800CC70623BF270F133060000000400000036000000000000000000000000007A0E00006662782F39464131463745442D413632322D343644302D413938332D3331353338454246344243312F747269616E676C65732E62696E504B01021400140006080000CC70623B0000000000000000000000003700000000000000
310
000000000000D40E00006662782F39464131463745442D413632322D343644302D413938332D3331353338454246344243312F617474726962757465732E62696E504B01021400140006080800CC70623B08DA0BD190000000410100003600000000000000000000000000290F00006662782F39464131463745442D413632
310
322D343644302D413938332D3331353338454246344243312F6469726563746F72792E786D6C504B01021400140006080800CC70623B0D6EF93BFE000000A00100003B000000000000000000000000000D1000006662782F39464131463745442D413632322D343644302D413938332D3331353338454246344243312F7265
310
736F75726365732F636F72652E786D6C504B0506000000000E000E0080040000641100000000
  0
XRECORD
  5
175
102
{ACAD_REACTORS
330
173
102
}
330
173
100
AcDbXrecord
280
     1
270
     1
271
     1
  0
XRECORD
  5
174
102
{ACAD_REACTORS
330
173
102
}
330
173
100
AcDbXrecord
280
     1
270
     1
271
     1
  0
XRECORD
  5
1FB
102
{ACAD_REACTORS
330
173
102
}
330
173
100
AcDbXrecord
280
     1
 70
     0
 90
1673772943
  1
ECE7A1D2-D628-4531-984C-D00F80459256
310
504B03040A0000080000CC70623B3DEE336E79000000790000001B0000006175746F6465736B2D64657369676E2D7061636B6167652E786D6C3C3F786D6C2076657273696F6E3D22312E302220656E636F64696E673D227574662D3822203F3E3C666F726D6174733E3C666F726D61743E687474703A2F2F736368656D612E
310
6175746F6465736B2E636F6D2F64657369676E2D7061636B6167652F323030393C2F666F726D61743E3C2F666F726D6174733E504B0304140006080800CC70623BD486FD9CA0000000F4000000130000005B436F6E74656E745F54797065735D2E786D6C7D8EC10E82300C865F65E91D8A1E8C310C0EEA1BF002731658846E
310
D98AC1B77784ABF1D8FE5FBFBF75BBCE937A534CCEB38643598122B6FEE978D0B0485F9C41B54DDD7D022595594E1A469170414C76A4D9A4D207E29CF43ECE46F218070CC6BECC4078ACAA135ACF422C856C0E68EA1BF5669944DDD7BCDE7B1F8E415D77AECB980613C2E4AC91FC167A2B244592486606FC29C8FD7F045B9A
310
EF7053A7E60B504B0304140006080800CC70623BD9DDAED0EC0000007C01000008000000636F72652E786D6C8D90416EC3201045AF82665B61836D9CD8C2444DD39CA01740405C94182C03558F5F9C3852BBEB6A467FFE9B197D7EF89E6EE8CB2CC17A37002D0820E394D7D68D03A478C17B4007C117EFE32F1B20272733C0
310
2A83E0E3E2D3BC49CABB685CCCAAF3DA6CA20CC14440EA969B0182FA34932C648AD911AEC52CD5558EA6A0CF2EC329598D1E47ACCEFBECC59A050463A7EA5833865FEBDD0E37353BE3EE8DBDE3F6786A48D375FBF6CC78B9C282473B3DEFABC5C86834888A900E538A49F5419B9EB47DD5BC907D4F082F57FB1F28CDFA9F50
310
B22ED6D5F6EE030B20687EE43E10BC5CB3C8E51E54AE6B6EE207504B0304140006080800CC70623B55019EA25F0000007C00000007000000636E782E786D6C4DCB3B0E80201045D1AD90E915ED2CF8AC45050C11660C8261F98AB1B07AC9C97D42D718D865D3E909258CFD00CCE24AC6E326A164D74DC0B4128928FF326038
310
472BA13128B1252AC747C6BAB984FC68F0B87FE8960A5C09FE86CFB69FBA01504B0304140006080800CC70623BA24EB22D72010000D40300000C0000006662782F636F72652E786D6CC5535B6E833010BC8AE5DF0A6C5E49888CA3A6694ED00B38E05014B091B1518EDFE511A5A9D228FD2A1F60CDEC7A67C6986DCE4D8D7A
310
69BA4AAB0C073EC548AA5C17952A33ECECD15B61B4E1CC686DBF9561A44423333CC098B3D268D7CE50AE9595CA02AA74216750749DB418E5352C32DCE59FB211BE70162ABA93DF8AFC244AE9073ED050C759670D0840D390E18DF9F1706664C23973AE2A66B62A605A75ACA4C13C4976E1364A12EF355A2EBD384AF65EFA96
310
BC7B8BED2EA6719AAE16FB8491A199335B351775B991C2CA02F390D2D40B028F861F41BCA68B7518BFD0D59A524686F29B26D7164F36B94AD9289CE54E6D1DE6010819891F6E21228B3AD1831EC219194284CF98F06DD01008846CC5A1BEF83801D4CBDC6A1303536877A57A513B0953A94FC707FDBE6064EA84A9E3E6E0FA
310
EE8CF0E9198F7784A316AA0413C2C2F2E0ECA0934D1AE6D05A69BCDE9E91D2A611F573361E38FC1375157F5752AE6B6DFE4B11990F88CCBF0719EE23FF02504B0304140006080800CC70623B408A7D3B7C0000009D0000000B0000006662782F636E782E786D6C4DCCD10A83201886E15B91FFDC552A92A0064DBC8F581632
310
D3703A76F9ABD1C18E3E78F878E5F0D9027ABBFCF2292AE86E2D20171F69F6715550CB827B40839639A5F2770314A7CD293819B45C73AAFB45B35BA61ACAA1C1C7E7855C58C15BC331339661262CC762340413D68D77DA5B42298546CBE6573AF60CEB2F504B0304140006080800CC70623B449FB9BD290100001202000031
310
0000006662782F36394639363044362D344446342D343946362D394244322D3234314243333846323333332F636F72652E786D6C8D515B6EC32010BC0AE22B55850D98B871848994463E412FE002495162B07854397EA176A4F62F3F2C9A9D991D587EB84F37F0AD7D30CEF6905418026DA553C65E7A98E219ED203808EE9D
310
8B7F6810D871D23D2C3014FCE25D9A57483A1BB58D19B54EE9151C43D0110279CB971E06F9A5A7B11A53CC8C70ADE6515EC78BAE4895DB992778883E0700CB907242D17643D7E2538BD869608875438BBAE38922CAC8F1BDD90DB4691A5E2F42C153326A951B95E398B3D1FE599322163C9AE9115F7A3D46ADA0A018778810
310
84E907617BDCEE297BC5BB3DC6BC2EF47FA234AB2745C9D8D8D035EE220B50105E2F0DC1954B9FB747187D9F9D8FA0CCDB042D5FA0C015C65B42DF78BD10F3F3B363CB56C7109DCFDFBBB97E662ED92EB62D13BC2E1BCAE5777DB9966D8A1F504B0304140006080800CC70623BAD7543B64E01000033030000300000006662
310
782F36394639363044362D344446342D343946362D394244322D3234314243333846323333332F636E782E786D6CD593CD6EC32010845F0571AD6CE3D48AD20813A9873E410FBD12D82434182C7EAAE6EDBB2424CD25871E7B41D6EC30B3FA84F9E67BB2E40B4234DE8DB46F1925E094D7C6ED479AD3AE5951B2113C789FEE
310
6C943839C1488B4C05DF079FE72A69D8C96C13AAD6B8631503449F83828872B949AC57D26200B826A308D316B4064D6E46FCDA41C05550DC9E483A00797BFD207EFB092A45DE9514C1BBD22178396BD39D891265658C238DEA00936C654E5E433CB65A26D9F6EDB5EBC14EBF49A45CB856E66048291F6939A9A81BB5C89177
310
38143CA680F4AA299D66A042CEB3354A2684DC9D8D178FE0D9B8B41CAAD720F880EE7EF93C0C18769E099ECC04D5A102C8049A8A05632F4DDF376CF1DE0F6BB65C2F8627B65A33C6BB62177CEBBDAD973006829F89F22E814B54F4BC2BE347F8AA8F681390B50FA73F804400B5F542E796F19FF974E7F78DB802FE05E20750
310
4B0304140006080800CC70623B8D05915C650500003B100000340000006662782F36394639363044362D344446342D343946362D394244322D3234314243333846323333332F6F626A656374732E786D6CAD575B6FA33814FE2B887D06429276DA1565D4266D158D3A339A6846FB502932E050B66023DB74D2FDF5FB190C01
310
9276B2973C046C8ECFF53B17071F77456EBD502133CEAE6CDF9DD81665314F32965ED995DA3A17B6F5310C04E7AA47665B8C14F4CAD6DB7618A48257A5D94AE89654B91AEDDEDDFC61C998326A5B714EA4BCB265FC440BE2924AF184CA6737218AB8E976E7FA6E4338649B0A523E8D98964450A6A029F619B8588D52FE7039
310
B1BD30F0F4F730D0FF866AF6369557DB33949F31A9088B0F848DD8CCFCF9F2767A76E99CCDE733677E3EF59D9BBB9BA5E37F984D16E78BC5E5F5ED25044B25C0C96822E8D60EEFE11B91C581D77CEA34368A1F5329E68CD1B8B61F16D63A1B8E092D294B10C78C4A48EB593D192E7DED9BDEE7995E1B91FDEDD3ACEA9FE831
310
6A756F9F7D4D79F4274C90A7A04248AA51D5F8C718DAE06FB2F75AC4796EBE65D22A88A22223B995679120E2D50E41AA49C260C046A35368846B0BECD0DFF3EBEB8AD4F835768F69B9ADF25C43D30E6B646F807FAA64AD59F61715C7A54127C4AACA98BA3006A9D792DAE165E0D59B61A01FB3A9F9D838D2DAE62445C86166
310
F37564E842E7DE6A69879FEEA2DD5AE7E371E1A5E025154AC307D06A03D73EB5978C58FFA4C8E9033066E0F3BD53BEC1F39F91BE7B55103791EDE6BBB991A2046172CB4581D8B893FA674DDA17A77B3B7C413D1B511FD2743BFF8A38F03A658705E3ADF8015C3A3417FF3D7E439FF591DA0B5F18BC20C1B8981957AE6392A3
310
F43C640C01D1A0B4728E2DD4F26DB4B3C3152A252A3B4E913CEC1C72F012782FF88EFF8637AA552DBEF76408E8A8DE9E50F9E1CB3A2DA0DB1B6039A893B56063DC5B3E3FFB5F72E67AB9FEB4AEC496C4F4C1149625DD662C53E89D7BF0F6151A046260D1337DFDC94502430F83B0EE07A130A224BCAD7DAE1D9FB6CD422FF6
310
920702629C4BB9AE79C12F243C6432A6794E18E5552BA56B431AAB5D91317302B2B071E86C3A42B1A02F999E24061403B5D0EB639195DA655DD3EBEAB4FB862DDF579F014AD0E73C22F99E28DA57FB98E75C6CA2D74D53086D600F4786E0FE3144B771A8A7B900F03594DB8A633CBC49B2EDB69228BB479CF863B5E807AAAB
310
23872F6DFEB4129B949CA33823F58830E86D65621E10047D9DB34D862E8EAC3C2ABC2F7B2C40D67CDFE01F5545B92105AF983AC54D93D69E56FB8E797F88913F898A9FEC705D3F9D1B54EC8426FB500D40A03BD0119B06E1B95DDC7EB8F6975367793EBD70E66733DFB9BC982F9CE564727731999F5D4ECFCE3B8D6A4DC2A0
310
6D50FD148437D110834A64C6CDDF57FBACB5C307A2A477DFE4939736CFEF2B175371E0E10CF0DD1D5C15654E0BCA14D1E87DD02FF93782A162C0A3D95F1524A52770F972BF1EE9809D13CE7DD599467F8ECE9ADD85CE85A34CD45355448C64F9E8A031DC2D596ACC6E5DD93D9B82DE2EF5CAF81363A8E47996A0DE24564A79
310
4115AACE09C55E14540231FDA13C319787134EBF34E3A022514E5B4D9E0826E25C02D5805B15ABE1BEF51B26383D445DD9E875EE33FE4C22DA16427D65A3BCA92CA6D28DD01DF5DC53330704308475351050232CCD31583787BA75774AFB06E5070DD0C8EF484E19968C5D83BA5B90B244D31E54D55A372320FE4786B7EA58
310
44E135AA5467CB7EA333A61683CC6A8C3257034C10CF46F40EF9F5BE59BE5BD30C3C72D235E95D10345C1D45445A5F0BB47E46A5EBE5570F9380B5FA629579952296A773720405982B9DE04011506178964401AA8BDF1FBF0A8EAB6861DD6580C0E38217056766716DAEB2D6FA0917D3E4116581EADB879C4E7CFFB11EFACD
310
3D641311495D92C8676CB409A72D18610D803CE8A626049E8EC1887CB5B44CC39883690DDA8399B4B9855B481E7D71D4A9D22F96E5BB73BF5793020C02137BF837504B0304140006080000CC70623B000000000000000000000000350000006662782F36394639363044362D344446342D343946362D394244322D32343142
310
43333846323333332F76657274696365732E62696E504B0304140006080800CC70623BF270F1330600000004000000360000006662782F36394639363044362D344446342D343946362D394244322D3234314243333846323333332F747269616E676C65732E62696E636660600000504B0304140006080000CC70623B0000
310
00000000000000000000370000006662782F36394639363044362D344446342D343946362D394244322D3234314243333846323333332F617474726962757465732E62696E504B0304140006080800CC70623B08DA0BD19000000041010000360000006662782F36394639363044362D344446342D343946362D394244322D
310
3234314243333846323333332F6469726563746F72792E786D6C858F410AC3201045AF22B36F53E9A60B35CBEEBAE80D244E44489C6234F4F835464A48035D0DF398FF9F8AF63D0E6CC63039F212F8F9020C7D47C6792B21C5FE7403D62A1188E2E60C98D7234A5830286103A55745067B9D86B8A3CF9C7F90C11DE607FB14
310
4396D7B6A82D282E9A152AD114D5EF2CB866EEE831B8EEA07A7BB5A8D7D61A2BAAEB7FD5F70921FF497D00504B0304140006080800CC70623BCA768048FE000000A00100003B0000006662782F36394639363044362D344446342D343946362D394244322D3234314243333846323333332F7265736F75726365732F636F72
310
652E786D6C8D50596E833010BD0A9ADFCA60D600328E9AA639412F609909B1126CE4A5EAF16B0295DABFFECC8CDEA2797AECF8353F924FB44E193D409E5248504B332A3D0D10FC95B4901C39B3C6F85F3248B49871801506CE266BC2B243D2688FDA47549B11775038871E12F988C7004EDE7016A9083E2ADC3D5D84BC8B09
310
D33C8D74D471E6BC8D0192EDC93A815B742658898E651BCB59086ADC356A8C3FD555A1055ED7E7E254D615792D0F075295F585746FF53B694EE78A565DD736979A65AB9933AFE69F8CD2A2F038022F28ED489E135A7CE4554F9BBEA85E68DB53CAB255FEC71496F19FA6A0B42F8B3DEE6673C0F318E4497096AD7DC5F52C33
310
EEB55BFE0D504B010214000A0000080000CC70623B3DEE336E79000000790000001B00000000000000000000000000000000006175746F6465736B2D64657369676E2D7061636B6167652E786D6C504B01021400140006080800CC70623BD486FD9CA0000000F40000001300000000000000000000000000B20000005B436F
310
6E74656E745F54797065735D2E786D6C504B01021400140006080800CC70623BD9DDAED0EC0000007C010000080000000000000000000000000083010000636F72652E786D6C504B01021400140006080800CC70623B55019EA25F0000007C000000070000000000000000000000000095020000636E782E786D6C504B0102
310
1400140006080800CC70623BA24EB22D72010000D40300000C00000000000000000000000000190300006662782F636F72652E786D6C504B01021400140006080800CC70623B408A7D3B7C0000009D0000000B00000000000000000000000000B50400006662782F636E782E786D6C504B01021400140006080800CC70623B
310
449FB9BD290100001202000031000000000000000000000000005A0500006662782F36394639363044362D344446342D343946362D394244322D3234314243333846323333332F636F72652E786D6C504B01021400140006080800CC70623BAD7543B64E010000330300003000000000000000000000000000D20600006662
310
782F36394639363044362D344446342D343946362D394244322D3234314243333846323333332F636E782E786D6C504B01021400140006080800CC70623B8D05915C650500003B10000034000000000000000000000000006E0800006662782F36394639363044362D344446342D343946362D394244322D32343142433338
310
46323333332F6F626A656374732E786D6C504B01021400140006080000CC70623B0000000000000000000000003500000000000000000000000000250E00006662782F36394639363044362D344446342D343946362D394244322D3234314243333846323333332F76657274696365732E62696E504B010214001400060808
310
00CC70623BF270F13306000000040000003600000000000000000000000000780E00006662782F36394639363044362D344446342D343946362D394244322D3234314243333846323333332F747269616E676C65732E62696E504B01021400140006080000CC70623B00000000000000000000000037000000000000000000
310
00000000D20E00006662782F36394639363044362D344446342D343946362D394244322D3234314243333846323333332F617474726962757465732E62696E504B01021400140006080800CC70623B08DA0BD190000000410100003600000000000000000000000000270F00006662782F36394639363044362D344446342D
310
343946362D394244322D3234314243333846323333332F6469726563746F72792E786D6C504B01021400140006080800CC70623BCA768048FE000000A00100003B000000000000000000000000000B1000006662782F36394639363044362D344446342D343946362D394244322D3234314243333846323333332F7265736F
310
75726365732F636F72652E786D6C504B0506000000000E000E0080040000621100000000
  0
XRECORD
  5
176
102
{ACAD_REACTORS
330
173
102
}
330
173
100
AcDbXrecord
280
     1
270
     1
271
     1
  0
XRECORD
  5
177
102
{ACAD_REACTORS
330
173
102
}
330
173
100
AcDbXrecord
280
     1
270
     1
271
     1
  0
XRECORD
  5
9A2F
102
{ACAD_REACTORS
330
22E0
102
}
330
22E0
100
AcDbXrecord
280
     1
102
DISPLAYNAME
  1
Imperial24
102
FLAGS
 90
        0
  0
XRECORD
  5
9A2D
102
{ACAD_REACTORS
330
234
102
}
330
234
100
AcDbXrecord
280
     1
102
DISPLAYNAME
  1
Metric50
102
FLAGS
 90
        0
  0
CELLSTYLEMAP
  5
9A2C
102
{ACAD_REACTORS
330
162
102
}
330
162
100
AcDbCellStyleMap
 90
        3
300
CELLSTYLE
  1
TABLEFORMAT_BEGIN
 90
        5
170
     1
 91
        0
 92
    32768
 62
   257
 93
        1
300
CONTENTFORMAT
  1
CONTENTFORMAT_BEGIN
 90
        0
 91
        0
 92
      512
 93
        0
300

 40
0.0
140
1.0
 94
        5
 62
     0
340
11
144
6.0
309
CONTENTFORMAT_END
171
     1
301
MARGIN
  1
CELLMARGIN_BEGIN
 40
1.5
 40
1.5
 40
1.5
 40
1.5
 40
4.5
 40
4.5
309
CELLMARGIN_END
 94
        6
 95
        1
302
GRIDFORMAT
  1
GRIDFORMAT_BEGIN
 90
        0
 91
        1
 62
     0
 92
       -2
340
14
 93
        0
 40
1.125
309
GRIDFORMAT_END
 95
        2
302
GRIDFORMAT
  1
GRIDFORMAT_BEGIN
 90
        0
 91
        1
 62
     0
 92
       -2
340
14
 93
        0
 40
1.125
309
GRIDFORMAT_END
 95
        4
302
GRIDFORMAT
  1
GRIDFORMAT_BEGIN
 90
        0
 91
        1
 62
     0
 92
       -2
340
14
 93
        0
 40
1.125
309
GRIDFORMAT_END
 95
        8
302
GRIDFORMAT
  1
GRIDFORMAT_BEGIN
 90
        0
 91
        1
 62
     0
 92
       -2
340
14
 93
        0
 40
1.125
309
GRIDFORMAT_END
 95
       16
302
GRIDFORMAT
  1
GRIDFORMAT_BEGIN
 90
        0
 91
        1
 62
     0
 92
       -2
340
14
 93
        0
 40
1.125
309
GRIDFORMAT_END
 95
       32
302
GRIDFORMAT
  1
GRIDFORMAT_BEGIN
 90
        0
 91
        1
 62
     0
 92
       -2
340
14
 93
        0
 40
1.125
309
GRIDFORMAT_END
309
TABLEFORMAT_END
  1
CELLSTYLE_BEGIN
 90
        1
 91
        1
300
_TITLE
309
CELLSTYLE_END
300
CELLSTYLE
  1
TABLEFORMAT_BEGIN
 90
        5
170
     1
 91
        0
 92
        0
 62
   257
 93
        1
300
CONTENTFORMAT
  1
CONTENTFORMAT_BEGIN
 90
        0
 91
        0
 92
      512
 93
        0
300

 40
0.0
140
1.0
 94
        5
 62
     0
340
11
144
4.5
309
CONTENTFORMAT_END
171
     1
301
MARGIN
  1
CELLMARGIN_BEGIN
 40
1.5
 40
1.5
 40
1.5
 40
1.5
 40
4.5
 40
4.5
309
CELLMARGIN_END
 94
        6
 95
        1
302
GRIDFORMAT
  1
GRIDFORMAT_BEGIN
 90
        0
 91
        1
 62
     0
 92
       -2
340
14
 93
        0
 40
1.125
309
GRIDFORMAT_END
 95
        2
302
GRIDFORMAT
  1
GRIDFORMAT_BEGIN
 90
        0
 91
        1
 62
     0
 92
       -2
340
14
 93
        0
 40
1.125
309
GRIDFORMAT_END
 95
        4
302
GRIDFORMAT
  1
GRIDFORMAT_BEGIN
 90
        0
 91
        1
 62
     0
 92
       -2
340
14
 93
        0
 40
1.125
309
GRIDFORMAT_END
 95
        8
302
GRIDFORMAT
  1
GRIDFORMAT_BEGIN
 90
        0
 91
        1
 62
     0
 92
       -2
340
14
 93
        0
 40
1.125
309
GRIDFORMAT_END
 95
       16
302
GRIDFORMAT
  1
GRIDFORMAT_BEGIN
 90
        0
 91
        1
 62
     0
 92
       -2
340
14
 93
        0
 40
1.125
309
GRIDFORMAT_END
 95
       32
302
GRIDFORMAT
  1
GRIDFORMAT_BEGIN
 90
        0
 91
        1
 62
     0
 92
       -2
340
14
 93
        0
 40
1.125
309
GRIDFORMAT_END
309
TABLEFORMAT_END
  1
CELLSTYLE_BEGIN
 90
        2
 91
        1
300
_HEADER
309
CELLSTYLE_END
300
CELLSTYLE
  1
TABLEFORMAT_BEGIN
 90
        5
170
     1
 91
        0
 92
        0
 62
   257
 93
        1
300
CONTENTFORMAT
  1
CONTENTFORMAT_BEGIN
 90
        0
 91
        0
 92
      512
 93
        0
300

 40
0.0
140
1.0
 94
        2
 62
     0
340
11
144
4.5
309
CONTENTFORMAT_END
171
     1
301
MARGIN
  1
CELLMARGIN_BEGIN
 40
1.5
 40
1.5
 40
1.5
 40
1.5
 40
4.5
 40
4.5
309
CELLMARGIN_END
 94
        6
 95
        1
302
GRIDFORMAT
  1
GRIDFORMAT_BEGIN
 90
        0
 91
        1
 62
     0
 92
       -2
340
14
 93
        0
 40
1.125
309
GRIDFORMAT_END
 95
        2
302
GRIDFORMAT
  1
GRIDFORMAT_BEGIN
 90
        0
 91
        1
 62
     0
 92
       -2
340
14
 93
        0
 40
1.125
309
GRIDFORMAT_END
 95
        4
302
GRIDFORMAT
  1
GRIDFORMAT_BEGIN
 90
        0
 91
        1
 62
     0
 92
       -2
340
14
 93
        0
 40
1.125
309
GRIDFORMAT_END
 95
        8
302
GRIDFORMAT
  1
GRIDFORMAT_BEGIN
 90
        0
 91
        1
 62
     0
 92
       -2
340
14
 93
        0
 40
1.125
309
GRIDFORMAT_END
 95
       16
302
GRIDFORMAT
  1
GRIDFORMAT_BEGIN
 90
        0
 91
        1
 62
     0
 92
       -2
340
14
 93
        0
 40
1.125
309
GRIDFORMAT_END
 95
       32
302
GRIDFORMAT
  1
GRIDFORMAT_BEGIN
 90
        0
 91
        1
 62
     0
 92
       -2
340
14
 93
        0
 40
1.125
309
GRIDFORMAT_END
309
TABLEFORMAT_END
  1
CELLSTYLE_BEGIN
 90
        3
 91
        2
300
_DATA
309
CELLSTYLE_END
  0
ENDSEC
  0
SECTION
  2
ACDSDATA
 70
     2
 71
     8
  0
ACDSSCHEMA
 90
        0
  1
AcDb_Thumbnail_Schema
  2
AcDbDs::ID
280
    10
 91
        8
  2
Thumbnail_Data
280
    15
 91
        0
101
ACDSRECORD
 95
        0
 90
        1
  2
AcDbDs::TreatedAsObjectData
280
     1
291
     1
101
ACDSRECORD
 95
        0
 90
        2
  2
AcDbDs::Legacy
280
     1
291
     1
101
ACDSRECORD
  1
AcDbDs::ID
 90
        3
  2
AcDs:Indexable
280
     1
291
     1
101
ACDSRECORD
  1
AcDbDs::ID
 90
        4
  2
AcDbDs::HandleAttribute
280
     7
282
     1
  0
ACDSSCHEMA
 90
        1
  1
AcDbDs::TreatedAsObjectDataSchema
  2
AcDbDs::TreatedAsObjectData
280
     1
 91
        0
  0
ACDSSCHEMA
 90
        2
  1
AcDbDs::LegacySchema
  2
AcDbDs::Legacy
280
     1
 91
        0
  0
ACDSSCHEMA
 90
        3
  1
AcDbDs::IndexedPropertySchema
  2
AcDs:Indexable
280
     1
 91
        0
  0
ACDSSCHEMA
 90
        4
  1
AcDbDs::HandleAttributeSchema
  2
AcDbDs::HandleAttribute
280
     7
 91
        1
284
     1
  0
ACDSRECORD
 90
        0
  2
AcDbDs::ID
280
    10
320
2B60
  2
Thumbnail_Data
280
    15
 94
     2760
310
89504E470D0A1A0A0000000D49484452000000B5000001000803000000C2FDC7E900000300504C5445FFFFFF000000C8C8C80000000000000000000000000000000000000000000000000000330000660000990000CC0000FF0033000033330033660033990033CC0033FF0066000066330066660066990066CC0066FF0099
310
000099330099660099990099CC0099FF00CC0000CC3300CC6600CC9900CCCC00CCFF00FF0000FF3300FF6600FF9900FFCC00FFFF3300003300333300663300993300CC3300FF3333003333333333663333993333CC3333FF3366003366333366663366993366CC3366FF3399003399333399663399993399CC3399FF33CC00
310
33CC3333CC6633CC9933CCCC33CCFF33FF0033FF3333FF6633FF9933FFCC33FFFF6600006600336600666600996600CC6600FF6633006633336633666633996633CC6633FF6666006666336666666666996666CC6666FF6699006699336699666699996699CC6699FF66CC0066CC3366CC6666CC9966CCCC66CCFF66FF0066
310
FF3366FF6666FF9966FFCC66FFFF9900009900339900669900999900CC9900FF9933009933339933669933999933CC9933FF9966009966339966669966999966CC9966FF9999009999339999669999999999CC9999FF99CC0099CC3399CC6699CC9999CCCC99CCFF99FF0099FF3399FF6699FF9999FFCC99FFFFCC0000CC00
310
33CC0066CC0099CC00CCCC00FFCC3300CC3333CC3366CC3399CC33CCCC33FFCC6600CC6633CC6666CC6699CC66CCCC66FFCC9900CC9933CC9966CC9999CC99CCCC99FFCCCC00CCCC33CCCC66CCCC99CCCCCCCCCCFFCCFF00CCFF33CCFF66CCFF99CCFFCCCCFFFFFF0000FF0033FF0066FF0099FF00CCFF00FFFF3300FF3333
310
FF3366FF3399FF33CCFF33FFFF6600FF6633FF6666FF6699FF66CCFF66FFFF9900FF9933FF9966FF9999FF99CCFF99FFFFCC00FFCC33FFCC66FFCC99FFCCCCFFCCFFFFFF00FFFF33FFFF66FFFF99FFFFCCFFFFFF0000000D0D0D1A1A1A2828283535354343435050505D5D5D6B6B6B787878868686939393A1A1A1AEAEAEBB
310
BBBBC9C9C9D6D6D6E4E4E4F1F1F1FFFFFF000000000000000000000000000000000000000000000000000000000000B0E2D235000007804944415478DAED9D3D72DB3814C731BE40B6E13554691B1DC369E28B781BABD1EE29B40DD9645365ABA47415559BADEC462A656366914191B1788005087E0020285122403ED8EF79
310
4C8BB6ECFCE6CDFF7DE08B21EF22344EDEFD88CE243589CE901AA9911AA9DF2CF53E9EB26850C7E2E577FBD8A90952A342DAD404A9512198435E914256AB18A371D5C30052F39651EB7E05502112CB326ADDC08BC695C399547F4D21E69049A98745E3A8D42450E643EAF1AA4C04D188D4AF582198435021984350219843DE
310
A8429E94517989271A911A730852835208A5315674A4C61CF2EAA8A9D447040AA1A70C6434521CCB600E416A9C0FC1F9105408E6105408E690D7AF10614C19E7D14463B98ECEC427A7F1E490156795D1581422BD3DAEAFFDECD612BEAEA9631981498D340A19991A777C22B567853CB9ADFC91FB4DD347E371EAEE1F22B557
310
5D7BE2C31CD2DFD701E411582181444D02EE1A8F961A6A95C18A3E01B56A45EB8ED477671A482161DBE950D1488FDE02A5360F11783F461040218522ECC3107C053D1A69311FB29293376AE0487834D449C239AF669FC253EF7D500B4B0A5F13F9312E35B99C9A9071153290BA48CEE56C08A92644C02B44A766C50130CA2D
310
EAC562012D1A2BEA421F5C15189B9A2F60E690CAD784F233A8E9D43984E90704DBD4CA8A7A54D4242A557379BF323C87502D8768BED64C5097DC9C1B1D162513520B5B25C2A8FC2CA813E37C2655855317854FEACBD70A58C214B6124162F65274651F31954219444DBC50139628166549D761585A5DA15017146A4C932456
310
B85A0AA12A1C265748E9EBD292E3BEA67CB0AFBD8C0A6A5F2B3BE66B5A8D31A7A71655A687AF9BB2EFD3D7FBA0D41570D5AE4C1F8D92FA8442587DCFD87085108FBE5643C8B6AFC5B72B652877C3518836159298BBAF650432FDFD0C4C341EDF5DCBDAB7307248A90E773432F359110C8C427AE5EB5A2280A2713C5FC7493D
310
8E429867858C53D18D742DEFA0501F8FC670F93A681FC20C57C389C6AA9A4B73764F1C5CF794540A29A0D5049A9DAFCB3935E2B7BF1E46AD098019CEA5DC6130A2B1094066449DBB3642E99E1A5F5B2D69705F0F53086D438B3B393D1280DA5734BA7B5276EC68188C3EA4ED6A356C81AB1056EB5ADF59A1519BDF0654D155
310
DA30F783B02A8758DB44E0744F4A1163FB7AF068D74AD7E55D887CED2D1A8B89D256E60B94AF7D5217847DABCC800D193E1552566FBDA2B372918CBB971820CC2C54AD523D6E295BD2C0BEF6914378DDA8D62D69E0EEC9C38C19A1E2AB312AE8F43590686CDA8BEE751978D455336D6FDA82AC90666F9C9C433597E9808E65
310
C480D0B1356E1C5F0FA3D613B1E163B09DAA5A0333A9E9B1682CF68CC05825D5B9B512E25248B1FB0216352109D326F69CBE1E48ED4721CD31305E5419D18318AB8C01A989975399C5E453DD4489BA5ECC045B53C10B106399E654663555CDACFEDAF237801C629CCA64DABC13D3A291411BCB38A9EB6906EA9894E240A86B
310
85D8439920D41E15A27AEA46218CE885DDD4088068D47DCD8C6834775AC0EA9E745D8FEEEBBD57EADAB7217CED3B1A595439C4A19066ADA02510280A7146A33E8BC3A08D653A743D4E45F79D43AAD9A7EA05408534BDAA59241D2553CD92808B46A6C79EF584C166420A163533771BF2F62A58B57F726285949BDB0D5FD7B9
310
BA456DCD3C4C168D2EEA9ACB56883E2905825A4BD94CDB024C5D9E9E5821C58981E6F88396F9AA3906EAF2F4C4D1B82806DD2D6AAE9D7D70791A00B53A56A22F42B37A0EAAF374ECE40AA10BD752396F4E11B8A0273C2F739EDBFC9CE80D48ED746500EA01B591F6361FFCBE2AFAF90A89899A78A2F6A5904EE184A62663E8
310
DAC7530DC6CE7CB01432AEE13388C6A4C6FF6F17A9432BE49207DD391FBD356A345EF2C8B861CFB08A953A4C0E39C530ECD15B9843DABEEC5680EBE70482428EEA76D803E54255F468A9C78A46EC43901AC732488D392416EA680C730852630E416AEC43489E1F76877C7738882F873C16EADD5F1BF191FD23AF9B9DC4DEF7
310
B0D6BB5CBF164E21F9364BB3F43E5D8BCF8FE98E80A7569787EC63BABE7B7FB74ED32CFB92C7419D6F859BDFCFE7CFF3DFC48B4712874284AF6FE7CFD2E6B7E9E6417C63E6DDEA7FFEAC371F8BC6FC31FDF0FCFCF42CC9AF0B5D07A0AEF6EC78A326DB6C2690E7BFC84BF61026F535D4DE14B29C3FCD67BFCEA8A0BEDB11F0
310
D4EAF2259BCDAF6F96371FAEE7B7D943586A7F39E4315D2F6FEF6E6EEEFE1439A477BEEE95662EA656BF5BFF118742B66B419BDD5C8B32B356BE0E48DDEBDDE55D7371E4906D76FF6D7DFFFB52D4C6FBD0BE9ECDFABC5B07EEA016F95A94F36CB9CC84B343FBFA7CEAAE3EE431153E5EFEF1DF72FD6D9D6D43E7907EF9BAA4
310
76EA9A94F9FA5E28FBE65A4A64B3CD0151EF1B85B4A8779F3752234225E9E6537EB27BEA0CFB63BF72510ED175DD1ECBE4BBEDDFDF3F7DFFFCEF43392800486D45637EC8C5604698BCCA9B38A8AF7E5EFD2CECE5AB7C719587A4EEDBC29EAA32F9E1457C1C5EAEBE16AF5E1C23C7B37BE6E1D4D3CF2CE8E73C3C51338705A4
310
F634967152EF2F1176E77B5DBE3EF9F7CD3B3B1A91BA17B55EF2AAFAA7BFE8A0DEC3A6B6FFDA6B89469C53C5158E53D431AEDC4566488DD4488DD46F93FA477426A92334FE3F6C9C198175E511190000000049454E44AE426082426082
  0
ACDSRECORD
 90
        0
  2
AcDbDs::ID
280
    10
320
22
  2
Thumbnail_Data
280
    15
 94
     3695
310
89504E470D0A1A0A0000000D49484452000001000000007508030000009634CF9200000300504C5445FFFFFF000000C8C8C80000000000000000000000000000000000000000000000000000330000660000990000CC0000FF0033000033330033660033990033CC0033FF0066000066330066660066990066CC0066FF0099
310
000099330099660099990099CC0099FF00CC0000CC3300CC6600CC9900CCCC00CCFF00FF0000FF3300FF6600FF9900FFCC00FFFF3300003300333300663300993300CC3300FF3333003333333333663333993333CC3333FF3366003366333366663366993366CC3366FF3399003399333399663399993399CC3399FF33CC00
310
33CC3333CC6633CC9933CCCC33CCFF33FF0033FF3333FF6633FF9933FFCC33FFFF6600006600336600666600996600CC6600FF6633006633336633666633996633CC6633FF6666006666336666666666996666CC6666FF6699006699336699666699996699CC6699FF66CC0066CC3366CC6666CC9966CCCC66CCFF66FF0066
310
FF3366FF6666FF9966FFCC66FFFF9900009900339900669900999900CC9900FF9933009933339933669933999933CC9933FF9966009966339966669966999966CC9966FF9999009999339999669999999999CC9999FF99CC0099CC3399CC6699CC9999CCCC99CCFF99FF0099FF3399FF6699FF9999FFCC99FFFFCC0000CC00
310
33CC0066CC0099CC00CCCC00FFCC3300CC3333CC3366CC3399CC33CCCC33FFCC6600CC6633CC6666CC6699CC66CCCC66FFCC9900CC9933CC9966CC9999CC99CCCC99FFCCCC00CCCC33CCCC66CCCC99CCCCCCCCCCFFCCFF00CCFF33CCFF66CCFF99CCFFCCCCFFFFFF0000FF0033FF0066FF0099FF00CCFF00FFFF3300FF3333
310
FF3366FF3399FF33CCFF33FFFF6600FF6633FF6666FF6699FF66CCFF66FFFF9900FF9933FF9966FF9999FF99CCFF99FFFFCC00FFCC33FFCC66FFCC99FFCCCCFFCCFFFFFF00FFFF33FFFF66FFFF99FFFFCCFFFFFF0000000D0D0D1A1A1A2828283535354343435050505D5D5D6B6B6B787878868686939393A1A1A1AEAEAEBB
310
BBBBC9C9C9D6D6D6E4E4E4F1F1F1FFFFFF000000000000000000000000000000000000000000000000000000000000B0E2D235000001864944415478DAEDDDCD8DC3201086619A70339447615B0C680E4814B1C3103BBE66B551627FEFC8213F072B3CFE00934B52A2DE523FFF5F1703B8C019010000000000000000000000
310
0000000000000000000000000000000000000078E7D7AD7ED4BABF3C3D1DCFF706F0BED793C57A5FA7495DAD4002EA2901471ED68722007BDA4F0075CF465599031E575D7008B00C02000000000000000000000000000000A00850BCCC8A155D80942C0E000000000045005B4502009005E8431BA0F72E3D07B019F26A4D19
310
C0E32F0D60E67380F210309F054BCA5917C0D780ED2FB783F75906BDE3C3462C86C27B01EF7F970518DBB03E46971D02DBBCFC7143289A80D9FDD9EA0278FC8797EC1098F11706B048BF3680C530C85913C0C7C08841903513907AAC80731A1405287D953440DC095A9204C8B10F88ADA068026CAF177F19BE1F8089027CCF
310
193F03D05A9B8FA3954CC0EAB934C0B3650E000000000000000000000000000000000000000000000000000000000000000000000000E0C200EAFF387999FA0576686AC165D4755C0000000049454E44AE426082CF510000000000000000000000000000000077F409332C8DDB2F72862D0000000049454E44AE426082BAE2
310
2F006212C01DEBDD5B003F0EE6025873DAB7418083DD7B07A0B5E34ECDEB00BB6FA512F848F87B1C000000300FF00559576BED27DDECC10000000049454E44AE42608244AE426082FE432853001CCC80715BE1BAD64AD575AD0CB57DE86904FCD77B052D01FAE76BC36EB7FB56DBEDEB9DF64A00510DBABE33C37E7F9A55C0
310
1901D3B16DE3CA2DB16D2FA4FAFB6BC0770167A65F798AF68986BEBFEA8680FDF493EEA6EA790101372BA0D3EEF708B8A955C0D51F462000027C15E0FB3F4589EF19000110E0B1808F0D01000000000000000000000000000000000000000000805BE637198C5EF717517D810000000049454E44AE42608280000420000108
310
400002108000042000010840000210800004200001084000021080000420C01F03B83D13C77EEBE478CF7758180C0663E6F80650DD99FFE992B15F0000000049454E44AE426082F9A703B0F539C96DEEAD49E90F0078B83BE310F8E2C301000000000000000000000000000000000000000000000000000000000000000000
310
0000000000000000000000EC00B87CCBD4FEF0073EC07EB67F339B0B9C8253D1650000000049454E44AE4260825DA904610A406125C84B21BEE5674460B45FA8B4124CEB21CC07BD02E25EB2EA4AB0E4FA0A408C01A927A2BA126CD2019CB3404905E2D3E054013B1B9D1EC8E5510B80FC41BA02EC1400CFFAEEF2A9017C75
310
3A41C61FAC26B72BECA73E9000E47E8073ED5E39F0E7298807F04901C65727E760F0F0907E0083E766E343C4825D20CD9E9F77BCE791BF7E8A16F6C3EE121560F073923C2960FA2E2BA0D34D5523D091A2FDF06201ECFBF11D26FBA3B4E0C31B70FF17C8FCFC806F0460A40368353C0670D6B97800571B9FD7EF3FE6F9AF0B
310
FC0880C77EC1EF7581BBF62A40340059F60400FC4F44FEE19BBF2403C87FFE57639FE0DCFD6E110046F66F3FF02AE00D822F8017C00BE005F002F8BFF61704DAC6EF5724558A0000000049454E44AE426082C8AAF0763E298820C7663700D04C03D4FC80735FA05203EE9A2ABB39F5F96DCB2D5E6E05676C7E2FE07218BBF7
310
EDF29BAB89C5001873BE66ACD21B07E0EAE1C9C66EB381EDFC670BCFDAC0CFA85243C9144C6D6E2180651400E9C09D06A015610E00500A002C00E806C008E4FB40EE04CC59AD86AAAF60B2C6FBA524FB743DDF850F881FF7FDE7ADB94F4B008D863E1540241EC7EE8A184E0F0D067E009E0100CA01C01500A0863E1340C92B
310
45D3D91F99EE5D0FFB9C606F00BDA5ED57F80522211827B80DDECA0000000049454E44AE426082BB01740544660760FCBF641204F87700C0D7DAB6005C7D81C22200C0BD3CA7AE021F0080E4A536130348B7704E00A39DA156D1E1B05768AC2701312476F6454A649DE08A2A60105C7993D44F0008F9A4514552F301D099E3
310
CE3E3A12B76EA80ACA44E3B400CEF4D1485BEE01C4EAF3B925E0B88F0EA9DF255C55566CB0B804F4BC5011CBC7CC3309F8170030D7093707402A01B82480BE576A628983CE50321F3912B09004F4BC51128B579152550B6C4D00529E0580648F086C5509A0B71A1250E9F105301AC0206F7048C34E37F103007FDCC3FAA6A4
310
AE078B0000000049454E44AE42608204941542EAC209430780AEF77B8680DAD3C0507344BB466D262A4CCA021BB70EE846815C1B9CAC92484AFF9C8B003ED011B3A9D6CDDD50D7E4C190005D17BC0E005D16888E22B1871671E800CDB6BB5D2F785E882708B85750368BA5191C71352A2BA67049FA0000FAB20027008EDA08
310
0008180D409F754433BC104C7F621270134930E6101D6EC758BED60A6975C5A4C2B90A0ED1959EDB0E00A61DE00400B80000C400C05A286842308BE19CCFFB455EC8A5C3106735FD2A96FFE0328DEFC040E65B476E0F315E0815B880E829AD28FD5ABECF80A1F82DBD41BD8DD675F6C21EBBBAA614F4F34FCF1A80935E1275
310
333A5D6FF08DD79D37127D22EE8E7ED08900439BED804D01685B6B1FB285B657340F7557213D5BEE0F694D5F525A3D57E97A79A0751A33539766CFECF5324BEBFA99EE960FEC9A2CC6AC04159B099FAB6C9DEE6B5AEF5F689D71C7A8DECFCE15813B0C331AC3EC809ED123E33D0D1902BB1AC119C5CB18A60794E1F819ED2B
310
1CEF43E605CF50552176C9F2AF254DFF8999E3C459CF025C9F290007841EEF9E16688D0EA8AAF9D6485AA3E714B1771C3F2D7E5DA33D7AA9B3431ADED214D754007088539AA22AC6E88555D8E0C018CDCE7408EC43CC3989432601B734C6AC976BBC7C62ADB7AC35669CAD517558C47B54D3FDAF35034C48C0336552811ED0
310
7A875ED8B8408F283E4F002A8C1EB9D0578B3243EB94F57D384BD13AC40C8987E513668E316BCFF043865919735EF769B8BB7ACCB87CC4E8F7AC5C1E6629C3EBE13C017889774CEDEDD7777B3CC321DED7B74FE8AF347BBCAD9FD2789DC6748FAB678CE3B4CA30C64CDF89ADC535E318EFE27D7DC0192E99EE48EBDD990240
310
9985CBCCDD9A1FD4DCDCE5355ACB56B14D9C9F1267EAFF522A8D63791270C7885D7B5B89CFDF9DB931D8CEEDC614AFB5A82683D60ACED80E705876FAAD13342351BBB98276AF057AEE026094BA102807C6ED34462C98FC7E1D3EB79F437B7C0487DFDC77A7156B47F0AB3C653BC0A3EFC5B5A2BA66B448CD143976D41AFB45
310
9C6E2FEDF301E98083A40504FF3600665247E5436D546269C48A871959203BDCFA77C6C8E87087B22FD28C902B617F235EA886818D78B002801AD8B382A4A67810935D2700F46B7BFE6AC49B102D26AC258AD4CDE34AB0FE9500001300F25A00BE3AA9390F7DA7AF9D1830729A7A8FAAC3C14A0D28170824558D01AC2C90AE
310
03DE1F004D02ACF100D4CDE4C61820BADEB325A00540BF400F995B5920A0EBCDF707801812E0CC87EA89E216002BA4EF02C0BCC04C2E10F744F04100000D008D7332080018004047A8CBA4E8B24F9CEB2188352EDE090060A581ECE502B698D8635F5F57001CB960473E99987FC3D44D1F80C177651692D18DD304E07BE2FF
310
FB770C3C79F2E4C993274F9E3CFD185496EAD33EEC39EB6A608507C003E001F00078003C001E806F1C1E3277A39DFCAAF702C0B92FD2FE0DF6CD808DDD81F67D740778EFCD499B49D2A6E5FD0050F634EA777DD792D456F2B60DE8133BCB37B2F3ED9BD85BF76AEDBEE81D01B0DFEDBC90BEE753DFD661EEF41C07808E77C7
310
AD9A84001F0680DE032600E66DBF4D9937DAC06B2440DDA0637FD5C70040D4DB4B771DA3E5CD88EB6775BFEEAD00909EAFFA1000ACBD8244BFCDAC769B55D0A3F4AC8D52AF04C0DABC65FD57076F0778003C001E000F8007C003F02303F00FE5691FF69C7535B0E2FCC8E7053C79F2E4C993A71F97FE0FDD7D5BAF806EF9BC
310
0000000049454E44AE426082
  0
ACDSRECORD
 90
        0
  2
AcDbDs::ID
280
    10
320
D7
  2
Thumbnail_Data
280
    15
 94
     1439
310
89504E470D0A1A0A0000000D4948445200000100000000B408030000004C80028300000300504C5445FFFFFF000000C8C8C80000000000000000000000000000000000000000000000000000330000660000990000CC0000FF0033000033330033660033990033CC0033FF0066000066330066660066990066CC0066FF0099
310
000099330099660099990099CC0099FF00CC0000CC3300CC6600CC9900CCCC00CCFF00FF0000FF3300FF6600FF9900FFCC00FFFF3300003300333300663300993300CC3300FF3333003333333333663333993333CC3333FF3366003366333366663366993366CC3366FF3399003399333399663399993399CC3399FF33CC00
310
33CC3333CC6633CC9933CCCC33CCFF33FF0033FF3333FF6633FF9933FFCC33FFFF6600006600336600666600996600CC6600FF6633006633336633666633996633CC6633FF6666006666336666666666996666CC6666FF6699006699336699666699996699CC6699FF66CC0066CC3366CC6666CC9966CCCC66CCFF66FF0066
310
FF3366FF6666FF9966FFCC66FFFF9900009900339900669900999900CC9900FF9933009933339933669933999933CC9933FF9966009966339966669966999966CC9966FF9999009999339999669999999999CC9999FF99CC0099CC3399CC6699CC9999CCCC99CCFF99FF0099FF3399FF6699FF9999FFCC99FFFFCC0000CC00
310
33CC0066CC0099CC00CCCC00FFCC3300CC3333CC3366CC3399CC33CCCC33FFCC6600CC6633CC6666CC6699CC66CCCC66FFCC9900CC9933CC9966CC9999CC99CCCC99FFCCCC00CCCC33CCCC66CCCC99CCCCCCCCCCFFCCFF00CCFF33CCFF66CCFF99CCFFCCCCFFFFFF0000FF0033FF0066FF0099FF00CCFF00FFFF3300FF3333
310
FF3366FF3399FF33CCFF33FFFF6600FF6633FF6666FF6699FF66CCFF66FFFF9900FF9933FF9966FF9999FF99CCFF99FFFFCC00FFCC33FFCC66FFCC99FFCCCCFFCCFFFFFF00FFFF33FFFF66FFFF99FFFFCCFFFFFF0000000D0D0D1A1A1A2828283535354343435050505D5D5D6B6B6B787878868686939393A1A1A1AEAEAEBB
310
BBBBC9C9C9D6D6D6E4E4E4F1F1F1FFFFFF000000000000000000000000000000000000000000000000000000000000B0E2D2350000025A4944415478DAEDDD3192DA30140050DD80C3D1E4302953ED115CB117A1DA53A44A641AA7867E1708C9829191D79891F1FBCC52C86BA3797CA12F3183430C738EF83B009837400400
310
0040ABED18AD865B076E9E10C73A21BFAB5900CFFC86030000000000000A2100000000000000401F8038B518B0219257434DADE61B5A0A0300000000000000000000305780DC85C7D88B9A418BA19132208E982A5FDDB507F07580F0C40043364416E9B80058DC310A02481F6A01DCEFFD0700000000008F06884F0C100100
310
000000000000000000000000000000364400000000000000000A2100000000000000000000000000003077001B220000000000000080D90228850100000000000000000000000000C00C016C8800000000000000F30550090200000000000000000000F0B9F5297E58590600780CC0EE14B30508EBD5C763BB0B036F0937D5
310
EF0576DBD57AF37D551EC0901DA1A6599E476706ACEA4DBDD9EE9619D134AD4B2F0B05E83104FEBCD475FD2BEB33E000308D0C68BFC6218BAF67C0B7B7AA7B087401EC0FEFFF0A03B8E87C174055FDA8DE7A00B4DAE3E151F667403C76F37A06AC5F5EF7B340EE10485CBB2C80D06308FCAC3EE6C1709E0117397E6ADD0384
310
490C81D4B4D555086502A4A6C492BE17689273781BA03945DE006892D72EA912BCD2C9BF5DED0248953DFFDA5200C7E7A2009AD83AF56E00FFAFF9F91FAC066D882CDC6CAD1C8062EE375860063C340000000000000000230284FE85508971EF0D91270D00000000000000409935DF23CA48000000000000E0FACA3FB91590
310
3A70F38438D609F95D5508010000000080738099C73B55D119216D027E380000000049454E44AE426082
  0
ENDSEC
  0
EOF
