  0
SECTION
  2
HEADER
  9
$ACADVER
  1
AC1027
  9
$ACADMAINTVER
 70
    83
  9
$DWGCODEPAGE
  3
ANSI_1252
  9
$LASTSAVEDBY
  1
usuario
  9
$REQUIREDVERSIONS
160
                 0
  9
$INSBASE
 10
0.0
 20
0.0
 30
0.0
  9
$EXTMIN
 10
2968.962549757812
 20
847.9093292968554
 30
0.0
  9
$EXTMAX
 10
3021.530376302274
 20
914.832605090417
 30
0.0
  9
$LIMMIN
 10
0.0
 20
0.0
  9
$LIMMAX
 10
420.0
 20
297.0
  9
$ORTHOMODE
 70
     1
  9
$REGENMODE
 70
     1
  9
$FILLMODE
 70
     1
  9
$QTEXTMODE
 70
     0
  9
$MIRRTEXT
 70
     0
  9
$LTSCALE
 40
1.0
  9
$ATTMODE
 70
     1
  9
$TEXTSIZE
 40
2.5
  9
$TRACEWID
 40
1.0
  9
$TEXTSTYLE
  7
Standard
  9
$CLAYER
  8
-
  9
$CELTYPE
  6
ByLayer
  9
$CECOLOR
 62
   256
  9
$CELTSCALE
 40
1.0
  9
$DISPSILH
 70
     0
  9
$DIMSCALE
 40
1.0
  9
$DIMASZ
 40
0.1
  9
$DIMEXO
 40
0.1
  9
$DIMDLI
 40
3.75
  9
$DIMRND
 40
0.0
  9
$DIMDLE
 40
0.0
  9
$DIMEXE
 40
0.1
  9
$DIMTP
 40
0.0
  9
$DIMTM
 40
0.0
  9
$DIMTXT
 40
0.15
  9
$DIMCEN
 40
2.5
  9
$DIMTSZ
 40
0.0
  9
$DIMTOL
 70
     0
  9
$DIMLIM
 70
     0
  9
$DIMTIH
 70
     0
  9
$DIMTOH
 70
     0
  9
$DIMSE1
 70
     0
  9
$DIMSE2
 70
     0
  9
$DIMTAD
 70
     1
  9
$DIMZIN
 70
     1
  9
$DIMBLK
  1
ArchTick
  9
$DIMASO
 70
     1
  9
$DIMSHO
 70
     1
  9
$DIMPOST
  1

  9
$DIMAPOST
  1

  9
$DIMALT
 70
     0
  9
$DIMALTD
 70
     3
  9
$DIMALTF
 40
0.03937007874016
  9
$DIMLFAC
 40
1.0
  9
$DIMTOFL
 70
     1
  9
$DIMTVP
 40
0.0
  9
$DIMTIX
 70
     0
  9
$DIMSOXD
 70
     0
  9
$DIMSAH
 70
     0
  9
$DIMBLK1
  1

  9
$DIMBLK2
  1

  9
$DIMSTYLE
  2
Guztion
  9
$DIMCLRD
 70
   256
  9
$DIMCLRE
 70
   256
  9
$DIMCLRT
 70
   256
  9
$DIMTFAC
 40
1.0
  9
$DIMGAP
 40
0.05
  9
$DIMJUST
 70
     0
  9
$DIMSD1
 70
     0
  9
$DIMSD2
 70
     0
  9
$DIMTOLJ
 70
     0
  9
$DIMTZIN
 70
     8
  9
$DIMALTZ
 70
     0
  9
$DIMALTTZ
 70
     0
  9
$DIMUPT
 70
     0
  9
$DIMDEC
 70
     2
  9
$DIMTDEC
 70
     2
  9
$DIMALTU
 70
     2
  9
$DIMALTTD
 70
     3
  9
$DIMTXSTY
  7
Standard
  9
$DIMAUNIT
 70
     0
  9
$DIMADEC
 70
     0
  9
$DIMALTRND
 40
0.0
  9
$DIMAZIN
 70
     0
  9
$DIMDSEP
 70
    46
  9
$DIMATFIT
 70
     3
  9
$DIMFRAC
 70
     0
  9
$DIMLDRBLK
  1

  9
$DIMLUNIT
 70
     2
  9
$DIMLWD
 70
    -2
  9
$DIMLWE
 70
    -2
  9
$DIMTMOVE
 70
     0
  9
$DIMFXL
 40
1.0
  9
$DIMFXLON
 70
     0
  9
$DIMJOGANG
 40
0.7853981633974483
  9
$DIMTFILL
 70
     0
  9
$DIMTFILLCLR
 70
     0
  9
$DIMARCSYM
 70
     0
  9
$DIMLTYPE
  6

  9
$DIMLTEX1
  6

  9
$DIMLTEX2
  6

  9
$DIMTXTDIRECTION
 70
     0
  9
$LUNITS
 70
     2
  9
$LUPREC
 70
     4
  9
$SKETCHINC
 40
1.0
  9
$FILLETRAD
 40
0.0
  9
$AUNITS
 70
     0
  9
$AUPREC
 70
     0
  9
$MENU
  1
.
  9
$ELEVATION
 40
0.0
  9
$PELEVATION
 40
0.0
  9
$THICKNESS
 40
0.0
  9
$LIMCHECK
 70
     0
  9
$CHAMFERA
 40
0.0
  9
$CHAMFERB
 40
0.0
  9
$CHAMFERC
 40
0.0
  9
$CHAMFERD
 40
0.0
  9
$SKPOLY
 70
     0
  9
$TDCREATE
 40
2458543.388716400
  9
$TDUCREATE
 40
2458543.305383067
  9
$TDUPDATE
 40
2458624.823380613
  9
$TDUUPDATE
 40
2458624.740047280
  9
$TDINDWG
 40
2.8253245718
  9
$TDUSRTIMER
 40
2.8253222222
  9
$USRTIMER
 70
     1
  9
$ANGBASE
 50
0.0
  9
$ANGDIR
 70
     0
  9
$PDMODE
 70
     0
  9
$PDSIZE
 40
0.0
  9
$PLINEWID
 40
0.0
  9
$SPLFRAME
 70
     0
  9
$SPLINETYPE
 70
     6
  9
$SPLINESEGS
 70
     8
  9
$HANDSEED
  5
9A45
  9
$SURFTAB1
 70
     6
  9
$SURFTAB2
 70
     6
  9
$SURFTYPE
 70
     6
  9
$SURFU
 70
     6
  9
$SURFV
 70
     6
  9
$UCSBASE
  2

  9
$UCSNAME
  2

  9
$UCSORG
 10
0.0
 20
0.0
 30
0.0
  9
$UCSXDIR
 10
1.0
 20
0.0
 30
0.0
  9
$UCSYDIR
 10
0.0
 20
1.0
 30
0.0
  9
$UCSORTHOREF
  2

  9
$UCSORTHOVIEW
 70
     0
  9
$UCSORGTOP
 10
0.0
 20
0.0
 30
0.0
  9
$UCSORGBOTTOM
 10
0.0
 20
0.0
 30
0.0
  9
$UCSORGLEFT
 10
0.0
 20
0.0
 30
0.0
  9
$UCSORGRIGHT
 10
0.0
 20
0.0
 30
0.0
  9
$UCSORGFRONT
 10
0.0
 20
0.0
 30
0.0
  9
$UCSORGBACK
 10
0.0
 20
0.0
 30
0.0
  9
$PUCSBASE
  2

  9
$PUCSNAME
  2

  9
$PUCSORG
 10
0.0
 20
0.0
 30
0.0
  9
$PUCSXDIR
 10
1.0
 20
0.0
 30
0.0
  9
$PUCSYDIR
 10
0.0
 20
1.0
 30
0.0
  9
$PUCSORTHOREF
  2

  9
$PUCSORTHOVIEW
 70
     0
  9
$PUCSORGTOP
 10
0.0
 20
0.0
 30
0.0
  9
$PUCSORGBOTTOM
 10
0.0
 20
0.0
 30
0.0
  9
$PUCSORGLEFT
 10
0.0
 20
0.0
 30
0.0
  9
$PUCSORGRIGHT
 10
0.0
 20
0.0
 30
0.0
  9
$PUCSORGFRONT
 10
0.0
 20
0.0
 30
0.0
  9
$PUCSORGBACK
 10
0.0
 20
0.0
 30
0.0
  9
$USERI1
 70
     0
  9
$USERI2
 70
     0
  9
$USERI3
 70
     0
  9
$USERI4
 70
     0
  9
$USERI5
 70
     0
  9
$USERR1
 40
0.0
  9
$USERR2
 40
0.0
  9
$USERR3
 40
0.0
  9
$USERR4
 40
0.0
  9
$USERR5
 40
0.0
  9
$WORLDVIEW
 70
     1
  9
$SHADEDGE
 70
     3
  9
$SHADEDIF
 70
    70
  9
$TILEMODE
 70
     0
  9
$MAXACTVP
 70
    64
  9
$PINSBASE
 10
0.0
 20
0.0
 30
0.0
  9
$PLIMCHECK
 70
     0
  9
$PEXTMIN
 10
-0.0018762920232689
 20
0.2812602170592981
 30
0.0
  9
$PEXTMAX
 10
231.3
 20
175.5
 30
0.0
  9
$PLIMMIN
 10
-0.0018762920232689
 20
0.2812602170592981
  9
$PLIMMAX
 10
0.2081237079767311
 20
0.5782602170592981
  9
$UNITMODE
 70
     0
  9
$VISRETAIN
 70
     1
  9
$PLINEGEN
 70
     0
  9
$PSLTSCALE
 70
     1
  9
$TREEDEPTH
 70
  3020
  9
$CMLSTYLE
  2
Standard
  9
$CMLJUST
 70
     0
  9
$CMLSCALE
 40
20.0
  9
$PROXYGRAPHICS
 70
     1
  9
$MEASUREMENT
 70
     1
  9
$CELWEIGHT
370
    -1
  9
$ENDCAPS
280
     0
  9
$JOINSTYLE
280
     0
  9
$LWDISPLAY
290
     0
  9
$INSUNITS
 70
     4
  9
$HYPERLINKBASE
  1

  9
$STYLESHEET
  1
Guztion_Planoak_pdf.ctb
  9
$XEDIT
290
     1
  9
$CEPSNTYPE
380
     0
  9
$PSTYLEMODE
290
     1
  9
$FINGERPRINTGUID
  2
{454E2246-75CB-45FB-A2E0-00429C7F3A53}
  9
$VERSIONGUID
  2
{11371132-7DBF-49F8-A0DE-60BE3AE1BD00}
  9
$EXTNAMES
290
     1
  9
$PSVPSCALE
 40
0.0
  9
$OLESTARTUP
290
     0
  9
$SORTENTS
280
   127
  9
$INDEXCTL
280
     0
  9
$HIDETEXT
280
     1
  9
$XCLIPFRAME
280
     2
  9
$HALOGAP
280
     0
  9
$OBSCOLOR
 70
   257
  9
$OBSLTYPE
280
     0
  9
$INTERSECTIONDISPLAY
280
     0
  9
$INTERSECTIONCOLOR
 70
   257
  9
$DIMASSOC
280
     2
  9
$PROJECTNAME
  1

  9
$CAMERADISPLAY
290
     0
  9
$LENSLENGTH
 40
50.0
  9
$CAMERAHEIGHT
 40
0.0
  9
$STEPSPERSEC
 40
2.0
  9
$STEPSIZE
 40
6.0
  9
$3DDWFPREC
 40
2.0
  9
$PSOLWIDTH
 40
5.0
  9
$PSOLHEIGHT
 40
80.0
  9
$LOFTANG1
 40
1.570796326794896
  9
$LOFTANG2
 40
1.570796326794896
  9
$LOFTMAG1
 40
0.0
  9
$LOFTMAG2
 40
0.0
  9
$LOFTPARAM
 70
     7
  9
$LOFTNORMALS
280
     1
  9
$LATITUDE
 40
37.795
  9
$LONGITUDE
 40
-122.394
  9
$NORTHDIRECTION
 40
0.0
  9
$TIMEZONE
 70
 -8000
  9
$LIGHTGLYPHDISPLAY
280
     1
  9
$TILEMODELIGHTSYNCH
280
     1
  9
$CMATERIAL
347
EC
  9
$SOLIDHIST
280
     0
  9
$SHOWHIST
280
     1
  9
$DWFFRAME
280
     2
  9
$DGNFRAME
280
     0
  9
$REALWORLDSCALE
290
     1
  9
$INTERFERECOLOR
 62
     1
  9
$INTERFEREOBJVS
345
F9
  9
$INTERFEREVPVS
346
F6
  9
$CSHADOW
280
     0
  9
$SHADOWPLANELOCATION
 40
0.0
  0
ENDSEC
  0
SECTION
  2
CLASSES
  0
CLASS
  1
ACDBDICTIONARYWDFLT
  2
AcDbDictionaryWithDefault
  3
ObjectDBX Classes
 90
        0
 91
        1
280
     0
281
     0
  0
CLASS
  1
DICTIONARYVAR
  2
AcDbDictionaryVar
  3
ObjectDBX Classes
 90
        0
 91
        9
280
     0
281
     0
  0
CLASS
  1
TABLESTYLE
  2
AcDbTableStyle
  3
ObjectDBX Classes
 90
     4095
 91
        1
280
     0
281
     0
  0
CLASS
  1
MATERIAL
  2
AcDbMaterial
  3
ObjectDBX Classes
 90
     1153
 91
        3
280
     0
281
     0
  0
CLASS
  1
VISUALSTYLE
  2
AcDbVisualStyle
  3
ObjectDBX Classes
 90
     4095
 91
       24
280
     0
281
     0
  0
CLASS
  1
SCALE
  2
AcDbScale
  3
ObjectDBX Classes
 90
     1153
 91
       18
280
     0
281
     0
  0
CLASS
  1
MLEADERSTYLE
  2
AcDbMLeaderStyle
  3
ACDB_MLEADERSTYLE_CLASS
 90
     4095
 91
        2
280
     0
281
     0
  0
CLASS
  1
CELLSTYLEMAP
  2
AcDbCellStyleMap
  3
ObjectDBX Classes
 90
     1152
 91
        1
280
     0
281
     0
  0
CLASS
  1
EXACXREFPANELOBJECT
  2
ExAcXREFPanelObject
  3
EXAC_ESW
 90
     1025
 91
        0
280
     0
281
     0
  0
CLASS
  1
NPOCOLLECTION
  2
AcDbImpNonPersistentObjectsCollection
  3
ObjectDBX Classes
 90
     1153
 91
        0
280
     0
281
     0
  0
CLASS
  1
LAYER_INDEX
  2
AcDbLayerIndex
  3
ObjectDBX Classes
 90
        0
 91
        0
280
     0
281
     0
  0
CLASS
  1
SPATIAL_INDEX
  2
AcDbSpatialIndex
  3
ObjectDBX Classes
 90
        0
 91
        0
280
     0
281
     0
  0
CLASS
  1
IDBUFFER
  2
AcDbIdBuffer
  3
ObjectDBX Classes
 90
        0
 91
        0
280
     0
281
     0
  0
CLASS
  1
ACDBSECTIONVIEWSTYLE
  2
AcDbSectionViewStyle
  3
ObjectDBX Classes
 90
     1025
 91
        2
280
     0
281
     0
  0
CLASS
  1
ACDBDETAILVIEWSTYLE
  2
AcDbDetailViewStyle
  3
ObjectDBX Classes
 90
     1025
 91
        2
280
     0
281
     0
  0
CLASS
  1
SORTENTSTABLE
  2
AcDbSortentsTable
  3
ObjectDBX Classes
 90
        0
 91
        3
280
     0
281
     0
  0
CLASS
  1
RASTERVARIABLES
  2
AcDbRasterVariables
  3
ISM
 90
        0
 91
        1
280
     0
281
     0
  0
CLASS
  1
IMAGEDEF
  2
AcDbRasterImageDef
  3
ISM
 90
        0
 91
        7
280
     0
281
     0
  0
CLASS
  1
IMAGEDEF_REACTOR
  2
AcDbRasterImageDefReactor
  3
ISM
 90
        1
 91
        3
280
     0
281
     0
  0
CLASS
  1
IMAGE
  2
AcDbRasterImage
  3
ISM
 90
     2175
 91
        3
280
     0
281
     1
  0
CLASS
  1
DIMASSOC
  2
AcDbDimAssoc
  3
"AcDbDimAssoc|Product Desc:     AcDim ARX App For Dimension|Company:          Autodesk, Inc.|WEB Address:      www.autodesk.com"
 90
        0
 91
       26
280
     0
281
     0
  0
CLASS
  1
BREAKDATA
  2
AcDbBreakData
  3
ObjectDBX Classes
 90
     1024
 91
        0
280
     0
281
     0
  0
CLASS
  1
SOLID_BACKGROUND
  2
AcDbSolidBackground
  3
SCENEOE
 90
     4095
 91
        0
280
     0
281
     0
  0
ENDSEC
  0
SECTION
  2
TABLES
  0
TABLE
  2
VPORT
  5
8
330
0
100
AcDbSymbolTable
 70
     1
  0
VPORT
  5
EA
330
8
100
AcDbSymbolTableRecord
100
AcDbViewportTableRecord
  2
*Active
 70
     0
 10
0.0
 20
0.0
 11
1.0
 21
1.0
 12
375.6262222244008
 22
3.728714625197881
 13
0.0
 23
0.0
 14
10.0
 24
10.0
 15
10.0
 25
10.0
 16
0.0
 26
0.0
 36
0.6188922984979737
 17
2619.601320438711
 27
877.6296409676874
 37
0.0
 40
67.64758187212272
 41
2.182692307692307
 42
50.0
 43
0.0
 44
0.0
 50
0.0
 51
0.0
 71
     0
 72
  1000
 73
     1
 74
     3
 75
     0
 76
     0
 77
     0
 78
     1
281
     0
 65
     1
110
0.0
120
0.0
130
0.0
111
1.0
121
0.0
131
0.0
112
0.0
122
1.0
132
0.0
 79
     0
146
0.0
348
F5
 60
     3
 61
     5
292
     1
282
     1
141
0.0
142
0.0
 63
   250
421
  3355443
1001
ACAD_NAV_VCDISPLAY
1070
     3
  0
ENDTAB
  0
TABLE
  2
LTYPE
  5
5
330
0
100
AcDbSymbolTable
 70
     4
  0
LTYPE
  5
14
330
5
100
AcDbSymbolTableRecord
100
AcDbLinetypeTableRecord
  2
ByBlock
 70
     0
  3

 72
    65
 73
     0
 40
0.0
  0
LTYPE
  5
15
330
5
100
AcDbSymbolTableRecord
100
AcDbLinetypeTableRecord
  2
ByLayer
 70
     0
  3

 72
    65
 73
     0
 40
0.0
  0
LTYPE
  5
16
330
5
100
AcDbSymbolTableRecord
100
AcDbLinetypeTableRecord
  2
Continuous
 70
     0
  3
Solid line
 72
    65
 73
     0
 40
0.0
  0
LTYPE
  5
3B76
330
5
100
AcDbSymbolTableRecord
100
AcDbLinetypeTableRecord
  2
ACAD_ISO02W100
 70
     0
  3
 ISO trazo __ __ __ __ __ __ __ __ __ __ __ __ 
 72
    65
 73
     2
 40
15.0
 49
12.0
 74
     0
 49
-3.0
 74
     0
  0
LTYPE
  5
3B7A
330
5
100
AcDbSymbolTableRecord
100
AcDbLinetypeTableRecord
  2
ACAD_ISO04W100
 70
     0
  3
 ISO trazo largo, punto ____ . ____ . ____ . __
 72
    65
 73
     4
 40
30.0
 49
24.0
 74
     0
 49
-3.0
 74
     0
 49
0.0
 74
     0
 49
-3.0
 74
     0
  0
LTYPE
  5
9168
330
5
100
AcDbSymbolTableRecord
100
AcDbLinetypeTableRecord
  2
DISCONT
 70
     0
  3
- - - - - - -
 72
    65
 73
     2
 40
2.0
 49
1.0
 74
     0
 49
-1.0
 74
     0
  0
ENDTAB
  0
TABLE
  2
LAYER
  5
2
102
{ACAD_XDICTIONARY
360
1FF
102
}
330
0
100
AcDbSymbolTable
 70
    30
  0
LAYER
  5
10
102
{ACAD_XDICTIONARY
360
13C
102
}
330
2
100
AcDbSymbolTableRecord
100
AcDbLayerTableRecord
  2
0
 70
     0
 62
     7
  6
Continuous
370
    -3
390
F
347
EE
348
0
  0
LAYER
  5
485
330
2
100
AcDbSymbolTableRecord
100
AcDbLayerTableRecord
  2
1.7. Ventanas Gráficas
 70
     0
 62
     5
  6
Continuous
290
     0
370
    -3
390
F
347
EE
348
0
1001
AcAecLayerStandard
1000

1000

1001
AcCmTransparency
1071
        0
  0
LAYER
  5
659
330
2
100
AcDbSymbolTableRecord
100
AcDbLayerTableRecord
  2
1.5. Marra1
 70
     0
 62
   248
  6
Continuous
370
    -3
390
F
347
EE
348
0
1001
AcAecLayerStandard
1000

1000

1001
AcCmTransparency
1071
        0
  0
LAYER
  5
6C6
102
{ACAD_XDICTIONARY
360
6C7
102
}
330
2
100
AcDbSymbolTableRecord
100
AcDbLayerTableRecord
  2
1.6. Marra2
 70
     0
 62
   252
  6
Continuous
370
    -3
390
F
347
EE
348
0
1001
AcAecLayerStandard
1000

1000

  0
LAYER
  5
7AC
330
2
100
AcDbSymbolTableRecord
100
AcDbLayerTableRecord
  2
1.4. Idatzia
 70
     0
 62
     7
  6
Continuous
370
    -3
390
F
347
EE
348
0
1001
AcAecLayerStandard
1000

1000

1001
AcCmTransparency
1071
        0
  0
LAYER
  5
7AD
330
2
100
AcDbSymbolTableRecord
100
AcDbLayerTableRecord
  2
1.1. Armarria
 70
     0
 62
     7
420
 16777215
  6
Continuous
370
    -3
390
F
347
EE
348
0
1001
AcAecLayerStandard
1000

1000

1001
AcCmTransparency
1071
        0
  0
LAYER
  5
7AE
330
2
100
AcDbSymbolTableRecord
100
AcDbLayerTableRecord
  2
1.3. Eskala grafikoa
 70
     0
 62
     7
  6
Continuous
370
    -3
390
F
347
EE
348
0
1001
AcAecLayerStandard
1000

1000

1001
AcCmTransparency
1071
        0
  0
LAYER
  5
FC3
330
2
100
AcDbSymbolTableRecord
100
AcDbLayerTableRecord
  2
2.1. Kanpo Horma
 70
     0
 62
    74
  6
Continuous
370
    -3
390
F
347
EE
348
0
1001
AcAecLayerStandard
1000

1000

1001
AcCmTransparency
1071
        0
  0
LAYER
  5
FC4
330
2
100
AcDbSymbolTableRecord
100
AcDbLayerTableRecord
  2
2.2. Barne Horma
 70
     0
 62
   160
  6
Continuous
370
    -3
390
F
347
EE
348
0
1001
AcAecLayerStandard
1000

1000

1001
AcCmTransparency
1071
        0
  0
LAYER
  5
FC5
330
2
100
AcDbSymbolTableRecord
100
AcDbLayerTableRecord
  2
2.3. Mehelina
 70
     0
 62
    42
  6
Continuous
370
    -3
390
F
347
EE
348
0
1001
AcAecLayerStandard
1000

1000

1001
AcCmTransparency
1071
        0
  0
LAYER
  5
FC6
330
2
100
AcDbSymbolTableRecord
100
AcDbLayerTableRecord
  2
3.1. Atea
 70
     0
 62
   251
  6
Continuous
370
    -3
390
F
347
EE
348
0
1001
AcAecLayerStandard
1000

1000

1001
AcCmTransparency
1071
        0
  0
LAYER
  5
FC7
330
2
100
AcDbSymbolTableRecord
100
AcDbLayerTableRecord
  2
3.2. Leihoa
 70
     0
 62
   251
  6
Continuous
370
    -3
390
F
347
EE
348
0
1001
AcAecLayerStandard
1000

1000

1001
AcCmTransparency
1071
        0
  0
LAYER
  5
FC8
330
2
100
AcDbSymbolTableRecord
100
AcDbLayerTableRecord
  2
2.4. Terraza horma
 70
     0
 62
     9
  6
Continuous
370
    -3
390
F
347
EE
348
0
1001
AcAecLayerStandard
1000

1000

1001
AcCmTransparency
1071
        0
  0
LAYER
  5
FC9
330
2
100
AcDbSymbolTableRecord
100
AcDbLayerTableRecord
  2
3.3. Eskudela
 70
     0
 62
   251
  6
Continuous
370
    -3
390
F
347
EE
348
0
1001
AcAecLayerStandard
1000

1000

1001
AcCmTransparency
1071
        0
  0
LAYER
  5
14FC
330
2
100
AcDbSymbolTableRecord
100
AcDbLayerTableRecord
  2
7.3. Kota
 70
     0
 62
   251
  6
Continuous
370
    -3
390
F
347
EE
348
0
1001
AcAecLayerStandard
1000

1000

1001
AcCmTransparency
1071
        0
  0
LAYER
  5
150C
330
2
100
AcDbSymbolTableRecord
100
AcDbLayerTableRecord
  2
2.5. Horma itzala
 70
     0
 62
   253
  6
Continuous
370
    -3
390
F
347
EE
348
0
1001
AcAecLayerStandard
1000

1000

1001
AcCmTransparency
1071
        0
  0
LAYER
  5
1874
330
2
100
AcDbSymbolTableRecord
100
AcDbLayerTableRecord
  2
5.1. Komuneko altzaria
 70
     0
 62
   252
  6
Continuous
370
    -3
390
F
347
EE
348
0
1001
AcAecLayerStandard
1000

1000

1001
AcCmTransparency
1071
        0
  0
LAYER
  5
194D
330
2
100
AcDbSymbolTableRecord
100
AcDbLayerTableRecord
  2
-
 70
     0
 62
     7
  6
Continuous
370
    -3
390
F
347
EE
348
0
  0
LAYER
  5
1BDA
330
2
100
AcDbSymbolTableRecord
100
AcDbLayerTableRecord
  2
Defpoints
 70
     0
 62
     7
  6
Continuous
290
     0
370
    -3
390
F
347
EE
348
0
  0
LAYER
  5
24FF
330
2
100
AcDbSymbolTableRecord
100
AcDbLayerTableRecord
  2
2.6. Zorua
 70
     0
 62
   253
  6
Continuous
370
    -3
390
F
347
EE
348
0
1001
AcAecLayerStandard
1000

1000

1001
AcCmTransparency
1071
        0
  0
LAYER
  5
253B
330
2
100
AcDbSymbolTableRecord
100
AcDbLayerTableRecord
  2
6.1. Eskailerak
 70
     0
 62
   252
  6
Continuous
370
    -3
390
F
347
EE
348
0
1001
AcAecLayerStandard
1000

1000

1001
AcCmTransparency
1071
        0
  0
LAYER
  5
3AB1
330
2
100
AcDbSymbolTableRecord
100
AcDbLayerTableRecord
  2
7.1. Azalera erabilgarria
 70
     0
 62
   -12
  6
Continuous
290
     0
370
    -3
390
F
347
EE
348
0
1001
AcAecLayerStandard
1000

1000

1001
AcCmTransparency
1071
        0
  0
LAYER
  5
3B73
330
2
100
AcDbSymbolTableRecord
100
AcDbLayerTableRecord
  2
8.1. Irisgarritasun boloa
 70
     0
 62
   252
  6
ACAD_ISO02W100
370
    -3
390
F
347
EE
348
0
1001
AcAecLayerStandard
1000

1000

1001
AcCmTransparency
1071
        0
  0
LAYER
  5
4035
330
2
100
AcDbSymbolTableRecord
100
AcDbLayerTableRecord
  2
4.1. Zeramika-baldosa
 70
     0
 62
   253
  6
Continuous
370
    -3
390
F
347
EE
348
0
1001
AcAecLayerStandard
1000

1000

1001
AcCmTransparency
1071
        0
  0
LAYER
  5
4129
330
2
100
AcDbSymbolTableRecord
100
AcDbLayerTableRecord
  2
7.2. Idatzia
 70
     0
 62
    18
420
   526344
  6
Continuous
370
    -3
390
F
347
EE
348
0
1001
AcAecLayerStandard
1000

1000

1001
AcCmTransparency
1071
        0
  0
LAYER
  5
45C5
330
2
100
AcDbSymbolTableRecord
100
AcDbLayerTableRecord
  2
4.2. Parket
 70
     0
 62
   253
  6
Continuous
370
    -3
390
F
347
EE
348
0
1001
AcAecLayerStandard
1000

1000

1001
AcCmTransparency
1071
        0
  0
LAYER
  5
8D45
330
2
100
AcDbSymbolTableRecord
100
AcDbLayerTableRecord
  2
4.3. Moketa
 70
     0
 62
   253
  6
Continuous
370
    -3
390
F
347
EE
348
0
1001
AcAecLayerStandard
1000

1000

1001
AcCmTransparency
1071
        0
  0
LAYER
  5
9169
102
{ACAD_XDICTIONARY
360
916A
102
}
330
2
100
AcDbSymbolTableRecord
100
AcDbLayerTableRecord
  2
Basea_Eraikuntza
 70
     0
 62
     7
  6
Continuous
370
    -3
390
F
347
EE
348
0
1001
RAK
1000
{ACET-LAYISO
1070
     0
1070
     1
1000
CONTINUOUS
1071
       -3
1071
        1
1005
F
1000
ACET-LAYISO}
  0
LAYER
  5
916B
330
2
100
AcDbSymbolTableRecord
100
AcDbLayerTableRecord
  2
Azterketa Eremua_6. Gunea
 70
     0
 62
   251
  6
DISCONT
370
    53
390
F
347
EE
348
0
1001
AcAecLayerStandard
1000

1000

1001
AcCmTransparency
1071
        0
  0
LAYER
  5
9232
330
2
100
AcDbSymbolTableRecord
100
AcDbLayerTableRecord
  2
7.1.1. Azalera eraikia
 70
     0
 62
   -12
  6
Continuous
290
     0
370
    -3
390
F
347
EE
348
0
1001
AcAecLayerStandard
1000

1000

1001
AcCmTransparency
1071
        0
  0
ENDTAB
  0
TABLE
  2
STYLE
  5
3
330
0
100
AcDbSymbolTable
 70
     3
  0
STYLE
  5
11
330
3
100
AcDbSymbolTableRecord
100
AcDbTextStyleTableRecord
  2
Standard
 70
     0
 40
0.0
 41
1.0
 50
0.0
 71
     0
 42
2.5
  3
arial.ttf
  4

1001
ACAD
1000
Arial
1071
       34
  0
STYLE
  5
132
330
3
100
AcDbSymbolTableRecord
100
AcDbTextStyleTableRecord
  2
Anotativo
 70
     0
 40
0.0
 41
1.0
 50
0.0
 71
     0
 42
2.5
  3
arial.ttf
  4

1001
AcadAnnotative
1000
AnnotativeData
1002
{
1070
     1
1070
     1
1002
}
1001
ACAD
1000
Arial
1071
       34
  0
STYLE
  5
3B75
330
3
100
AcDbSymbolTableRecord
100
AcDbTextStyleTableRecord
  2

 70
     1
 40
0.0
 41
1.0
 50
0.0
 71
     0
 42
2.5
  3
ltypeshp.shx
  4

  0
ENDTAB
  0
TABLE
  2
VIEW
  5
6
330
0
100
AcDbSymbolTable
 70
     0
  0
ENDTAB
  0
TABLE
  2
UCS
  5
7
330
0
100
AcDbSymbolTable
 70
     0
  0
ENDTAB
  0
TABLE
  2
APPID
  5
9
330
0
100
AcDbSymbolTable
 70
    16
  0
APPID
  5
12
330
9
100
AcDbSymbolTableRecord
100
AcDbRegAppTableRecord
  2
ACAD
 70
     0
  0
APPID
  5
9E
330
9
100
AcDbSymbolTableRecord
100
AcDbRegAppTableRecord
  2
ACAD_PSEXT
 70
     0
  0
APPID
  5
133
330
9
100
AcDbSymbolTableRecord
100
AcDbRegAppTableRecord
  2
AcadAnnoPO
 70
     0
  0
APPID
  5
134
330
9
100
AcDbSymbolTableRecord
100
AcDbRegAppTableRecord
  2
AcadAnnotative
 70
     0
  0
APPID
  5
135
330
9
100
AcDbSymbolTableRecord
100
AcDbRegAppTableRecord
  2
ACAD_DSTYLE_DIMJAG
 70
     0
  0
APPID
  5
136
330
9
100
AcDbSymbolTableRecord
100
AcDbRegAppTableRecord
  2
ACAD_DSTYLE_DIMTALN
 70
     0
  0
APPID
  5
165
330
9
100
AcDbSymbolTableRecord
100
AcDbRegAppTableRecord
  2
ACAD_MLEADERVER
 70
     0
  0
APPID
  5
217
330
9
100
AcDbSymbolTableRecord
100
AcDbRegAppTableRecord
  2
ACAD_NAV_VCDISPLAY
 70
     0
  0
APPID
  5
24C
330
9
100
AcDbSymbolTableRecord
100
AcDbRegAppTableRecord
  2
ACAD_EXEMPT_FROM_CAD_STANDARDS
 70
     0
  0
APPID
  5
486
330
9
100
AcDbSymbolTableRecord
100
AcDbRegAppTableRecord
  2
AcAecLayerStandard
 70
     0
  0
APPID
  5
487
330
9
100
AcDbSymbolTableRecord
100
AcDbRegAppTableRecord
  2
AcCmTransparency
 70
     0
  0
APPID
  5
FCA
330
9
100
AcDbSymbolTableRecord
100
AcDbRegAppTableRecord
  2
GradientColor1ACI
 70
     0
  0
APPID
  5
FCB
330
9
100
AcDbSymbolTableRecord
100
AcDbRegAppTableRecord
  2
GradientColor2ACI
 70
     0
  0
APPID
  5
14FB
330
9
100
AcDbSymbolTableRecord
100
AcDbRegAppTableRecord
  2
ACAD_DSTYLE_DIMBREAK
 70
     0
  0
APPID
  5
916C
330
9
100
AcDbSymbolTableRecord
100
AcDbRegAppTableRecord
  2
RAK
 70
     0
  0
APPID
  5
916D
330
9
100
AcDbSymbolTableRecord
100
AcDbRegAppTableRecord
  2
IRD
 70
     0
  0
ENDTAB
  0
TABLE
  2
DIMSTYLE
  5
A
330
0
100
AcDbSymbolTable
 70
     4
100
AcDbDimStyleTable
 71
     3
340
1501
340
27
340
137
  0
DIMSTYLE
105
1B0
330
A
100
AcDbSymbolTableRecord
100
AcDbDimStyleTableRecord
  2
Standard
 70
     0
340
11
  0
DIMSTYLE
105
137
330
A
100
AcDbSymbolTableRecord
100
AcDbDimStyleTableRecord
  2
Anotativo
 70
     0
 40
0.0
 41
2.5
 42
0.625
 43
3.75
 44
1.25
 73
     0
 74
     0
 77
     1
 78
     8
140
2.5
141
2.5
143
0.03937007874016
147
0.625
171
     3
172
     1
271
     2
272
     2
274
     3
278
    44
283
     0
284
     8
340
11
1001
AcadAnnotative
1000
AnnotativeData
1002
{
1070
     1
1070
     1
1002
}
1001
ACAD_DSTYLE_DIMJAG
1070
   388
1040
1.5
1001
ACAD_DSTYLE_DIMTALN
1070
   392
1070
     0
  0
DIMSTYLE
105
27
330
A
100
AcDbSymbolTableRecord
100
AcDbDimStyleTableRecord
  2
ISO-25
 70
     0
 41
2.5
 42
0.625
 43
3.75
 44
1.25
 73
     0
 74
     0
 77
     1
 78
     8
140
2.5
141
2.5
143
0.03937007874016
147
0.625
171
     3
172
     1
271
     2
272
     2
274
     3
278
    44
283
     0
284
     8
340
11
  0
DIMSTYLE
105
1501
102
{ACAD_REACTORS
330
6B33
330
6B9E
330
6BBE
330
6DCA
330
6DE2
330
6DFA
330
6E12
330
6E2A
330
6E5A
330
6E8E
330
6EC2
330
6EDA
330
6EF2
330
6F0A
330
6F27
330
6F57
330
6F6B
330
6F7F
330
6F97
330
6FC3
330
6FDB
330
6FFE
330
7016
330
7023
330
703B
330
7053
330
7060
330
7090
330
8CF8
102
}
330
A
100
AcDbSymbolTableRecord
100
AcDbDimStyleTableRecord
  2
Guztion
 70
     0
 41
0.1
 42
0.1
 43
3.75
 44
0.1
 73
     0
 74
     0
 77
     1
 78
     1
140
0.15
141
2.5
143
0.03937007874016
147
0.05
171
     3
172
     1
176
   256
177
   256
178
   256
271
     2
272
     2
274
     3
283
     0
284
     8
340
11
342
14FD
1001
ACAD_DSTYLE_DIMBREAK
1070
   391
1040
3.75
1001
ACAD_DSTYLE_DIMJAG
1070
   388
1040
1.5
1001
ACAD_DSTYLE_DIMTALN
1070
   392
1070
     0
  0
ENDTAB
  0
TABLE
  2
BLOCK_RECORD
  5
1
330
0
100
AcDbSymbolTable
 70
    34
  0
BLOCK_RECORD
  5
1F
102
{ACAD_XDICTIONARY
360
1CE
102
}
330
1
100
AcDbSymbolTableRecord
100
AcDbBlockTableRecord
  2
*Model_Space
340
22
 70
     0
280
     1
281
     0
  0
BLOCK_RECORD
  5
658E
330
1
100
AcDbSymbolTableRecord
100
AcDbBlockTableRecord
  2
*Paper_Space
340
659B
 70
     0
280
     1
281
     0
  0
BLOCK_RECORD
  5
14FD
330
1
100
AcDbSymbolTableRecord
100
AcDbBlockTableRecord
  2
_ArchTick
340
0
102
{BLKREFS
331
6DDB
331
6DDC
331
6DF3
331
6DF4
331
6E0B
331
6E0C
331
6E23
331
6E24
331
6E3B
331
6E3C
331
6E6B
331
6E6C
331
6E9F
331
6EA0
331
6ED3
331
6ED4
331
6EEB
331
6EEC
331
6B44
331
6B45
331
6BAF
331
6BB0
331
6BCF
331
6BD0
331
7034
331
7035
331
704C
331
704D
331
705A
331
705B
331
7071
331
7072
331
709D
331
709E
331
8CFD
331
8CFE
331
6F03
331
6F04
331
6F1B
331
6F1C
331
6F38
331
6F39
331
6F64
331
6F65
331
6F78
331
6F79
331
6F90
331
6F91
331
6FA4
331
6FA5
331
6FEE
331
6FEF
331
6FF8
331
6FF9
331
700F
331
7010
331
701D
331
701E
102
}
 70
     0
280
     1
281
     0
  0
BLOCK_RECORD
  5
194E
330
1
100
AcDbSymbolTableRecord
100
AcDbBlockTableRecord
  2
A$C6A1E31B2
340
0
 70
     0
280
     1
281
     0
  0
BLOCK_RECORD
  5
2643
102
{ACAD_XDICTIONARY
360
2645
102
}
330
1
100
AcDbSymbolTableRecord
100
AcDbBlockTableRecord
  2
A$C4C6C188E
340
0
 70
     4
280
     1
281
     0
  0
BLOCK_RECORD
  5
D6
330
1
100
AcDbSymbolTableRecord
100
AcDbBlockTableRecord
  2
*Paper_Space3
340
D7
 70
     0
280
     1
281
     0
  0
BLOCK_RECORD
  5
6B34
330
1
100
AcDbSymbolTableRecord
100
AcDbBlockTableRecord
  2
*D4
340
0
 70
     0
280
     1
281
     0
  0
BLOCK_RECORD
  5
6B9F
330
1
100
AcDbSymbolTableRecord
100
AcDbBlockTableRecord
  2
*D5
340
0
 70
     0
280
     1
281
     0
  0
BLOCK_RECORD
  5
6BBF
330
1
100
AcDbSymbolTableRecord
100
AcDbBlockTableRecord
  2
*D6
340
0
 70
     0
280
     1
281
     0
  0
BLOCK_RECORD
  5
6DCB
330
1
100
AcDbSymbolTableRecord
100
AcDbBlockTableRecord
  2
*D7
340
0
 70
     0
280
     1
281
     0
  0
BLOCK_RECORD
  5
6DE3
330
1
100
AcDbSymbolTableRecord
100
AcDbBlockTableRecord
  2
*D8
340
0
 70
     0
280
     1
281
     0
  0
BLOCK_RECORD
  5
6DFB
330
1
100
AcDbSymbolTableRecord
100
AcDbBlockTableRecord
  2
*D9
340
0
 70
     0
280
     1
281
     0
  0
BLOCK_RECORD
  5
6E13
330
1
100
AcDbSymbolTableRecord
100
AcDbBlockTableRecord
  2
*D10
340
0
 70
     0
280
     1
281
     0
  0
BLOCK_RECORD
  5
6E2B
330
1
100
AcDbSymbolTableRecord
100
AcDbBlockTableRecord
  2
*D11
340
0
 70
     0
280
     1
281
     0
  0
BLOCK_RECORD
  5
6E5B
330
1
100
AcDbSymbolTableRecord
100
AcDbBlockTableRecord
  2
*D12
340
0
 70
     0
280
     1
281
     0
  0
BLOCK_RECORD
  5
6E8F
330
1
100
AcDbSymbolTableRecord
100
AcDbBlockTableRecord
  2
*D13
340
0
 70
     0
280
     1
281
     0
  0
BLOCK_RECORD
  5
6EC3
330
1
100
AcDbSymbolTableRecord
100
AcDbBlockTableRecord
  2
*D14
340
0
 70
     0
280
     1
281
     0
  0
BLOCK_RECORD
  5
6EDB
330
1
100
AcDbSymbolTableRecord
100
AcDbBlockTableRecord
  2
*D15
340
0
 70
     0
280
     1
281
     0
  0
BLOCK_RECORD
  5
6EF3
330
1
100
AcDbSymbolTableRecord
100
AcDbBlockTableRecord
  2
*D16
340
0
 70
     0
280
     1
281
     0
  0
BLOCK_RECORD
  5
6F0B
330
1
100
AcDbSymbolTableRecord
100
AcDbBlockTableRecord
  2
*D17
340
0
 70
     0
280
     1
281
     0
  0
BLOCK_RECORD
  5
6F28
330
1
100
AcDbSymbolTableRecord
100
AcDbBlockTableRecord
  2
*D18
340
0
 70
     0
280
     1
281
     0
  0
BLOCK_RECORD
  5
6F58
330
1
100
AcDbSymbolTableRecord
100
AcDbBlockTableRecord
  2
*D19
340
0
 70
     0
280
     1
281
     0
  0
BLOCK_RECORD
  5
6F6C
330
1
100
AcDbSymbolTableRecord
100
AcDbBlockTableRecord
  2
*D20
340
0
 70
     0
280
     1
281
     0
  0
BLOCK_RECORD
  5
6F80
330
1
100
AcDbSymbolTableRecord
100
AcDbBlockTableRecord
  2
*D21
340
0
 70
     0
280
     1
281
     0
  0
BLOCK_RECORD
  5
6F98
330
1
100
AcDbSymbolTableRecord
100
AcDbBlockTableRecord
  2
*D22
340
0
 70
     0
280
     1
281
     0
  0
BLOCK_RECORD
  5
6FC4
330
1
100
AcDbSymbolTableRecord
100
AcDbBlockTableRecord
  2
*D23
340
0
 70
     0
280
     1
281
     0
  0
BLOCK_RECORD
  5
6FDC
330
1
100
AcDbSymbolTableRecord
100
AcDbBlockTableRecord
  2
*D24
340
0
 70
     0
280
     1
281
     0
  0
BLOCK_RECORD
  5
6FFF
330
1
100
AcDbSymbolTableRecord
100
AcDbBlockTableRecord
  2
*D25
340
0
 70
     0
280
     1
281
     0
  0
BLOCK_RECORD
  5
7017
330
1
100
AcDbSymbolTableRecord
100
AcDbBlockTableRecord
  2
*D26
340
0
 70
     0
280
     1
281
     0
  0
BLOCK_RECORD
  5
7024
330
1
100
AcDbSymbolTableRecord
100
AcDbBlockTableRecord
  2
*D27
340
0
 70
     0
280
     1
281
     0
  0
BLOCK_RECORD
  5
703C
330
1
100
AcDbSymbolTableRecord
100
AcDbBlockTableRecord
  2
*D28
340
0
 70
     0
280
     1
281
     0
  0
BLOCK_RECORD
  5
7054
330
1
100
AcDbSymbolTableRecord
100
AcDbBlockTableRecord
  2
*D29
340
0
 70
     0
280
     1
281
     0
  0
BLOCK_RECORD
  5
7061
330
1
100
AcDbSymbolTableRecord
100
AcDbBlockTableRecord
  2
*D30
340
0
 70
     0
280
     1
281
     0
  0
BLOCK_RECORD
  5
7091
330
1
100
AcDbSymbolTableRecord
100
AcDbBlockTableRecord
  2
*D31
340
0
 70
     0
280
     1
281
     0
  0
BLOCK_RECORD
  5
8CF9
330
1
100
AcDbSymbolTableRecord
100
AcDbBlockTableRecord
  2
*D32
340
0
 70
     0
280
     1
281
     0
  0
BLOCK_RECORD
  5
916E
102
{ACAD_XDICTIONARY
360
9170
102
}
330
1
100
AcDbSymbolTableRecord
100
AcDbBlockTableRecord
  2
A$C56C501B1
340
0
 70
     4
280
     1
281
     0
  0
ENDTAB
  0
ENDSEC
  0
SECTION
  2
BLOCKS
  0
BLOCK
  5
20
330
1F
100
AcDbEntity
  8
0
100
AcDbBlockBegin
  2
*Model_Space
 70
     0
 10
0.0
 20
0.0
 30
0.0
  3
*Model_Space
  1

  0
ENDBLK
  5
21
330
1F
100
AcDbEntity
  8
0
100
AcDbBlockEnd
  0
BLOCK
  5
658F
330
658E
100
AcDbEntity
 67
     1
  8
0
100
AcDbBlockBegin
  2
*Paper_Space
 70
     0
 10
0.0
 20
0.0
 30
0.0
  3
*Paper_Space
  1

  0
ENDBLK
  5
659A
330
658E
100
AcDbEntity
 67
     1
  8
0
100
AcDbBlockEnd
  0
BLOCK
  5
14FF
330
14FD
100
AcDbEntity
  8
0
100
AcDbBlockBegin
  2
_ArchTick
 70
     0
 10
0.0
 20
0.0
 30
0.0
  3
_ArchTick
  1

  0
LWPOLYLINE
  5
14FE
330
14FD
100
AcDbEntity
  8
0
  6
ByBlock
 62
     0
100
AcDbPolyline
 90
        2
 70
     0
 43
0.15
 10
-0.5
 20
-0.5
 10
0.5
 20
0.5
  0
ENDBLK
  5
1500
330
14FD
100
AcDbEntity
  8
0
100
AcDbBlockEnd
  0
BLOCK
  5
195F
330
194E
100
AcDbEntity
  8
0
100
AcDbBlockBegin
  2
A$C6A1E31B2
 70
     0
 10
0.0
 20
0.0
 30
0.0
  3
A$C6A1E31B2
  1

  0
LWPOLYLINE
  5
194F
330
194E
100
AcDbEntity
  8
-
100
AcDbPolyline
 90
        4
 70
     1
 43
0.0
 10
0.3126854446639626
 20
-0.0000000212661178
 10
0.292428219745922
 20
-0.0000000212661178
 10
0.292428219745922
 20
0.1837702092999933
 10
0.3126854446639626
 20
0.1837702092999933
  0
LINE
  5
1950
330
194E
100
AcDbEntity
  8
-
100
AcDbLine
 10
0.5600000163788366
 20
0.2499999787338809
 30
0.0
 11
0.5600000163788366
 21
0.0799999787338823
 31
0.0
  0
LINE
  5
1951
330
194E
100
AcDbEntity
  8
-
100
AcDbLine
 10
0.0400000163788263
 20
0.0799999787338828
 30
0.0
 11
0.0400000163788263
 21
0.2499999787338831
 31
0.0
  0
LINE
  5
1952
330
194E
100
AcDbEntity
  8
-
100
AcDbLine
 10
0.6000000163788357
 20
0.2499999787338809
 30
0.0
 11
0.6000000163788357
 21
-0.0000000212661178
 31
0.0
  0
LINE
  5
1953
330
194E
100
AcDbEntity
  8
-
100
AcDbLine
 10
0.0000000163788343
 20
-0.0000000212661178
 30
0.0
 11
0.0000000163788272
 21
0.2499999787338818
 31
0.0
  0
LINE
  5
1954
330
194E
100
AcDbEntity
  8
-
100
AcDbLine
 10
0.5600000163788366
 20
0.0799999787338828
 30
0.0
 11
0.3126854446639626
 21
0.0799999787338828
 31
0.0
  0
LINE
  5
1955
330
194E
100
AcDbEntity
  8
-
100
AcDbLine
 10
0.6000000163788357
 20
-0.0000000212661178
 30
0.0
 11
0.0000000163788343
 21
-0.0000000212661178
 31
0.0
  0
LINE
  5
1956
330
194E
100
AcDbEntity
  8
-
100
AcDbLine
 10
0.292428219745922
 20
0.0799999787338828
 30
0.0
 11
0.0400000163788263
 21
0.0799999787338828
 31
0.0
  0
LWPOLYLINE
  5
1957
330
194E
100
AcDbEntity
  8
-
100
AcDbPolyline
 90
        4
 70
     1
 43
0.0
 10
0.3152422604900735
 20
0.0138949237869923
 10
0.3670918531628686
 20
0.0138949237869923
 10
0.3670918531628686
 20
0.0656861417695041
 10
0.3152422604900735
 20
0.0656861417695041
  0
LWPOLYLINE
  5
1958
330
194E
100
AcDbEntity
  8
-
100
AcDbPolyline
 90
        4
 70
     1
 43
0.0
 10
0.2903543029858397
 20
0.0656861417695041
 10
0.2322827209369862
 20
0.0656861417695041
 10
0.2322827209369862
 20
0.0138949237869923
 10
0.2903543029858397
 20
0.0138949237869923
  0
ARC
  5
1959
330
194E
100
AcDbEntity
  8
-
100
AcDbCircle
 10
0.3000000163788385
 20
0.2499999787338809
 30
0.0
 40
0.26
100
AcDbArc
 50
0.0
 51
90.0
  0
ARC
  5
195A
330
194E
100
AcDbEntity
  8
-
100
AcDbCircle
 10
0.3000000163788385
 20
0.2499999787338809
 30
0.0
 40
0.3
100
AcDbArc
 50
0.0
 51
90.0
  0
CIRCLE
  5
195B
330
194E
100
AcDbEntity
  8
-
100
AcDbCircle
 10
0.3000000163788243
 20
0.3321388107524541
 30
0.0
 40
0.0367980598417717
  0
ARC
  5
195C
330
194E
100
AcDbEntity
  8
-
100
AcDbCircle
 10
0.3000000163788243
 20
0.2499999787338818
 30
0.0
 40
0.26
100
AcDbArc
 50
90.0
 51
180.0
  0
LINE
  5
195D
330
194E
100
AcDbEntity
  8
-
100
AcDbLine
 10
0.3000000163788243
 20
0.5499999787338817
 30
0.0
 11
0.3000000163788385
 21
0.5499999787338808
 31
0.0
  0
ARC
  5
195E
330
194E
100
AcDbEntity
  8
-
100
AcDbCircle
 10
0.3000000163788243
 20
0.2499999787338818
 30
0.0
 40
0.3
100
AcDbArc
 50
90.0
 51
180.0
  0
ENDBLK
  5
1960
330
194E
100
AcDbEntity
  8
0
100
AcDbBlockEnd
  0
BLOCK
  5
2647
330
2643
100
AcDbEntity
  8
0
100
AcDbBlockBegin
  2
A$C4C6C188E
 70
     0
 10
0.0
 20
0.0
 30
0.0
  3
A$C4C6C188E
  1

  0
MTEXT
  5
2644
330
2643
100
AcDbEntity
  8
1.4. Idatzia
100
AcDbMText
 10
0.0007080675713951
 20
0.0039339599218238
 30
0.0
 40
0.0025
 41
0.1852149973614974
 46
0.0
 71
     1
 72
     5
  1
{\fCalibri Light|b1|i0|c0|p34;Katastro zk.\fCalibri Light|b0|i0|c0|p34;: 7791177}
 73
     1
 44
1.0
  0
ENDBLK
  5
2648
330
2643
100
AcDbEntity
  8
0
100
AcDbBlockEnd
  0
BLOCK
  5
D8
330
D6
100
AcDbEntity
 67
     1
  8
0
100
AcDbBlockBegin
  2
*Paper_Space3
 70
     0
 10
0.0
 20
0.0
 30
0.0
  3
*Paper_Space3
  1

  0
VIEWPORT
  5
2AF3
102
{ACAD_XDICTIONARY
360
2AF4
102
}
330
D6
100
AcDbEntity
 67
     1
  8
0
100
AcDbViewport
 10
128.5
 20
97.5
 30
0.0
 40
370.9329914529915
 41
222.18
 68
     0
 69
     0
 12
128.5
 22
97.5
 13
0.0
 23
0.0
 14
10.0
 24
10.0
 15
10.0
 25
10.0
 16
0.0
 26
0.0
 36
1.0
 17
0.0
 27
0.0
 37
0.0
 42
50.0
 43
0.0
 44
0.0
 45
222.18
 50
0.0
 51
0.0
 72
  1000
 90
   819232
  1

281
     0
 71
     1
 74
     0
110
0.0
120
0.0
130
0.0
111
1.0
121
0.0
131
0.0
112
0.0
122
1.0
132
0.0
 79
     0
146
0.0
170
     0
 61
     5
348
F5
292
     1
282
     1
141
0.0
142
0.0
 63
   250
421
  3355443
  0
VIEWPORT
  5
2AF7
102
{ACAD_XDICTIONARY
360
2AF8
102
}
330
D6
100
AcDbEntity
 67
     1
  8
0
100
AcDbViewport
 10
128.5
 20
97.5
 30
0.0
 40
205.6
 41
156.0
 68
     0
 69
     0
 12
-245.0678307719495
 22
37.05995025052767
 13
0.0
 23
0.0
 14
10.0
 24
10.0
 15
10.0
 25
10.0
 16
0.0
 26
0.0
 36
0.6188922984979737
 17
2619.601320438711
 27
877.6296409676874
 37
0.0
 42
50.0
 43
0.0
 44
0.0
 45
0.3532727290029537
 50
0.0
 51
0.0
 72
  1000
 90
   819296
  1

281
     0
 71
     1
 74
     0
110
0.0
120
0.0
130
0.0
111
1.0
121
0.0
131
0.0
112
0.0
122
1.0
132
0.0
 79
     0
146
0.0
170
     0
 61
     5
348
F5
292
     1
282
     1
141
0.0
142
0.0
 63
   250
421
  3355443
  0
ENDBLK
  5
D9
330
D6
100
AcDbEntity
 67
     1
  8
0
100
AcDbBlockEnd
  0
BLOCK
  5
6B35
330
6B34
100
AcDbEntity
  8
0
100
AcDbBlockBegin
  2
*D4
 70
     1
 10
0.0
 20
0.0
 30
0.0
  3
*D4
  1

  0
LINE
  5
6B41
330
6B34
100
AcDbEntity
  8
7.3. Kota
440
 16777216
370
    -2
100
AcDbLine
 10
2997.960935243149
 20
866.6819404019777
 30
0.0
 11
2998.292905438729
 21
866.6819404019777
 31
0.0
  0
LINE
  5
6B42
330
6B34
100
AcDbEntity
  8
7.3. Kota
440
 16777216
370
    -2
100
AcDbLine
 10
2997.960935243149
 20
865.9819404019776
 30
0.0
 11
2998.292905438729
 21
865.9819404019776
 31
0.0
  0
LINE
  5
6B43
330
6B34
100
AcDbEntity
  8
7.3. Kota
440
 16777216
370
    -2
100
AcDbLine
 10
2998.19290543873
 20
866.6819404019777
 30
0.0
 11
2998.19290543873
 21
865.9819404019776
 31
0.0
  0
INSERT
  5
6B44
330
6B34
100
AcDbEntity
  8
7.3. Kota
440
 16777216
370
    -2
100
AcDbBlockReference
  2
_ArchTick
 10
2998.19290543873
 20
866.6819404019777
 30
0.0
 41
0.1
 42
0.1
 43
0.1
 50
90.0
  0
INSERT
  5
6B45
330
6B34
100
AcDbEntity
  8
7.3. Kota
440
 16777216
370
    -2
100
AcDbBlockReference
  2
_ArchTick
 10
2998.19290543873
 20
865.9819404019776
 30
0.0
 41
0.1
 42
0.1
 43
0.1
 50
270.0
  0
MTEXT
  5
6B46
330
6B34
100
AcDbEntity
  8
7.3. Kota
440
 16777216
100
AcDbMText
 10
2998.066319490572
 20
866.3319404019782
 30
0.0
 40
0.15
 41
0.0
 46
0.0
 71
     5
 72
     1
  1
0.70
 11
0.0000000000000001
 21
1.0
 31
0.0
 73
     1
 44
1.0
  0
POINT
  5
6B47
330
6B34
100
AcDbEntity
  8
Defpoints
 62
     0
440
 16777216
100
AcDbPoint
 10
2997.860935243149
 20
866.6819404019777
 30
0.0
  0
POINT
  5
6B48
330
6B34
100
AcDbEntity
  8
Defpoints
 62
     0
440
 16777216
100
AcDbPoint
 10
2997.860935243149
 20
865.9819404019776
 30
0.0
  0
POINT
  5
6B49
330
6B34
100
AcDbEntity
  8
Defpoints
 62
     0
440
 16777216
100
AcDbPoint
 10
2998.19290543873
 20
865.9819404019776
 30
0.0
  0
ENDBLK
  5
6B36
330
6B34
100
AcDbEntity
  8
0
100
AcDbBlockEnd
  0
BLOCK
  5
6BA0
330
6B9F
100
AcDbEntity
  8
0
100
AcDbBlockBegin
  2
*D5
 70
     1
 10
0.0
 20
0.0
 30
0.0
  3
*D5
  1

  0
LINE
  5
6BAC
330
6B9F
100
AcDbEntity
  8
7.3. Kota
440
 16777216
370
    -2
100
AcDbLine
 10
3000.239894953526
 20
881.3909014618721
 30
0.0
 11
3000.002767981647
 21
881.3909014618721
 31
0.0
  0
LINE
  5
6BAD
330
6B9F
100
AcDbEntity
  8
7.3. Kota
440
 16777216
370
    -2
100
AcDbLine
 10
3000.239894953526
 20
880.8209014618718
 30
0.0
 11
3000.002767981647
 21
880.8209014618718
 31
0.0
  0
LINE
  5
6BAE
330
6B9F
100
AcDbEntity
  8
7.3. Kota
440
 16777216
370
    -2
100
AcDbLine
 10
3000.102767981647
 20
881.3909014618721
 30
0.0
 11
3000.102767981647
 21
880.8209014618718
 31
0.0
  0
INSERT
  5
6BAF
330
6B9F
100
AcDbEntity
  8
7.3. Kota
440
 16777216
370
    -2
100
AcDbBlockReference
  2
_ArchTick
 10
3000.102767981647
 20
881.3909014618721
 30
0.0
 41
0.1
 42
0.1
 43
0.1
 50
90.0
  0
INSERT
  5
6BB0
330
6B9F
100
AcDbEntity
  8
7.3. Kota
440
 16777216
370
    -2
100
AcDbBlockReference
  2
_ArchTick
 10
3000.102767981647
 20
880.8209014618718
 30
0.0
 41
0.1
 42
0.1
 43
0.1
 50
270.0
  0
MTEXT
  5
6BB1
330
6B9F
100
AcDbEntity
  8
7.3. Kota
440
 16777216
100
AcDbMText
 10
2999.976182033489
 20
881.1059014618724
 30
0.0
 40
0.15
 41
0.0
 46
0.0
 71
     5
 72
     1
  1
0.57
 11
0.0000000000000001
 21
1.0
 31
0.0
 73
     1
 44
1.0
  0
POINT
  5
6BB2
330
6B9F
100
AcDbEntity
  8
Defpoints
 62
     0
440
 16777216
100
AcDbPoint
 10
3000.339894953525
 20
881.3909014618721
 30
0.0
  0
POINT
  5
6BB3
330
6B9F
100
AcDbEntity
  8
Defpoints
 62
     0
440
 16777216
100
AcDbPoint
 10
3000.339894953525
 20
880.8209014618718
 30
0.0
  0
POINT
  5
6BB4
330
6B9F
100
AcDbEntity
  8
Defpoints
 62
     0
440
 16777216
100
AcDbPoint
 10
3000.102767981647
 20
880.8209014618718
 30
0.0
  0
ENDBLK
  5
6BA1
330
6B9F
100
AcDbEntity
  8
0
100
AcDbBlockEnd
  0
BLOCK
  5
6BC0
330
6BBF
100
AcDbEntity
  8
0
100
AcDbBlockBegin
  2
*D6
 70
     1
 10
0.0
 20
0.0
 30
0.0
  3
*D6
  1

  0
LINE
  5
6BCC
330
6BBF
100
AcDbEntity
  8
7.3. Kota
440
 16777216
370
    -2
100
AcDbLine
 10
2998.933715249413
 20
881.3909014618721
 30
0.0
 11
2998.71096059403
 21
881.3909014618721
 31
0.0
  0
LINE
  5
6BCD
330
6BBF
100
AcDbEntity
  8
7.3. Kota
440
 16777216
370
    -2
100
AcDbLine
 10
2998.933715249413
 20
880.8209014618718
 30
0.0
 11
2998.71096059403
 21
880.8209014618718
 31
0.0
  0
LINE
  5
6BCE
330
6BBF
100
AcDbEntity
  8
7.3. Kota
440
 16777216
370
    -2
100
AcDbLine
 10
2998.81096059403
 20
881.3909014618721
 30
0.0
 11
2998.81096059403
 21
880.8209014618718
 31
0.0
  0
INSERT
  5
6BCF
330
6BBF
100
AcDbEntity
  8
7.3. Kota
440
 16777216
370
    -2
100
AcDbBlockReference
  2
_ArchTick
 10
2998.81096059403
 20
881.3909014618721
 30
0.0
 41
0.1
 42
0.1
 43
0.1
 50
90.0
  0
INSERT
  5
6BD0
330
6BBF
100
AcDbEntity
  8
7.3. Kota
440
 16777216
370
    -2
100
AcDbBlockReference
  2
_ArchTick
 10
2998.81096059403
 20
880.8209014618718
 30
0.0
 41
0.1
 42
0.1
 43
0.1
 50
270.0
  0
MTEXT
  5
6BD1
330
6BBF
100
AcDbEntity
  8
7.3. Kota
440
 16777216
100
AcDbMText
 10
2998.684374645872
 20
881.1059014618724
 30
0.0
 40
0.15
 41
0.0
 46
0.0
 71
     5
 72
     1
  1
0.57
 11
0.0000000000000001
 21
1.0
 31
0.0
 73
     1
 44
1.0
  0
POINT
  5
6BD2
330
6BBF
100
AcDbEntity
  8
Defpoints
 62
     0
440
 16777216
100
AcDbPoint
 10
2999.033715249412
 20
881.3909014618721
 30
0.0
  0
POINT
  5
6BD3
330
6BBF
100
AcDbEntity
  8
Defpoints
 62
     0
440
 16777216
100
AcDbPoint
 10
2999.033715249412
 20
880.8209014618718
 30
0.0
  0
POINT
  5
6BD4
330
6BBF
100
AcDbEntity
  8
Defpoints
 62
     0
440
 16777216
100
AcDbPoint
 10
2998.81096059403
 20
880.8209014618718
 30
0.0
  0
ENDBLK
  5
6BC1
330
6BBF
100
AcDbEntity
  8
0
100
AcDbBlockEnd
  0
BLOCK
  5
6DCC
330
6DCB
100
AcDbEntity
  8
0
100
AcDbBlockBegin
  2
*D7
 70
     1
 10
0.0
 20
0.0
 30
0.0
  3
*D7
  1

  0
LINE
  5
6DD8
330
6DCB
100
AcDbEntity
  8
7.3. Kota
440
 16777216
370
    -2
100
AcDbLine
 10
2994.889191234462
 20
882.1960467798563
 30
0.0
 11
2994.889191234462
 21
882.7282744338091
 31
0.0
  0
LINE
  5
6DD9
330
6DCB
100
AcDbEntity
  8
7.3. Kota
440
 16777216
370
    -2
100
AcDbLine
 10
3001.449191234462
 20
882.196046779857
 30
0.0
 11
3001.449191234462
 21
882.7282744338091
 31
0.0
  0
LINE
  5
6DDA
330
6DCB
100
AcDbEntity
  8
7.3. Kota
440
 16777216
370
    -2
100
AcDbLine
 10
2994.889191234462
 20
882.628274433809
 30
0.0
 11
3001.449191234462
 21
882.628274433809
 31
0.0
  0
INSERT
  5
6DDB
330
6DCB
100
AcDbEntity
  8
7.3. Kota
440
 16777216
370
    -2
100
AcDbBlockReference
  2
_ArchTick
 10
2994.889191234462
 20
882.628274433809
 30
0.0
 41
0.1
 42
0.1
 43
0.1
 50
180.0
  0
INSERT
  5
6DDC
330
6DCB
100
AcDbEntity
  8
7.3. Kota
440
 16777216
370
    -2
100
AcDbBlockReference
  2
_ArchTick
 10
3001.449191234462
 20
882.628274433809
 30
0.0
 41
0.1
 42
0.1
 43
0.1
  0
MTEXT
  5
6DDD
330
6DCB
100
AcDbEntity
  8
7.3. Kota
440
 16777216
100
AcDbMText
 10
2998.169191234462
 20
882.7548603819673
 30
0.0
 40
0.15
 41
0.0
 46
0.0
 71
     5
 72
     1
  1
6.56
 73
     1
 44
1.0
  0
POINT
  5
6DDE
330
6DCB
100
AcDbEntity
  8
Defpoints
 62
     0
440
 16777216
100
AcDbPoint
 10
2994.889191234462
 20
882.0960467798563
 30
0.0
  0
POINT
  5
6DDF
330
6DCB
100
AcDbEntity
  8
Defpoints
 62
     0
440
 16777216
100
AcDbPoint
 10
3001.449191234462
 20
882.0960467798569
 30
0.0
  0
POINT
  5
6DE0
330
6DCB
100
AcDbEntity
  8
Defpoints
 62
     0
440
 16777216
100
AcDbPoint
 10
3001.449191234462
 20
882.628274433809
 30
0.0
  0
ENDBLK
  5
6DCD
330
6DCB
100
AcDbEntity
  8
0
100
AcDbBlockEnd
  0
BLOCK
  5
6DE4
330
6DE3
100
AcDbEntity
  8
0
100
AcDbBlockBegin
  2
*D8
 70
     1
 10
0.0
 20
0.0
 30
0.0
  3
*D8
  1

  0
LINE
  5
6DF0
330
6DE3
100
AcDbEntity
  8
7.3. Kota
440
 16777216
370
    -2
100
AcDbLine
 10
2997.860935243149
 20
863.2774833560212
 30
0.0
 11
2997.860935243149
 21
862.5634630927406
 31
0.0
  0
LINE
  5
6DF1
330
6DE3
100
AcDbEntity
  8
7.3. Kota
440
 16777216
370
    -2
100
AcDbLine
 10
3001.449191234462
 20
863.2774833560221
 30
0.0
 11
3001.449191234462
 21
862.5634630927406
 31
0.0
  0
LINE
  5
6DF2
330
6DE3
100
AcDbEntity
  8
7.3. Kota
440
 16777216
370
    -2
100
AcDbLine
 10
2997.860935243149
 20
862.6634630927405
 30
0.0
 11
3001.449191234462
 21
862.6634630927405
 31
0.0
  0
INSERT
  5
6DF3
330
6DE3
100
AcDbEntity
  8
7.3. Kota
440
 16777216
370
    -2
100
AcDbBlockReference
  2
_ArchTick
 10
2997.860935243149
 20
862.6634630927405
 30
0.0
 41
0.1
 42
0.1
 43
0.1
 50
180.0
  0
INSERT
  5
6DF4
330
6DE3
100
AcDbEntity
  8
7.3. Kota
440
 16777216
370
    -2
100
AcDbBlockReference
  2
_ArchTick
 10
3001.449191234462
 20
862.6634630927405
 30
0.0
 41
0.1
 42
0.1
 43
0.1
  0
MTEXT
  5
6DF5
330
6DE3
100
AcDbEntity
  8
7.3. Kota
440
 16777216
100
AcDbMText
 10
2999.655063238805
 20
862.7901002005168
 30
0.0
 40
0.15
 41
0.0
 46
0.0
 71
     5
 72
     1
  1
3.59
 73
     1
 44
1.0
  0
POINT
  5
6DF6
330
6DE3
100
AcDbEntity
  8
Defpoints
 62
     0
440
 16777216
100
AcDbPoint
 10
2997.860935243149
 20
863.3774833560211
 30
0.0
  0
POINT
  5
6DF7
330
6DE3
100
AcDbEntity
  8
Defpoints
 62
     0
440
 16777216
100
AcDbPoint
 10
3001.449191234462
 20
863.3774833560222
 30
0.0
  0
POINT
  5
6DF8
330
6DE3
100
AcDbEntity
  8
Defpoints
 62
     0
440
 16777216
100
AcDbPoint
 10
3001.449191234462
 20
862.6634630927405
 30
0.0
  0
ENDBLK
  5
6DE5
330
6DE3
100
AcDbEntity
  8
0
100
AcDbBlockEnd
  0
BLOCK
  5
6DFC
330
6DFB
100
AcDbEntity
  8
0
100
AcDbBlockBegin
  2
*D9
 70
     1
 10
0.0
 20
0.0
 30
0.0
  3
*D9
  1

  0
LINE
  5
6E08
330
6DFB
100
AcDbEntity
  8
7.3. Kota
440
 16777216
370
    -2
100
AcDbLine
 10
2999.329191234462
 20
863.6774833560211
 30
0.0
 11
2999.329191234462
 21
863.0798651378652
 31
0.0
  0
LINE
  5
6E09
330
6DFB
100
AcDbEntity
  8
7.3. Kota
440
 16777216
370
    -2
100
AcDbLine
 10
3000.689191234462
 20
863.6774833560211
 30
0.0
 11
3000.689191234462
 21
863.0798651378652
 31
0.0
  0
LINE
  5
6E0A
330
6DFB
100
AcDbEntity
  8
7.3. Kota
440
 16777216
370
    -2
100
AcDbLine
 10
2999.329191234462
 20
863.1798651378652
 30
0.0
 11
3000.689191234462
 21
863.1798651378652
 31
0.0
  0
INSERT
  5
6E0B
330
6DFB
100
AcDbEntity
  8
7.3. Kota
440
 16777216
370
    -2
100
AcDbBlockReference
  2
_ArchTick
 10
2999.329191234462
 20
863.1798651378652
 30
0.0
 41
0.1
 42
0.1
 43
0.1
 50
180.0
  0
INSERT
  5
6E0C
330
6DFB
100
AcDbEntity
  8
7.3. Kota
440
 16777216
370
    -2
100
AcDbBlockReference
  2
_ArchTick
 10
3000.689191234462
 20
863.1798651378652
 30
0.0
 41
0.1
 42
0.1
 43
0.1
  0
MTEXT
  5
6E0D
330
6DFB
100
AcDbEntity
  8
7.3. Kota
440
 16777216
100
AcDbMText
 10
3000.009191234461
 20
863.3065022456415
 30
0.0
 40
0.15
 41
0.0
 46
0.0
 71
     5
 72
     1
  1
1.36
 73
     1
 44
1.0
  0
POINT
  5
6E0E
330
6DFB
100
AcDbEntity
  8
Defpoints
 62
     0
440
 16777216
100
AcDbPoint
 10
2999.329191234462
 20
863.7774833560213
 30
0.0
  0
POINT
  5
6E0F
330
6DFB
100
AcDbEntity
  8
Defpoints
 62
     0
440
 16777216
100
AcDbPoint
 10
3000.689191234462
 20
863.7774833560213
 30
0.0
  0
POINT
  5
6E10
330
6DFB
100
AcDbEntity
  8
Defpoints
 62
     0
440
 16777216
100
AcDbPoint
 10
3000.689191234462
 20
863.1798651378652
 30
0.0
  0
ENDBLK
  5
6DFD
330
6DFB
100
AcDbEntity
  8
0
100
AcDbBlockEnd
  0
BLOCK
  5
6E14
330
6E13
100
AcDbEntity
  8
0
100
AcDbBlockBegin
  2
*D10
 70
     1
 10
0.0
 20
0.0
 30
0.0
  3
*D10
  1

  0
LINE
  5
6E20
330
6E13
100
AcDbEntity
  8
7.3. Kota
440
 16777216
370
    -2
100
AcDbLine
 10
2997.660935243148
 20
863.2774833560212
 30
0.0
 11
2997.660935243148
 21
862.0852862526614
 31
0.0
  0
LINE
  5
6E21
330
6E13
100
AcDbEntity
  8
7.3. Kota
440
 16777216
370
    -2
100
AcDbLine
 10
3001.649191234462
 20
863.2774833560212
 30
0.0
 11
3001.649191234462
 21
862.0852862526614
 31
0.0
  0
LINE
  5
6E22
330
6E13
100
AcDbEntity
  8
7.3. Kota
440
 16777216
370
    -2
100
AcDbLine
 10
2997.660935243148
 20
862.1852862526614
 30
0.0
 11
3001.649191234462
 21
862.1852862526614
 31
0.0
  0
INSERT
  5
6E23
330
6E13
100
AcDbEntity
  8
7.3. Kota
440
 16777216
370
    -2
100
AcDbBlockReference
  2
_ArchTick
 10
2997.660935243148
 20
862.1852862526614
 30
0.0
 41
0.1
 42
0.1
 43
0.1
 50
180.0
  0
INSERT
  5
6E24
330
6E13
100
AcDbEntity
  8
7.3. Kota
440
 16777216
370
    -2
100
AcDbBlockReference
  2
_ArchTick
 10
3001.649191234462
 20
862.1852862526614
 30
0.0
 41
0.1
 42
0.1
 43
0.1
  0
MTEXT
  5
6E25
330
6E13
100
AcDbEntity
  8
7.3. Kota
440
 16777216
100
AcDbMText
 10
2999.655063238805
 20
862.3119233604375
 30
0.0
 40
0.15
 41
0.0
 46
0.0
 71
     5
 72
     1
  1
3.99
 73
     1
 44
1.0
  0
POINT
  5
6E26
330
6E13
100
AcDbEntity
  8
Defpoints
 62
     0
440
 16777216
100
AcDbPoint
 10
2997.660935243148
 20
863.3774833560211
 30
0.0
  0
POINT
  5
6E27
330
6E13
100
AcDbEntity
  8
Defpoints
 62
     0
440
 16777216
100
AcDbPoint
 10
3001.649191234462
 20
863.3774833560211
 30
0.0
  0
POINT
  5
6E28
330
6E13
100
AcDbEntity
  8
Defpoints
 62
     0
440
 16777216
100
AcDbPoint
 10
3001.649191234462
 20
862.1852862526614
 30
0.0
  0
ENDBLK
  5
6E15
330
6E13
100
AcDbEntity
  8
0
100
AcDbBlockEnd
  0
BLOCK
  5
6E2C
330
6E2B
100
AcDbEntity
  8
0
100
AcDbBlockBegin
  2
*D11
 70
     1
 10
0.0
 20
0.0
 30
0.0
  3
*D11
  1

  0
LINE
  5
6E38
330
6E2B
100
AcDbEntity
  8
7.3. Kota
440
 16777216
370
    -2
100
AcDbLine
 10
3001.749191234461
 20
881.5960467798563
 30
0.0
 11
3002.333637176505
 21
881.5960467798563
 31
0.0
  0
LINE
  5
6E39
330
6E2B
100
AcDbEntity
  8
7.3. Kota
440
 16777216
370
    -2
100
AcDbLine
 10
3001.749191234461
 20
878.0559992170234
 30
0.0
 11
3002.333637176505
 21
878.0559992170234
 31
0.0
  0
LINE
  5
6E3A
330
6E2B
100
AcDbEntity
  8
7.3. Kota
440
 16777216
370
    -2
100
AcDbLine
 10
3002.233637176505
 20
881.5960467798563
 30
0.0
 11
3002.233637176505
 21
878.0559992170234
 31
0.0
  0
INSERT
  5
6E3B
330
6E2B
100
AcDbEntity
  8
7.3. Kota
440
 16777216
370
    -2
100
AcDbBlockReference
  2
_ArchTick
 10
3002.233637176505
 20
881.5960467798563
 30
0.0
 41
0.1
 42
0.1
 43
0.1
 50
90.0
  0
INSERT
  5
6E3C
330
6E2B
100
AcDbEntity
  8
7.3. Kota
440
 16777216
370
    -2
100
AcDbBlockReference
  2
_ArchTick
 10
3002.233637176505
 20
878.0559992170234
 30
0.0
 41
0.1
 42
0.1
 43
0.1
 50
270.0
  0
MTEXT
  5
6E3D
330
6E2B
100
AcDbEntity
  8
7.3. Kota
440
 16777216
100
AcDbMText
 10
3002.107000068728
 20
879.8260229984403
 30
0.0
 40
0.15
 41
0.0
 46
0.0
 71
     5
 72
     1
  1
3.54
 11
0.0000000000000001
 21
1.0
 31
0.0
 73
     1
 44
1.0
  0
POINT
  5
6E3E
330
6E2B
100
AcDbEntity
  8
Defpoints
 62
     0
440
 16777216
100
AcDbPoint
 10
3001.649191234462
 20
881.5960467798563
 30
0.0
  0
POINT
  5
6E3F
330
6E2B
100
AcDbEntity
  8
Defpoints
 62
     0
440
 16777216
100
AcDbPoint
 10
3001.649191234461
 20
878.0559992170234
 30
0.0
  0
POINT
  5
6E40
330
6E2B
100
AcDbEntity
  8
Defpoints
 62
     0
440
 16777216
100
AcDbPoint
 10
3002.233637176505
 20
878.0559992170234
 30
0.0
  0
ENDBLK
  5
6E2D
330
6E2B
100
AcDbEntity
  8
0
100
AcDbBlockEnd
  0
BLOCK
  5
6E5C
330
6E5B
100
AcDbEntity
  8
0
100
AcDbBlockBegin
  2
*D12
 70
     1
 10
0.0
 20
0.0
 30
0.0
  3
*D12
  1

  0
LINE
  5
6E68
330
6E5B
100
AcDbEntity
  8
7.3. Kota
440
 16777216
370
    -2
100
AcDbLine
 10
3001.749191234461
 20
877.5559992170235
 30
0.0
 11
3002.333637176505
 21
877.5559992170235
 31
0.0
  0
LINE
  5
6E69
330
6E5B
100
AcDbEntity
  8
7.3. Kota
440
 16777216
370
    -2
100
AcDbLine
 10
3001.749191234461
 20
874.3445660609442
 30
0.0
 11
3002.333637176505
 21
874.3445660609442
 31
0.0
  0
LINE
  5
6E6A
330
6E5B
100
AcDbEntity
  8
7.3. Kota
440
 16777216
370
    -2
100
AcDbLine
 10
3002.233637176505
 20
877.5559992170235
 30
0.0
 11
3002.233637176505
 21
874.3445660609442
 31
0.0
  0
INSERT
  5
6E6B
330
6E5B
100
AcDbEntity
  8
7.3. Kota
440
 16777216
370
    -2
100
AcDbBlockReference
  2
_ArchTick
 10
3002.233637176505
 20
877.5559992170235
 30
0.0
 41
0.1
 42
0.1
 43
0.1
 50
90.0
  0
INSERT
  5
6E6C
330
6E5B
100
AcDbEntity
  8
7.3. Kota
440
 16777216
370
    -2
100
AcDbBlockReference
  2
_ArchTick
 10
3002.233637176505
 20
874.3445660609442
 30
0.0
 41
0.1
 42
0.1
 43
0.1
 50
270.0
  0
MTEXT
  5
6E6D
330
6E5B
100
AcDbEntity
  8
7.3. Kota
440
 16777216
100
AcDbMText
 10
3002.107000068728
 20
875.9502826389843
 30
0.0
 40
0.15
 41
0.0
 46
0.0
 71
     5
 72
     1
  1
3.21
 11
0.0000000000000001
 21
1.0
 31
0.0
 73
     1
 44
1.0
  0
POINT
  5
6E6E
330
6E5B
100
AcDbEntity
  8
Defpoints
 62
     0
440
 16777216
100
AcDbPoint
 10
3001.649191234462
 20
877.5559992170235
 30
0.0
  0
POINT
  5
6E6F
330
6E5B
100
AcDbEntity
  8
Defpoints
 62
     0
440
 16777216
100
AcDbPoint
 10
3001.649191234462
 20
874.3445660609442
 30
0.0
  0
POINT
  5
6E70
330
6E5B
100
AcDbEntity
  8
Defpoints
 62
     0
440
 16777216
100
AcDbPoint
 10
3002.233637176505
 20
874.3445660609442
 30
0.0
  0
ENDBLK
  5
6E5D
330
6E5B
100
AcDbEntity
  8
0
100
AcDbBlockEnd
  0
BLOCK
  5
6E90
330
6E8F
100
AcDbEntity
  8
0
100
AcDbBlockBegin
  2
*D13
 70
     1
 10
0.0
 20
0.0
 30
0.0
  3
*D13
  1

  0
LINE
  5
6E9C
330
6E8F
100
AcDbEntity
  8
7.3. Kota
440
 16777216
370
    -2
100
AcDbLine
 10
3001.749191234461
 20
874.2445660609442
 30
0.0
 11
3002.333637176505
 21
874.2445660609442
 31
0.0
  0
LINE
  5
6E9D
330
6E8F
100
AcDbEntity
  8
7.3. Kota
440
 16777216
370
    -2
100
AcDbLine
 10
3001.749191234461
 20
866.8419404019777
 30
0.0
 11
3002.333637176505
 21
866.8419404019777
 31
0.0
  0
LINE
  5
6E9E
330
6E8F
100
AcDbEntity
  8
7.3. Kota
440
 16777216
370
    -2
100
AcDbLine
 10
3002.233637176505
 20
874.2445660609442
 30
0.0
 11
3002.233637176505
 21
866.8419404019777
 31
0.0
  0
INSERT
  5
6E9F
330
6E8F
100
AcDbEntity
  8
7.3. Kota
440
 16777216
370
    -2
100
AcDbBlockReference
  2
_ArchTick
 10
3002.233637176505
 20
874.2445660609442
 30
0.0
 41
0.1
 42
0.1
 43
0.1
 50
90.0
  0
INSERT
  5
6EA0
330
6E8F
100
AcDbEntity
  8
7.3. Kota
440
 16777216
370
    -2
100
AcDbBlockReference
  2
_ArchTick
 10
3002.233637176505
 20
866.8419404019777
 30
0.0
 41
0.1
 42
0.1
 43
0.1
 50
270.0
  0
MTEXT
  5
6EA1
330
6E8F
100
AcDbEntity
  8
7.3. Kota
440
 16777216
100
AcDbMText
 10
3002.107051228346
 20
870.5432532314615
 30
0.0
 40
0.15
 41
0.0
 46
0.0
 71
     5
 72
     1
  1
7.40
 11
0.0000000000000001
 21
1.0
 31
0.0
 73
     1
 44
1.0
  0
POINT
  5
6EA2
330
6E8F
100
AcDbEntity
  8
Defpoints
 62
     0
440
 16777216
100
AcDbPoint
 10
3001.649191234462
 20
874.2445660609442
 30
0.0
  0
POINT
  5
6EA3
330
6E8F
100
AcDbEntity
  8
Defpoints
 62
     0
440
 16777216
100
AcDbPoint
 10
3001.649191234462
 20
866.8419404019777
 30
0.0
  0
POINT
  5
6EA4
330
6E8F
100
AcDbEntity
  8
Defpoints
 62
     0
440
 16777216
100
AcDbPoint
 10
3002.233637176505
 20
866.8419404019777
 30
0.0
  0
ENDBLK
  5
6E91
330
6E8F
100
AcDbEntity
  8
0
100
AcDbBlockEnd
  0
BLOCK
  5
6EC4
330
6EC3
100
AcDbEntity
  8
0
100
AcDbBlockBegin
  2
*D14
 70
     1
 10
0.0
 20
0.0
 30
0.0
  3
*D14
  1

  0
LINE
  5
6ED0
330
6EC3
100
AcDbEntity
  8
7.3. Kota
440
 16777216
370
    -2
100
AcDbLine
 10
3001.749191234461
 20
866.7419404019776
 30
0.0
 11
3002.333637176505
 21
866.7419404019776
 31
0.0
  0
LINE
  5
6ED1
330
6EC3
100
AcDbEntity
  8
7.3. Kota
440
 16777216
370
    -2
100
AcDbLine
 10
3001.749191234461
 20
863.8774833560212
 30
0.0
 11
3002.333637176505
 21
863.8774833560212
 31
0.0
  0
LINE
  5
6ED2
330
6EC3
100
AcDbEntity
  8
7.3. Kota
440
 16777216
370
    -2
100
AcDbLine
 10
3002.233637176505
 20
866.7419404019776
 30
0.0
 11
3002.233637176505
 21
863.8774833560212
 31
0.0
  0
INSERT
  5
6ED3
330
6EC3
100
AcDbEntity
  8
7.3. Kota
440
 16777216
370
    -2
100
AcDbBlockReference
  2
_ArchTick
 10
3002.233637176505
 20
866.7419404019776
 30
0.0
 41
0.1
 42
0.1
 43
0.1
 50
90.0
  0
INSERT
  5
6ED4
330
6EC3
100
AcDbEntity
  8
7.3. Kota
440
 16777216
370
    -2
100
AcDbBlockReference
  2
_ArchTick
 10
3002.233637176505
 20
863.8774833560212
 30
0.0
 41
0.1
 42
0.1
 43
0.1
 50
270.0
  0
MTEXT
  5
6ED5
330
6EC3
100
AcDbEntity
  8
7.3. Kota
440
 16777216
100
AcDbMText
 10
3002.107051228346
 20
865.3097118789998
 30
0.0
 40
0.15
 41
0.0
 46
0.0
 71
     5
 72
     1
  1
2.86
 11
0.0000000000000001
 21
1.0
 31
0.0
 73
     1
 44
1.0
  0
POINT
  5
6ED6
330
6EC3
100
AcDbEntity
  8
Defpoints
 62
     0
440
 16777216
100
AcDbPoint
 10
3001.649191234462
 20
866.7419404019776
 30
0.0
  0
POINT
  5
6ED7
330
6EC3
100
AcDbEntity
  8
Defpoints
 62
     0
440
 16777216
100
AcDbPoint
 10
3001.649191234462
 20
863.8774833560212
 30
0.0
  0
POINT
  5
6ED8
330
6EC3
100
AcDbEntity
  8
Defpoints
 62
     0
440
 16777216
100
AcDbPoint
 10
3002.233637176505
 20
863.8774833560212
 30
0.0
  0
ENDBLK
  5
6EC5
330
6EC3
100
AcDbEntity
  8
0
100
AcDbBlockEnd
  0
BLOCK
  5
6EDC
330
6EDB
100
AcDbEntity
  8
0
100
AcDbBlockBegin
  2
*D15
 70
     1
 10
0.0
 20
0.0
 30
0.0
  3
*D15
  1

  0
LINE
  5
6EE8
330
6EDB
100
AcDbEntity
  8
7.3. Kota
440
 16777216
370
    -2
100
AcDbLine
 10
3001.749191234461
 20
881.5960467798563
 30
0.0
 11
3002.93845354289
 21
881.5960467798563
 31
0.0
  0
LINE
  5
6EE9
330
6EDB
100
AcDbEntity
  8
7.3. Kota
440
 16777216
370
    -2
100
AcDbLine
 10
3001.749191234462
 20
863.877483356021
 30
0.0
 11
3002.93845354289
 21
863.877483356021
 31
0.0
  0
LINE
  5
6EEA
330
6EDB
100
AcDbEntity
  8
7.3. Kota
440
 16777216
370
    -2
100
AcDbLine
 10
3002.83845354289
 20
881.5960467798563
 30
0.0
 11
3002.83845354289
 21
863.877483356021
 31
0.0
  0
INSERT
  5
6EEB
330
6EDB
100
AcDbEntity
  8
7.3. Kota
440
 16777216
370
    -2
100
AcDbBlockReference
  2
_ArchTick
 10
3002.83845354289
 20
881.5960467798563
 30
0.0
 41
0.1
 42
0.1
 43
0.1
 50
90.0
  0
INSERT
  5
6EEC
330
6EDB
100
AcDbEntity
  8
7.3. Kota
440
 16777216
370
    -2
100
AcDbBlockReference
  2
_ArchTick
 10
3002.83845354289
 20
863.877483356021
 30
0.0
 41
0.1
 42
0.1
 43
0.1
 50
270.0
  0
MTEXT
  5
6EED
330
6EDB
100
AcDbEntity
  8
7.3. Kota
440
 16777216
100
AcDbMText
 10
3002.713146585183
 20
872.7367650679392
 30
0.0
 40
0.15
 41
0.0
 46
0.0
 71
     5
 72
     1
  1
17.72
 11
0.0000000000000001
 21
1.0
 31
0.0
 73
     1
 44
1.0
  0
POINT
  5
6EEE
330
6EDB
100
AcDbEntity
  8
Defpoints
 62
     0
440
 16777216
100
AcDbPoint
 10
3001.649191234462
 20
881.5960467798563
 30
0.0
  0
POINT
  5
6EEF
330
6EDB
100
AcDbEntity
  8
Defpoints
 62
     0
440
 16777216
100
AcDbPoint
 10
3001.649191234462
 20
863.877483356021
 30
0.0
  0
POINT
  5
6EF0
330
6EDB
100
AcDbEntity
  8
Defpoints
 62
     0
440
 16777216
100
AcDbPoint
 10
3002.83845354289
 20
863.877483356021
 30
0.0
  0
ENDBLK
  5
6EDD
330
6EDB
100
AcDbEntity
  8
0
100
AcDbBlockEnd
  0
BLOCK
  5
6EF4
330
6EF3
100
AcDbEntity
  8
0
100
AcDbBlockBegin
  2
*D16
 70
     1
 10
0.0
 20
0.0
 30
0.0
  3
*D16
  1

  0
LINE
  5
6F00
330
6EF3
100
AcDbEntity
  8
7.3. Kota
440
 16777216
370
    -2
100
AcDbLine
 10
2995.092715027347
 20
867.3379998379047
 30
0.0
 11
2995.092715027347
 21
867.068383010319
 31
0.0
  0
LINE
  5
6F01
330
6EF3
100
AcDbEntity
  8
7.3. Kota
440
 16777216
370
    -2
100
AcDbLine
 10
2995.792715027347
 20
867.3379998379047
 30
0.0
 11
2995.792715027347
 21
867.068383010319
 31
0.0
  0
LINE
  5
6F02
330
6EF3
100
AcDbEntity
  8
7.3. Kota
440
 16777216
370
    -2
100
AcDbLine
 10
2995.092715027347
 20
867.1683830103191
 30
0.0
 11
2995.792715027347
 21
867.1683830103191
 31
0.0
  0
INSERT
  5
6F03
330
6EF3
100
AcDbEntity
  8
7.3. Kota
440
 16777216
370
    -2
100
AcDbBlockReference
  2
_ArchTick
 10
2995.092715027347
 20
867.1683830103191
 30
0.0
 41
0.1
 42
0.1
 43
0.1
 50
180.0
  0
INSERT
  5
6F04
330
6EF3
100
AcDbEntity
  8
7.3. Kota
440
 16777216
370
    -2
100
AcDbBlockReference
  2
_ArchTick
 10
2995.792715027347
 20
867.1683830103191
 30
0.0
 41
0.1
 42
0.1
 43
0.1
  0
MTEXT
  5
6F05
330
6EF3
100
AcDbEntity
  8
7.3. Kota
440
 16777216
100
AcDbMText
 10
2995.442715027347
 20
867.2949689584772
 30
0.0
 40
0.15
 41
0.0
 46
0.0
 71
     5
 72
     1
  1
0.70
 73
     1
 44
1.0
  0
POINT
  5
6F06
330
6EF3
100
AcDbEntity
  8
Defpoints
 62
     0
440
 16777216
100
AcDbPoint
 10
2995.092715027347
 20
867.4379998379047
 30
0.0
  0
POINT
  5
6F07
330
6EF3
100
AcDbEntity
  8
Defpoints
 62
     0
440
 16777216
100
AcDbPoint
 10
2995.792715027347
 20
867.4379998379047
 30
0.0
  0
POINT
  5
6F08
330
6EF3
100
AcDbEntity
  8
Defpoints
 62
     0
440
 16777216
100
AcDbPoint
 10
2995.792715027347
 20
867.1683830103191
 30
0.0
  0
ENDBLK
  5
6EF5
330
6EF3
100
AcDbEntity
  8
0
100
AcDbBlockEnd
  0
BLOCK
  5
6F0C
330
6F0B
100
AcDbEntity
  8
0
100
AcDbBlockBegin
  2
*D17
 70
     1
 10
0.0
 20
0.0
 30
0.0
  3
*D17
  1

  0
LINE
  5
6F18
330
6F0B
100
AcDbEntity
  8
7.3. Kota
440
 16777216
370
    -2
100
AcDbLine
 10
2996.396238820232
 20
865.9219404019777
 30
0.0
 11
2996.617213818732
 21
865.9219404019777
 31
0.0
  0
LINE
  5
6F19
330
6F0B
100
AcDbEntity
  8
7.3. Kota
440
 16777216
370
    -2
100
AcDbLine
 10
2996.396238820234
 20
867.4379998379048
 30
0.0
 11
2996.617213818732
 21
867.4379998379048
 31
0.0
  0
LINE
  5
6F1A
330
6F0B
100
AcDbEntity
  8
7.3. Kota
440
 16777216
370
    -2
100
AcDbLine
 10
2996.517213818732
 20
865.9219404019777
 30
0.0
 11
2996.517213818732
 21
867.4379998379048
 31
0.0
  0
INSERT
  5
6F1B
330
6F0B
100
AcDbEntity
  8
7.3. Kota
440
 16777216
370
    -2
100
AcDbBlockReference
  2
_ArchTick
 10
2996.517213818732
 20
865.9219404019777
 30
0.0
 41
0.1
 42
0.1
 43
0.1
 50
270.0
  0
INSERT
  5
6F1C
330
6F0B
100
AcDbEntity
  8
7.3. Kota
440
 16777216
370
    -2
100
AcDbBlockReference
  2
_ArchTick
 10
2996.517213818732
 20
867.4379998379048
 30
0.0
 41
0.1
 42
0.1
 43
0.1
 50
90.0
  0
MTEXT
  5
6F1D
330
6F0B
100
AcDbEntity
  8
7.3. Kota
440
 16777216
100
AcDbMText
 10
2996.390627870574
 20
866.6799701199417
 30
0.0
 40
0.15
 41
0.0
 46
0.0
 71
     5
 72
     1
  1
1.52
 11
0.0000000000000001
 21
1.0
 31
0.0
 73
     1
 44
1.0
  0
POINT
  5
6F1E
330
6F0B
100
AcDbEntity
  8
Defpoints
 62
     0
440
 16777216
100
AcDbPoint
 10
2996.296238820232
 20
865.9219404019777
 30
0.0
  0
POINT
  5
6F1F
330
6F0B
100
AcDbEntity
  8
Defpoints
 62
     0
440
 16777216
100
AcDbPoint
 10
2996.296238820234
 20
867.4379998379048
 30
0.0
  0
POINT
  5
6F20
330
6F0B
100
AcDbEntity
  8
Defpoints
 62
     0
440
 16777216
100
AcDbPoint
 10
2996.517213818732
 20
867.4379998379048
 30
0.0
  0
ENDBLK
  5
6F0D
330
6F0B
100
AcDbEntity
  8
0
100
AcDbBlockEnd
  0
BLOCK
  5
6F29
330
6F28
100
AcDbEntity
  8
0
100
AcDbBlockBegin
  2
*D18
 70
     1
 10
0.0
 20
0.0
 30
0.0
  3
*D18
  1

  0
LINE
  5
6F35
330
6F28
100
AcDbEntity
  8
7.3. Kota
440
 16777216
370
    -2
100
AcDbLine
 10
2994.889191234462
 20
865.6219404019777
 30
0.0
 11
2994.889191234462
 21
865.2976161295701
 31
0.0
  0
LINE
  5
6F36
330
6F28
100
AcDbEntity
  8
7.3. Kota
440
 16777216
370
    -2
100
AcDbLine
 10
2995.996238820233
 20
865.6219404019774
 30
0.0
 11
2995.996238820233
 21
865.2976161295701
 31
0.0
  0
LINE
  5
6F37
330
6F28
100
AcDbEntity
  8
7.3. Kota
440
 16777216
370
    -2
100
AcDbLine
 10
2994.889191234462
 20
865.39761612957
 30
0.0
 11
2995.996238820233
 21
865.39761612957
 31
0.0
  0
INSERT
  5
6F38
330
6F28
100
AcDbEntity
  8
7.3. Kota
440
 16777216
370
    -2
100
AcDbBlockReference
  2
_ArchTick
 10
2994.889191234462
 20
865.39761612957
 30
0.0
 41
0.1
 42
0.1
 43
0.1
 50
180.0
  0
INSERT
  5
6F39
330
6F28
100
AcDbEntity
  8
7.3. Kota
440
 16777216
370
    -2
100
AcDbBlockReference
  2
_ArchTick
 10
2995.996238820233
 20
865.39761612957
 30
0.0
 41
0.1
 42
0.1
 43
0.1
  0
MTEXT
  5
6F3A
330
6F28
100
AcDbEntity
  8
7.3. Kota
440
 16777216
100
AcDbMText
 10
2995.442715027348
 20
865.5229230872782
 30
0.0
 40
0.15
 41
0.0
 46
0.0
 71
     5
 72
     1
  1
1.11
 73
     1
 44
1.0
  0
POINT
  5
6F3B
330
6F28
100
AcDbEntity
  8
Defpoints
 62
     0
440
 16777216
100
AcDbPoint
 10
2994.889191234462
 20
865.7219404019777
 30
0.0
  0
POINT
  5
6F3C
330
6F28
100
AcDbEntity
  8
Defpoints
 62
     0
440
 16777216
100
AcDbPoint
 10
2995.996238820233
 20
865.7219404019773
 30
0.0
  0
POINT
  5
6F3D
330
6F28
100
AcDbEntity
  8
Defpoints
 62
     0
440
 16777216
100
AcDbPoint
 10
2995.996238820233
 20
865.39761612957
 30
0.0
  0
ENDBLK
  5
6F2A
330
6F28
100
AcDbEntity
  8
0
100
AcDbBlockEnd
  0
BLOCK
  5
6F59
330
6F58
100
AcDbEntity
  8
0
100
AcDbBlockBegin
  2
*D19
 70
     1
 10
0.0
 20
0.0
 30
0.0
  3
*D19
  1

  0
LINE
  5
6F63
330
6F58
100
AcDbEntity
  8
7.3. Kota
440
 16777216
370
    -2
100
AcDbLine
 10
2998.88829835734
 20
868.3521640605256
 30
0.0
 11
2998.88829835734
 21
866.8419404019777
 31
0.0
  0
INSERT
  5
6F64
330
6F58
100
AcDbEntity
  8
7.3. Kota
440
 16777216
370
    -2
100
AcDbBlockReference
  2
_ArchTick
 10
2998.88829835734
 20
868.3521640605256
 30
0.0
 41
0.1
 42
0.1
 43
0.1
 50
90.0
  0
INSERT
  5
6F65
330
6F58
100
AcDbEntity
  8
7.3. Kota
440
 16777216
370
    -2
100
AcDbBlockReference
  2
_ArchTick
 10
2998.88829835734
 20
866.8419404019777
 30
0.0
 41
0.1
 42
0.1
 43
0.1
 50
270.0
  0
MTEXT
  5
6F66
330
6F58
100
AcDbEntity
  8
7.3. Kota
440
 16777216
100
AcDbMText
 10
2998.761712409182
 20
867.5970522312521
 30
0.0
 40
0.15
 41
0.0
 46
0.0
 71
     5
 72
     1
  1
1.51
 11
0.0000000000000001
 21
1.0
 31
0.0
 73
     1
 44
1.0
  0
POINT
  5
6F67
330
6F58
100
AcDbEntity
  8
Defpoints
 62
     0
440
 16777216
100
AcDbPoint
 10
2998.88829835734
 20
868.3521640605256
 30
0.0
  0
POINT
  5
6F68
330
6F58
100
AcDbEntity
  8
Defpoints
 62
     0
440
 16777216
100
AcDbPoint
 10
2998.88829835734
 20
866.8419404019777
 30
0.0
  0
POINT
  5
6F69
330
6F58
100
AcDbEntity
  8
Defpoints
 62
     0
440
 16777216
100
AcDbPoint
 10
2998.88829835734
 20
866.8419404019777
 30
0.0
  0
ENDBLK
  5
6F5A
330
6F58
100
AcDbEntity
  8
0
100
AcDbBlockEnd
  0
BLOCK
  5
6F6D
330
6F6C
100
AcDbEntity
  8
0
100
AcDbBlockBegin
  2
*D20
 70
     1
 10
0.0
 20
0.0
 30
0.0
  3
*D20
  1

  0
LINE
  5
6F77
330
6F6C
100
AcDbEntity
  8
7.3. Kota
440
 16777216
370
    -2
100
AcDbLine
 10
2998.48587381576
 20
869.0857872405652
 30
0.0
 11
3001.449191234462
 21
869.0857872405652
 31
0.0
  0
INSERT
  5
6F78
330
6F6C
100
AcDbEntity
  8
7.3. Kota
440
 16777216
370
    -2
100
AcDbBlockReference
  2
_ArchTick
 10
2998.48587381576
 20
869.0857872405652
 30
0.0
 41
0.1
 42
0.1
 43
0.1
 50
180.0
  0
INSERT
  5
6F79
330
6F6C
100
AcDbEntity
  8
7.3. Kota
440
 16777216
370
    -2
100
AcDbBlockReference
  2
_ArchTick
 10
3001.449191234462
 20
869.0857872405652
 30
0.0
 41
0.1
 42
0.1
 43
0.1
  0
MTEXT
  5
6F7A
330
6F6C
100
AcDbEntity
  8
7.3. Kota
440
 16777216
100
AcDbMText
 10
2999.96753252511
 20
869.2123731887235
 30
0.0
 40
0.15
 41
0.0
 46
0.0
 71
     5
 72
     1
  1
2.96
 73
     1
 44
1.0
  0
POINT
  5
6F7B
330
6F6C
100
AcDbEntity
  8
Defpoints
 62
     0
440
 16777216
100
AcDbPoint
 10
2998.48587381576
 20
869.0857872405652
 30
0.0
  0
POINT
  5
6F7C
330
6F6C
100
AcDbEntity
  8
Defpoints
 62
     0
440
 16777216
100
AcDbPoint
 10
3001.449191234462
 20
869.0857872405652
 30
0.0
  0
POINT
  5
6F7D
330
6F6C
100
AcDbEntity
  8
Defpoints
 62
     0
440
 16777216
100
AcDbPoint
 10
3001.449191234462
 20
869.0857872405652
 30
0.0
  0
ENDBLK
  5
6F6E
330
6F6C
100
AcDbEntity
  8
0
100
AcDbBlockEnd
  0
BLOCK
  5
6F81
330
6F80
100
AcDbEntity
  8
0
100
AcDbBlockBegin
  2
*D21
 70
     1
 10
0.0
 20
0.0
 30
0.0
  3
*D21
  1

  0
LINE
  5
6F8D
330
6F80
100
AcDbEntity
  8
7.3. Kota
440
 16777216
370
    -2
100
AcDbLine
 10
2996.057193036591
 20
867.6300619190229
 30
0.0
 11
2995.89969738644
 21
868.0014048904684
 31
0.0
  0
LINE
  5
6F8E
330
6F80
100
AcDbEntity
  8
7.3. Kota
440
 16777216
370
    -2
100
AcDbLine
 10
2997.976828032118
 20
868.4442261416439
 30
0.0
 11
2997.819332381967
 21
868.8155691130894
 31
0.0
  0
LINE
  5
6F8F
330
6F80
100
AcDbEntity
  8
7.3. Kota
440
 16777216
370
    -2
100
AcDbLine
 10
2995.938743170082
 20
867.9093428093503
 30
0.0
 11
2997.858378165609
 21
868.7235070319713
 31
0.0
  0
INSERT
  5
6F90
330
6F80
100
AcDbEntity
  8
7.3. Kota
440
 16777216
370
    -2
100
AcDbBlockReference
  2
_ArchTick
 10
2995.938743170082
 20
867.9093428093503
 30
0.0
 41
0.1
 42
0.1
 43
0.1
 50
202.9829903167456
  0
INSERT
  5
6F91
330
6F80
100
AcDbEntity
  8
7.3. Kota
440
 16777216
370
    -2
100
AcDbBlockReference
  2
_ArchTick
 10
2997.858378165609
 20
868.7235070319713
 30
0.0
 41
0.1
 42
0.1
 43
0.1
 50
22.98299031674554
  0
MTEXT
  5
6F92
330
6F80
100
AcDbEntity
  8
7.3. Kota
440
 16777216
100
AcDbMText
 10
2996.849134192407
 20
868.4329625789384
 30
0.0
 40
0.15
 41
0.0
 46
0.0
 71
     5
 72
     1
  1
2.09
 11
0.9206208111814865
 21
0.3904578364171243
 31
0.0
 73
     1
 44
1.0
  0
POINT
  5
6F93
330
6F80
100
AcDbEntity
  8
Defpoints
 62
     0
440
 16777216
100
AcDbPoint
 10
2996.096238820232
 20
867.5379998379048
 30
0.0
  0
POINT
  5
6F94
330
6F80
100
AcDbEntity
  8
Defpoints
 62
     0
440
 16777216
100
AcDbPoint
 10
2998.01587381576
 20
868.3521640605256
 30
0.0
  0
POINT
  5
6F95
330
6F80
100
AcDbEntity
  8
Defpoints
 62
     0
440
 16777216
100
AcDbPoint
 10
2997.858378165609
 20
868.7235070319713
 30
0.0
  0
ENDBLK
  5
6F82
330
6F80
100
AcDbEntity
  8
0
100
AcDbBlockEnd
  0
BLOCK
  5
6F99
330
6F98
100
AcDbEntity
  8
0
100
AcDbBlockBegin
  2
*D22
 70
     1
 10
0.0
 20
0.0
 30
0.0
  3
*D22
  1

  0
LINE
  5
6FA3
330
6F98
100
AcDbEntity
  8
7.3. Kota
440
 16777216
370
    -2
100
AcDbLine
 10
2998.206306812234
 20
873.465719443179
 30
0.0
 11
2998.206306812234
 21
868.8221640605256
 31
0.0
  0
INSERT
  5
6FA4
330
6F98
100
AcDbEntity
  8
7.3. Kota
440
 16777216
370
    -2
100
AcDbBlockReference
  2
_ArchTick
 10
2998.206306812234
 20
873.465719443179
 30
0.0
 41
0.1
 42
0.1
 43
0.1
 50
90.0
  0
INSERT
  5
6FA5
330
6F98
100
AcDbEntity
  8
7.3. Kota
440
 16777216
370
    -2
100
AcDbBlockReference
  2
_ArchTick
 10
2998.206306812234
 20
868.8221640605256
 30
0.0
 41
0.1
 42
0.1
 43
0.1
 50
270.0
  0
MTEXT
  5
6FA6
330
6F98
100
AcDbEntity
  8
7.3. Kota
440
 16777216
100
AcDbMText
 10
2998.079720864076
 20
871.1439417518528
 30
0.0
 40
0.15
 41
0.0
 46
0.0
 71
     5
 72
     1
  1
4.64
 11
0.0000000000000001
 21
1.0
 31
0.0
 73
     1
 44
1.0
  0
POINT
  5
6FA7
330
6F98
100
AcDbEntity
  8
Defpoints
 62
     0
440
 16777216
100
AcDbPoint
 10
2998.206306812234
 20
873.465719443179
 30
0.0
  0
POINT
  5
6FA8
330
6F98
100
AcDbEntity
  8
Defpoints
 62
     0
440
 16777216
100
AcDbPoint
 10
2998.206306812234
 20
868.8221640605256
 30
0.0
  0
POINT
  5
6FA9
330
6F98
100
AcDbEntity
  8
Defpoints
 62
     0
440
 16777216
100
AcDbPoint
 10
2998.206306812234
 20
868.8221640605256
 30
0.0
  0
ENDBLK
  5
6F9A
330
6F98
100
AcDbEntity
  8
0
100
AcDbBlockEnd
  0
BLOCK
  5
6FC5
330
6FC4
100
AcDbEntity
  8
0
100
AcDbBlockBegin
  2
*D23
 70
     1
 10
0.0
 20
0.0
 30
0.0
  3
*D23
  1

  0
LINE
  5
6FF5
330
6FC4
100
AcDbEntity
  8
7.3. Kota
440
 16777216
370
    -2
100
AcDbLine
 10
2997.974763685918
 20
874.1445660609441
 30
0.0
 11
2997.974763685918
 21
874.0576135672519
 31
0.0
  0
LINE
  5
6FF6
330
6FC4
100
AcDbEntity
  8
7.3. Kota
440
 16777216
370
    -2
100
AcDbLine
 10
2998.674763685918
 20
874.1445660609441
 30
0.0
 11
2998.674763685918
 21
874.0576135672519
 31
0.0
  0
LINE
  5
6FF7
330
6FC4
100
AcDbEntity
  8
7.3. Kota
440
 16777216
370
    -2
100
AcDbLine
 10
2997.974763685918
 20
874.1576135672518
 30
0.0
 11
2998.674763685918
 21
874.1576135672518
 31
0.0
  0
INSERT
  5
6FF8
330
6FC4
100
AcDbEntity
  8
7.3. Kota
440
 16777216
370
    -2
100
AcDbBlockReference
  2
_ArchTick
 10
2997.974763685918
 20
874.1576135672518
 30
0.0
 41
0.1
 42
0.1
 43
0.1
 50
180.0
  0
INSERT
  5
6FF9
330
6FC4
100
AcDbEntity
  8
7.3. Kota
440
 16777216
370
    -2
100
AcDbBlockReference
  2
_ArchTick
 10
2998.674763685918
 20
874.1576135672518
 30
0.0
 41
0.1
 42
0.1
 43
0.1
  0
MTEXT
  5
6FFA
330
6FC4
100
AcDbEntity
  8
7.3. Kota
440
 16777216
100
AcDbMText
 10
2998.324763685918
 20
874.2841995154101
 30
0.0
 40
0.15
 41
0.0
 46
0.0
 71
     5
 72
     1
  1
0.70
 73
     1
 44
1.0
  0
POINT
  5
6FFB
330
6FC4
100
AcDbEntity
  8
Defpoints
 62
     0
440
 16777216
100
AcDbPoint
 10
2997.974763685918
 20
874.2445660609442
 30
0.0
  0
POINT
  5
6FFC
330
6FC4
100
AcDbEntity
  8
Defpoints
 62
     0
440
 16777216
100
AcDbPoint
 10
2998.674763685918
 20
874.2445660609442
 30
0.0
  0
POINT
  5
6FFD
330
6FC4
100
AcDbEntity
  8
Defpoints
 62
     0
440
 16777216
100
AcDbPoint
 10
2998.674763685918
 20
874.1576135672518
 30
0.0
  0
ENDBLK
  5
6FC6
330
6FC4
100
AcDbEntity
  8
0
100
AcDbBlockEnd
  0
BLOCK
  5
6FDD
330
6FDC
100
AcDbEntity
  8
0
100
AcDbBlockBegin
  2
*D24
 70
     1
 10
0.0
 20
0.0
 30
0.0
  3
*D24
  1

  0
LINE
  5
6FEA
330
6FDC
100
AcDbEntity
  8
7.3. Kota
440
 16777216
370
    -2
100
AcDbLine
 10
2999.175004741673
 20
873.9357194431791
 30
0.0
 11
2999.278747258465
 21
873.9357194431791
 31
0.0
  0
LINE
  5
6FEB
330
6FDC
100
AcDbEntity
  8
7.3. Kota
440
 16777216
370
    -2
100
AcDbLine
 10
2999.175004741673
 20
874.244566060944
 30
0.0
 11
2999.278747258465
 21
874.244566060944
 31
0.0
  0
LINE
  5
6FEC
330
6FDC
100
AcDbEntity
  8
7.3. Kota
440
 16777216
370
    -2
100
AcDbLine
 10
2999.178747258465
 20
873.9357194431791
 30
0.0
 11
2999.178747258465
 21
874.244566060944
 31
0.0
  0
LINE
  5
6FED
330
6FDC
100
AcDbEntity
  8
7.3. Kota
440
 16777216
370
    -2
100
AcDbLine
 10
2999.178747258465
 20
874.244566060944
 30
0.0
 11
2999.178747258465
 21
874.8052413679017
 31
0.0
  0
INSERT
  5
6FEE
330
6FDC
100
AcDbEntity
  8
7.3. Kota
440
 16777216
370
    -2
100
AcDbBlockReference
  2
_ArchTick
 10
2999.178747258465
 20
873.9357194431791
 30
0.0
 41
0.1
 42
0.1
 43
0.1
 50
270.0
  0
INSERT
  5
6FEF
330
6FDC
100
AcDbEntity
  8
7.3. Kota
440
 16777216
370
    -2
100
AcDbBlockReference
  2
_ArchTick
 10
2999.178747258465
 20
874.244566060944
 30
0.0
 41
0.1
 42
0.1
 43
0.1
 50
90.0
  0
MTEXT
  5
6FF0
330
6FDC
100
AcDbEntity
  8
7.3. Kota
440
 16777216
100
AcDbMText
 10
2999.052110150689
 20
874.5749037144234
 30
0.0
 40
0.15
 41
0.0
 46
0.0
 71
     5
 72
     1
  1
0.31
 11
0.0000000000000001
 21
1.0
 31
0.0
 73
     1
 44
1.0
  0
POINT
  5
6FF1
330
6FDC
100
AcDbEntity
  8
Defpoints
 62
     0
440
 16777216
100
AcDbPoint
 10
2999.075004741673
 20
873.9357194431791
 30
0.0
  0
POINT
  5
6FF2
330
6FDC
100
AcDbEntity
  8
Defpoints
 62
     0
440
 16777216
100
AcDbPoint
 10
2999.075004741673
 20
874.244566060944
 30
0.0
  0
POINT
  5
6FF3
330
6FDC
100
AcDbEntity
  8
Defpoints
 62
     0
440
 16777216
100
AcDbPoint
 10
2999.178747258465
 20
874.244566060944
 30
0.0
  0
ENDBLK
  5
6FDE
330
6FDC
100
AcDbEntity
  8
0
100
AcDbBlockEnd
  0
BLOCK
  5
7000
330
6FFF
100
AcDbEntity
  8
0
100
AcDbBlockBegin
  2
*D25
 70
     1
 10
0.0
 20
0.0
 30
0.0
  3
*D25
  1

  0
LINE
  5
700C
330
6FFF
100
AcDbEntity
  8
7.3. Kota
440
 16777216
370
    -2
100
AcDbLine
 10
2996.596325619875
 20
874.1445660609441
 30
0.0
 11
2996.596325619875
 21
874.0576135672519
 31
0.0
  0
LINE
  5
700D
330
6FFF
100
AcDbEntity
  8
7.3. Kota
440
 16777216
370
    -2
100
AcDbLine
 10
2995.896325619875
 20
874.1445660609441
 30
0.0
 11
2995.896325619875
 21
874.0576135672519
 31
0.0
  0
LINE
  5
700E
330
6FFF
100
AcDbEntity
  8
7.3. Kota
440
 16777216
370
    -2
100
AcDbLine
 10
2996.596325619875
 20
874.1576135672518
 30
0.0
 11
2995.896325619875
 21
874.1576135672518
 31
0.0
  0
INSERT
  5
700F
330
6FFF
100
AcDbEntity
  8
7.3. Kota
440
 16777216
370
    -2
100
AcDbBlockReference
  2
_ArchTick
 10
2996.596325619875
 20
874.1576135672518
 30
0.0
 41
0.1
 42
0.1
 43
0.1
  0
INSERT
  5
7010
330
6FFF
100
AcDbEntity
  8
7.3. Kota
440
 16777216
370
    -2
100
AcDbBlockReference
  2
_ArchTick
 10
2995.896325619875
 20
874.1576135672518
 30
0.0
 41
0.1
 42
0.1
 43
0.1
 50
180.0
  0
MTEXT
  5
7011
330
6FFF
100
AcDbEntity
  8
7.3. Kota
440
 16777216
100
AcDbMText
 10
2996.246325619875
 20
874.2841995154101
 30
0.0
 40
0.15
 41
0.0
 46
0.0
 71
     5
 72
     1
  1
0.70
 73
     1
 44
1.0
  0
POINT
  5
7012
330
6FFF
100
AcDbEntity
  8
Defpoints
 62
     0
440
 16777216
100
AcDbPoint
 10
2996.596325619875
 20
874.2445660609442
 30
0.0
  0
POINT
  5
7013
330
6FFF
100
AcDbEntity
  8
Defpoints
 62
     0
440
 16777216
100
AcDbPoint
 10
2995.896325619875
 20
874.2445660609442
 30
0.0
  0
POINT
  5
7014
330
6FFF
100
AcDbEntity
  8
Defpoints
 62
     0
440
 16777216
100
AcDbPoint
 10
2995.896325619875
 20
874.1576135672518
 30
0.0
  0
ENDBLK
  5
7001
330
6FFF
100
AcDbEntity
  8
0
100
AcDbBlockEnd
  0
BLOCK
  5
7018
330
7017
100
AcDbEntity
  8
0
100
AcDbBlockBegin
  2
*D26
 70
     1
 10
0.0
 20
0.0
 30
0.0
  3
*D26
  1

  0
LINE
  5
701A
330
7017
100
AcDbEntity
  8
7.3. Kota
440
 16777216
370
    -2
100
AcDbLine
 10
2995.911589643477
 20
877.2220679198159
 30
0.0
 11
2995.911589643477
 21
877.2040142572983
 31
0.0
  0
LINE
  5
701B
330
7017
100
AcDbEntity
  8
7.3. Kota
440
 16777216
370
    -2
100
AcDbLine
 10
2996.852160974597
 20
877.2220679198156
 30
0.0
 11
2996.852160974597
 21
877.2040142572983
 31
0.0
  0
LINE
  5
701C
330
7017
100
AcDbEntity
  8
7.3. Kota
440
 16777216
370
    -2
100
AcDbLine
 10
2995.911589643477
 20
877.3040142572984
 30
0.0
 11
2996.852160974597
 21
877.3040142572984
 31
0.0
  0
INSERT
  5
701D
330
7017
100
AcDbEntity
  8
7.3. Kota
440
 16777216
370
    -2
100
AcDbBlockReference
  2
_ArchTick
 10
2995.911589643477
 20
877.3040142572984
 30
0.0
 41
0.1
 42
0.1
 43
0.1
 50
180.0
  0
INSERT
  5
701E
330
7017
100
AcDbEntity
  8
7.3. Kota
440
 16777216
370
    -2
100
AcDbBlockReference
  2
_ArchTick
 10
2996.852160974597
 20
877.3040142572984
 30
0.0
 41
0.1
 42
0.1
 43
0.1
  0
MTEXT
  5
701F
330
7017
100
AcDbEntity
  8
7.3. Kota
440
 16777216
100
AcDbMText
 10
2996.381875309037
 20
877.4306002054565
 30
0.0
 40
0.15
 41
0.0
 46
0.0
 71
     5
 72
     1
  1
0.94
 73
     1
 44
1.0
  0
POINT
  5
7020
330
7017
100
AcDbEntity
  8
Defpoints
 62
     0
440
 16777216
100
AcDbPoint
 10
2995.911589643477
 20
877.3220679198159
 30
0.0
  0
POINT
  5
7021
330
7017
100
AcDbEntity
  8
Defpoints
 62
     0
440
 16777216
100
AcDbPoint
 10
2996.852160974597
 20
877.3220679198157
 30
0.0
  0
POINT
  5
7022
330
7017
100
AcDbEntity
  8
Defpoints
 62
     0
440
 16777216
100
AcDbPoint
 10
2996.852160974597
 20
877.3040142572984
 30
0.0
  0
ENDBLK
  5
7019
330
7017
100
AcDbEntity
  8
0
100
AcDbBlockEnd
  0
BLOCK
  5
7025
330
7024
100
AcDbEntity
  8
0
100
AcDbBlockBegin
  2
*D27
 70
     1
 10
0.0
 20
0.0
 30
0.0
  3
*D27
  1

  0
LINE
  5
7031
330
7024
100
AcDbEntity
  8
7.3. Kota
440
 16777216
370
    -2
100
AcDbLine
 10
2998.933715249413
 20
878.8594210468559
 30
0.0
 11
2998.822337812169
 21
878.8594210468559
 31
0.0
  0
LINE
  5
7032
330
7024
100
AcDbEntity
  8
7.3. Kota
440
 16777216
370
    -2
100
AcDbLine
 10
2998.933715249413
 20
878.1594210468558
 30
0.0
 11
2998.822337812169
 21
878.1594210468558
 31
0.0
  0
LINE
  5
7033
330
7024
100
AcDbEntity
  8
7.3. Kota
440
 16777216
370
    -2
100
AcDbLine
 10
2998.922337812169
 20
878.8594210468559
 30
0.0
 11
2998.922337812169
 21
878.1594210468558
 31
0.0
  0
INSERT
  5
7034
330
7024
100
AcDbEntity
  8
7.3. Kota
440
 16777216
370
    -2
100
AcDbBlockReference
  2
_ArchTick
 10
2998.922337812169
 20
878.8594210468559
 30
0.0
 41
0.1
 42
0.1
 43
0.1
 50
90.0
  0
INSERT
  5
7035
330
7024
100
AcDbEntity
  8
7.3. Kota
440
 16777216
370
    -2
100
AcDbBlockReference
  2
_ArchTick
 10
2998.922337812169
 20
878.1594210468558
 30
0.0
 41
0.1
 42
0.1
 43
0.1
 50
270.0
  0
MTEXT
  5
7036
330
7024
100
AcDbEntity
  8
7.3. Kota
440
 16777216
100
AcDbMText
 10
2998.79575186401
 20
878.5094210468564
 30
0.0
 40
0.15
 41
0.0
 46
0.0
 71
     5
 72
     1
  1
0.70
 11
0.0000000000000001
 21
1.0
 31
0.0
 73
     1
 44
1.0
  0
POINT
  5
7037
330
7024
100
AcDbEntity
  8
Defpoints
 62
     0
440
 16777216
100
AcDbPoint
 10
2999.033715249412
 20
878.8594210468559
 30
0.0
  0
POINT
  5
7038
330
7024
100
AcDbEntity
  8
Defpoints
 62
     0
440
 16777216
100
AcDbPoint
 10
2999.033715249412
 20
878.1594210468558
 30
0.0
  0
POINT
  5
7039
330
7024
100
AcDbEntity
  8
Defpoints
 62
     0
440
 16777216
100
AcDbPoint
 10
2998.922337812169
 20
878.1594210468558
 30
0.0
  0
ENDBLK
  5
7026
330
7024
100
AcDbEntity
  8
0
100
AcDbBlockEnd
  0
BLOCK
  5
703D
330
703C
100
AcDbEntity
  8
0
100
AcDbBlockBegin
  2
*D28
 70
     1
 10
0.0
 20
0.0
 30
0.0
  3
*D28
  1

  0
LINE
  5
7049
330
703C
100
AcDbEntity
  8
7.3. Kota
440
 16777216
370
    -2
100
AcDbLine
 10
3000.639894953526
 20
878.7542569848321
 30
0.0
 11
3000.861614933007
 21
878.7542569848321
 31
0.0
  0
LINE
  5
704A
330
703C
100
AcDbEntity
  8
7.3. Kota
440
 16777216
370
    -2
100
AcDbLine
 10
3000.639894953526
 20
879.4542569848324
 30
0.0
 11
3000.861614933007
 21
879.4542569848324
 31
0.0
  0
LINE
  5
704B
330
703C
100
AcDbEntity
  8
7.3. Kota
440
 16777216
370
    -2
100
AcDbLine
 10
3000.761614933007
 20
878.7542569848321
 30
0.0
 11
3000.761614933007
 21
879.4542569848324
 31
0.0
  0
INSERT
  5
704C
330
703C
100
AcDbEntity
  8
7.3. Kota
440
 16777216
370
    -2
100
AcDbBlockReference
  2
_ArchTick
 10
3000.761614933007
 20
878.7542569848321
 30
0.0
 41
0.1
 42
0.1
 43
0.1
 50
270.0
  0
INSERT
  5
704D
330
703C
100
AcDbEntity
  8
7.3. Kota
440
 16777216
370
    -2
100
AcDbBlockReference
  2
_ArchTick
 10
3000.761614933007
 20
879.4542569848324
 30
0.0
 41
0.1
 42
0.1
 43
0.1
 50
90.0
  0
MTEXT
  5
704E
330
703C
100
AcDbEntity
  8
7.3. Kota
440
 16777216
100
AcDbMText
 10
3000.635028984849
 20
879.1042569848327
 30
0.0
 40
0.15
 41
0.0
 46
0.0
 71
     5
 72
     1
  1
0.70
 11
0.0000000000000001
 21
1.0
 31
0.0
 73
     1
 44
1.0
  0
POINT
  5
704F
330
703C
100
AcDbEntity
  8
Defpoints
 62
     0
440
 16777216
100
AcDbPoint
 10
3000.539894953525
 20
878.7542569848321
 30
0.0
  0
POINT
  5
7050
330
703C
100
AcDbEntity
  8
Defpoints
 62
     0
440
 16777216
100
AcDbPoint
 10
3000.539894953525
 20
879.4542569848324
 30
0.0
  0
POINT
  5
7051
330
703C
100
AcDbEntity
  8
Defpoints
 62
     0
440
 16777216
100
AcDbPoint
 10
3000.761614933007
 20
879.4542569848324
 30
0.0
  0
ENDBLK
  5
703E
330
703C
100
AcDbEntity
  8
0
100
AcDbBlockEnd
  0
BLOCK
  5
7055
330
7054
100
AcDbEntity
  8
0
100
AcDbBlockBegin
  2
*D29
 70
     1
 10
0.0
 20
0.0
 30
0.0
  3
*D29
  1

  0
LINE
  5
7057
330
7054
100
AcDbEntity
  8
7.3. Kota
440
 16777216
370
    -2
100
AcDbLine
 10
2995.558275690258
 20
880.0848017112885
 30
0.0
 11
2995.558275690258
 21
880.0667612442849
 31
0.0
  0
LINE
  5
7058
330
7054
100
AcDbEntity
  8
7.3. Kota
440
 16777216
370
    -2
100
AcDbLine
 10
2996.258275690258
 20
880.0848017112892
 30
0.0
 11
2996.258275690258
 21
880.0667612442849
 31
0.0
  0
LINE
  5
7059
330
7054
100
AcDbEntity
  8
7.3. Kota
440
 16777216
370
    -2
100
AcDbLine
 10
2995.558275690258
 20
880.166761244285
 30
0.0
 11
2996.258275690258
 21
880.166761244285
 31
0.0
  0
INSERT
  5
705A
330
7054
100
AcDbEntity
  8
7.3. Kota
440
 16777216
370
    -2
100
AcDbBlockReference
  2
_ArchTick
 10
2995.558275690258
 20
880.166761244285
 30
0.0
 41
0.1
 42
0.1
 43
0.1
 50
180.0
  0
INSERT
  5
705B
330
7054
100
AcDbEntity
  8
7.3. Kota
440
 16777216
370
    -2
100
AcDbBlockReference
  2
_ArchTick
 10
2996.258275690258
 20
880.166761244285
 30
0.0
 41
0.1
 42
0.1
 43
0.1
  0
MTEXT
  5
705C
330
7054
100
AcDbEntity
  8
7.3. Kota
440
 16777216
100
AcDbMText
 10
2995.908275690258
 20
880.2933471924431
 30
0.0
 40
0.15
 41
0.0
 46
0.0
 71
     5
 72
     1
  1
0.70
 73
     1
 44
1.0
  0
POINT
  5
705D
330
7054
100
AcDbEntity
  8
Defpoints
 62
     0
440
 16777216
100
AcDbPoint
 10
2995.558275690258
 20
880.1848017112885
 30
0.0
  0
POINT
  5
705E
330
7054
100
AcDbEntity
  8
Defpoints
 62
     0
440
 16777216
100
AcDbPoint
 10
2996.258275690258
 20
880.1848017112893
 30
0.0
  0
POINT
  5
705F
330
7054
100
AcDbEntity
  8
Defpoints
 62
     0
440
 16777216
100
AcDbPoint
 10
2996.258275690258
 20
880.166761244285
 30
0.0
  0
ENDBLK
  5
7056
330
7054
100
AcDbEntity
  8
0
100
AcDbBlockEnd
  0
BLOCK
  5
7062
330
7061
100
AcDbEntity
  8
0
100
AcDbBlockBegin
  2
*D30
 70
     1
 10
0.0
 20
0.0
 30
0.0
  3
*D30
  1

  0
LINE
  5
706E
330
7061
100
AcDbEntity
  8
7.3. Kota
440
 16777216
370
    -2
100
AcDbLine
 10
2996.608275690258
 20
878.0559992170234
 30
0.0
 11
2996.814925147464
 21
878.0559992170234
 31
0.0
  0
LINE
  5
706F
330
7061
100
AcDbEntity
  8
7.3. Kota
440
 16777216
370
    -2
100
AcDbLine
 10
2996.608275690258
 20
880.0209633121575
 30
0.0
 11
2996.814925147464
 21
880.0209633121575
 31
0.0
  0
LINE
  5
7070
330
7061
100
AcDbEntity
  8
7.3. Kota
440
 16777216
370
    -2
100
AcDbLine
 10
2996.714925147464
 20
878.0559992170234
 30
0.0
 11
2996.714925147464
 21
880.0209633121575
 31
0.0
  0
INSERT
  5
7071
330
7061
100
AcDbEntity
  8
7.3. Kota
440
 16777216
370
    -2
100
AcDbBlockReference
  2
_ArchTick
 10
2996.714925147464
 20
878.0559992170234
 30
0.0
 41
0.1
 42
0.1
 43
0.1
 50
270.0
  0
INSERT
  5
7072
330
7061
100
AcDbEntity
  8
7.3. Kota
440
 16777216
370
    -2
100
AcDbBlockReference
  2
_ArchTick
 10
2996.714925147464
 20
880.0209633121575
 30
0.0
 41
0.1
 42
0.1
 43
0.1
 50
90.0
  0
MTEXT
  5
7073
330
7061
100
AcDbEntity
  8
7.3. Kota
440
 16777216
100
AcDbMText
 10
2996.588339199306
 20
879.0384812645909
 30
0.0
 40
0.15
 41
0.0
 46
0.0
 71
     5
 72
     1
  1
1.96
 11
0.0000000000000001
 21
1.0
 31
0.0
 73
     1
 44
1.0
  0
POINT
  5
7074
330
7061
100
AcDbEntity
  8
Defpoints
 62
     0
440
 16777216
100
AcDbPoint
 10
2996.508275690258
 20
878.0559992170234
 30
0.0
  0
POINT
  5
7075
330
7061
100
AcDbEntity
  8
Defpoints
 62
     0
440
 16777216
100
AcDbPoint
 10
2996.508275690258
 20
880.0209633121575
 30
0.0
  0
POINT
  5
7076
330
7061
100
AcDbEntity
  8
Defpoints
 62
     0
440
 16777216
100
AcDbPoint
 10
2996.714925147464
 20
880.0209633121575
 30
0.0
  0
ENDBLK
  5
7063
330
7061
100
AcDbEntity
  8
0
100
AcDbBlockEnd
  0
BLOCK
  5
7092
330
7091
100
AcDbEntity
  8
0
100
AcDbBlockBegin
  2
*D31
 70
     1
 10
0.0
 20
0.0
 30
0.0
  3
*D31
  1

  0
LINE
  5
709C
330
7091
100
AcDbEntity
  8
7.3. Kota
440
 16777216
370
    -2
100
AcDbLine
 10
2998.921783454937
 20
873.166120966175
 30
0.0
 11
3001.449191234462
 21
873.166120966175
 31
0.0
  0
INSERT
  5
709D
330
7091
100
AcDbEntity
  8
7.3. Kota
440
 16777216
370
    -2
100
AcDbBlockReference
  2
_ArchTick
 10
2998.921783454937
 20
873.166120966175
 30
0.0
 41
0.1
 42
0.1
 43
0.1
 50
180.0
  0
INSERT
  5
709E
330
7091
100
AcDbEntity
  8
7.3. Kota
440
 16777216
370
    -2
100
AcDbBlockReference
  2
_ArchTick
 10
3001.449191234462
 20
873.166120966175
 30
0.0
 41
0.1
 42
0.1
 43
0.1
  0
MTEXT
  5
709F
330
7091
100
AcDbEntity
  8
7.3. Kota
440
 16777216
100
AcDbMText
 10
3000.185487344699
 20
873.2927580739513
 30
0.0
 40
0.15
 41
0.0
 46
0.0
 71
     5
 72
     1
  1
2.53
 73
     1
 44
1.0
  0
POINT
  5
70A0
330
7091
100
AcDbEntity
  8
Defpoints
 62
     0
440
 16777216
100
AcDbPoint
 10
2998.921783454937
 20
873.1661209661751
 30
0.0
  0
POINT
  5
70A1
330
7091
100
AcDbEntity
  8
Defpoints
 62
     0
440
 16777216
100
AcDbPoint
 10
3001.449191234462
 20
873.166120966175
 30
0.0
  0
POINT
  5
70A2
330
7091
100
AcDbEntity
  8
Defpoints
 62
     0
440
 16777216
100
AcDbPoint
 10
3001.449191234462
 20
873.166120966175
 30
0.0
  0
ENDBLK
  5
7093
330
7091
100
AcDbEntity
  8
0
100
AcDbBlockEnd
  0
BLOCK
  5
8CFA
330
8CF9
100
AcDbEntity
  8
0
100
AcDbBlockBegin
  2
*D32
 70
     1
 10
0.0
 20
0.0
 30
0.0
  3
*D32
  1

  0
LINE
  5
8CFC
330
8CF9
100
AcDbEntity
  8
7.3. Kota
440
 16777216
370
    -2
100
AcDbLine
 10
2997.660935243148
 20
865.0043971407445
 30
0.0
 11
2994.889191234462
 21
865.0043971407445
 31
0.0
  0
INSERT
  5
8CFD
330
8CF9
100
AcDbEntity
  8
7.3. Kota
440
 16777216
370
    -2
100
AcDbBlockReference
  2
_ArchTick
 10
2997.660935243148
 20
865.0043971407445
 30
0.0
 41
0.1
 42
0.1
 43
0.1
  0
INSERT
  5
8CFE
330
8CF9
100
AcDbEntity
  8
7.3. Kota
440
 16777216
370
    -2
100
AcDbBlockReference
  2
_ArchTick
 10
2994.889191234462
 20
865.0043971407445
 30
0.0
 41
0.1
 42
0.1
 43
0.1
 50
180.0
  0
MTEXT
  5
8CFF
330
8CF9
100
AcDbEntity
  8
7.3. Kota
440
 16777216
100
AcDbMText
 10
2996.275063238805
 20
865.1297040984527
 30
0.0
 40
0.15
 41
0.0
 46
0.0
 71
     5
 72
     1
  1
2.77
 73
     1
 44
1.0
  0
POINT
  5
8D00
330
8CF9
100
AcDbEntity
  8
Defpoints
 62
     0
440
 16777216
100
AcDbPoint
 10
2997.660935243148
 20
865.0043971407445
 30
0.0
  0
POINT
  5
8D01
330
8CF9
100
AcDbEntity
  8
Defpoints
 62
     0
440
 16777216
100
AcDbPoint
 10
2994.889191234462
 20
865.0043971407445
 30
0.0
  0
POINT
  5
8D02
330
8CF9
100
AcDbEntity
  8
Defpoints
 62
     0
440
 16777216
100
AcDbPoint
 10
2994.889191234462
 20
865.0043971407445
 30
0.0
  0
ENDBLK
  5
8CFB
330
8CF9
100
AcDbEntity
  8
0
100
AcDbBlockEnd
  0
BLOCK
  5
9172
330
916E
100
AcDbEntity
  8
0
100
AcDbBlockBegin
  2
A$C56C501B1
 70
     0
 10
0.0
 20
0.0
 30
0.0
  3
A$C56C501B1
  1

  0
LWPOLYLINE
  5
916F
330
916E
100
AcDbEntity
  8
Basea_Eraikuntza
100
AcDbPolyline
 90
       54
 70
     1
 43
0.3
 10
6.693319272482767
 20
50.11846068780869
 10
19.8933192724362
 20
46.78846068959683
 10
21.97331927239429
 20
34.64846068900079
 10
22.35331927239895
 20
31.50846068933606
 10
22.57331927248742
 20
26.47846068814397
 10
22.75331927242223
 20
20.47846068907529
 10
23.19331927248277
 20
12.42846068926155
 10
22.75331927242223
 20
7.178460689261555
 10
22.08331927249674
 20
-0.4715393111109734
 10
21.01331927243155
 20
-9.161539310589432
 10
20.04331927245948
 20
-17.21153931040317
 10
18.25331927242223
 20
-22.17153931036591
 10
17.46331927250139
 20
-24.36153931170702
 10
16.87331927241757
 20
-24.1115393107757
 10
14.74331927241292
 20
-23.21153931040317
 10
13.88331927242689
 20
-22.85153931099921
 10
3.393319272436201
 20
-18.29153930954635
 10
0.5633192724781111
 20
-17.20153931248933
 10
0.7133192725013942
 20
-16.85153931193054
 10
3.853319272398948
 20
-9.65153931081295
 10
5.873319272417575
 20
-5.011539311148226
 10
11.10331927239895
 20
-7.39153931196779
 10
11.70331927249208
 20
-1.881539311259984
 10
8.743319272412918
 20
-1.471539311110973
 10
9.033319272566586
 20
3.528460688889026
 10
4.803319272468797
 20
5.618460687808692
 10
8.543319272459484
 20
11.41846068948507
 10
9.333319272496737
 20
11.45846068952232
 10
12.88331927231047
 20
11.62846068944782
 10
14.21331927250139
 20
22.44846068881452
 10
11.32331927248742
 20
23.11846068780869
 10
12.61331927240826
 20
28.59846068918705
 10
11.94331927248277
 20
28.74846068955958
 10
10.8033192724688
 20
23.3884606892243
 10
2.883319272426888
 20
26.08846068941057
 10
2.123319272417575
 20
24.41846068948507
 10
2.113319272408261
 20
24.39846068900079
 10
2.673319272464141
 20
23.41846068948507
 10
-2.096680727554485
 20
13.02846068888902
 10
0.2833192724501714
 20
11.94846068881452
 10
3.913319272454828
 20
10.28846068959683
 10
5.083319272496737
 20
9.758460689336061
 10
1.673319272464141
 20
2.368460687808692
 10
3.663319272454828
 20
1.488460687920451
 10
2.393319272436201
 20
-1.381539311259984
 10
-3.696680727531202
 20
-15.18153931107372
 10
-20.20668072754052
 20
-7.951539310626685
 10
-14.04668072750792
 20
5.958460690453648
 10
-13.16668072750326
 20
7.738460688851773
 10
-9.326680727419443
 20
16.2784606879577
 10
-4.346680727554485
 20
27.2784606879577
 10
-3.886680727591738
 20
28.29846068937332
 10
-0.9766807275591418
 20
34.18846068903804
 10
1.40331927256193
 20
39.00846068933606
1001
ACAD
1000
RTMaterial
1005
EC
1000
RTMaterial
1005
0
1001
IRD
1002
{
1000
TPMLINK_EDIFICIO-_-ade
1070
   515
1071
        1
1004
0100472000004706000047060000000000000CF3650C96F673400CF3650C96F6734000000000D31A0000
1002
}
  0
ENDBLK
  5
9173
330
916E
100
AcDbEntity
  8
0
100
AcDbBlockEnd
  0
ENDSEC
  0
SECTION
  2
ENTITIES
  0
LWPOLYLINE
  5
3658
330
1F
100
AcDbEntity
  8
0
 62
     1
100
AcDbPolyline
 90
        4
 70
     1
 43
0.0
 10
2974.150766262228
 20
914.832605090417
 10
3021.530376302274
 20
914.832605090417
 10
3021.530376302274
 20
847.9093292968554
 10
2974.150766262228
 20
847.9093292968554
  0
MTEXT
  5
3659
330
1F
100
AcDbEntity
  8
0
100
AcDbMText
 10
2987.430814205634
 20
894.0673577912448
 30
0.0
 40
3.0
 41
942.7166960848172
 46
0.0
 71
     1
 72
     5
  1
14. Lokala
 73
     1
 44
1.0
1001
ACAD
1000
ACAD_MTEXT_COLUMN_INFO_BEGIN
1070
    75
1070
     2
1070
    79
1070
     0
1070
    76
1070
     1
1070
    78
1070
     0
1070
    48
1040
942.7166960848172
1070
    49
1040
12.5
1070
    50
1070
     1
1040
0.0
1000
ACAD_MTEXT_COLUMN_INFO_END
  0
HATCH
  5
65E9
330
1F
100
AcDbEntity
  8
1.3. Eskala grafikoa
100
AcDbHatch
 10
0.0
 20
0.0
 30
0.0
210
0.0
220
0.0
230
1.0
  2
SOLID
 70
     1
 71
     0
 91
        1
 92
        5
 93
        4
 72
     1
 10
2969.289409011017
 20
913.5083864829356
 11
2969.289409011017
 21
913.5079127058597
 72
     1
 10
2969.289409011017
 20
913.5079127058597
 11
2969.294409011017
 21
913.5079127058597
 72
     1
 10
2969.294409011017
 20
913.5079127058597
 11
2969.294409011017
 21
913.5083864829356
 72
     1
 10
2969.294409011017
 20
913.5083864829356
 11
2969.289409011017
 21
913.5083864829356
 97
        0
 75
     1
 76
     1
 47
0.0000355507141102
 98
        1
 10
2969.291909011017
 20
913.5081495943977
450
        0
451
        0
460
0.0
461
0.0
452
        0
462
1.0
453
        2
463
0.0
 63
     5
421
      255
463
1.0
 63
     2
421
 16776960
470
LINEAR
1001
GradientColor1ACI
1070
     5
1001
GradientColor2ACI
1070
     2
1001
ACAD
1010
0.0
1020
0.0
1030
0.0
  0
HATCH
  5
65EA
330
1F
100
AcDbEntity
  8
1.3. Eskala grafikoa
100
AcDbHatch
 10
0.0
 20
0.0
 30
0.0
210
0.0
220
0.0
230
1.0
  2
SOLID
 70
     1
 71
     0
 91
        1
 92
        7
 72
     0
 73
     1
 93
        4
 10
2969.314409011017
 20
913.5083864829356
 10
2969.304409011017
 20
913.5083864829356
 10
2969.304409011017
 20
913.5079127058597
 10
2969.314409011017
 20
913.5079127058597
 97
        0
 75
     1
 76
     1
 47
0.0000355507141102
 98
        1
 10
2969.310580031298
 20
913.5080598509668
450
        0
451
        0
460
0.0
461
0.0
452
        0
462
1.0
453
        2
463
0.0
 63
     5
421
      255
463
1.0
 63
     2
421
 16776960
470
LINEAR
1001
GradientColor1ACI
1070
     5
1001
GradientColor2ACI
1070
     2
1001
ACAD
1010
0.0
1020
0.0
1030
0.0
  0
HATCH
  5
65EB
330
1F
100
AcDbEntity
  8
1.3. Eskala grafikoa
100
AcDbHatch
 10
0.0
 20
0.0
 30
0.0
210
0.0
220
0.0
230
1.0
  2
SOLID
 70
     1
 71
     0
 91
        1
 92
        7
 72
     0
 73
     1
 93
        4
 10
2969.304409011017
 20
913.5079127058597
 10
2969.294409011017
 20
913.5079127058597
 10
2969.294409011017
 20
913.5074389287836
 10
2969.304409011016
 20
913.5074389287836
 97
        0
 75
     1
 76
     1
 47
0.0000355507141102
 98
        1
 10
2969.298796890282
 20
913.5076095330223
450
        0
451
        0
460
0.0
461
0.0
452
        0
462
1.0
453
        2
463
0.0
 63
     5
421
      255
463
1.0
 63
     2
421
 16776960
470
LINEAR
1001
GradientColor1ACI
1070
     5
1001
GradientColor2ACI
1070
     2
1001
ACAD
1010
0.0
1020
0.0
1030
0.0
  0
HATCH
  5
65EC
330
1F
100
AcDbEntity
  8
1.3. Eskala grafikoa
100
AcDbHatch
 10
0.0
 20
0.0
 30
0.0
210
0.0
220
0.0
230
1.0
  2
SOLID
 70
     1
 71
     0
 91
        1
 92
        7
 72
     0
 73
     1
 93
        4
 10
2969.324409011017
 20
913.5079127058597
 10
2969.314409011017
 20
913.5079127058597
 10
2969.314409011017
 20
913.5074389287836
 10
2969.324409011017
 20
913.5074389287836
 97
        0
 75
     1
 76
     1
 47
0.0000355507141102
 98
        1
 10
2969.32118030474
 20
913.5077526368114
450
        0
451
        0
460
0.0
461
0.0
452
        0
462
1.0
453
        2
463
0.0
 63
     5
421
      255
463
1.0
 63
     2
421
 16776960
470
LINEAR
1001
GradientColor1ACI
1070
     5
1001
GradientColor2ACI
1070
     2
1001
ACAD
1010
0.0
1020
0.0
1030
0.0
  0
HATCH
  5
65ED
330
1F
100
AcDbEntity
  8
1.3. Eskala grafikoa
100
AcDbHatch
 10
0.0
 20
0.0
 30
0.0
210
0.0
220
0.0
230
1.0
  2
SOLID
 70
     1
 71
     0
 91
        1
 92
        5
 93
        4
 72
     1
 10
2969.284409011016
 20
913.5079127058597
 11
2969.284409011016
 21
913.5074389287836
 72
     1
 10
2969.284409011016
 20
913.5074389287836
 11
2969.289409011016
 21
913.5074389287836
 72
     1
 10
2969.289409011016
 20
913.5074389287836
 11
2969.289409011016
 21
913.5079127058597
 72
     1
 10
2969.289409011016
 20
913.5079127058597
 11
2969.284409011016
 21
913.5079127058597
 97
        0
 75
     1
 76
     1
 47
0.0000355507141102
 98
        1
 10
2969.286909011016
 20
913.5076758173216
450
        0
451
        0
460
0.0
461
0.0
452
        0
462
1.0
453
        2
463
0.0
 63
     5
421
      255
463
1.0
 63
     2
421
 16776960
470
LINEAR
1001
GradientColor1ACI
1070
     5
1001
GradientColor2ACI
1070
     2
1001
ACAD
1010
0.0
1020
0.0
1030
0.0
  0
LWPOLYLINE
  5
6647
330
1F
100
AcDbEntity
  8
0
100
AcDbPolyline
 90
        4
 70
     1
 43
0.0
 10
2969.353538276678
 20
913.4942047235044
 10
2969.353538276678
 20
913.7912047235046
 10
2969.143538276678
 20
913.7912047235046
 10
2969.143538276678
 20
913.4942047235044
  0
MTEXT
  5
6648
330
1F
100
AcDbEntity
  8
1.4. Idatzia
100
AcDbMText
 10
2969.284446061922
 20
913.513447617065
 30
0.0
 40
0.0018
 41
0.0172399289914779
 46
0.0
 71
     1
 72
     5
  1
{\fCalibri Light|b1|i0|c0|p34;E:\fCalibri Light|b0|i0|c0|p34; 1/100}
 73
     1
 44
1.0
  0
MTEXT
  5
6649
330
1F
100
AcDbEntity
  8
1.4. Idatzia
100
AcDbMText
 10
2969.179255306505
 20
913.5163720204246
 30
0.0
 40
0.0025
 41
0.1852149973614974
 46
0.0
 71
     1
 72
     5
  1
{\fCalibri Light|b1|i0|c0|p34;Katastro zk.\fCalibri Light|b0|i0|c0|p34;: 7791304}
 73
     1
 44
1.0
  0
MTEXT
  5
664A
330
1F
100
AcDbEntity
  8
1.4. Idatzia
100
AcDbMText
 10
2969.179254187721
 20
913.5242110173763
 30
0.0
 40
0.0025
 41
0.1852149973614974
 46
0.0
 71
     1
 72
     5
  1
{\fCalibri Light|b1|i0|c0|p34;Kokapena\fCalibri Light|b0|i0|c0|p34;: ETXEBESTE KALEA, 7. 20170 USURBIL}
 73
     1
 44
1.0
  0
LINE
  5
664B
330
1F
100
AcDbEntity
  8
1.3. Eskala grafikoa
 48
0.01
100
AcDbLine
 10
2969.284409011016
 20
913.5074389287836
 30
0.0
 11
2969.324409011017
 21
913.5074389287836
 31
0.0
  0
LINE
  5
664C
330
1F
100
AcDbEntity
  8
1.3. Eskala grafikoa
 48
0.01
100
AcDbLine
 10
2969.284409011016
 20
913.5083864829356
 30
0.0
 11
2969.284409011016
 21
913.5074389287836
 31
0.0
  0
LINE
  5
664D
330
1F
100
AcDbEntity
  8
1.3. Eskala grafikoa
 48
0.01
100
AcDbLine
 10
2969.294409011017
 20
913.5083864829356
 30
0.0
 11
2969.294409011017
 21
913.5074389287836
 31
0.0
  0
LINE
  5
664E
330
1F
100
AcDbEntity
  8
1.3. Eskala grafikoa
 48
0.01
100
AcDbLine
 10
2969.304409011017
 20
913.5083864829356
 30
0.0
 11
2969.304409011017
 21
913.5074389287836
 31
0.0
  0
LINE
  5
664F
330
1F
100
AcDbEntity
  8
1.3. Eskala grafikoa
 48
0.01
100
AcDbLine
 10
2969.314409011017
 20
913.5083864829356
 30
0.0
 11
2969.314409011017
 21
913.5074389287836
 31
0.0
  0
LINE
  5
6650
330
1F
100
AcDbEntity
  8
1.3. Eskala grafikoa
 48
0.01
100
AcDbLine
 10
2969.324409011017
 20
913.5083864829356
 30
0.0
 11
2969.324409011017
 21
913.5074389287836
 31
0.0
  0
MTEXT
  5
6651
330
1F
100
AcDbEntity
  8
1.3. Eskala grafikoa
100
AcDbMText
 10
2969.28421166557
 20
913.5070629512785
 30
0.0
 40
0.001
 41
0.0010406224438389
 46
0.0
 71
     1
 72
     5
  1
{\fCalibri Light|b0|i0|c0|p34;0}
 73
     1
 44
1.0
  0
MTEXT
  5
6652
330
1F
100
AcDbEntity
  8
1.4. Idatzia
100
AcDbMText
 10
2969.241504234318
 20
913.5083104375535
 30
0.0
 40
0.0025
 41
0.0273770814300611
 46
0.0
 71
     1
 72
     5
  1
{\fCalibri Light|b0|i0|c0|p34;Martxoak 2019}
 73
     1
 44
1.0
  0
MTEXT
  5
6653
330
1F
100
AcDbEntity
  8
1.4. Idatzia
100
AcDbMText
 10
2969.285821015172
 20
913.5221568855746
 30
0.0
 40
0.0025
 41
0.0373092422454125
 46
0.0
 71
     1
 72
     5
  1
{\fCalibri Light|b1|i0|c0|p34;Planoa:\fCalibri Light|b0|i0|c0|p34; BEHE OINA}
 73
     1
 44
1.0
  0
MTEXT
  5
6654
330
1F
100
AcDbEntity
  8
1.4. Idatzia
100
AcDbMText
 10
2969.17945008304
 20
913.5346932480956
 30
0.0
 40
0.004
 41
0.1447549525279904
 46
0.0
 71
     1
 72
     5
  1
{\fLucida Sans Unicode|b1|i0|c0|p34;MERKATARITZA LOKAL HUTSAK}
 73
     1
 44
1.0
  0
LINE
  5
6655
330
1F
100
AcDbEntity
  8
1.6. Marra2
100
AcDbLine
 10
2969.154182613502
 20
913.5103195605761
 30
0.0
 11
2969.154182613502
 21
913.5047372489379
 31
0.0
  0
IMAGE
  5
6656
330
1F
100
AcDbEntity
  8
1.1. Armarria
 62
     7
420
 16777215
160
               140
310
8C00000001000000840000000600000005000000DDEDBA3F4F32A740EC165006188C8C400000000000000000DDEDBA3F4F32A740A09EE2124B8C8C400000000000000000EB36F4225A32A740A09EE2124B8C8C400000000000000000EB36F4225A32A740EC165006188C8C400000000000000000DDEDBA3F4F32A740EC1650
310
06188C8C400000000000000000
100
AcDbRasterImage
 90
        0
 10
2969.154783097778
 20
913.5117307908053
 30
0.0
 11
0.0001408266873892
 21
0.0
 31
0.0
 12
0.0
 22
0.0001408266873892
 32
0.0
 13
151.0
 23
177.0
340
2E2
 70
     7
280
     0
281
    50
282
    50
283
     0
290
     0
360
6657
 71
     1
 91
        2
 14
-0.5
 24
-0.5
 14
150.5
 24
176.5
  0
LINE
  5
6658
330
1F
100
AcDbEntity
  8
1.6. Marra2
100
AcDbLine
 10
2969.274394277499
 20
913.5047372489379
 30
0.0
 11
2969.274394277499
 21
913.5103195605761
 31
0.0
  0
MTEXT
  5
6659
330
1F
100
AcDbEntity
  8
1.4. Idatzia
100
AcDbMText
 10
2969.179219419785
 20
913.5088486542422
 30
0.0
 40
0.0025
 41
0.0410971974865084
 46
0.0
 71
     1
 72
     5
  1
{\fCalibri Light|b1|i0|c0|p34;Eraikuntza urtea\fCalibri Light|b0|i0|c0|p34;: 1900}
 73
     1
 44
1.0
  0
LWPOLYLINE
  5
665A
330
1F
100
AcDbEntity
  8
1.5. Marra1
100
AcDbPolyline
 90
        2
 70
     0
 43
0.0004
 10
2969.177399743964
 20
913.5288562686945
 10
2969.272158653394
 20
913.5288562686911
  0
LWPOLYLINE
  5
665B
330
1F
100
AcDbEntity
  8
1.5. Marra1
100
AcDbPolyline
 90
        3
 70
     0
 43
0.0003531510107016
 10
2969.284409011016
 20
913.5216517664456
 10
2969.284409011016
 20
913.5185323059626
 10
2969.324409011017
 20
913.5185323059626
  0
LWPOLYLINE
  5
665C
330
1F
100
AcDbEntity
  8
1.5. Marra1
100
AcDbPolyline
 90
        3
 70
     0
 43
0.0003531510107016
 10
2969.284409011016
 20
913.5257368082115
 10
2969.284409011016
 20
913.5288562686945
 10
2969.324409011017
 20
913.5288562686945
  0
LWPOLYLINE
  5
665D
330
1F
100
AcDbEntity
  8
1.6. Marra2
100
AcDbPolyline
 90
        2
 70
     0
 43
0.0002683175052431
 10
2969.277505921264
 20
913.5042047235044
 10
2969.277505921264
 20
913.5288562686929
  0
LWPOLYLINE
  5
665E
330
1F
100
AcDbEntity
  8
1.6. Marra2
100
AcDbPolyline
 90
        2
 70
     0
 43
0.0002683175052431
 10
2969.275950099382
 20
913.5042047235044
 10
2969.275950099382
 20
913.5288562686929
  0
LWPOLYLINE
  5
665F
330
1F
100
AcDbEntity
  8
1.6. Marra2
100
AcDbPolyline
 90
        2
 70
     0
 43
0.0002683175052431
 10
2969.276772043018
 20
913.5042047235044
 10
2969.276772043018
 20
913.5288562686929
  0
LWPOLYLINE
  5
6660
330
1F
100
AcDbEntity
  8
1.6. Marra2
100
AcDbPolyline
 90
        2
 70
     0
 43
0.0002683175052431
 10
2969.274394277499
 20
913.5042047235044
 10
2969.274394277499
 20
913.5288562686929
  0
LWPOLYLINE
  5
6661
330
1F
100
AcDbEntity
  8
1.6. Marra2
100
AcDbPolyline
 90
        2
 70
     0
 43
0.0002683175052431
 10
2969.275216221135
 20
913.5042047235044
 10
2969.275216221135
 20
913.5288562686929
  0
LWPOLYLINE
  5
6662
330
1F
100
AcDbEntity
  8
1.6. Marra2
100
AcDbPolyline
 90
        2
 70
     0
 43
0.0002683175052431
 10
2969.280617565029
 20
913.5042047235044
 10
2969.280617565029
 20
913.5288562686929
  0
LWPOLYLINE
  5
6663
330
1F
100
AcDbEntity
  8
1.6. Marra2
100
AcDbPolyline
 90
        2
 70
     0
 43
0.0002683175052431
 10
2969.279061743147
 20
913.5042047235044
 10
2969.279061743147
 20
913.5288562686929
  0
LWPOLYLINE
  5
6664
330
1F
100
AcDbEntity
  8
1.6. Marra2
100
AcDbPolyline
 90
        2
 70
     0
 43
0.0002683175052431
 10
2969.279883686782
 20
913.5042047235044
 10
2969.279883686782
 20
913.5288562686929
  0
LWPOLYLINE
  5
6665
330
1F
100
AcDbEntity
  8
1.6. Marra2
100
AcDbPolyline
 90
        2
 70
     0
 43
0.0002683175052431
 10
2969.2783278649
 20
913.5042047235044
 10
2969.2783278649
 20
913.5288562686929
  0
LWPOLYLINE
  5
6666
330
1F
100
AcDbEntity
  8
1.6. Marra2
100
AcDbPolyline
 90
        2
 70
     0
 43
0.0002683175052431
 10
2969.282173386912
 20
913.5042047235044
 10
2969.282173386912
 20
913.5288562686929
  0
LWPOLYLINE
  5
6667
330
1F
100
AcDbEntity
  8
1.6. Marra2
100
AcDbPolyline
 90
        2
 70
     0
 43
0.0002683175052431
 10
2969.281439508665
 20
913.5042047235044
 10
2969.281439508665
 20
913.5288562686929
  0
LINE
  5
6668
330
1F
100
AcDbEntity
  8
1.6. Marra2
100
AcDbLine
 10
2969.27201651198
 20
913.5047372489379
 30
0.0
 11
2969.27201651198
 21
913.5103195605761
 31
0.0
  0
LWPOLYLINE
  5
6669
330
1F
100
AcDbEntity
  8
1.6. Marra2
100
AcDbPolyline
 90
        2
 70
     0
 43
0.0002683175052431
 10
2969.273572333863
 20
913.5042047235044
 10
2969.273572333863
 20
913.5103195605761
  0
LWPOLYLINE
  5
666A
330
1F
100
AcDbEntity
  8
1.6. Marra2
100
AcDbPolyline
 90
        2
 70
     0
 43
0.0002683175052431
 10
2969.272016511981
 20
913.5042047235044
 10
2969.272016511981
 20
913.5103195605761
  0
LWPOLYLINE
  5
666B
330
1F
100
AcDbEntity
  8
1.6. Marra2
100
AcDbPolyline
 90
        2
 70
     0
 43
0.0002683175052431
 10
2969.272838455616
 20
913.5042047235044
 10
2969.272838455616
 20
913.5103195605761
  0
LINE
  5
666C
330
1F
100
AcDbEntity
  8
1.6. Marra2
100
AcDbLine
 10
2969.269638746461
 20
913.5047372489379
 30
0.0
 11
2969.269638746461
 21
913.5103195605761
 31
0.0
  0
LWPOLYLINE
  5
666D
330
1F
100
AcDbEntity
  8
1.6. Marra2
100
AcDbPolyline
 90
        2
 70
     0
 43
0.0002683175052431
 10
2969.271194568344
 20
913.5042047235044
 10
2969.271194568344
 20
913.5103195605761
  0
LWPOLYLINE
  5
666E
330
1F
100
AcDbEntity
  8
1.6. Marra2
100
AcDbPolyline
 90
        2
 70
     0
 43
0.0002683175052431
 10
2969.269638746462
 20
913.5042047235044
 10
2969.269638746462
 20
913.5103195605761
  0
LWPOLYLINE
  5
666F
330
1F
100
AcDbEntity
  8
1.6. Marra2
100
AcDbPolyline
 90
        2
 70
     0
 43
0.0002683175052431
 10
2969.270460690097
 20
913.5042047235044
 10
2969.270460690097
 20
913.5103195605761
  0
LINE
  5
6670
330
1F
100
AcDbEntity
  8
1.6. Marra2
100
AcDbLine
 10
2969.15656037902
 20
913.5047372489379
 30
0.0
 11
2969.15656037902
 21
913.5103195605761
 31
0.0
  0
LWPOLYLINE
  5
6671
330
1F
100
AcDbEntity
  8
1.6. Marra2
100
AcDbPolyline
 90
        2
 70
     0
 43
0.0002683175052431
 10
2969.158116200903
 20
913.5042047235044
 10
2969.158116200903
 20
913.5103195605761
  0
LWPOLYLINE
  5
6672
330
1F
100
AcDbEntity
  8
1.6. Marra2
100
AcDbPolyline
 90
        2
 70
     0
 43
0.0002683175052431
 10
2969.156560379021
 20
913.5042047235044
 10
2969.156560379021
 20
913.5103195605761
  0
LWPOLYLINE
  5
6673
330
1F
100
AcDbEntity
  8
1.6. Marra2
100
AcDbPolyline
 90
        2
 70
     0
 43
0.0002683175052431
 10
2969.157382322656
 20
913.5042047235044
 10
2969.157382322656
 20
913.5103195605761
  0
LWPOLYLINE
  5
6674
330
1F
100
AcDbEntity
  8
1.6. Marra2
100
AcDbPolyline
 90
        2
 70
     0
 43
0.0002683175052431
 10
2969.155738435384
 20
913.5042047235044
 10
2969.155738435384
 20
913.5103195605761
  0
LWPOLYLINE
  5
6675
330
1F
100
AcDbEntity
  8
1.6. Marra2
100
AcDbPolyline
 90
        2
 70
     0
 43
0.0002683175052431
 10
2969.155004557137
 20
913.5042047235044
 10
2969.155004557137
 20
913.5103195605761
  0
LWPOLYLINE
  5
6676
330
1F
100
AcDbEntity
  8
1.6. Marra2
100
AcDbPolyline
 90
        2
 70
     0
 43
0.0002683175052431
 10
2969.154270678891
 20
913.5042047235044
 10
2969.154270678891
 20
913.5103195605761
  0
LINE
  5
6677
330
1F
100
AcDbEntity
  8
1.6. Marra2
100
AcDbLine
 10
2969.160405901032
 20
913.5047372489379
 30
0.0
 11
2969.160405901032
 21
913.5103195605761
 31
0.0
  0
LWPOLYLINE
  5
6678
330
1F
100
AcDbEntity
  8
1.6. Marra2
100
AcDbPolyline
 90
        2
 70
     0
 43
0.0002683175052431
 10
2969.161961722915
 20
913.5042047235044
 10
2969.161961722915
 20
913.5103195605761
  0
LWPOLYLINE
  5
6679
330
1F
100
AcDbEntity
  8
1.6. Marra2
100
AcDbPolyline
 90
        2
 70
     0
 43
0.0002683175052431
 10
2969.160405901032
 20
913.5042047235044
 10
2969.160405901032
 20
913.5103195605761
  0
LWPOLYLINE
  5
667A
330
1F
100
AcDbEntity
  8
1.6. Marra2
100
AcDbPolyline
 90
        2
 70
     0
 43
0.0002683175052431
 10
2969.161227844669
 20
913.5042047235044
 10
2969.161227844669
 20
913.5103195605761
  0
LWPOLYLINE
  5
667B
330
1F
100
AcDbEntity
  8
1.6. Marra2
100
AcDbPolyline
 90
        2
 70
     0
 43
0.0002683175052431
 10
2969.159583957396
 20
913.5042047235044
 10
2969.159583957396
 20
913.5103195605761
  0
LWPOLYLINE
  5
667C
330
1F
100
AcDbEntity
  8
1.6. Marra2
100
AcDbPolyline
 90
        2
 70
     0
 43
0.0002683175052431
 10
2969.15885007915
 20
913.5042047235044
 10
2969.15885007915
 20
913.5103195605761
  0
LINE
  5
667D
330
1F
100
AcDbEntity
  8
1.6. Marra2
100
AcDbLine
 10
2969.164251423044
 20
913.5047372489379
 30
0.0
 11
2969.164251423044
 21
913.5103195605761
 31
0.0
  0
LWPOLYLINE
  5
667E
330
1F
100
AcDbEntity
  8
1.6. Marra2
100
AcDbPolyline
 90
        2
 70
     0
 43
0.0002683175052431
 10
2969.165807244927
 20
913.5042047235044
 10
2969.165807244927
 20
913.5103195605761
  0
LWPOLYLINE
  5
667F
330
1F
100
AcDbEntity
  8
1.6. Marra2
100
AcDbPolyline
 90
        2
 70
     0
 43
0.0002683175052431
 10
2969.164251423045
 20
913.5042047235044
 10
2969.164251423045
 20
913.5103195605761
  0
LWPOLYLINE
  5
6680
330
1F
100
AcDbEntity
  8
1.6. Marra2
100
AcDbPolyline
 90
        2
 70
     0
 43
0.0002683175052431
 10
2969.16507336668
 20
913.5042047235044
 10
2969.16507336668
 20
913.5103195605761
  0
LWPOLYLINE
  5
6681
330
1F
100
AcDbEntity
  8
1.6. Marra2
100
AcDbPolyline
 90
        2
 70
     0
 43
0.0002683175052431
 10
2969.163429479408
 20
913.5042047235044
 10
2969.163429479408
 20
913.5103195605761
  0
LWPOLYLINE
  5
6682
330
1F
100
AcDbEntity
  8
1.6. Marra2
100
AcDbPolyline
 90
        2
 70
     0
 43
0.0002683175052431
 10
2969.162695601161
 20
913.5042047235044
 10
2969.162695601161
 20
913.5103195605761
  0
LINE
  5
6683
330
1F
100
AcDbEntity
  8
1.6. Marra2
100
AcDbLine
 10
2969.168096945056
 20
913.5047372489379
 30
0.0
 11
2969.168096945056
 21
913.5103195605761
 31
0.0
  0
LWPOLYLINE
  5
6684
330
1F
100
AcDbEntity
  8
1.6. Marra2
100
AcDbPolyline
 90
        2
 70
     0
 43
0.0002683175052431
 10
2969.169652766939
 20
913.5042047235044
 10
2969.169652766939
 20
913.5103195605761
  0
LWPOLYLINE
  5
6685
330
1F
100
AcDbEntity
  8
1.6. Marra2
100
AcDbPolyline
 90
        2
 70
     0
 43
0.0002683175052431
 10
2969.168096945056
 20
913.5042047235044
 10
2969.168096945056
 20
913.5103195605761
  0
LWPOLYLINE
  5
6686
330
1F
100
AcDbEntity
  8
1.6. Marra2
100
AcDbPolyline
 90
        2
 70
     0
 43
0.0002683175052431
 10
2969.168918888692
 20
913.5042047235044
 10
2969.168918888692
 20
913.5103195605761
  0
LWPOLYLINE
  5
6687
330
1F
100
AcDbEntity
  8
1.6. Marra2
100
AcDbPolyline
 90
        2
 70
     0
 43
0.0002683175052431
 10
2969.16727500142
 20
913.5042047235044
 10
2969.16727500142
 20
913.5103195605761
  0
LWPOLYLINE
  5
6688
330
1F
100
AcDbEntity
  8
1.6. Marra2
100
AcDbPolyline
 90
        2
 70
     0
 43
0.0002683175052431
 10
2969.166541123174
 20
913.5042047235044
 10
2969.166541123174
 20
913.5103195605761
  0
LINE
  5
6689
330
1F
100
AcDbEntity
  8
1.6. Marra2
100
AcDbLine
 10
2969.170474710575
 20
913.5047372489379
 30
0.0
 11
2969.170474710575
 21
913.5103195605761
 31
0.0
  0
LWPOLYLINE
  5
668A
330
1F
100
AcDbEntity
  8
1.6. Marra2
100
AcDbPolyline
 90
        2
 70
     0
 43
0.0002683175052431
 10
2969.172030532458
 20
913.5042047235044
 10
2969.172030532458
 20
913.5103195605761
  0
LWPOLYLINE
  5
668B
330
1F
100
AcDbEntity
  8
1.6. Marra2
100
AcDbPolyline
 90
        2
 70
     0
 43
0.0002683175052431
 10
2969.170474710575
 20
913.5042047235044
 10
2969.170474710575
 20
913.5103195605761
  0
LWPOLYLINE
  5
668C
330
1F
100
AcDbEntity
  8
1.6. Marra2
100
AcDbPolyline
 90
        2
 70
     0
 43
0.0002683175052431
 10
2969.171296654211
 20
913.5042047235044
 10
2969.171296654211
 20
913.5103195605761
  0
LINE
  5
668D
330
1F
100
AcDbEntity
  8
1.6. Marra2
100
AcDbLine
 10
2969.172852476093
 20
913.5047372489379
 30
0.0
 11
2969.172852476093
 21
913.5103195605761
 31
0.0
  0
LWPOLYLINE
  5
668E
330
1F
100
AcDbEntity
  8
1.6. Marra2
100
AcDbPolyline
 90
        2
 70
     0
 43
0.0002683175052431
 10
2969.174408297977
 20
913.5042047235044
 10
2969.174408297977
 20
913.5103195605761
  0
LWPOLYLINE
  5
668F
330
1F
100
AcDbEntity
  8
1.6. Marra2
100
AcDbPolyline
 90
        2
 70
     0
 43
0.0002683175052431
 10
2969.172852476094
 20
913.5042047235044
 10
2969.172852476094
 20
913.5103195605761
  0
LWPOLYLINE
  5
6690
330
1F
100
AcDbEntity
  8
1.6. Marra2
100
AcDbPolyline
 90
        2
 70
     0
 43
0.0002683175052431
 10
2969.17367441973
 20
913.5042047235044
 10
2969.17367441973
 20
913.5103195605761
  0
LWPOLYLINE
  5
6691
330
1F
100
AcDbEntity
  8
1.6. Marra2
100
AcDbPolyline
 90
        2
 70
     0
 43
0.0002683175052431
 10
2969.175964119859
 20
913.5042047235044
 10
2969.175964119859
 20
913.5103195605761
  0
LWPOLYLINE
  5
6692
330
1F
100
AcDbEntity
  8
1.6. Marra2
100
AcDbPolyline
 90
        2
 70
     0
 43
0.0002683175052431
 10
2969.175230241612
 20
913.5042047235044
 10
2969.175230241612
 20
913.5103195605761
  0
LINE
  5
6693
330
1F
100
AcDbEntity
  8
1.7. Ventanas Gráficas
100
AcDbLine
 10
2969.348538276678
 20
913.5442047235043
 30
0.0
 11
2969.148538276678
 21
913.5442047235043
 31
0.0
  0
LINE
  5
6694
330
1F
100
AcDbEntity
  8
1.3. Eskala grafikoa
 48
0.01
100
AcDbLine
 10
2969.284409011016
 20
913.5083864829356
 30
0.0
 11
2969.324409011017
 21
913.5083864829356
 31
0.0
  0
LINE
  5
6695
330
1F
100
AcDbEntity
  8
1.3. Eskala grafikoa
 48
0.01
100
AcDbLine
 10
2969.284409011016
 20
913.5083864829356
 30
0.0
 11
2969.324409011017
 21
913.5083864829356
 31
0.0
  0
LINE
  5
6696
330
1F
100
AcDbEntity
  8
1.3. Eskala grafikoa
 48
0.01
100
AcDbLine
 10
2969.284409011016
 20
913.5079127058597
 30
0.0
 11
2969.324409011017
 21
913.5079127058595
 31
0.0
  0
MTEXT
  5
6697
330
1F
100
AcDbEntity
  8
1.3. Eskala grafikoa
100
AcDbMText
 10
2969.294139267164
 20
913.5070629512785
 30
0.0
 40
0.001
 41
0.0010406224438389
 46
0.0
 71
     1
 72
     5
  1
{\fCalibri Light|b0|i0|c0|p34;1}
 73
     1
 44
1.0
  0
MTEXT
  5
6698
330
1F
100
AcDbEntity
  8
1.3. Eskala grafikoa
100
AcDbMText
 10
2969.304139267165
 20
913.5070629512785
 30
0.0
 40
0.001
 41
0.0010406224438389
 46
0.0
 71
     1
 72
     5
  1
{\fCalibri Light|b0|i0|c0|p34;2}
 73
     1
 44
1.0
  0
MTEXT
  5
6699
330
1F
100
AcDbEntity
  8
1.3. Eskala grafikoa
100
AcDbMText
 10
2969.314139267165
 20
913.5070629512785
 30
0.0
 40
0.001
 41
0.0010406224438389
 46
0.0
 71
     1
 72
     5
  1
{\fCalibri Light|b0|i0|c0|p34;3}
 73
     1
 44
1.0
  0
MTEXT
  5
669A
330
1F
100
AcDbEntity
  8
1.3. Eskala grafikoa
100
AcDbMText
 10
2969.324139267165
 20
913.5070629512785
 30
0.0
 40
0.001
 41
0.0010406224438389
 46
0.0
 71
     1
 72
     5
  1
{\fCalibri Light|b0|i0|c0|p34;4m}
 73
     1
 44
1.0
  0
MTEXT
  5
669B
330
1F
100
AcDbEntity
  8
1.3. Eskala grafikoa
100
AcDbMText
 10
2969.288573187933
 20
913.5070629512785
 30
0.0
 40
0.001
 41
0.0010406224438389
 46
0.0
 71
     1
 72
     5
  1
{\fCalibri Light|b0|i0|c0|p34;0.5}
 73
     1
 44
1.0
  0
MTEXT
  5
669C
330
1F
100
AcDbEntity
  8
1.4. Idatzia
100
AcDbMText
 10
2969.332237309902
 20
913.5083104375535
 30
0.0
 40
0.002
 41
0.0273770814300611
 46
0.0
 71
     1
 72
     5
  1
{\fCalibri Light|b0|i0|c0|p34;Lokal zk.}
 73
     1
 44
1.0
  0
MTEXT
  5
669D
330
1F
100
AcDbEntity
  8
1.4. Idatzia
100
AcDbMText
 10
2969.327996579707
 20
913.5259771917924
 30
0.0
 40
0.012
 41
0.0273770814300611
 46
0.0
 71
     1
 72
     5
  1
{\fMicrosoft Sans Serif|b0|i0|c0|p34;14}
 73
     1
 44
1.0
  0
LWPOLYLINE
  5
669E
330
1F
100
AcDbEntity
  8
1.7. Ventanas Gráficas
100
AcDbPolyline
 90
        4
 70
     1
 43
0.0
 10
2969.148538276678
 20
913.4992047235044
 10
2969.348538276678
 20
913.4992047235044
 10
2969.348538276678
 20
913.7812047235044
 10
2969.148538276678
 20
913.7812047235044
  0
MTEXT
  5
669F
330
1F
100
AcDbEntity
  8
1.4. Idatzia
100
AcDbMText
 10
2969.24144234342
 20
913.5163720204243
 30
0.0
 40
0.0025
 41
0.1852149973614974
 46
0.0
 71
     1
 72
     5
  1
{\fCalibri Light|b1|i0|c0|p34;Finka zk.\fCalibri Light|b0|i0|c0|p34;: 5020087G}
 73
     1
 44
1.0
  0
MTEXT
  5
6729
330
1F
100
AcDbEntity
  8
7.2. Idatzia
100
AcDbMText
 10
2997.408994060811
 20
870.531961391922
 30
0.0
 40
0.25
 41
3.934541634584093
 46
0.0
 71
     1
 72
     5
  1
H=2.35m
 73
     1
 44
1.0
1001
ACAD
1000
ACAD_MTEXT_COLUMN_INFO_BEGIN
1070
    75
1070
     2
1070
    79
1070
     0
1070
    76
1070
     1
1070
    78
1070
     0
1070
    48
1040
3.934541634584093
1070
    49
1040
12.5
1070
    50
1070
     1
1040
0.0
1000
ACAD_MTEXT_COLUMN_INFO_END
  0
LINE
  5
6ABC
102
{ACAD_REACTORS
330
6DA1
330
6DE1
102
}
330
1F
100
AcDbEntity
  8
2.1. Kanpo Horma
  6
ByBlock
100
AcDbLine
 10
2994.689191234462
 20
882.0960467798563
 30
0.0
 11
3001.649191234462
 21
882.0960467798563
 31
0.0
  0
LINE
  5
6ABE
102
{ACAD_REACTORS
330
6DA1
330
6EF1
102
}
330
1F
100
AcDbEntity
  8
2.1. Kanpo Horma
  6
ByBlock
100
AcDbLine
 10
2994.889191234462
 20
881.5960467798563
 30
0.0
 11
3001.449191234462
 21
881.5960467798563
 31
0.0
  0
LINE
  5
6ABF
102
{ACAD_REACTORS
330
6DA1
330
6E41
330
6E71
330
6EA5
330
6ED9
330
6EF1
102
}
330
1F
100
AcDbEntity
  8
2.3. Mehelina
  6
ByBlock
100
AcDbLine
 10
3001.649191234462
 20
882.0960467798563
 30
0.0
 11
3001.649191234462
 21
863.3774833560211
 31
0.0
  0
LINE
  5
6AC4
102
{ACAD_REACTORS
330
6DA1
330
6DA8
330
6F7E
330
70A3
102
}
330
1F
100
AcDbEntity
  8
2.3. Mehelina
  6
ByBlock
100
AcDbLine
 10
3001.449191234462
 20
881.5960467798563
 30
0.0
 11
3001.449191234462
 21
878.0559992170234
 31
0.0
  0
LINE
  5
6AC5
102
{ACAD_REACTORS
330
6DA1
330
6DF9
330
6E29
102
}
330
1F
100
AcDbEntity
  8
2.1. Kanpo Horma
  6
ByBlock
100
AcDbLine
 10
3001.649191234462
 20
863.3774833560211
 30
0.0
 11
3000.749191234461
 21
863.3774833560211
 31
0.0
  0
LINE
  5
6AC6
102
{ACAD_REACTORS
330
6DA1
330
6DF9
102
}
330
1F
100
AcDbEntity
  8
2.1. Kanpo Horma
  6
ByBlock
100
AcDbLine
 10
2999.269191234462
 20
863.3774833560211
 30
0.0
 11
2997.660935243148
 21
863.3774833560211
 31
0.0
  0
LINE
  5
6AC7
102
{ACAD_REACTORS
330
6DA1
330
6ED9
102
}
330
1F
100
AcDbEntity
  8
2.1. Kanpo Horma
  6
ByBlock
100
AcDbLine
 10
3001.449191234462
 20
863.8774833560212
 30
0.0
 11
3000.749191234461
 21
863.8774833560212
 31
0.0
  0
LINE
  5
6AC8
102
{ACAD_REACTORS
330
6DA1
102
}
330
1F
100
AcDbEntity
  8
2.1. Kanpo Horma
  6
ByBlock
100
AcDbLine
 10
2999.269191234462
 20
863.877483356021
 30
0.0
 11
2997.860935243149
 21
863.8774833560212
 31
0.0
  0
LINE
  5
6AC9
102
{ACAD_REACTORS
330
6DA1
330
6E29
102
}
330
1F
100
AcDbEntity
  8
2.3. Mehelina
  6
ByBlock
100
AcDbLine
 10
2997.660935243148
 20
863.3774833560211
 30
0.0
 11
2997.660935243148
 21
865.7219404019777
 31
0.0
  0
LINE
  5
6ACA
102
{ACAD_REACTORS
330
6DA1
330
6DF9
102
}
330
1F
100
AcDbEntity
  8
2.3. Mehelina
  6
ByBlock
100
AcDbLine
 10
2997.860935243149
 20
863.8774833560212
 30
0.0
 11
2997.860935243149
 21
865.9219404019777
 31
0.0
  0
LINE
  5
6ACB
102
{ACAD_REACTORS
330
6DA1
330
6F3E
102
}
330
1F
100
AcDbEntity
  8
2.3. Mehelina
  6
ByBlock
100
AcDbLine
 10
2997.660935243148
 20
865.7219404019777
 30
0.0
 11
2994.689191234462
 21
865.7219404019777
 31
0.0
  0
LINE
  5
6ACD
102
{ACAD_REACTORS
330
6DA1
102
}
330
1F
100
AcDbEntity
  8
2.3. Mehelina
  6
ByBlock
100
AcDbLine
 10
2997.860935243149
 20
865.9219404019777
 30
0.0
 11
2994.889191234462
 21
865.9219404019777
 31
0.0
  0
LINE
  5
6ACE
330
1F
100
AcDbEntity
  8
2.2. Barne Horma
  6
ByBlock
100
AcDbLine
 10
2996.296238820232
 20
866.2819404019778
 30
0.0
 11
2996.096238820232
 21
866.2819404019776
 31
0.0
  0
LINE
  5
6ACF
102
{ACAD_REACTORS
330
6DA1
102
}
330
1F
100
AcDbEntity
  8
2.3. Mehelina
  6
ByBlock
100
AcDbLine
 10
2994.689191234462
 20
882.0960467798563
 30
0.0
 11
2994.689191234462
 21
865.7219404019777
 31
0.0
  0
LINE
  5
6AD4
102
{ACAD_REACTORS
330
6DA1
330
6DAF
330
6DE1
102
}
330
1F
100
AcDbEntity
  8
2.3. Mehelina
  6
ByBlock
100
AcDbLine
 10
2994.889191234462
 20
881.5960467798563
 30
0.0
 11
2994.889191234462
 21
878.0559992170234
 31
0.0
  0
LINE
  5
6AD5
102
{ACAD_REACTORS
330
6DA1
102
}
330
1F
100
AcDbEntity
  8
2.1. Kanpo Horma
  6
ByBlock
100
AcDbLine
 10
3000.749191234461
 20
863.3774833560211
 30
0.0
 11
3000.749191234461
 21
863.8774833560212
 31
0.0
  0
LINE
  5
6AD6
102
{ACAD_REACTORS
330
6DA1
102
}
330
1F
100
AcDbEntity
  8
2.1. Kanpo Horma
  6
ByBlock
100
AcDbLine
 10
2999.269191234462
 20
863.3774833560211
 30
0.0
 11
2999.269191234462
 21
863.8774833560212
 31
0.0
  0
LINE
  5
6AD7
102
{ACAD_REACTORS
330
6ED9
102
}
330
1F
100
AcDbEntity
  8
2.2. Barne Horma
  6
ByBlock
100
AcDbLine
 10
3001.449191234462
 20
866.7419404019776
 30
0.0
 11
2997.760935243149
 21
866.7419404019776
 31
0.0
  0
LINE
  5
6AD8
102
{ACAD_REACTORS
330
6EA5
330
6F6A
102
}
330
1F
100
AcDbEntity
  8
2.2. Barne Horma
  6
ByBlock
100
AcDbLine
 10
3001.449191234462
 20
866.8419404019777
 30
0.0
 11
2997.760935243149
 21
866.8419404019777
 31
0.0
  0
LWPOLYLINE
  5
6ADB
102
{ACAD_REACTORS
330
6DBD
102
}
330
1F
100
AcDbEntity
  8
2.2. Barne Horma
  6
ByBlock
100
AcDbPolyline
 90
        4
 70
     1
 43
0.0
 10
2998.07587381576
 20
868.4121640605255
 10
2998.42587381576
 20
868.4121640605255
 10
2998.42587381576
 20
868.7621640605255
 10
2998.07587381576
 20
868.7621640605255
  0
LWPOLYLINE
  5
6ADC
102
{ACAD_REACTORS
330
6F96
330
6FAA
102
}
330
1F
100
AcDbEntity
  8
2.2. Barne Horma
  6
ByBlock
100
AcDbPolyline
 90
        4
 70
     1
 43
0.0
 10
2998.01587381576
 20
868.3521640605256
 10
2998.48587381576
 20
868.3521640605256
 10
2998.48587381576
 20
868.8221640605256
 10
2998.01587381576
 20
868.8221640605256
  0
LWPOLYLINE
  5
6ADD
102
{ACAD_REACTORS
330
6DB6
330
8DA9
102
}
330
1F
100
AcDbEntity
  8
2.2. Barne Horma
  6
ByBlock
100
AcDbPolyline
 90
        4
 70
     1
 43
0.0
 10
2998.511783454937
 20
873.525719443179
 10
2998.861783454937
 20
873.525719443179
 10
2998.861783454937
 20
873.8757194431791
 10
2998.511783454937
 20
873.8757194431791
  0
LWPOLYLINE
  5
6ADE
102
{ACAD_REACTORS
330
8DA9
102
}
330
1F
100
AcDbEntity
  8
2.2. Barne Horma
  6
ByBlock
100
AcDbPolyline
 90
        4
 70
     1
 43
0.0
 10
2998.451783454937
 20
873.465719443179
 10
2998.921783454937
 20
873.465719443179
 10
2998.921783454937
 20
873.9357194431791
 10
2998.451783454937
 20
873.9357194431791
  0
LINE
  5
6ADF
330
1F
100
AcDbEntity
  8
2.2. Barne Horma
  6
ByBlock
100
AcDbLine
 10
2995.996238820233
 20
865.9219404019777
 30
0.0
 11
2995.996238820233
 21
867.4379998379047
 31
0.0
  0
LINE
  5
6AE0
330
1F
100
AcDbEntity
  8
2.2. Barne Horma
  6
ByBlock
100
AcDbLine
 10
2996.096238820232
 20
866.2819404019776
 30
0.0
 11
2996.096238820232
 21
867.5379998379048
 31
0.0
  0
LINE
  5
6AE1
102
{ACAD_REACTORS
330
6F21
102
}
330
1F
100
AcDbEntity
  8
2.2. Barne Horma
  6
ByBlock
100
AcDbLine
 10
2996.296238820232
 20
865.9219404019777
 30
0.0
 11
2996.296238820232
 21
866.2819404019776
 31
0.0
  0
LINE
  5
6AE2
330
1F
100
AcDbEntity
  8
2.2. Barne Horma
  6
ByBlock
100
AcDbLine
 10
2994.889191234462
 20
867.5379998379048
 30
0.0
 11
2995.032715027347
 21
867.5379998379048
 31
0.0
  0
LINE
  5
6AE3
330
1F
100
AcDbEntity
  8
2.2. Barne Horma
  6
ByBlock
100
AcDbLine
 10
2994.889191234462
 20
867.4379998379047
 30
0.0
 11
2995.032715027348
 21
867.4379998379047
 31
0.0
  0
LINE
  5
6AE4
102
{ACAD_REACTORS
330
6EA5
330
6FF4
330
8DA9
102
}
330
1F
100
AcDbEntity
  8
2.2. Barne Horma
  6
ByBlock
100
AcDbLine
 10
3001.449191234462
 20
874.2445660609442
 30
0.0
 11
2998.734763685918
 21
874.244566060944
 31
0.0
  0
LINE
  5
6AE5
102
{ACAD_REACTORS
330
8DA9
102
}
330
1F
100
AcDbEntity
  8
2.2. Barne Horma
  6
ByBlock
100
AcDbLine
 10
2995.836325619875
 20
874.244566060944
 30
0.0
 11
2994.889191234462
 21
874.2445660609442
 31
0.0
  0
LINE
  5
6AE6
102
{ACAD_REACTORS
330
6E71
330
8DA9
102
}
330
1F
100
AcDbEntity
  8
2.2. Barne Horma
  6
ByBlock
100
AcDbLine
 10
3001.449191234462
 20
874.3445660609442
 30
0.0
 11
2998.734763685918
 21
874.3445660609442
 31
0.0
  0
LINE
  5
6AE7
330
1F
100
AcDbEntity
  8
2.2. Barne Horma
  6
ByBlock
100
AcDbLine
 10
2997.764763685919
 20
874.3445660609442
 30
0.0
 11
2996.656325619875
 21
874.344566060944
 31
0.0
  0
LINE
  5
6AE8
330
1F
100
AcDbEntity
  8
2.2. Barne Horma
  6
ByBlock
100
AcDbLine
 10
2995.836325619875
 20
874.344566060944
 30
0.0
 11
2994.889191234462
 21
874.3445660609442
 31
0.0
  0
LINE
  5
6AE9
102
{ACAD_REACTORS
330
6DA8
330
6E71
330
8DA9
102
}
330
1F
100
AcDbEntity
  8
2.2. Barne Horma
  6
ByBlock
100
AcDbLine
 10
3001.449191234462
 20
877.5559992170235
 30
0.0
 11
2996.852160974597
 21
877.5559992170235
 31
0.0
  0
LINE
  5
6AEB
102
{ACAD_REACTORS
330
6DAF
102
}
330
1F
100
AcDbEntity
  8
2.2. Barne Horma
  6
ByBlock
100
AcDbLine
 10
2995.911589643477
 20
877.5559992170235
 30
0.0
 11
2994.889191234462
 21
877.5559992170235
 31
0.0
  0
LINE
  5
6AEE
102
{ACAD_REACTORS
330
6DA8
102
}
330
1F
100
AcDbEntity
  8
2.2. Barne Horma
  6
ByBlock
100
AcDbLine
 10
3001.449191234462
 20
878.0559992170234
 30
0.0
 11
2996.852160974597
 21
878.0559992170234
 31
0.0
  0
LINE
  5
6AEF
102
{ACAD_REACTORS
330
6DAF
102
}
330
1F
100
AcDbEntity
  8
2.2. Barne Horma
  6
ByBlock
100
AcDbLine
 10
2995.911589643477
 20
878.0559992170234
 30
0.0
 11
2994.889191234462
 21
878.0559992170234
 31
0.0
  0
LINE
  5
6AF0
102
{ACAD_REACTORS
330
8DA9
102
}
330
1F
100
AcDbEntity
  8
2.2. Barne Horma
  6
ByBlock
100
AcDbLine
 10
2997.864763685918
 20
874.3445660609442
 30
0.0
 11
2997.864763685918
 21
877.5559992170235
 31
0.0
  0
LINE
  5
6AF1
330
1F
100
AcDbEntity
  8
2.2. Barne Horma
  6
ByBlock
100
AcDbLine
 10
2997.764763685919
 20
874.3445660609442
 30
0.0
 11
2997.764763685919
 21
877.0947444709477
 31
0.0
  0
LINE
  5
6AF2
330
1F
100
AcDbEntity
  8
2.2. Barne Horma
  6
ByBlock
100
AcDbLine
 10
2997.764763685919
 20
877.0947444709477
 30
0.0
 11
2997.505838133759
 21
877.0947444709477
 31
0.0
  0
LINE
  5
6AF3
330
1F
100
AcDbEntity
  8
2.2. Barne Horma
  6
ByBlock
100
AcDbLine
 10
2997.505838133759
 20
877.0947444709477
 30
0.0
 11
2997.505838133759
 21
877.5559992170235
 31
0.0
  0
LINE
  5
6AF4
102
{ACAD_REACTORS
330
6DA8
102
}
330
1F
100
AcDbEntity
  8
2.2. Barne Horma
  6
ByBlock
100
AcDbLine
 10
2996.852160974597
 20
877.5559992170235
 30
0.0
 11
2996.852160974597
 21
878.0559992170235
 31
0.0
  0
LINE
  5
6AF5
102
{ACAD_REACTORS
330
6DAF
102
}
330
1F
100
AcDbEntity
  8
2.2. Barne Horma
  6
ByBlock
100
AcDbLine
 10
2995.911589643477
 20
877.5559992170235
 30
0.0
 11
2995.911589643477
 21
878.0559992170235
 31
0.0
  0
LINE
  5
6AF6
330
1F
100
AcDbEntity
  8
2.2. Barne Horma
  6
ByBlock
100
AcDbLine
 10
2995.836325619875
 20
874.244566060944
 30
0.0
 11
2995.836325619875
 21
874.344566060944
 31
0.0
  0
LINE
  5
6AF7
330
1F
100
AcDbEntity
  8
2.2. Barne Horma
  6
ByBlock
100
AcDbLine
 10
2996.656325619875
 20
874.2445660609442
 30
0.0
 11
2996.656325619875
 21
874.3445660609442
 31
0.0
  0
LINE
  5
6AF8
330
1F
100
AcDbEntity
  8
2.2. Barne Horma
  6
ByBlock
100
AcDbLine
 10
2996.508275690258
 20
881.5960467798563
 30
0.0
 11
2996.508275690258
 21
880.0209633121575
 31
0.0
  0
LINE
  5
6AF9
330
1F
100
AcDbEntity
  8
2.2. Barne Horma
  6
ByBlock
100
AcDbLine
 10
2996.408275690258
 20
881.5960467798563
 30
0.0
 11
2996.408275690258
 21
880.1209633121574
 31
0.0
  0
LINE
  5
6AFA
330
1F
100
AcDbEntity
  8
2.2. Barne Horma
  6
ByBlock
100
AcDbLine
 10
2996.408275690258
 20
880.1209633121574
 30
0.0
 11
2996.258275690258
 21
880.1209633121574
 31
0.0
  0
LINE
  5
6AFB
102
{ACAD_REACTORS
330
7077
102
}
330
1F
100
AcDbEntity
  8
2.2. Barne Horma
  6
ByBlock
100
AcDbLine
 10
2996.508275690258
 20
880.0209633121575
 30
0.0
 11
2996.258275690258
 21
880.0209633121573
 31
0.0
  0
LINE
  5
6AFD
330
1F
100
AcDbEntity
  8
2.2. Barne Horma
  6
ByBlock
100
AcDbLine
 10
2999.033715249412
 20
878.0559992170234
 30
0.0
 11
2999.033715249412
 21
878.0994210468563
 31
0.0
  0
LINE
  5
6AFE
330
1F
100
AcDbEntity
  8
2.2. Barne Horma
  6
ByBlock
100
AcDbLine
 10
2999.133715249412
 20
878.0559992170234
 30
0.0
 11
2999.133715249413
 21
878.0994210468563
 31
0.0
  0
LINE
  5
6AFF
330
1F
100
AcDbEntity
  8
2.2. Barne Horma
  6
ByBlock
100
AcDbLine
 10
2999.133715249412
 20
879.7604995720687
 30
0.0
 11
2999.133715249412
 21
880.7609014618718
 31
0.0
  0
LINE
  5
6B00
330
1F
100
AcDbEntity
  8
2.2. Barne Horma
  6
ByBlock
100
AcDbLine
 10
2999.133715249412
 20
879.7604995720687
 30
0.0
 11
3000.339894953525
 21
879.7604995720687
 31
0.0
  0
LINE
  5
6B01
330
1F
100
AcDbEntity
  8
2.2. Barne Horma
  6
ByBlock
100
AcDbLine
 10
3000.439894953526
 20
879.7604995720687
 30
0.0
 11
3001.449191234462
 21
879.7604995720687
 31
0.0
  0
LINE
  5
6B02
330
1F
100
AcDbEntity
  8
2.2. Barne Horma
  6
ByBlock
100
AcDbLine
 10
3000.639894953526
 20
879.5604995720688
 30
0.0
 11
3001.449191234462
 21
879.5604995720688
 31
0.0
  0
LINE
  5
6B03
330
1F
100
AcDbEntity
  8
2.2. Barne Horma
  6
ByBlock
100
AcDbLine
 10
2999.133715249412
 20
879.6604995720688
 30
0.0
 11
3000.439894953526
 21
879.6604995720688
 31
0.0
  0
LINE
  5
6B04
330
1F
100
AcDbEntity
  8
2.2. Barne Horma
  6
ByBlock
100
AcDbLine
 10
3000.439894953526
 20
878.0559992170234
 30
0.0
 11
3000.439894953526
 21
878.6942569848326
 31
0.0
  0
LINE
  5
6B05
330
1F
100
AcDbEntity
  8
2.2. Barne Horma
  6
ByBlock
100
AcDbLine
 10
3000.639894953526
 20
878.0559992170234
 30
0.0
 11
3000.639894953526
 21
878.6942569848326
 31
0.0
  0
LINE
  5
6B06
330
1F
100
AcDbEntity
  8
2.2. Barne Horma
  6
ByBlock
100
AcDbLine
 10
3000.639894953526
 20
878.6942569848326
 30
0.0
 11
3000.439894953526
 21
878.6942569848326
 31
0.0
  0
LINE
  5
6B07
330
1F
100
AcDbEntity
  8
2.2. Barne Horma
  6
ByBlock
100
AcDbLine
 10
3000.639894953526
 20
879.5142569848321
 30
0.0
 11
3000.439894953526
 21
879.5142569848321
 31
0.0
  0
LINE
  5
6B08
330
1F
100
AcDbEntity
  8
2.2. Barne Horma
  6
ByBlock
100
AcDbLine
 10
2999.133715249412
 20
878.0994210468563
 30
0.0
 11
2999.033715249412
 21
878.0994210468563
 31
0.0
  0
LINE
  5
6B09
330
1F
100
AcDbEntity
  8
2.2. Barne Horma
  6
ByBlock
100
AcDbLine
 10
2999.133715249412
 20
878.919421046856
 30
0.0
 11
2999.033715249412
 21
878.919421046856
 31
0.0
  0
LINE
  5
6B0C
330
1F
100
AcDbEntity
  8
2.2. Barne Horma
  6
ByBlock
100
AcDbLine
 10
3000.439894953526
 20
879.7604995720687
 30
0.0
 11
3000.439894953526
 21
880.7609014618718
 31
0.0
  0
LINE
  5
6B0D
330
1F
100
AcDbEntity
  8
2.2. Barne Horma
  6
ByBlock
100
AcDbLine
 10
3000.339894953525
 20
879.7604995720687
 30
0.0
 11
3000.339894953525
 21
880.7609014618718
 31
0.0
  0
LINE
  5
6B0E
330
1F
100
AcDbEntity
  8
2.2. Barne Horma
  6
ByBlock
100
AcDbLine
 10
3000.439894953526
 20
881.4509014618716
 30
0.0
 11
3000.339894953525
 21
881.4509014618716
 31
0.0
  0
LINE
  5
6B0F
330
1F
100
AcDbEntity
  8
2.2. Barne Horma
  6
ByBlock
100
AcDbLine
 10
3000.439894953526
 20
880.7609014618718
 30
0.0
 11
3000.339894953525
 21
880.7609014618718
 31
0.0
  0
LWPOLYLINE
  5
6B2E
102
{ACAD_REACTORS
330
6B4A
102
}
330
1F
100
AcDbEntity
  8
3.1. Atea
100
AcDbPolyline
 90
        6
 70
     0
 43
0.0
 10
2997.760935243149
 20
866.7419404019776
 10
2997.760935243149
 20
866.7169404019775
 10
2997.785935243149
 20
866.7169404019775
 10
2997.785935243149
 20
866.6819404019777
 10
2997.860935243149
 20
866.6819404019777
 10
2997.860935243149
 20
866.7419404019776
  0
LWPOLYLINE
  5
6B2F
102
{ACAD_REACTORS
330
6B4A
102
}
330
1F
100
AcDbEntity
  8
3.1. Atea
100
AcDbPolyline
 90
        6
 70
     0
 43
0.0
 10
2997.760935243149
 20
865.9219404019777
 10
2997.760935243149
 20
865.9469404019779
 10
2997.785935243149
 20
865.9469404019779
 10
2997.785935243149
 20
865.9819404019776
 10
2997.860935243149
 20
865.9819404019776
 10
2997.860935243149
 20
865.9219404019777
  0
LWPOLYLINE
  5
6B30
330
1F
100
AcDbEntity
  8
3.1. Atea
100
AcDbPolyline
 90
        4
 70
     1
 43
0.0
 10
2996.990935243149
 20
865.971940401978
 10
2996.990935243149
 20
865.9469404019779
 10
2997.760935243149
 20
865.9469404019779
 10
2997.760935243149
 20
865.971940401978
  0
ARC
  5
6B31
330
1F
100
AcDbEntity
  8
3.1. Atea
100
AcDbCircle
 10
2997.761239057373
 20
865.9462069295582
 30
0.0
 40
0.7707335322994903
100
AcDbArc
 50
90.02258533269191
 51
178.0866364583543
  0
LINE
  5
6B32
330
1F
100
AcDbEntity
  8
2.2. Barne Horma
100
AcDbLine
 10
2997.760935243149
 20
866.7419404019776
 30
0.0
 11
2997.760935243149
 21
866.8419404019777
 31
0.0
  0
DIMENSION
  5
6B33
102
{ACAD_XDICTIONARY
360
6B40
102
}
102
{ACAD_REACTORS
330
6B4A
102
}
330
1F
100
AcDbEntity
  8
7.3. Kota
100
AcDbDimension
280
     0
  2
*D4
 10
2998.19290543873
 20
865.9819404019776
 30
0.0
 11
2998.066319490572
 21
866.3319404019782
 31
0.0
 70
    33
 71
     5
 42
0.7000000000000455
 73
     0
 74
     0
 75
     0
  3
Guztion
100
AcDbAlignedDimension
 13
2997.860935243149
 23
866.6819404019777
 33
0.0
 14
2997.860935243149
 24
865.9819404019776
 34
0.0
  0
LWPOLYLINE
  5
6B4C
102
{ACAD_REACTORS
330
6E11
102
}
330
1F
100
AcDbEntity
  8
3.1. Atea
100
AcDbPolyline
 90
        6
 70
     0
 43
0.0
 10
2999.269191234462
 20
863.877483356021
 10
2999.294191234462
 20
863.877483356021
 10
2999.294191234462
 20
863.8524833560209
 10
2999.329191234462
 20
863.8524833560209
 10
2999.329191234462
 20
863.7774833560213
 10
2999.269191234462
 20
863.7774833560213
  0
LWPOLYLINE
  5
6B4D
330
1F
100
AcDbEntity
  8
3.1. Atea
100
AcDbPolyline
 90
        4
 70
     1
 43
0.0
 10
2999.319191234463
 20
864.5924833560213
 10
2999.294191234461
 20
864.5924833560213
 10
2999.294191234462
 20
863.877483356021
 10
2999.319191234463
 20
863.877483356021
  0
LWPOLYLINE
  5
6B62
102
{ACAD_REACTORS
330
6F09
102
}
330
1F
100
AcDbEntity
  8
3.1. Atea
100
AcDbPolyline
 90
        6
 70
     0
 43
0.0
 10
2995.852715027347
 20
867.5379998379046
 10
2995.827715027347
 20
867.5379998379046
 10
2995.827715027347
 20
867.5129998379045
 10
2995.792715027347
 20
867.5129998379045
 10
2995.792715027347
 20
867.4379998379047
 10
2995.852715027347
 20
867.4379998379047
  0
LWPOLYLINE
  5
6B63
102
{ACAD_REACTORS
330
6F09
102
}
330
1F
100
AcDbEntity
  8
3.1. Atea
100
AcDbPolyline
 90
        6
 70
     0
 43
0.0
 10
2995.032715027347
 20
867.5379998379046
 10
2995.057715027347
 20
867.5379998379046
 10
2995.057715027347
 20
867.5129998379045
 10
2995.092715027347
 20
867.5129998379045
 10
2995.092715027347
 20
867.4379998379047
 10
2995.032715027347
 20
867.4379998379047
  0
LWPOLYLINE
  5
6B64
330
1F
100
AcDbEntity
  8
3.1. Atea
100
AcDbPolyline
 90
        4
 70
     1
 43
0.0
 10
2995.082715027347
 20
868.307999837904
 10
2995.057715027347
 20
868.307999837904
 10
2995.057715027347
 20
867.5379998379046
 10
2995.082715027347
 20
867.5379998379046
  0
ARC
  5
6B65
330
1F
100
AcDbEntity
  8
3.1. Atea
100
AcDbCircle
 10
2995.056981554927
 20
867.5376960236805
 30
0.0
 40
0.7707335322994903
100
AcDbArc
 50
0.0225853326894818
 51
88.08663645836288
  0
LINE
  5
6B67
330
1F
100
AcDbEntity
  8
2.2. Barne Horma
100
AcDbLine
 10
2995.032715027347
 20
867.4379998379047
 30
0.0
 11
2995.032715027347
 21
867.5379998379048
 31
0.0
  0
LINE
  5
6B68
330
1F
100
AcDbEntity
  8
2.2. Barne Horma
100
AcDbLine
 10
2995.852715027347
 20
867.5379998379046
 30
0.0
 11
2995.852715027347
 21
867.4379998379047
 31
0.0
  0
LINE
  5
6B69
330
1F
100
AcDbEntity
  8
2.2. Barne Horma
  6
ByBlock
100
AcDbLine
 10
2995.852715027347
 20
867.4379998379047
 30
0.0
 11
2995.996238820233
 21
867.4379998379047
 31
0.0
  0
LINE
  5
6B6A
102
{ACAD_REACTORS
330
6F96
102
}
330
1F
100
AcDbEntity
  8
2.2. Barne Horma
  6
ByBlock
100
AcDbLine
 10
2995.852715027347
 20
867.5379998379048
 30
0.0
 11
2996.096238820232
 21
867.5379998379048
 31
0.0
  0
LWPOLYLINE
  5
6B6B
102
{ACAD_REACTORS
330
6FDA
330
8DA9
102
}
330
1F
100
AcDbEntity
  8
3.1. Atea
100
AcDbPolyline
 90
        6
 70
     0
 43
0.0
 10
2998.734763685918
 20
874.344566060944
 10
2998.709763685918
 20
874.344566060944
 10
2998.709763685918
 20
874.319566060944
 10
2998.674763685918
 20
874.319566060944
 10
2998.674763685918
 20
874.2445660609442
 10
2998.734763685918
 20
874.2445660609442
  0
LWPOLYLINE
  5
6B6C
102
{ACAD_REACTORS
330
6FDA
330
8DA9
102
}
330
1F
100
AcDbEntity
  8
3.1. Atea
100
AcDbPolyline
 90
        6
 70
     0
 43
0.0
 10
2997.914763685919
 20
874.344566060944
 10
2997.939763685918
 20
874.344566060944
 10
2997.939763685918
 20
874.319566060944
 10
2997.974763685918
 20
874.319566060944
 10
2997.974763685918
 20
874.2445660609442
 10
2997.914763685919
 20
874.2445660609442
  0
LWPOLYLINE
  5
6B6D
102
{ACAD_REACTORS
330
8DA9
102
}
330
1F
100
AcDbEntity
  8
3.1. Atea
100
AcDbPolyline
 90
        4
 70
     1
 43
0.0
 10
2997.964763685919
 20
875.1145660609436
 10
2997.939763685918
 20
875.1145660609436
 10
2997.939763685918
 20
874.344566060944
 10
2997.964763685919
 20
874.344566060944
  0
ARC
  5
6B6E
102
{ACAD_REACTORS
330
8DA9
102
}
330
1F
100
AcDbEntity
  8
3.1. Atea
100
AcDbCircle
 10
2997.939030213498
 20
874.3442622467201
 30
0.0
 40
0.7707335322994903
100
AcDbArc
 50
0.0225853326894818
 51
88.08663645836288
  0
LWPOLYLINE
  5
6B70
102
{ACAD_REACTORS
330
7015
330
8DA9
102
}
330
1F
100
AcDbEntity
  8
3.1. Atea
100
AcDbPolyline
 90
        6
 70
     0
 43
0.0
 10
2996.656325619875
 20
874.344566060944
 10
2996.631325619875
 20
874.344566060944
 10
2996.631325619875
 20
874.319566060944
 10
2996.596325619875
 20
874.319566060944
 10
2996.596325619875
 20
874.2445660609442
 10
2996.656325619875
 20
874.2445660609442
  0
LWPOLYLINE
  5
6B71
102
{ACAD_REACTORS
330
7015
330
8DA9
102
}
330
1F
100
AcDbEntity
  8
3.1. Atea
100
AcDbPolyline
 90
        6
 70
     0
 43
0.0
 10
2995.836325619875
 20
874.344566060944
 10
2995.861325619875
 20
874.344566060944
 10
2995.861325619875
 20
874.319566060944
 10
2995.896325619875
 20
874.319566060944
 10
2995.896325619875
 20
874.2445660609442
 10
2995.836325619875
 20
874.2445660609442
  0
LWPOLYLINE
  5
6B72
102
{ACAD_REACTORS
330
8DA9
102
}
330
1F
100
AcDbEntity
  8
3.1. Atea
100
AcDbPolyline
 90
        4
 70
     1
 43
0.0
 10
2995.886325619876
 20
875.1145660609436
 10
2995.861325619875
 20
875.1145660609436
 10
2995.861325619875
 20
874.344566060944
 10
2995.886325619876
 20
874.344566060944
  0
ARC
  5
6B73
102
{ACAD_REACTORS
330
8DA9
102
}
330
1F
100
AcDbEntity
  8
3.1. Atea
100
AcDbCircle
 10
2995.860592147455
 20
874.3442622467201
 30
0.0
 40
0.7707335322994903
100
AcDbArc
 50
0.0225853326894818
 51
88.08663645836288
  0
LINE
  5
6B75
330
1F
100
AcDbEntity
  8
2.2. Barne Horma
100
AcDbLine
 10
2997.914763685919
 20
874.344566060944
 30
0.0
 11
2997.914763685919
 21
874.2445660609442
 31
0.0
  0
LINE
  5
6B76
330
1F
100
AcDbEntity
  8
2.2. Barne Horma
100
AcDbLine
 10
2998.734763685918
 20
874.344566060944
 30
0.0
 11
2998.734763685918
 21
874.2445660609442
 31
0.0
  0
LINE
  5
6B77
102
{ACAD_REACTORS
330
8DA9
102
}
330
1F
100
AcDbEntity
  8
2.2. Barne Horma
  6
ByBlock
100
AcDbLine
 10
2997.914763685919
 20
874.2445660609442
 30
0.0
 11
2996.656325619875
 21
874.2445660609442
 31
0.0
  0
LINE
  5
6B78
102
{ACAD_REACTORS
330
8DA9
102
}
330
1F
100
AcDbEntity
  8
2.2. Barne Horma
  6
ByBlock
100
AcDbLine
 10
2997.914763685919
 20
874.3445660609443
 30
0.0
 11
2997.864763685918
 21
874.3445660609442
 31
0.0
  0
LWPOLYLINE
  5
6B79
102
{ACAD_REACTORS
330
703A
102
}
330
1F
100
AcDbEntity
  8
3.1. Atea
100
AcDbPolyline
 90
        6
 70
     0
 43
0.0
 10
2999.133715249412
 20
878.919421046856
 10
2999.133715249412
 20
878.8944210468558
 10
2999.108715249412
 20
878.8944210468558
 10
2999.108715249412
 20
878.8594210468559
 10
2999.033715249412
 20
878.8594210468559
 10
2999.033715249412
 20
878.919421046856
  0
LWPOLYLINE
  5
6B7A
102
{ACAD_REACTORS
330
703A
102
}
330
1F
100
AcDbEntity
  8
3.1. Atea
100
AcDbPolyline
 90
        6
 70
     0
 43
0.0
 10
2999.133715249412
 20
878.0994210468563
 10
2999.133715249412
 20
878.1244210468559
 10
2999.108715249412
 20
878.1244210468559
 10
2999.108715249412
 20
878.1594210468558
 10
2999.033715249412
 20
878.1594210468558
 10
2999.033715249412
 20
878.0994210468563
  0
LWPOLYLINE
  5
6B7B
330
1F
100
AcDbEntity
  8
3.1. Atea
100
AcDbPolyline
 90
        4
 70
     1
 43
0.0
 10
2999.903715249411
 20
878.1494210468563
 10
2999.903715249411
 20
878.1244210468559
 10
2999.133715249412
 20
878.1244210468559
 10
2999.133715249412
 20
878.1494210468563
  0
ARC
  5
6B7C
330
1F
100
AcDbEntity
  8
3.1. Atea
100
AcDbCircle
 10
2999.133411435188
 20
878.1236875744363
 30
0.0
 40
0.7707335322994903
100
AcDbArc
 50
1.913363541636817
 51
89.97741466731051
  0
LINE
  5
6B7D
330
1F
100
AcDbEntity
  8
2.2. Barne Horma
  6
ByBlock
100
AcDbLine
 10
2999.133715249413
 20
878.919421046856
 30
0.0
 11
2999.133715249412
 21
879.6581780600428
 31
0.0
  0
LINE
  5
6B7E
330
1F
100
AcDbEntity
  8
2.2. Barne Horma
  6
ByBlock
100
AcDbLine
 10
2999.033715249412
 20
878.919421046856
 30
0.0
 11
2999.033715249412
 21
880.7609014618718
 31
0.0
  0
LWPOLYLINE
  5
6B83
102
{ACAD_REACTORS
330
7052
102
}
330
1F
100
AcDbEntity
  8
3.1. Atea
100
AcDbPolyline
 90
        6
 70
     0
 43
0.0
 10
3000.439894953526
 20
879.5142569848323
 10
3000.439894953526
 20
879.4892569848324
 10
3000.464894953525
 20
879.4892569848324
 10
3000.464894953525
 20
879.4542569848324
 10
3000.539894953525
 20
879.4542569848324
 10
3000.539894953525
 20
879.5142569848323
  0
LWPOLYLINE
  5
6B84
102
{ACAD_REACTORS
330
7052
102
}
330
1F
100
AcDbEntity
  8
3.1. Atea
100
AcDbPolyline
 90
        6
 70
     0
 43
0.0
 10
3000.439894953526
 20
878.6942569848326
 10
3000.439894953526
 20
878.7192569848324
 10
3000.464894953525
 20
878.7192569848324
 10
3000.464894953525
 20
878.7542569848321
 10
3000.539894953525
 20
878.7542569848321
 10
3000.539894953525
 20
878.6942569848326
  0
LWPOLYLINE
  5
6B85
330
1F
100
AcDbEntity
  8
3.1. Atea
100
AcDbPolyline
 90
        4
 70
     1
 43
0.0
 10
2999.669894953526
 20
878.7442569848328
 10
2999.669894953526
 20
878.7192569848324
 10
3000.439894953526
 20
878.7192569848324
 10
3000.439894953526
 20
878.7442569848328
  0
ARC
  5
6B86
330
1F
100
AcDbEntity
  8
3.1. Atea
100
AcDbCircle
 10
3000.44019876775
 20
878.7185235124127
 30
0.0
 40
0.7707335322994903
100
AcDbArc
 50
90.02258533268944
 51
178.0866364583632
  0
LINE
  5
6B87
330
1F
100
AcDbEntity
  8
2.2. Barne Horma
  6
ByBlock
100
AcDbLine
 10
3000.639894953526
 20
879.5142569848321
 30
0.0
 11
3000.639894953526
 21
879.5604995720688
 31
0.0
  0
LINE
  5
6B88
330
1F
100
AcDbEntity
  8
2.2. Barne Horma
  6
ByBlock
100
AcDbLine
 10
3000.439894953526
 20
879.5142569848319
 30
0.0
 11
3000.439894953526
 21
879.6604995720688
 31
0.0
  0
ARC
  5
6B97
330
1F
100
AcDbEntity
  8
3.1. Atea
100
AcDbCircle
 10
2999.152712275895
 20
863.7413882771244
 30
0.0
 40
0.8672243521530587
100
AcDbArc
 50
9.028851562831297
 51
78.93236787425081
  0
LWPOLYLINE
  5
6B98
102
{ACAD_REACTORS
330
6BB5
330
742F
102
}
330
1F
100
AcDbEntity
  8
3.1. Atea
100
AcDbPolyline
 90
        6
 70
     0
 43
0.0
 10
3000.439894953526
 20
880.7609014618718
 10
3000.439894953526
 20
880.7859014618719
 10
3000.414894953526
 20
880.7859014618719
 10
3000.414894953526
 20
880.8209014618718
 10
3000.339894953525
 20
880.8209014618718
 10
3000.339894953525
 20
880.7609014618718
  0
LWPOLYLINE
  5
6B99
102
{ACAD_REACTORS
330
6BB5
330
742F
102
}
330
1F
100
AcDbEntity
  8
3.1. Atea
100
AcDbPolyline
 90
        6
 70
     0
 43
0.0
 10
3000.439894953526
 20
881.4509014618716
 10
3000.439894953526
 20
881.425901461872
 10
3000.414894953526
 20
881.425901461872
 10
3000.414894953526
 20
881.3909014618721
 10
3000.339894953525
 20
881.3909014618721
 10
3000.339894953525
 20
881.4509014618716
  0
LWPOLYLINE
  5
6B9A
102
{ACAD_REACTORS
330
742F
102
}
330
1F
100
AcDbEntity
  8
3.1. Atea
100
AcDbPolyline
 90
        4
 70
     1
 43
0.0
 10
3001.109894953525
 20
881.4009014618713
 10
3001.109894953525
 20
881.4259014618723
 10
3000.439894953526
 20
881.425901461872
 10
3000.439894953526
 20
881.4009014618713
  0
ARC
  5
6B9B
102
{ACAD_REACTORS
330
742F
102
}
330
1F
100
AcDbEntity
  8
3.1. Atea
100
AcDbCircle
 10
3000.43932889602
 20
881.4589774919991
 30
0.0
 40
0.6730762681544254
100
AcDbArc
 50
270.0481857872125
 51
355.0501089372469
  0
LINE
  5
6B9C
330
1F
100
AcDbEntity
  8
2.2. Barne Horma
  6
ByBlock
100
AcDbLine
 10
3000.439894953526
 20
881.4509014618714
 30
0.0
 11
3000.439894953526
 21
881.5960467798563
 31
0.0
  0
LINE
  5
6B9D
330
1F
100
AcDbEntity
  8
2.2. Barne Horma
  6
ByBlock
100
AcDbLine
 10
3000.339894953525
 20
881.4509014618714
 30
0.0
 11
3000.339894953525
 21
881.5960467798563
 31
0.0
  0
DIMENSION
  5
6B9E
102
{ACAD_XDICTIONARY
360
6BAB
102
}
102
{ACAD_REACTORS
330
6BB5
102
}
330
1F
100
AcDbEntity
  8
7.3. Kota
100
AcDbDimension
280
     0
  2
*D5
 10
3000.102767981647
 20
880.8209014618718
 30
0.0
 11
2999.976182033489
 21
881.1059014618724
 31
0.0
 70
    33
 71
     5
 42
0.5700000000002774
 73
     0
 74
     0
 75
     0
  3
Guztion
100
AcDbAlignedDimension
 13
3000.339894953525
 23
881.3909014618721
 33
0.0
 14
3000.339894953525
 24
880.8209014618718
 34
0.0
  0
LINE
  5
6BB6
330
1F
100
AcDbEntity
  8
2.2. Barne Horma
  6
ByBlock
100
AcDbLine
 10
2999.133715249412
 20
881.4509014618716
 30
0.0
 11
2999.033715249412
 21
881.4509014618716
 31
0.0
  0
LINE
  5
6BB7
330
1F
100
AcDbEntity
  8
2.2. Barne Horma
  6
ByBlock
100
AcDbLine
 10
2999.133715249412
 20
880.7609014618718
 30
0.0
 11
2999.033715249412
 21
880.7609014618718
 31
0.0
  0
LWPOLYLINE
  5
6BB8
102
{ACAD_REACTORS
330
6BD5
330
742F
102
}
330
1F
100
AcDbEntity
  8
3.1. Atea
100
AcDbPolyline
 90
        6
 70
     0
 43
0.0
 10
2999.133715249412
 20
880.7609014618718
 10
2999.133715249412
 20
880.7859014618719
 10
2999.108715249412
 20
880.7859014618719
 10
2999.108715249412
 20
880.8209014618718
 10
2999.033715249412
 20
880.8209014618718
 10
2999.033715249412
 20
880.7609014618718
  0
LWPOLYLINE
  5
6BB9
102
{ACAD_REACTORS
330
6BD5
330
742F
102
}
330
1F
100
AcDbEntity
  8
3.1. Atea
100
AcDbPolyline
 90
        6
 70
     0
 43
0.0
 10
2999.133715249412
 20
881.4509014618716
 10
2999.133715249412
 20
881.425901461872
 10
2999.108715249412
 20
881.425901461872
 10
2999.108715249412
 20
881.3909014618721
 10
2999.033715249412
 20
881.3909014618721
 10
2999.033715249412
 20
881.4509014618716
  0
LWPOLYLINE
  5
6BBA
102
{ACAD_REACTORS
330
742F
102
}
330
1F
100
AcDbEntity
  8
3.1. Atea
100
AcDbPolyline
 90
        4
 70
     1
 43
0.0
 10
2999.803715249412
 20
881.4009014618713
 10
2999.803715249412
 20
881.4259014618723
 10
2999.133715249412
 20
881.425901461872
 10
2999.133715249412
 20
881.4009014618713
  0
ARC
  5
6BBB
102
{ACAD_REACTORS
330
742F
102
}
330
1F
100
AcDbEntity
  8
3.1. Atea
100
AcDbCircle
 10
2999.133149191907
 20
881.4589774919991
 30
0.0
 40
0.6730762681544254
100
AcDbArc
 50
270.0481857872125
 51
355.0501089372469
  0
LINE
  5
6BBC
330
1F
100
AcDbEntity
  8
2.2. Barne Horma
  6
ByBlock
100
AcDbLine
 10
2999.133715249412
 20
881.4509014618714
 30
0.0
 11
2999.133715249412
 21
881.5960467798563
 31
0.0
  0
LINE
  5
6BBD
330
1F
100
AcDbEntity
  8
2.2. Barne Horma
  6
ByBlock
100
AcDbLine
 10
2999.033715249412
 20
881.4509014618717
 30
0.0
 11
2999.033715249412
 21
881.5960467798563
 31
0.0
  0
DIMENSION
  5
6BBE
102
{ACAD_XDICTIONARY
360
6BCB
102
}
102
{ACAD_REACTORS
330
6BD5
102
}
330
1F
100
AcDbEntity
  8
7.3. Kota
100
AcDbDimension
280
     0
  2
*D6
 10
2998.81096059403
 20
880.8209014618718
 30
0.0
 11
2998.684374645872
 21
881.1059014618724
 31
0.0
 70
    33
 71
     5
 42
0.5700000000002774
 73
     0
 74
     0
 75
     0
  3
Guztion
100
AcDbAlignedDimension
 13
2999.033715249412
 23
881.3909014618721
 33
0.0
 14
2999.033715249412
 24
880.8209014618718
 34
0.0
  0
LWPOLYLINE
  5
6BD7
102
{ACAD_REACTORS
330
6E11
102
}
330
1F
100
AcDbEntity
  8
3.1. Atea
100
AcDbPolyline
 90
        6
 70
     0
 43
0.0
 10
3000.749191234461
 20
863.877483356021
 10
3000.724191234462
 20
863.877483356021
 10
3000.724191234462
 20
863.8524833560209
 10
3000.689191234462
 20
863.8524833560209
 10
3000.689191234462
 20
863.7774833560213
 10
3000.749191234461
 20
863.7774833560213
  0
LWPOLYLINE
  5
6BD8
330
1F
100
AcDbEntity
  8
3.1. Atea
100
AcDbPolyline
 90
        4
 70
     1
 43
0.0
 10
3000.699191234461
 20
864.5924833560213
 10
3000.724191234462
 20
864.5924833560213
 10
3000.724191234462
 20
863.877483356021
 10
3000.699191234461
 20
863.877483356021
  0
ARC
  5
6BD9
330
1F
100
AcDbEntity
  8
3.1. Atea
100
AcDbCircle
 10
3000.766682570057
 20
863.8369147943979
 30
0.0
 40
0.7585769121808973
100
AcDbArc
 50
95.10441142535915
 51
176.934369137598
  0
LINE
  5
6BF1
330
1F
100
AcDbEntity
  8
2.2. Barne Horma
100
AcDbLine
 10
2996.258275690258
 20
880.0209633121575
 30
0.0
 11
2996.258275690258
 21
880.1209633121574
 31
0.0
  0
LINE
  5
6BF2
330
1F
100
AcDbEntity
  8
2.2. Barne Horma
  6
ByBlock
100
AcDbLine
 10
2995.558275690258
 20
880.0209633121573
 30
0.0
 11
2994.889191234462
 21
880.0209633121575
 31
0.0
  0
LINE
  5
6BF3
330
1F
100
AcDbEntity
  8
2.2. Barne Horma
  6
ByBlock
100
AcDbLine
 10
2995.558275690258
 20
880.1209633121574
 30
0.0
 11
2994.889191234462
 21
880.1209633121574
 31
0.0
  0
LINE
  5
6BF6
330
1F
100
AcDbEntity
  8
2.2. Barne Horma
  6
ByBlock
100
AcDbLine
 10
2995.558275690258
 20
880.0959633121575
 30
0.0
 11
2994.889191234462
 21
880.0959633121575
 31
0.0
  0
LINE
  5
6BF7
330
1F
100
AcDbEntity
  8
2.2. Barne Horma
  6
ByBlock
100
AcDbLine
 10
2995.558275690258
 20
880.0459633121576
 30
0.0
 11
2994.889191234462
 21
880.0459633121576
 31
0.0
  0
LINE
  5
6BF9
330
1F
100
AcDbEntity
  8
2.2. Barne Horma
100
AcDbLine
 10
2995.558275690258
 20
880.0959633121575
 30
0.0
 11
2995.558275690258
 21
880.1209633121574
 31
0.0
  0
LINE
  5
6BFA
330
1F
100
AcDbEntity
  8
2.2. Barne Horma
100
AcDbLine
 10
2995.558275690258
 20
880.0459633121576
 30
0.0
 11
2995.558275690258
 21
880.0209633121573
 31
0.0
  0
LINE
  5
6BFB
330
1F
100
AcDbEntity
  8
2.2. Barne Horma
100
AcDbLine
 10
2994.889191234462
 20
880.0959633121575
 30
0.0
 11
2994.889191234462
 21
880.0459633121576
 31
0.0
  0
LWPOLYLINE
  5
6BFC
330
1F
100
AcDbEntity
  8
3.1. Atea
100
AcDbPolyline
 90
        4
 70
     1
 43
0.0
 10
2995.230107164378
 20
880.0509633121576
 10
2995.930107164377
 20
880.0509633121576
 10
2995.930107164377
 20
880.0909633121575
 10
2995.230107164378
 20
880.0909633121575
  0
HATCH
  5
6DA1
330
1F
100
AcDbEntity
  8
2.5. Horma itzala
100
AcDbHatch
 10
0.0
 20
0.0
 30
0.0
210
0.0
220
0.0
230
1.0
  2
SOLID
 70
     1
 71
     1
 91
        1
 92
        7
 72
     0
 73
     1
 93
       16
 10
3001.649191234462
 20
882.0960467798563
 10
2994.689191234462
 20
882.0960467798563
 10
2994.689191234462
 20
865.7219404019777
 10
2997.660935243148
 20
865.7219404019777
 10
2997.660935243148
 20
863.3774833560211
 10
2999.269191234462
 20
863.3774833560211
 10
2999.269191234462
 20
863.877483356021
 10
2997.860935243149
 20
863.8774833560212
 10
2997.860935243149
 20
865.9219404019777
 10
2994.889191234462
 20
865.9219404019777
 10
2994.889191234462
 20
881.5960467798563
 10
3001.449191234462
 20
881.5960467798563
 10
3001.449191234462
 20
863.8774833560212
 10
3000.749191234461
 20
863.8774833560212
 10
3000.749191234461
 20
863.3774833560211
 10
3001.649191234462
 20
863.3774833560211
 97
       16
330
6ABC
330
6ACF
330
6ACB
330
6AC9
330
6AC6
330
6AD6
330
6AC8
330
6ACA
330
6ACD
330
6AD4
330
6ABE
330
6AC4
330
6AC7
330
6AD5
330
6AC5
330
6ABF
 75
     1
 76
     1
 47
0.0498019463745082
 98
        1
 10
2998.89154666195
 20
881.9459959796546
450
        0
451
        0
460
0.0
461
0.0
452
        0
462
1.0
453
        2
463
0.0
 63
     5
421
      255
463
1.0
 63
     2
421
 16776960
470
LINEAR
1001
GradientColor1ACI
1070
     5
1001
GradientColor2ACI
1070
     2
1001
ACAD
1010
0.0
1020
0.0
1030
0.0
  0
HATCH
  5
6DA8
330
1F
100
AcDbEntity
  8
2.5. Horma itzala
100
AcDbHatch
 10
0.0
 20
0.0
 30
0.0
210
0.0
220
0.0
230
1.0
  2
SOLID
 70
     1
 71
     1
 91
        1
 92
        7
 72
     0
 73
     1
 93
        4
 10
3001.449191234462
 20
878.0559992170234
 10
2996.852160974597
 20
878.0559992170234
 10
2996.852160974597
 20
877.5559992170235
 10
3001.449191234462
 20
877.5559992170235
 97
        4
330
6AEE
330
6AF4
330
6AE9
330
6AC4
 75
     1
 76
     1
 47
0.0077460901860512
 98
        1
 10
2999.328831464022
 20
877.8921969666967
450
        0
451
        0
460
0.0
461
0.0
452
        0
462
1.0
453
        2
463
0.0
 63
     5
421
      255
463
1.0
 63
     2
421
 16776960
470
LINEAR
1001
GradientColor1ACI
1070
     5
1001
GradientColor2ACI
1070
     2
1001
ACAD
1010
0.0
1020
0.0
1030
0.0
  0
HATCH
  5
6DAF
330
1F
100
AcDbEntity
  8
2.5. Horma itzala
100
AcDbHatch
 10
0.0
 20
0.0
 30
0.0
210
0.0
220
0.0
230
1.0
  2
SOLID
 70
     1
 71
     1
 91
        1
 92
        7
 72
     0
 73
     1
 93
        4
 10
2995.911589643477
 20
878.0559992170234
 10
2994.889191234462
 20
878.0559992170234
 10
2994.889191234462
 20
877.5559992170235
 10
2995.911589643477
 20
877.5559992170235
 97
        4
330
6AEF
330
6AD4
330
6AEB
330
6AF5
 75
     1
 76
     1
 47
0.0077460901860512
 98
        1
 10
2995.296908085099
 20
877.8379736669942
450
        0
451
        0
460
0.0
461
0.0
452
        0
462
1.0
453
        2
463
0.0
 63
     5
421
      255
463
1.0
 63
     2
421
 16776960
470
LINEAR
1001
GradientColor1ACI
1070
     5
1001
GradientColor2ACI
1070
     2
1001
ACAD
1010
0.0
1020
0.0
1030
0.0
  0
HATCH
  5
6DB6
330
1F
100
AcDbEntity
  8
2.5. Horma itzala
100
AcDbHatch
 10
0.0
 20
0.0
 30
0.0
210
0.0
220
0.0
230
1.0
  2
SOLID
 70
     1
 71
     1
 91
        1
 92
        7
 72
     0
 73
     1
 93
        4
 10
2998.861783454937
 20
873.8757194431791
 10
2998.511783454937
 20
873.8757194431791
 10
2998.511783454937
 20
873.525719443179
 10
2998.861783454937
 20
873.525719443179
 97
        1
330
6ADD
 75
     1
 76
     1
 47
0.0049017365002137
 98
        1
 10
2998.702472639533
 20
873.6547193300433
450
        0
451
        0
460
0.0
461
0.0
452
        0
462
1.0
453
        2
463
0.0
 63
     5
421
      255
463
1.0
 63
     2
421
 16776960
470
LINEAR
1001
GradientColor1ACI
1070
     5
1001
GradientColor2ACI
1070
     2
1001
ACAD
1010
0.0
1020
0.0
1030
0.0
  0
HATCH
  5
6DBD
330
1F
100
AcDbEntity
  8
2.5. Horma itzala
100
AcDbHatch
 10
0.0
 20
0.0
 30
0.0
210
0.0
220
0.0
230
1.0
  2
SOLID
 70
     1
 71
     1
 91
        1
 92
        7
 72
     0
 73
     1
 93
        4
 10
2998.42587381576
 20
868.7621640605255
 10
2998.07587381576
 20
868.7621640605255
 10
2998.07587381576
 20
868.4121640605255
 10
2998.42587381576
 20
868.4121640605255
 97
        1
330
6ADB
 75
     1
 76
     1
 47
0.004931699093898
 98
        1
 10
2998.255132996757
 20
868.5804071151203
450
        0
451
        0
460
0.0
461
0.0
452
        0
462
1.0
453
        2
463
0.0
 63
     5
421
      255
463
1.0
 63
     2
421
 16776960
470
LINEAR
1001
GradientColor1ACI
1070
     5
1001
GradientColor2ACI
1070
     2
1001
ACAD
1010
0.0
1020
0.0
1030
0.0
  0
DIMENSION
  5
6DCA
102
{ACAD_XDICTIONARY
360
6DD7
102
}
102
{ACAD_REACTORS
330
6DE1
102
}
330
1F
100
AcDbEntity
  8
7.3. Kota
100
AcDbDimension
280
     0
  2
*D7
 10
3001.449191234462
 20
882.628274433809
 30
0.0
 11
2998.169191234462
 21
882.7548603819673
 31
0.0
 70
    33
 71
     5
 42
6.559999999999945
 73
     0
 74
     0
 75
     0
  3
Guztion
100
AcDbAlignedDimension
 13
2994.889191234462
 23
882.0960467798563
 33
0.0
 14
3001.449191234462
 24
882.0960467798569
 34
0.0
  0
DIMENSION
  5
6DE2
102
{ACAD_XDICTIONARY
360
6DEF
102
}
102
{ACAD_REACTORS
330
6DF9
102
}
330
1F
100
AcDbEntity
  8
7.3. Kota
100
AcDbDimension
280
     0
  2
*D8
 10
3001.449191234462
 20
862.6634630927405
 30
0.0
 11
2999.655063238805
 21
862.7901002005168
 31
0.0
 70
    33
 71
     5
 42
3.588255991312962
 73
     0
 74
     0
 75
     0
  3
Guztion
100
AcDbAlignedDimension
 13
2997.860935243149
 23
863.3774833560211
 33
0.0
 14
3001.449191234462
 24
863.3774833560222
 34
0.0
  0
DIMENSION
  5
6DFA
102
{ACAD_XDICTIONARY
360
6E07
102
}
102
{ACAD_REACTORS
330
6E11
102
}
330
1F
100
AcDbEntity
  8
7.3. Kota
100
AcDbDimension
280
     0
  2
*D9
 10
3000.689191234462
 20
863.1798651378652
 30
0.0
 11
3000.009191234461
 21
863.3065022456415
 31
0.0
 70
    33
 71
     5
 42
1.360000000000127
 73
     0
 74
     0
 75
     0
  3
Guztion
100
AcDbAlignedDimension
 13
2999.329191234462
 23
863.7774833560213
 33
0.0
 14
3000.689191234462
 24
863.7774833560213
 34
0.0
  0
DIMENSION
  5
6E12
102
{ACAD_XDICTIONARY
360
6E1F
102
}
102
{ACAD_REACTORS
330
6E29
102
}
330
1F
100
AcDbEntity
  8
7.3. Kota
100
AcDbDimension
280
     0
  2
*D10
 10
3001.649191234462
 20
862.1852862526614
 30
0.0
 11
2999.655063238805
 21
862.3119233604375
 31
0.0
 70
    33
 71
     5
 42
3.988255991313053
 73
     0
 74
     0
 75
     0
  3
Guztion
100
AcDbAlignedDimension
 13
2997.660935243148
 23
863.3774833560211
 33
0.0
 14
3001.649191234462
 24
863.3774833560211
 34
0.0
  0
DIMENSION
  5
6E2A
102
{ACAD_XDICTIONARY
360
6E37
102
}
102
{ACAD_REACTORS
330
6E41
102
}
330
1F
100
AcDbEntity
  8
7.3. Kota
100
AcDbDimension
280
     0
  2
*D11
 10
3002.233637176505
 20
878.0559992170234
 30
0.0
 11
3002.107000068728
 21
879.8260229984403
 31
0.0
 70
    33
 71
     5
 42
3.540047562832796
 73
     0
 74
     0
 75
     0
  3
Guztion
100
AcDbAlignedDimension
 13
3001.649191234462
 23
881.5960467798563
 33
0.0
 14
3001.649191234461
 24
878.0559992170234
 34
0.0
  0
DIMENSION
  5
6E5A
102
{ACAD_XDICTIONARY
360
6E67
102
}
102
{ACAD_REACTORS
330
6E71
102
}
330
1F
100
AcDbEntity
  8
7.3. Kota
100
AcDbDimension
280
     0
  2
*D12
 10
3002.233637176505
 20
874.3445660609442
 30
0.0
 11
3002.107000068728
 21
875.9502826389843
 31
0.0
 70
    32
 71
     5
 42
3.211433156079237
 73
     0
 74
     0
 75
     0
  3
Guztion
100
AcDbAlignedDimension
 13
3001.649191234462
 23
877.5559992170235
 33
0.0
 14
3001.649191234462
 24
874.3445660609442
 34
0.0
 50
89.99999999999266
100
AcDbRotatedDimension
1001
ACAD
1000
DSTYLE
1002
{
1070
   279
1070
     1
1002
}
  0
DIMENSION
  5
6E8E
102
{ACAD_XDICTIONARY
360
6E9B
102
}
102
{ACAD_REACTORS
330
6EA5
102
}
330
1F
100
AcDbEntity
  8
7.3. Kota
100
AcDbDimension
280
     0
  2
*D13
 10
3002.233637176505
 20
866.8419404019777
 30
0.0
 11
3002.107051228346
 21
870.5432532314615
 31
0.0
 70
    32
 71
     5
 42
7.402625658966485
 73
     0
 74
     0
 75
     0
  3
Guztion
100
AcDbAlignedDimension
 13
3001.649191234462
 23
874.2445660609442
 33
0.0
 14
3001.649191234462
 24
866.8419404019777
 34
0.0
 50
89.99999999999266
100
AcDbRotatedDimension
1001
ACAD
1000
DSTYLE
1002
{
1070
   279
1070
     1
1002
}
  0
DIMENSION
  5
6EC2
102
{ACAD_XDICTIONARY
360
6ECF
102
}
102
{ACAD_REACTORS
330
6ED9
102
}
330
1F
100
AcDbEntity
  8
7.3. Kota
100
AcDbDimension
280
     0
  2
*D14
 10
3002.233637176505
 20
863.8774833560212
 30
0.0
 11
3002.107051228346
 21
865.3097118789998
 31
0.0
 70
    32
 71
     5
 42
2.864457045956442
 73
     0
 74
     0
 75
     0
  3
Guztion
100
AcDbAlignedDimension
 13
3001.649191234462
 23
866.7419404019776
 33
0.0
 14
3001.649191234462
 24
863.8774833560212
 34
0.0
 50
89.99999999999266
100
AcDbRotatedDimension
1001
ACAD
1000
DSTYLE
1002
{
1070
   279
1070
     1
1002
}
  0
DIMENSION
  5
6EDA
102
{ACAD_XDICTIONARY
360
6EE7
102
}
102
{ACAD_REACTORS
330
6EF1
102
}
330
1F
100
AcDbEntity
  8
7.3. Kota
100
AcDbDimension
280
     0
  2
*D15
 10
3002.83845354289
 20
863.877483356021
 30
0.0
 11
3002.713146585183
 21
872.7367650679392
 31
0.0
 70
    33
 71
     5
 42
17.71856342383523
 73
     0
 74
     0
 75
     0
  3
Guztion
100
AcDbAlignedDimension
 13
3001.649191234462
 23
881.5960467798563
 33
0.0
 14
3001.649191234462
 24
863.877483356021
 34
0.0
  0
DIMENSION
  5
6EF2
102
{ACAD_XDICTIONARY
360
6EFF
102
}
102
{ACAD_REACTORS
330
6F09
102
}
330
1F
100
AcDbEntity
  8
7.3. Kota
100
AcDbDimension
280
     0
  2
*D16
 10
2995.792715027347
 20
867.1683830103191
 30
0.0
 11
2995.442715027347
 21
867.2949689584772
 31
0.0
 70
    33
 71
     5
 42
0.7000000000002729
 73
     0
 74
     0
 75
     0
  3
Guztion
100
AcDbAlignedDimension
 13
2995.092715027347
 23
867.4379998379047
 33
0.0
 14
2995.792715027347
 24
867.4379998379047
 34
0.0
  0
DIMENSION
  5
6F0A
102
{ACAD_XDICTIONARY
360
6F17
102
}
102
{ACAD_REACTORS
330
6F21
102
}
330
1F
100
AcDbEntity
  8
7.3. Kota
100
AcDbDimension
280
     0
  2
*D17
 10
2996.517213818732
 20
867.4379998379048
 30
0.0
 11
2996.390627870574
 21
866.6799701199417
 31
0.0
 70
    33
 71
     5
 42
1.516059435927104
 73
     0
 74
     0
 75
     0
  3
Guztion
100
AcDbAlignedDimension
 13
2996.296238820232
 23
865.9219404019777
 33
0.0
 14
2996.296238820234
 24
867.4379998379048
 34
0.0
  0
DIMENSION
  5
6F27
102
{ACAD_XDICTIONARY
360
6F34
102
}
102
{ACAD_REACTORS
330
6F3E
102
}
330
1F
100
AcDbEntity
  8
7.3. Kota
100
AcDbDimension
280
     0
  2
*D18
 10
2995.996238820233
 20
865.39761612957
 30
0.0
 11
2995.442715027348
 21
865.5229230872782
 31
0.0
 70
    33
 71
     5
 42
1.107047585771397
 73
     0
 74
     0
 75
     0
  3
Guztion
100
AcDbAlignedDimension
 13
2994.889191234462
 23
865.7219404019777
 33
0.0
 14
2995.996238820233
 24
865.7219404019773
 34
0.0
  0
DIMENSION
  5
6F57
102
{ACAD_XDICTIONARY
360
6F62
102
}
102
{ACAD_REACTORS
330
6F6A
102
}
330
1F
100
AcDbEntity
  8
7.3. Kota
100
AcDbDimension
280
     0
  2
*D19
 10
2998.88829835734
 20
866.8419404019777
 30
0.0
 11
2998.761712409182
 21
867.5970522312521
 31
0.0
 70
    33
 71
     5
 42
1.510223658547943
 73
     0
 74
     0
 75
     0
  3
Guztion
100
AcDbAlignedDimension
 13
2998.88829835734
 23
868.3521640605256
 33
0.0
 14
2998.88829835734
 24
866.8419404019777
 34
0.0
  0
DIMENSION
  5
6F6B
102
{ACAD_XDICTIONARY
360
6F76
102
}
102
{ACAD_REACTORS
330
6F7E
102
}
330
1F
100
AcDbEntity
  8
7.3. Kota
100
AcDbDimension
280
     0
  2
*D20
 10
3001.449191234462
 20
869.0857872405652
 30
0.0
 11
2999.96753252511
 21
869.2123731887235
 31
0.0
 70
    33
 71
     5
 42
2.96331741870199
 73
     0
 74
     0
 75
     0
  3
Guztion
100
AcDbAlignedDimension
 13
2998.48587381576
 23
869.0857872405652
 33
0.0
 14
3001.449191234462
 24
869.0857872405652
 34
0.0
  0
DIMENSION
  5
6F7F
102
{ACAD_XDICTIONARY
360
6F8C
102
}
102
{ACAD_REACTORS
330
6F96
102
}
330
1F
100
AcDbEntity
  8
7.3. Kota
100
AcDbDimension
280
     0
  2
*D21
 10
2997.858378165609
 20
868.7235070319713
 30
0.0
 11
2996.849134192407
 21
868.4329625789384
 31
0.0
 70
    33
 71
     5
 42
2.085152727607692
 73
     0
 74
     0
 75
     0
  3
Guztion
100
AcDbAlignedDimension
 13
2996.096238820232
 23
867.5379998379048
 33
0.0
 14
2998.01587381576
 24
868.3521640605256
 34
0.0
  0
DIMENSION
  5
6F97
102
{ACAD_XDICTIONARY
360
6FA2
102
}
102
{ACAD_REACTORS
330
6FAA
102
}
330
1F
100
AcDbEntity
  8
7.3. Kota
100
AcDbDimension
280
     0
  2
*D22
 10
2998.206306812234
 20
868.8221640605256
 30
0.0
 11
2998.079720864076
 21
871.1439417518528
 31
0.0
 70
    33
 71
     5
 42
4.643555382653403
 73
     0
 74
     0
 75
     0
  3
Guztion
100
AcDbAlignedDimension
 13
2998.206306812234
 23
873.465719443179
 33
0.0
 14
2998.206306812234
 24
868.8221640605256
 34
0.0
  0
DIMENSION
  5
6FC3
102
{ACAD_XDICTIONARY
360
6FD0
102
}
102
{ACAD_REACTORS
330
6FDA
102
}
330
1F
100
AcDbEntity
  8
7.3. Kota
100
AcDbDimension
280
     0
  2
*D23
 10
2998.674763685918
 20
874.1576135672518
 30
0.0
 11
2998.324763685918
 21
874.1576135672518
 31
0.0
 70
   161
 71
     5
 42
0.7000000000002729
 73
     0
 74
     0
 75
     0
  3
Guztion
100
AcDbAlignedDimension
 13
2997.974763685918
 23
874.2445660609442
 33
0.0
 14
2998.674763685918
 24
874.2445660609442
 34
0.0
  0
DIMENSION
  5
6FDB
102
{ACAD_XDICTIONARY
360
6FE9
102
}
102
{ACAD_REACTORS
330
6FF4
102
}
330
1F
100
AcDbEntity
  8
7.3. Kota
100
AcDbDimension
280
     0
  2
*D24
 10
2999.178747258465
 20
874.244566060944
 30
0.0
 11
2999.052110150689
 21
874.5749037144234
 31
0.0
 70
    33
 71
     5
 42
0.3088466177649707
 73
     0
 74
     0
 75
     0
  3
Guztion
100
AcDbAlignedDimension
 13
2999.075004741673
 23
873.9357194431791
 33
0.0
 14
2999.075004741673
 24
874.244566060944
 34
0.0
  0
DIMENSION
  5
6FFE
102
{ACAD_XDICTIONARY
360
700B
102
}
102
{ACAD_REACTORS
330
7015
102
}
330
1F
100
AcDbEntity
  8
7.3. Kota
100
AcDbDimension
280
     0
  2
*D25
 10
2995.896325619875
 20
874.1576135672518
 30
0.0
 11
2996.246325619875
 21
874.2841995154101
 31
0.0
 70
    33
 71
     5
 42
0.7000000000002729
 73
     0
 74
     0
 75
     0
  3
Guztion
100
AcDbAlignedDimension
 13
2996.596325619875
 23
874.2445660609442
 33
0.0
 14
2995.896325619875
 24
874.2445660609442
 34
0.0
  0
DIMENSION
  5
7016
330
1F
100
AcDbEntity
  8
7.3. Kota
100
AcDbDimension
280
     0
  2
*D26
 10
2996.852160974597
 20
877.3040142572984
 30
0.0
 11
2996.381875309037
 21
877.4306002054565
 31
0.0
 70
    33
 71
     5
 42
0.9405713311198269
 73
     0
 74
     0
 75
     0
  3
Guztion
100
AcDbAlignedDimension
 13
2995.911589643477
 23
877.3220679198159
 33
0.0
 14
2996.852160974597
 24
877.3220679198157
 34
0.0
  0
DIMENSION
  5
7023
102
{ACAD_XDICTIONARY
360
7030
102
}
102
{ACAD_REACTORS
330
703A
102
}
330
1F
100
AcDbEntity
  8
7.3. Kota
100
AcDbDimension
280
     0
  2
*D27
 10
2998.922337812169
 20
878.1594210468558
 30
0.0
 11
2998.79575186401
 21
878.5094210468564
 31
0.0
 70
    33
 71
     5
 42
0.7000000000002729
 73
     0
 74
     0
 75
     0
  3
Guztion
100
AcDbAlignedDimension
 13
2999.033715249412
 23
878.8594210468559
 33
0.0
 14
2999.033715249412
 24
878.1594210468558
 34
0.0
  0
DIMENSION
  5
703B
102
{ACAD_XDICTIONARY
360
7048
102
}
102
{ACAD_REACTORS
330
7052
102
}
330
1F
100
AcDbEntity
  8
7.3. Kota
100
AcDbDimension
280
     0
  2
*D28
 10
3000.761614933007
 20
879.4542569848324
 30
0.0
 11
3000.635028984849
 21
879.1042569848327
 31
0.0
 70
    33
 71
     5
 42
0.7000000000002729
 73
     0
 74
     0
 75
     0
  3
Guztion
100
AcDbAlignedDimension
 13
3000.539894953525
 23
878.7542569848321
 33
0.0
 14
3000.539894953525
 24
879.4542569848324
 34
0.0
  0
DIMENSION
  5
7053
330
1F
100
AcDbEntity
  8
7.3. Kota
100
AcDbDimension
280
     0
  2
*D29
 10
2996.258275690258
 20
880.166761244285
 30
0.0
 11
2995.908275690258
 21
880.2933471924431
 31
0.0
 70
    33
 71
     5
 42
0.6999999999998181
 73
     0
 74
     0
 75
     0
  3
Guztion
100
AcDbAlignedDimension
 13
2995.558275690258
 23
880.1848017112885
 33
0.0
 14
2996.258275690258
 24
880.1848017112893
 34
0.0
  0
DIMENSION
  5
7060
102
{ACAD_XDICTIONARY
360
706D
102
}
102
{ACAD_REACTORS
330
7077
102
}
330
1F
100
AcDbEntity
  8
7.3. Kota
100
AcDbDimension
280
     0
  2
*D30
 10
2996.714925147464
 20
880.0209633121575
 30
0.0
 11
2996.588339199306
 21
879.0384812645909
 31
0.0
 70
    33
 71
     5
 42
1.964964095134064
 73
     0
 74
     0
 75
     0
  3
Guztion
100
AcDbAlignedDimension
 13
2996.508275690258
 23
878.0559992170234
 33
0.0
 14
2996.508275690258
 24
880.0209633121575
 34
0.0
  0
DIMENSION
  5
7090
102
{ACAD_XDICTIONARY
360
709B
102
}
102
{ACAD_REACTORS
330
70A3
102
}
330
1F
100
AcDbEntity
  8
7.3. Kota
100
AcDbDimension
280
     0
  2
*D31
 10
3001.449191234462
 20
873.166120966175
 30
0.0
 11
3000.185487344699
 21
873.2927580739513
 31
0.0
 70
    33
 71
     5
 42
2.527407779524764
 73
     0
 74
     0
 75
     0
  3
Guztion
100
AcDbAlignedDimension
 13
2998.921783454937
 23
873.1661209661751
 33
0.0
 14
3001.449191234462
 24
873.166120966175
 34
0.0
  0
CIRCLE
  5
70BC
330
1F
100
AcDbEntity
  8
8.1. Irisgarritasun boloa
 48
0.0005
100
AcDbCircle
 10
2999.990659624558
 20
865.4924833560212
 30
0.0
 40
0.9
  0
CIRCLE
  5
70BE
330
1F
100
AcDbEntity
  8
8.1. Irisgarritasun boloa
 48
0.0005
100
AcDbCircle
 10
2996.999980457818
 20
868.1078591720869
 30
0.0
 40
0.9
  0
CIRCLE
  5
70BF
330
1F
100
AcDbEntity
  8
8.1. Irisgarritasun boloa
 48
0.0005
100
AcDbCircle
 10
2996.436458725595
 20
879.0922305360755
 30
0.0
 40
0.9
  0
CIRCLE
  5
70CC
330
1F
100
AcDbEntity
  8
8.1. Irisgarritasun boloa
 48
0.0005
100
AcDbCircle
 10
3000.09197746019
 20
873.3445660609442
 30
0.0
 40
0.9
  0
MTEXT
  5
70D9
330
1F
100
AcDbEntity
  8
7.2. Idatzia
100
AcDbMText
 10
2997.408994060811
 20
879.9906004543053
 30
0.0
 40
0.25
 41
3.934541634584093
 46
0.0
 71
     1
 72
     5
  1
H=2.35m
 73
     1
 44
1.0
1001
ACAD
1000
ACAD_MTEXT_COLUMN_INFO_BEGIN
1070
    75
1070
     2
1070
    79
1070
     0
1070
    76
1070
     1
1070
    78
1070
     0
1070
    48
1040
3.934541634584093
1070
    49
1040
12.5
1070
    50
1070
     1
1040
0.0
1000
ACAD_MTEXT_COLUMN_INFO_END
  0
LWPOLYLINE
  5
70E6
102
{ACAD_REACTORS
330
742F
102
}
330
1F
100
AcDbEntity
  8
7.1. Azalera erabilgarria
100
AcDbPolyline
 90
       90
 70
     1
 43
0.0
 10
2994.889191234462
 20
881.5960467798563
 10
2996.408275690258
 20
881.5960467798563
 10
2996.408275690258
 20
880.1209633121574
 10
2996.258275690258
 20
880.1209633121574
 10
2996.258275690258
 20
880.0209633121575
 10
2996.508275690258
 20
880.0209633121575
 10
2996.508275690258
 20
881.5960467798563
 10
2999.033715249412
 20
881.5960467798563
 10
2999.033715249412
 20
881.4509014618716
 10
2999.133715249412
 20
881.4509014618714
 10
2999.133715249412
 20
881.5960467798563
 10
3000.339894953525
 20
881.5960467798561
 10
3000.339894953525
 20
881.4509014618717
 10
3000.439894953526
 20
881.4509014618716
 10
3000.439894953526
 20
881.5960467798563
 10
3001.449191234462
 20
881.5960467798563
 10
3001.449191234462
 20
879.7604995720687
 10
3000.439894953526
 20
879.7604995720687
 10
3000.439894953526
 20
880.7609014618718
 10
3000.339894953525
 20
880.7609014618718
 10
3000.339894953525
 20
879.7604995720687
 10
2999.133715249412
 20
879.7604995720687
 10
2999.133715249412
 20
880.7609014618718
 10
2999.033715249412
 20
880.7609014618718
 10
2999.033715249412
 20
878.919421046856
 10
2999.133715249412
 20
878.919421046856
 10
2999.133715249412
 20
879.6604995720688
 10
3000.439894953526
 20
879.6604995720688
 10
3000.439894953526
 20
879.5142569848319
 10
3000.639894953526
 20
879.5142569848321
 10
3000.639894953526
 20
879.5604995720688
 10
3001.449191234462
 20
879.5604995720688
 10
3001.449191234462
 20
878.0559992170235
 10
3000.639894953526
 20
878.0559992170234
 10
3000.639894953526
 20
878.6942569848326
 10
3000.439894953526
 20
878.6942569848326
 10
3000.439894953526
 20
878.0559992170235
 10
2999.133715249412
 20
878.0559992170234
 10
2999.133715249413
 20
878.0994210468563
 10
2999.033715249412
 20
878.0994210468563
 10
2999.033715249412
 20
878.0559992170235
 10
2996.852160974597
 20
878.0559992170235
 10
2996.852160974597
 20
877.5559992170235
 10
2997.50583813376
 20
877.5559992170235
 10
2997.50583813376
 20
877.0947444709477
 10
2997.764763685919
 20
877.0947444709477
 10
2997.764763685919
 20
874.3445660609442
 10
2996.656325619875
 20
874.344566060944
 10
2996.656325619875
 20
874.2445660609442
 10
2997.914763685919
 20
874.2445660609499
 10
2997.914763685919
 20
874.344566060944
 10
2997.864763685918
 20
874.344566060944
 10
2997.864763685918
 20
877.5559992170235
 10
3001.449191234462
 20
877.5559992170233
 10
3001.449191234462
 20
874.3445660609442
 10
2998.734763685918
 20
874.3445660609442
 10
2998.734763685918
 20
874.244566060944
 10
3001.449191234462
 20
874.244566060944
 10
3001.449191234462
 20
866.8419404019777
 10
2997.760935243149
 20
866.8419404019775
 10
2997.760935243149
 20
866.7419404019776
 10
3001.449191234462
 20
866.7419404019776
 10
3001.449191234462
 20
863.8774833560212
 10
2997.860935243149
 20
863.8774833560212
 10
2997.860935243149
 20
865.9219404019777
 10
2996.296238820232
 20
865.9219404019777
 10
2996.296238820232
 20
866.2819404019778
 10
2996.096238820232
 20
866.2819404019778
 10
2996.096238820232
 20
867.5379998379048
 10
2995.852715027347
 20
867.5379998379048
 10
2995.852715027347
 20
867.4379998379047
 10
2995.996238820233
 20
867.4379998379047
 10
2995.996238820233
 20
865.9219404019777
 10
2994.889191234462
 20
865.9219404019777
 10
2994.889191234462
 20
867.4379998379047
 10
2995.032715027347
 20
867.4379998379047
 10
2995.032715027347
 20
867.5379998379046
 10
2994.889191234462
 20
867.5379998379046
 10
2994.889191234463
 20
874.2445660609442
 10
2995.836325619875
 20
874.2445660609442
 10
2995.836325619875
 20
874.344566060944
 10
2994.889191234462
 20
874.344566060944
 10
2994.889191234462
 20
877.5559992170235
 10
2995.911589643477
 20
877.5559992170235
 10
2995.911589643477
 20
878.0559992170235
 10
2994.889191234462
 20
878.0559992170234
 10
2994.889191234462
 20
880.0209633121575
 10
2995.558275690258
 20
880.0209633121573
 10
2995.558275690258
 20
880.1209633121574
 10
2994.889191234462
 20
880.1209633121574
  0
MTEXT
  5
70E7
330
1F
100
AcDbEntity
  8
7.2. Idatzia
100
AcDbMText
 10
2994.940775533545
 20
861.7277098854609
 30
0.0
 40
0.25
 41
3.934541634584093
 46
0.0
 71
     1
 72
     5
  1
A{\H0.5x;erabilgarria }= 104.31 m²
 73
     1
 44
1.0
1001
ACAD
1000
ACAD_MTEXT_COLUMN_INFO_BEGIN
1070
    75
1070
     2
1070
    79
1070
     0
1070
    76
1070
     1
1070
    78
1070
     0
1070
    48
1040
3.934541634584093
1070
    49
1040
12.5
1070
    50
1070
     1
1040
0.0
1000
ACAD_MTEXT_COLUMN_INFO_END
  0
LWPOLYLINE
  5
70E9
330
1F
100
AcDbEntity
  8
7.1. Azalera erabilgarria
100
AcDbPolyline
 90
        4
 70
     1
 43
0.0
 10
2998.451783454937
 20
873.9357194431791
 10
2998.921783454937
 20
873.9357194431791
 10
2998.921783454937
 20
873.465719443179
 10
2998.451783454937
 20
873.465719443179
  0
LWPOLYLINE
  5
70EA
330
1F
100
AcDbEntity
  8
7.1. Azalera erabilgarria
100
AcDbPolyline
 90
        4
 70
     1
 43
0.0
 10
2998.01587381576
 20
868.8221640605256
 10
2998.48587381576
 20
868.8221640605256
 10
2998.48587381576
 20
868.3521640605256
 10
2998.01587381576
 20
868.3521640605256
  0
HATCH
  5
71D7
330
1F
100
AcDbEntity
  8
4.1. Zeramika-baldosa
100
AcDbHatch
 10
0.0
 20
0.0
 30
0.0
210
0.0
220
0.0
230
1.0
  2
ANSI37
 70
     0
 71
     0
 91
        7
 92
        7
 72
     1
 73
     1
 93
       21
 10
3001.449191234462
 20
870.9313169717708
 42
0.0
 10
2994.889191234463
 20
870.9313169717708
 42
0.0
 10
2994.889191234462
 20
867.5379998379046
 42
0.0
 10
2995.032715027347
 20
867.5379998379046
 42
0.0
 10
2995.057715027347
 20
867.5379998379046
 42
0.0
 10
2995.057715027347
 20
868.307999837904
 42
0.0
 10
2995.08271502736
 20
868.307999837904
 42
-0.404351359146998
 10
2995.827715027347
 20
867.5379998379046
 42
0.0
 10
2995.852715027347
 20
867.5379998379046
 42
0.0
 10
2996.096238820232
 20
867.5379998379048
 42
0.0
 10
2996.096238820232
 20
866.2819404019778
 42
0.0
 10
2996.296238820232
 20
866.2819404019778
 42
0.0
 10
2996.296238820232
 20
865.9219404019777
 42
0.0
 10
2997.760935243149
 20
865.9219404019777
 42
0.0
 10
2997.760935243149
 20
865.9469404019779
 42
0.0
 10
2996.990935243149
 20
865.9469404019779
 42
0.0
 10
2996.990935243149
 20
865.9719404019915
 42
-0.4043513591469371
 10
2997.760935243149
 20
866.7169404019775
 42
0.0
 10
2997.760935243149
 20
866.7419404019776
 42
0.0
 10
2997.760935243149
 20
866.8419404019775
 42
0.0
 10
3001.449191234462
 20
866.8419404019777
 42
0.0
 97
        0
 92
       22
 72
     0
 73
     1
 93
        4
 10
2998.01587381576
 20
868.8221640605256
 10
2998.48587381576
 20
868.8221640605256
 10
2998.48587381576
 20
868.3521640605256
 10
2998.01587381576
 20
868.3521640605256
 97
        0
 92
        6
 72
     0
 73
     1
 93
        4
 10
2998.07587381576
 20
868.7621640605255
 10
2998.42587381576
 20
868.7621640605255
 10
2998.42587381576
 20
868.4121640605255
 10
2998.07587381576
 20
868.4121640605255
 97
        0
 92
       23
 72
     1
 73
     1
 93
       16
 10
2995.996238820233
 20
867.4379998379047
 42
0.0
 10
2995.852715027347
 20
867.4379998379047
 42
0.0
 10
2995.792715027347
 20
867.4379998379047
 42
0.0
 10
2995.792715027347
 20
867.5129998379045
 42
0.0
 10
2995.827715027347
 20
867.5129998379045
 42
0.0
 10
2995.827715027347
 20
867.5379998379042
 42
0.4043513591521077
 10
2995.082715027347
 20
868.3079998379046
 42
0.0
 10
2995.082715027347
 20
867.5379998379046
 42
0.0
 10
2995.057715027347
 20
867.5379998379046
 42
0.0
 10
2995.057715027347
 20
867.5129998379045
 42
0.0
 10
2995.092715027347
 20
867.5129998379045
 42
0.0
 10
2995.092715027347
 20
867.4379998379047
 42
0.0
 10
2995.032715027347
 20
867.4379998379047
 42
0.0
 10
2994.889191234462
 20
867.4379998379047
 42
0.0
 10
2994.889191234462
 20
865.9219404019777
 42
0.0
 10
2995.996238820233
 20
865.9219404019777
 42
0.0
 97
        0
 92
        7
 72
     1
 73
     1
 93
       22
 10
3001.449191234462
 20
866.7419404019776
 42
0.0
 10
2997.860935243149
 20
866.7419404019776
 42
0.0
 10
2997.860935243149
 20
866.6819404019777
 42
0.0
 10
2997.785935243149
 20
866.6819404019777
 42
0.0
 10
2997.785935243149
 20
866.7169404019775
 42
0.0
 10
2997.760935243149
 20
866.7169404019775
 42
0.4043513591521258
 10
2996.990935243149
 20
865.971940401978
 42
0.0
 10
2997.760935243149
 20
865.971940401978
 42
0.0
 10
2997.760935243149
 20
865.9469404019779
 42
0.0
 10
2997.785935243149
 20
865.9469404019779
 42
0.0
 10
2997.785935243149
 20
865.9819404019776
 42
0.0
 10
2997.860935243149
 20
865.9819404019776
 42
0.0
 10
2997.860935243149
 20
865.9219404019777
 42
0.0
 10
2997.860935243149
 20
863.8774833560212
 42
0.0
 10
2999.294191234462
 20
863.8774833560212
 42
0.0
 10
2999.294191234461
 20
864.5924833560213
 42
0.0
 10
2999.319191234461
 20
864.5924833560213
 42
-0.3148360088022183
 10
3000.009191234461
 20
863.8774833560232
 42
-0.3730392474770485
 10
3000.699191234461
 20
864.5924833560213
 42
0.0
 10
3000.724191234462
 20
864.5924833560213
 42
0.0
 10
3000.724191234462
 20
863.8774833560212
 42
0.0
 10
3001.449191234462
 20
863.8774833560212
 42
0.0
 97
        0
 92
        7
 72
     1
 73
     1
 93
        3
 10
2999.319191234463
 20
864.592483356021
 42
0.0
 10
2999.319191234463
 20
863.8774833560212
 42
0.0
 10
3000.009191234462
 20
863.8774833560212
 42
0.3148360088023031
 97
        0
 92
        7
 72
     1
 73
     1
 93
        3
 10
3000.699191234461
 20
864.5924833560213
 42
0.3730392474778064
 10
3000.009191234461
 20
863.8774833560212
 42
0.0
 10
3000.699191234461
 20
863.8774833560212
 42
0.0
 97
        0
 75
     1
 76
     1
 52
45.0
 41
0.13
 77
     0
 78
     2
 53
90.0
 43
0.0
 44
0.0
 45
-0.41275
 46
0.0000000000000001
 79
     0
 53
180.0
 43
0.0
 44
0.0
 45
-0.0000000000000001
 46
-0.41275
 79
     0
 47
0.0161596445812742
 98
        7
 10
2995.675449042691
 20
869.5135073671284
 10
2995.675449042691
 20
869.5135073671284
 10
2995.675449042691
 20
869.5135073671284
 10
2995.513694312072
 20
867.121879819439
 10
2998.700270973218
 20
866.0553428636053
 10
2999.654625577461
 20
864.2293029066999
 10
3000.59280640223
 20
864.1485045747188
1001
GradientColor1ACI
1070
     5
1001
GradientColor2ACI
1070
     2
1001
ACAD
1010
0.0
1020
0.0
1030
0.0
  0
HATCH
  5
740B
330
1F
100
AcDbEntity
  8
4.1. Zeramika-baldosa
100
AcDbHatch
 10
0.0
 20
0.0
 30
0.0
210
0.0
220
0.0
230
1.0
  2
ANSI37
 70
     0
 71
     0
 91
        1
 92
        7
 72
     1
 73
     1
 93
       46
 10
2996.408275690258
 20
881.5960467798563
 42
0.0
 10
2994.889191234462
 20
881.5960467798563
 42
0.0
 10
2994.889191234462
 20
880.1209633121574
 42
0.0
 10
2995.558275690258
 20
880.1209633121574
 42
0.0
 10
2995.558275690258
 20
880.0909633121575
 42
0.0
 10
2995.930107164377
 20
880.0909633121575
 42
0.0
 10
2995.930107164377
 20
880.0509633121576
 42
0.0
 10
2995.558275690258
 20
880.0509633121576
 42
0.0
 10
2995.558275690258
 20
880.0209633121573
 42
0.0
 10
2994.889191234462
 20
880.0209633121575
 42
0.0
 10
2994.889191234462
 20
878.0559992170234
 42
0.0
 10
2995.911589643477
 20
878.0559992170235
 42
0.0
 10
2995.911589643477
 20
877.5559992170233
 42
0.0
 10
2996.852160974597
 20
877.5559992170233
 42
0.0
 10
2996.852160974597
 20
878.0559992170235
 42
0.0
 10
2999.033715249412
 20
878.0559992170235
 42
0.0
 10
2999.033715249412
 20
878.0994210468563
 42
0.0
 10
2999.033715249412
 20
878.1594210468558
 42
0.0
 10
2999.108715249412
 20
878.1594210468558
 42
0.0
 10
2999.108715249412
 20
878.1244210468559
 42
0.0
 10
2999.133715249412
 20
878.1244210468559
 42
0.0
 10
2999.133715249412
 20
878.1494210468563
 42
0.0
 10
2999.903715249412
 20
878.1494210468563
 42
0.404580696439703
 10
2999.133107621253
 20
878.8944210468558
 42
0.0
 10
2999.108715249412
 20
878.8944210468558
 42
0.0
 10
2999.108715249412
 20
878.8594210468559
 42
0.0
 10
2999.033715249412
 20
878.8594210468559
 42
0.0
 10
2999.033715249412
 20
878.919421046856
 42
0.0
 10
2999.033715249412
 20
880.7609014618718
 42
0.0
 10
2999.033715249412
 20
880.8209014618718
 42
0.0
 10
2999.108715249412
 20
880.8209014618718
 42
0.0
 10
2999.108715249412
 20
880.7859014618719
 42
0.0
 10
2999.133715249412
 20
880.7859014618719
 42
0.3888883922017086
 10
2999.803715249412
 20
881.4009014618713
 42
0.0
 10
2999.133715249412
 20
881.4009014618713
 42
0.0
 10
2999.133715249412
 20
881.425901461872
 42
0.0
 10
2999.108715249412
 20
881.425901461872
 42
0.0
 10
2999.108715249412
 20
881.3909014618721
 42
0.0
 10
2999.033715249412
 20
881.3909014618721
 42
0.0
 10
2999.033715249412
 20
881.4509014618716
 42
0.0
 10
2999.033715249412
 20
881.5960467798563
 42
0.0
 10
2996.508275690258
 20
881.5960467798563
 42
0.0
 10
2996.508275690258
 20
880.0209633121575
 42
0.0
 10
2996.258275690258
 20
880.0209633121575
 42
0.0
 10
2996.258275690258
 20
880.1209633121574
 42
0.0
 10
2996.408275690258
 20
880.1209633121574
 42
0.0
 97
        0
 75
     1
 76
     1
 52
45.0
 41
0.13
 77
     0
 78
     2
 53
90.0
 43
0.0
 44
0.0
 45
-0.41275
 46
0.0000000000000001
 79
     0
 53
180.0
 43
0.0
 44
0.0
 45
-0.0000000000000001
 46
-0.41275
 79
     0
 47
0.0103933786857939
 98
        1
 10
2995.82099104128
 20
880.8111025954515
1001
GradientColor1ACI
1070
     5
1001
GradientColor2ACI
1070
     2
1001
ACAD
1010
0.0
1020
0.0
1030
0.0
  0
HATCH
  5
742F
330
1F
100
AcDbEntity
  8
4.1. Zeramika-baldosa
100
AcDbHatch
 10
0.0
 20
0.0
 30
0.0
210
0.0
220
0.0
230
1.0
  2
ANSI37
 70
     0
 71
     1
 91
        2
 92
        7
 72
     1
 73
     1
 93
       10
 10
3001.449191234462
 20
881.5960467798563
 42
0.0
 10
3000.439894953526
 20
881.5960467798563
 42
0.0
 10
3000.439894953526
 20
881.4509014618716
 42
0.0
 10
3000.439894953526
 20
881.425901461872
 42
0.0
 10
3001.109894953525
 20
881.4259014618723
 42
0.0
 10
3001.109894953525
 20
881.4009014618767
 42
-0.3888883922039199
 10
3000.439894953526
 20
880.7859014618719
 42
0.0
 10
3000.439894953526
 20
880.7609014618718
 42
0.0
 10
3000.439894953526
 20
879.7604995720687
 42
0.0
 10
3001.449191234462
 20
879.7604995720687
 42
0.0
 97
        5
330
70E6
330
6B99
330
6B9A
330
6B9B
330
6B98
 92
        7
 72
     1
 73
     1
 93
       22
 10
3001.109894953525
 20
881.4009014618713
 42
0.0
 10
3000.439894953526
 20
881.4009014618713
 42
0.0
 10
3000.439894953526
 20
881.425901461872
 42
0.0
 10
3000.414894953526
 20
881.425901461872
 42
0.0
 10
3000.414894953526
 20
881.3909014618721
 42
0.0
 10
3000.339894953525
 20
881.3909014618721
 42
0.0
 10
3000.339894953525
 20
881.4509014618716
 42
0.0
 10
3000.339894953525
 20
881.5960467798561
 42
0.0
 10
2999.133715249412
 20
881.5960467798563
 42
0.0
 10
2999.133715249412
 20
881.4509014618714
 42
0.0
 10
2999.133715249412
 20
881.425901461872
 42
0.0
 10
2999.803715249412
 20
881.4259014618723
 42
0.0
 10
2999.803715249412
 20
881.4009014618767
 42
-0.3888883922039193
 10
2999.133715249412
 20
880.7859014618719
 42
0.0
 10
2999.133715249412
 20
880.7609014618718
 42
0.0
 10
2999.133715249412
 20
879.7604995720687
 42
0.0
 10
3000.339894953525
 20
879.7604995720687
 42
0.0
 10
3000.339894953525
 20
880.7609014618718
 42
0.0
 10
3000.339894953525
 20
880.8209014618718
 42
0.0
 10
3000.414894953526
 20
880.8209014618718
 42
0.0
 10
3000.414894953526
 20
880.7859014618719
 42
0.0
 10
3000.439894953526
 20
880.7859014618719
 42
0.3888883922017461
 97
        9
330
6B9A
330
6B99
330
70E6
330
6BB9
330
6BBA
330
6BBB
330
6BB8
330
6B98
330
6B9B
 75
     1
 76
     1
 52
45.0
 41
0.13
 77
     0
 78
     2
 53
90.0
 43
0.0
 44
0.0
 45
-0.41275
 46
0.0000000000000001
 79
     0
 53
180.0
 43
0.0
 44
0.0
 45
-0.0000000000000001
 46
-0.41275
 79
     0
 47
0.0104781716590741
 98
        2
 10
3000.82600859197
 20
880.4924639191378
 10
3000.312073623915
 20
881.1525893043995
1001
GradientColor1ACI
1070
     5
1001
GradientColor2ACI
1070
     2
1001
ACAD
1010
0.0
1020
0.0
1030
0.0
  0
HATCH
  5
7455
330
1F
100
AcDbEntity
  8
4.1. Zeramika-baldosa
100
AcDbHatch
 10
0.0
 20
0.0
 30
0.0
210
0.0
220
0.0
230
1.0
  2
ANSI37
 70
     0
 71
     0
 91
        2
 92
        7
 72
     1
 73
     1
 93
       18
 10
3001.449191234462
 20
879.5604995720688
 42
0.0
 10
3000.639894953526
 20
879.5604995720688
 42
0.0
 10
3000.639894953526
 20
879.5142569848321
 42
0.0
 10
3000.539894953525
 20
879.5142569848319
 42
0.0
 10
3000.539894953525
 20
879.4542569848324
 42
0.0
 10
3000.464894953525
 20
879.4542569848324
 42
0.0
 10
3000.464894953525
 20
879.4892569848324
 42
0.0
 10
3000.439894953814
 20
879.4892569848324
 42
0.404351359260718
 10
2999.669894953525
 20
878.7442569848328
 42
0.0
 10
3000.439894953526
 20
878.7442569848328
 42
0.0
 10
3000.439894953526
 20
878.7192569848324
 42
0.0
 10
3000.464894953525
 20
878.7192569848324
 42
0.0
 10
3000.464894953525
 20
878.7542569848321
 42
0.0
 10
3000.539894953525
 20
878.7542569848321
 42
0.0
 10
3000.539894953525
 20
878.6942569848326
 42
0.0
 10
3000.639894953526
 20
878.6942569848326
 42
0.0
 10
3000.639894953526
 20
878.0559992170234
 42
0.0
 10
3001.449191234462
 20
878.0559992170235
 42
0.0
 97
        0
 92
        7
 72
     1
 73
     1
 93
       16
 10
3000.439894953526
 20
879.4892569848322
 42
0.0
 10
3000.439894953526
 20
879.5142569848323
 42
0.0
 10
3000.439894953526
 20
879.6604995720688
 42
0.0
 10
2999.133715249412
 20
879.6604995720688
 42
0.0
 10
2999.133715249412
 20
878.919421046856
 42
0.0
 10
2999.133715249412
 20
878.8944210468557
 42
-0.4043513591469968
 10
2999.903715249411
 20
878.1494210468697
 42
0.0
 10
2999.903715249411
 20
878.1244210468559
 42
0.0
 10
2999.133715249412
 20
878.1244210468559
 42
0.0
 10
2999.133715249412
 20
878.0994210468563
 42
0.0
 10
2999.133715249412
 20
878.0559992170234
 42
0.0
 10
3000.439894953526
 20
878.0559992170235
 42
0.0
 10
3000.439894953526
 20
878.6942569848326
 42
0.0
 10
3000.439894953526
 20
878.7192569848324
 42
0.0
 10
2999.669894953526
 20
878.7192569848324
 42
0.0
 10
2999.669894953526
 20
878.7442569848465
 42
-0.4043513591468136
 97
        0
 75
     1
 76
     1
 52
45.0
 41
0.13
 77
     0
 78
     2
 53
90.0
 43
0.0
 44
0.0
 45
-0.41275
 46
0.0000000000000001
 79
     0
 53
180.0
 43
0.0
 44
0.0
 45
-0.0000000000000001
 46
-0.41275
 79
     0
 47
0.0065635950679325
 98
        2
 10
3001.040345888565
 20
879.0173410652451
 10
2999.502956172156
 20
879.4439747611487
1001
GradientColor1ACI
1070
     5
1001
GradientColor2ACI
1070
     2
1001
ACAD
1010
0.0
1020
0.0
1030
0.0
  0
HATCH
  5
7471
330
1F
100
AcDbEntity
  8
4.1. Zeramika-baldosa
100
AcDbHatch
 10
0.0
 20
0.0
 30
0.0
210
0.0
220
0.0
230
1.0
  2
ANSI37
 70
     0
 71
     0
 91
        2
 92
        7
 72
     1
 73
     1
 93
       13
 10
2997.764763685919
 20
877.0947444709477
 42
0.0
 10
2997.50583813376
 20
877.0947444709477
 42
0.0
 10
2997.50583813376
 20
877.5559992170235
 42
0.0
 10
2996.852160974597
 20
877.5559992170235
 42
0.0
 10
2994.889191234462
 20
877.5559992170235
 42
0.0
 10
2994.889191234462
 20
874.344566060944
 42
0.0
 10
2995.836325619875
 20
874.344566060944
 42
0.0
 10
2995.861325619875
 20
874.344566060944
 42
0.0
 10
2995.861325619875
 20
875.1145660609436
 42
0.0
 10
2995.886325619889
 20
875.1145660609436
 42
-0.404351359146996
 10
2996.631325619875
 20
874.344566060944
 42
0.0
 10
2996.656325619875
 20
874.344566060944
 42
0.0
 10
2997.764763685919
 20
874.3445660609442
 42
0.0
 97
        0
 92
        7
 72
     1
 73
     1
 93
       10
 10
2995.886325619876
 20
875.114566060944
 42
0.0
 10
2995.886325619876
 20
874.344566060944
 42
0.0
 10
2995.861325619875
 20
874.344566060944
 42
0.0
 10
2995.861325619875
 20
874.319566060944
 42
0.0
 10
2995.896325619875
 20
874.319566060944
 42
0.0
 10
2995.896325619875
 20
874.2445660609442
 42
0.0
 10
2996.596325619875
 20
874.2445660609442
 42
0.0
 10
2996.596325619875
 20
874.319566060944
 42
0.0
 10
2996.631325619875
 20
874.319566060944
 42
0.0
 10
2996.631325619875
 20
874.344566060944
 42
0.4043513591520256
 97
        0
 75
     1
 76
     1
 52
45.0
 41
0.13
 77
     0
 78
     2
 53
90.0
 43
0.0
 44
0.0
 45
-0.41275
 46
0.0000000000000001
 79
     0
 53
180.0
 43
0.0
 44
0.0
 45
-0.0000000000000001
 46
-0.41275
 79
     0
 47
0.0106282218017682
 98
        2
 10
2996.359679513081
 20
875.7118603890056
 10
2996.306485561305
 20
874.5427554352906
1001
GradientColor1ACI
1070
     5
1001
GradientColor2ACI
1070
     2
1001
ACAD
1010
0.0
1020
0.0
1030
0.0
  0
LWPOLYLINE
  5
747E
330
1F
100
AcDbEntity
  8
6.1. Eskailerak
100
AcDbPolyline
 90
        2
 70
     0
 43
0.0
 10
2998.25087381576
 20
866.8419404019775
 10
3001.449191234462
 20
870.9345080869265
  0
LINE
  5
747F
102
{ACAD_REACTORS
330
8DA9
102
}
330
1F
100
AcDbEntity
  8
4.1. Zeramika-baldosa
100
AcDbLine
 10
3001.449191234462
 20
870.9345080869265
 30
0.0
 11
2994.889191234463
 21
870.9345080869265
 31
0.0
  0
LINE
  5
7480
330
1F
100
AcDbEntity
  8
6.1. Eskailerak
100
AcDbLine
 10
2998.25087381576
 20
866.8419404019777
 30
0.0
 11
2994.889191234462
 21
870.9345080869265
 31
0.0
  0
LINE
  5
74C3
102
{ACAD_REACTORS
330
8DA9
102
}
330
1F
100
AcDbEntity
  8
2.3. Mehelina
  6
ByBlock
100
AcDbLine
 10
3001.449191234462
 20
877.5559992170235
 30
0.0
 11
3001.449191234462
 21
863.8774833560212
 31
0.0
  0
LINE
  5
74C4
102
{ACAD_REACTORS
330
8DA9
102
}
330
1F
100
AcDbEntity
  8
2.3. Mehelina
  6
ByBlock
100
AcDbLine
 10
2994.889191234462
 20
877.5559992170235
 30
0.0
 11
2994.889191234462
 21
865.9219404019777
 31
0.0
  0
DIMENSION
  5
8CF8
330
1F
100
AcDbEntity
  8
7.3. Kota
100
AcDbDimension
280
     0
  2
*D32
 10
2994.889191234462
 20
865.0043971407445
 30
0.0
 11
2996.275063238805
 21
865.1297040984527
 31
0.0
 70
    33
 71
     5
 42
2.77174400868671
 73
     0
 74
     0
 75
     0
  3
Guztion
100
AcDbAlignedDimension
 13
2997.660935243148
 23
865.0043971407445
 33
0.0
 14
2994.889191234462
 24
865.0043971407445
 34
0.0
  0
HATCH
  5
8DA9
330
1F
100
AcDbEntity
  8
4.3. Moketa
100
AcDbHatch
 10
0.0
 20
0.0
 30
0.0
210
0.0
220
0.0
230
1.0
  2
DOTS
 70
     0
 71
     1
 91
        4
 92
        7
 72
     1
 73
     1
 93
       28
 10
3001.449191234462
 20
874.2445660609442
 42
0.0
 10
2998.734763685918
 20
874.244566060944
 42
0.0
 10
2998.674763685918
 20
874.2445660609442
 42
0.0
 10
2998.674763685918
 20
874.319566060944
 42
0.0
 10
2998.709763685918
 20
874.319566060944
 42
0.0
 10
2998.709763685918
 20
874.3445660609436
 42
0.4043513591521077
 10
2997.964763685919
 20
875.114566060944
 42
0.0
 10
2997.964763685919
 20
874.344566060944
 42
0.0
 10
2997.939763685918
 20
874.344566060944
 42
0.0
 10
2997.939763685918
 20
874.319566060944
 42
0.0
 10
2997.974763685918
 20
874.319566060944
 42
0.0
 10
2997.974763685918
 20
874.2445660609442
 42
0.0
 10
2997.914763685919
 20
874.2445660609442
 42
0.0
 10
2996.656325619875
 20
874.2445660609442
 42
0.0
 10
2996.596325619875
 20
874.2445660609442
 42
0.0
 10
2996.596325619875
 20
874.319566060944
 42
0.0
 10
2996.631325619875
 20
874.319566060944
 42
0.0
 10
2996.631325619875
 20
874.3445660609435
 42
0.4043513591521867
 10
2995.886325619876
 20
875.114566060944
 42
0.0
 10
2995.886325619876
 20
874.344566060944
 42
0.0
 10
2995.861325619875
 20
874.344566060944
 42
0.0
 10
2995.861325619875
 20
874.319566060944
 42
0.0
 10
2995.896325619875
 20
874.319566060944
 42
0.0
 10
2995.896325619875
 20
874.2445660609442
 42
0.0
 10
2995.836325619875
 20
874.2445660609442
 42
0.0
 10
2994.889191234462
 20
874.2445660609442
 42
0.0
 10
2994.889191234462
 20
870.9345080869265
 42
0.0
 10
3001.449191234462
 20
870.9345080869265
 42
0.0
 97
       14
330
6AE4
330
6B6B
330
6B6E
330
6B6D
330
6B6C
330
6B77
330
6B70
330
6B73
330
6B72
330
6B71
330
6AE5
330
74C4
330
747F
330
74C3
 92
       22
 72
     0
 73
     1
 93
        4
 10
2998.451783454937
 20
873.465719443179
 10
2998.451783454937
 20
873.9357194431791
 10
2998.921783454937
 20
873.9357194431791
 10
2998.921783454937
 20
873.465719443179
 97
        1
330
6ADE
 92
        6
 72
     0
 73
     1
 93
        4
 10
2998.511783454937
 20
873.525719443179
 10
2998.511783454937
 20
873.8757194431791
 10
2998.861783454937
 20
873.8757194431791
 10
2998.861783454937
 20
873.525719443179
 97
        1
330
6ADD
 92
        7
 72
     1
 73
     1
 93
       10
 10
3001.449191234462
 20
877.5559992170235
 42
0.0
 10
2997.864763685918
 20
877.5559992170235
 42
0.0
 10
2997.864763685918
 20
874.3445660609442
 42
0.0
 10
2997.914763685919
 20
874.3445660609443
 42
0.0
 10
2997.939763685918
 20
874.344566060944
 42
0.0
 10
2997.939763685918
 20
875.1145660609436
 42
0.0
 10
2997.964763685932
 20
875.1145660609436
 42
-0.4043513591468136
 10
2998.709763685918
 20
874.344566060944
 42
0.0
 10
2998.734763685918
 20
874.344566060944
 42
0.0
 10
3001.449191234462
 20
874.3445660609442
 42
0.0
 97
        8
330
6AE9
330
6AF0
330
6B78
330
6B6C
330
6B6D
330
6B6B
330
6AE6
330
74C3
 75
     1
 76
     1
 52
0.0
 41
0.13
 77
     0
 78
     1
 53
0.0
 43
0.0
 44
0.0
 45
0.1031875
 46
0.206375
 79
     2
 49
0.0
 49
-0.206375
 47
0.0149970342295267
 98
        4
 10
2998.612973426517
 20
873.0265962906138
 10
2998.612973426517
 20
873.0265962906138
 10
2998.612973426517
 20
873.0265962906138
 10
2999.273493308595
 20
875.9060285810878
1001
GradientColor1ACI
1070
     5
1001
GradientColor2ACI
1070
     2
1001
ACAD
1010
0.0
1020
0.0
1030
0.0
  0
LINE
  5
8DAA
330
1F
100
AcDbEntity
  8
4.1. Zeramika-baldosa
100
AcDbLine
 10
2995.896325619875
 20
874.2445660609442
 30
0.0
 11
2996.596325619875
 21
874.2445660609442
 31
0.0
  0
MTEXT
  5
92BF
330
1F
100
AcDbEntity
  8
7.2. Idatzia
100
AcDbMText
 10
2998.967209297854
 20
861.7277098854609
 30
0.0
 40
0.25
 41
3.934541634584093
 46
0.0
 71
     1
 72
     5
  1
A{\H0.5x;eraikia }= 119.27 m²
 73
     1
 44
1.0
1001
ACAD
1000
ACAD_MTEXT_COLUMN_INFO_BEGIN
1070
    75
1070
     2
1070
    79
1070
     0
1070
    76
1070
     1
1070
    78
1070
     0
1070
    48
1040
3.934541634584093
1070
    49
1040
12.5
1070
    50
1070
     1
1040
0.0
1000
ACAD_MTEXT_COLUMN_INFO_END
  0
LWPOLYLINE
  5
92C8
330
1F
100
AcDbEntity
  8
7.1.1. Azalera eraikia
100
AcDbPolyline
 90
        6
 70
     1
 43
0.0
 10
2997.760935243148
 20
863.3774833560211
 10
3001.549191234462
 20
863.3774833560211
 10
3001.549191234462
 20
882.0960467798562
 10
2994.789191234461
 20
882.0960467798563
 10
2994.789191234461
 20
865.8219404019776
 10
2997.760935243148
 20
865.8219404019776
  0
IMAGE
  5
9914
330
1F
100
AcDbEntity
  8
1.1. Armarria
 62
     7
420
 16777215
160
               140
310
8C00000001000000840000000600000005000000DDEDBA3F4F32A7405891A4F1188C8C400000000000000000DDEDBA3F4F32A7400C1937FE4B8C8C400000000000000000EB36F4225A32A7400C1937FE4B8C8C400000000000000000EB36F4225A32A7405891A4F1188C8C400000000000000000DDEDBA3F4F32A7405891A4
310
F1188C8C400000000000000000
100
AcDbRasterImage
 90
        0
 10
2969.154783097778
 20
913.5121796471457
 30
0.0
 11
0.0001408266873892
 21
0.0
 31
0.0
 12
0.0
 22
0.0001408266873892
 32
0.0
 13
151.0
 23
177.0
340
2E2
 70
     7
280
     0
281
    50
282
    50
283
     0
290
     0
360
9915
 71
     1
 91
        2
 14
-0.5
 24
-0.5
 14
150.5
 24
176.5
  0
IMAGE
  5
9916
330
1F
100
AcDbEntity
  8
1.1. Armarria
160
               140
310
8C00000001000000840000000600000005000000340506F14E32A740E473C00D168C8C400000000000000000340506F14E32A740E0B4DA574A8C8C4000000000000000002018F8175A32A740E0B4DA574A8C8C4000000000000000002018F8175A32A740E473C00D168C8C400000000000000000340506F14E32A740E473C0
310
0D168C8C400000000000000000
100
AcDbRasterImage
 90
        0
 10
2969.154182613502
 20
913.5107684169165
 30
0.0
 11
0.0001442483864702
 21
0.0
 31
0.0
 12
0.0
 22
0.0001442483864702
 32
0.0
 13
151.0
 23
177.0
340
9835
 70
     7
280
     0
281
    50
282
    50
283
     0
290
     0
360
9917
 71
     1
 91
        2
 14
-0.5
 24
-0.5
 14
150.5
 24
176.5
  0
LWPOLYLINE
  5
99C2
330
1F
100
AcDbEntity
  8
-
100
AcDbPolyline
 90
        4
 70
     1
 43
0.0
 10
2968.962549757812
 20
913.868933150057
 10
2972.603407748471
 20
913.868933150057
 10
2972.603407748471
 20
911.2276450515624
 10
2968.962549757812
 20
911.2276450515624
  0
VIEWPORT
  5
6590
102
{ACAD_XDICTIONARY
360
6591
102
}
330
658E
100
AcDbEntity
 67
     1
  8
0
100
AcDbViewport
 10
0.2146096695383932
 20
0.4600738493053323
 30
0.0
 40
0.9924123599421566
 41
0.3790891933940536
 68
     1
 69
     1
 12
0.2146096695383932
 22
0.4600738493053323
 13
0.0
 23
0.0
 14
10.0
 24
10.0
 15
10.0
 25
10.0
 16
0.0
 26
0.0
 36
1.0
 17
0.0
 27
0.0
 37
0.0
 42
50.0
 43
0.0
 44
0.0
 45
0.3790891933940536
 50
0.0
 51
0.0
 72
  1000
 90
   819232
  1

281
     0
 71
     1
 74
     0
110
0.0
120
0.0
130
0.0
111
1.0
121
0.0
131
0.0
112
0.0
122
1.0
132
0.0
 79
     0
146
0.0
170
     0
 61
     5
348
F5
292
     1
282
     1
141
0.0
142
0.0
 63
   250
421
  3355443
  0
VIEWPORT
  5
6593
102
{ACAD_XDICTIONARY
360
6594
102
}
330
658E
100
AcDbEntity
 67
     1
  8
0
100
AcDbViewport
 10
128.5
 20
97.5
 30
0.0
 40
205.6
 41
156.0
 68
    -1
 69
     2
 12
2430.557043024972
 22
927.4626459547476
 13
0.0
 23
0.0
 14
10.0
 24
10.0
 15
10.0
 25
10.0
 16
0.0
 26
0.0
 36
1.0
 17
0.0
 27
0.0
 37
0.0
 42
50.0
 43
0.0
 44
0.0
 45
103.1514029277946
 50
0.0
 51
0.0
 72
  1000
 90
   819296
  1

281
     0
 71
     1
 74
     0
110
0.0
120
0.0
130
0.0
111
1.0
121
0.0
131
0.0
112
0.0
122
1.0
132
0.0
 79
     0
146
0.0
170
     0
 61
     5
348
F5
292
     1
282
     1
141
0.0
142
0.0
 63
   250
421
  3355443
  0
LWPOLYLINE
  5
6596
330
658E
100
AcDbEntity
 67
     1
  8
1.7. Ventanas Gráficas
100
AcDbPolyline
 90
        4
 70
     1
 43
0.0
 10
-0.0018762920232689
 20
0.2812602170592981
 10
0.2081237079767311
 20
0.2812602170592981
 10
0.2081237079767311
 20
0.5782602170592981
 10
-0.0018762920232689
 20
0.5782602170592981
  0
VIEWPORT
  5
6597
102
{ACAD_XDICTIONARY
360
6598
102
}
330
658E
100
AcDbEntity
 67
     1
  8
1.7. Ventanas Gráficas
100
AcDbViewport
 10
0.1031310771647043
 20
0.4297528240861653
 30
0.0
 40
0.1983417124039874
 41
0.275393485691211
 68
     2
 69
     3
 12
2969.249746507202
 22
913.6359076880422
 13
0.0
 23
0.0
 14
10.0
 24
10.0
 15
10.0
 25
10.0
 16
0.0
 26
0.0
 36
1.0
 17
0.0
 27
0.0
 37
0.0
 42
50.0
 43
0.0
 44
0.0
 45
0.2753935782524084
 50
0.0
 51
0.0
 72
  1000
 90
   819296
  1

281
     0
 71
     1
 74
     0
110
0.0
120
0.0
130
0.0
111
1.0
121
0.0
131
0.0
112
0.0
122
1.0
132
0.0
 79
     0
146
0.0
170
     0
 61
     5
348
F5
292
     1
282
     1
141
0.0
142
0.0
 63
   250
421
  3355443
  0
VIEWPORT
  5
712D
102
{ACAD_XDICTIONARY
360
712E
102
}
330
658E
100
AcDbEntity
 67
     1
  8
1.7. Ventanas Gráficas
100
AcDbViewport
 10
0.1021283007570106
 20
0.4529208409731703
 30
0.0
 40
0.1963361595886001
 41
0.229057451917201
 68
     3
 69
     4
 12
2998.842073873838
 22
872.1042256677403
 13
0.0
 23
0.0
 14
10.0
 24
10.0
 15
10.0
 25
10.0
 16
0.0
 26
0.0
 36
1.0
 17
0.0
 27
0.0
 37
0.0
 42
50.0
 43
0.0
 44
0.0
 45
22.90574504189325
 50
0.0
 51
0.0
 72
  1000
 90
   819296
  1

281
     0
 71
     1
 74
     0
110
0.0
120
0.0
130
0.0
111
1.0
121
0.0
131
0.0
112
0.0
122
1.0
132
0.0
 79
     0
146
0.0
170
     0
 61
     5
348
F5
292
     1
282
     1
141
0.0
142
0.0
 63
   250
421
  3355443
  0
ENDSEC
  0
SECTION
  2
OBJECTS
  0
DICTIONARY
  5
C
330
0
100
AcDbDictionary
281
     1
  3
ACAD_BACKGROUND
350
222A
  3
ACAD_CIP_PREVIOUS_PRODUCT_INFO
350
216
  3
ACAD_COLOR
350
6B
  3
ACAD_DETAILVIEWSTYLE
350
21B
  3
ACAD_GROUP
350
D
  3
ACAD_IMAGE_DICT
350
2E0
  3
ACAD_IMAGE_VARS
350
2E1
  3
ACAD_LAYOUT
350
1A
  3
ACAD_MATERIAL
350
6A
  3
ACAD_MLEADERSTYLE
350
12D
  3
ACAD_MLINESTYLE
350
17
  3
ACAD_PLOTSETTINGS
350
19
  3
ACAD_PLOTSTYLENAME
350
E
  3
ACAD_SCALELIST
350
10C
  3
ACAD_SECTIONVIEWSTYLE
350
219
  3
ACAD_TABLESTYLE
350
7E
  3
ACAD_VISUALSTYLE
350
EF
  3
ACDB_RECOMPOSE_DATA
350
9A44
  3
AcDbVariableDictionary
350
5E
  3
AEC_PROPERTY_SET_DEFS
350
18A3
  0
DICTIONARY
  5
1FF
330
2
100
AcDbDictionary
280
     1
281
     1
  3
ACAD_LAYERFILTERS
360
9234
  3
ACAD_LAYERSTATES
360
200
  3
ACLYDICTIONARY
360
9233
  0
DICTIONARY
  5
13C
330
10
100
AcDbDictionary
280
     1
281
     1
  0
DICTIONARY
  5
6C7
330
6C6
100
AcDbDictionary
280
     1
281
     1
  0
DICTIONARY
  5
916A
330
9169
100
AcDbDictionary
280
     1
281
     1
  0
DICTIONARY
  5
1CE
330
1F
100
AcDbDictionary
280
     1
281
     1
  3
ACAD_SORTENTS
360
254
  0
DICTIONARY
  5
2645
330
2643
100
AcDbDictionary
280
     1
281
     1
  3
ACAD_SORTENTS
360
2646
  0
DICTIONARY
  5
9170
330
916E
100
AcDbDictionary
280
     1
281
     1
  3
ACAD_SORTENTS
360
9171
  0
DICTIONARY
  5
2AF4
330
2AF3
100
AcDbDictionary
280
     1
281
     1
  3
ASDK_XREC_ANNOTATION_SCALE_INFO
360
2AF5
  0
DICTIONARY
  5
2AF8
330
2AF7
100
AcDbDictionary
280
     1
281
     1
  3
ASDK_XREC_ANNOTATION_SCALE_INFO
360
2AF9
  0
IMAGEDEF_REACTOR
  5
6657
330
6656
100
AcDbRasterImageDefReactor
 90
        2
330
6656
  0
DICTIONARY
  5
6B40
330
6B33
100
AcDbDictionary
280
     1
281
     1
  3
ACAD_DIMASSOC
360
6B4A
  0
DICTIONARY
  5
6BAB
330
6B9E
100
AcDbDictionary
280
     1
281
     1
  3
ACAD_DIMASSOC
360
6BB5
  0
DICTIONARY
  5
6BCB
330
6BBE
100
AcDbDictionary
280
     1
281
     1
  3
ACAD_DIMASSOC
360
6BD5
  0
DICTIONARY
  5
6DD7
330
6DCA
100
AcDbDictionary
280
     1
281
     1
  3
ACAD_DIMASSOC
360
6DE1
  0
DICTIONARY
  5
6DEF
330
6DE2
100
AcDbDictionary
280
     1
281
     1
  3
ACAD_DIMASSOC
360
6DF9
  0
DICTIONARY
  5
6E07
330
6DFA
100
AcDbDictionary
280
     1
281
     1
  3
ACAD_DIMASSOC
360
6E11
  0
DICTIONARY
  5
6E1F
330
6E12
100
AcDbDictionary
280
     1
281
     1
  3
ACAD_DIMASSOC
360
6E29
  0
DICTIONARY
  5
6E37
330
6E2A
100
AcDbDictionary
280
     1
281
     1
  3
ACAD_DIMASSOC
360
6E41
  0
DICTIONARY
  5
6E67
330
6E5A
100
AcDbDictionary
280
     1
281
     1
  3
ACAD_DIMASSOC
360
6E71
  0
DICTIONARY
  5
6E9B
330
6E8E
100
AcDbDictionary
280
     1
281
     1
  3
ACAD_DIMASSOC
360
6EA5
  0
DICTIONARY
  5
6ECF
330
6EC2
100
AcDbDictionary
280
     1
281
     1
  3
ACAD_DIMASSOC
360
6ED9
  0
DICTIONARY
  5
6EE7
330
6EDA
100
AcDbDictionary
280
     1
281
     1
  3
ACAD_DIMASSOC
360
6EF1
  0
DICTIONARY
  5
6EFF
330
6EF2
100
AcDbDictionary
280
     1
281
     1
  3
ACAD_DIMASSOC
360
6F09
  0
DICTIONARY
  5
6F17
330
6F0A
100
AcDbDictionary
280
     1
281
     1
  3
ACAD_DIMASSOC
360
6F21
  0
DICTIONARY
  5
6F34
330
6F27
100
AcDbDictionary
280
     1
281
     1
  3
ACAD_DIMASSOC
360
6F3E
  0
DICTIONARY
  5
6F62
330
6F57
100
AcDbDictionary
280
     1
281
     1
  3
ACAD_DIMASSOC
360
6F6A
  0
DICTIONARY
  5
6F76
330
6F6B
100
AcDbDictionary
280
     1
281
     1
  3
ACAD_DIMASSOC
360
6F7E
  0
DICTIONARY
  5
6F8C
330
6F7F
100
AcDbDictionary
280
     1
281
     1
  3
ACAD_DIMASSOC
360
6F96
  0
DICTIONARY
  5
6FA2
330
6F97
100
AcDbDictionary
280
     1
281
     1
  3
ACAD_DIMASSOC
360
6FAA
  0
DICTIONARY
  5
6FD0
330
6FC3
100
AcDbDictionary
280
     1
281
     1
  3
ACAD_DIMASSOC
360
6FDA
  0
DICTIONARY
  5
6FE9
330
6FDB
100
AcDbDictionary
280
     1
281
     1
  3
ACAD_DIMASSOC
360
6FF4
  0
DICTIONARY
  5
700B
330
6FFE
100
AcDbDictionary
280
     1
281
     1
  3
ACAD_DIMASSOC
360
7015
  0
DICTIONARY
  5
7030
330
7023
100
AcDbDictionary
280
     1
281
     1
  3
ACAD_DIMASSOC
360
703A
  0
DICTIONARY
  5
7048
330
703B
100
AcDbDictionary
280
     1
281
     1
  3
ACAD_DIMASSOC
360
7052
  0
DICTIONARY
  5
706D
330
7060
100
AcDbDictionary
280
     1
281
     1
  3
ACAD_DIMASSOC
360
7077
  0
DICTIONARY
  5
709B
330
7090
100
AcDbDictionary
280
     1
281
     1
  3
ACAD_DIMASSOC
360
70A3
  0
IMAGEDEF_REACTOR
  5
9915
330
9914
100
AcDbRasterImageDefReactor
 90
        2
330
9914
  0
IMAGEDEF_REACTOR
  5
9917
330
9916
100
AcDbRasterImageDefReactor
 90
        2
330
9916
  0
DICTIONARY
  5
6591
330
6590
100
AcDbDictionary
280
     1
281
     1
  3
ASDK_XREC_ANNOTATION_SCALE_INFO
360
6592
  0
DICTIONARY
  5
6594
330
6593
100
AcDbDictionary
280
     1
281
     1
  3
ASDK_XREC_ANNOTATION_SCALE_INFO
360
6595
  0
DICTIONARY
  5
6598
330
6597
100
AcDbDictionary
280
     1
281
     1
  3
ASDK_XREC_ANNOTATION_SCALE_INFO
360
6599
  0
DICTIONARY
  5
712E
330
712D
100
AcDbDictionary
280
     1
281
     1
  3
ASDK_XREC_ANNOTATION_SCALE_INFO
360
712F
  0
DICTIONARY
  5
222A
102
{ACAD_REACTORS
330
C
102
}
330
C
100
AcDbDictionary
281
     1
  0
XRECORD
  5
216
102
{ACAD_REACTORS
330
C
102
}
330
C
100
AcDbXrecord
280
     1
300
ACD
300
2015
300
ACD_F_S
  0
DICTIONARY
  5
6B
102
{ACAD_REACTORS
330
C
102
}
330
C
100
AcDbDictionary
281
     1
  0
DICTIONARY
  5
21B
102
{ACAD_REACTORS
330
C
102
}
330
C
100
AcDbDictionary
281
     1
  3
Imperial24
350
188F
  3
Metric50
350
21C
  0
DICTIONARY
  5
D
102
{ACAD_REACTORS
330
C
102
}
330
C
100
AcDbDictionary
281
     1
  0
DICTIONARY
  5
2E0
102
{ACAD_REACTORS
330
C
102
}
330
C
100
AcDbDictionary
281
     1
  3
Andoain
350
883
  3
Astigarraga
350
A1D
  3
Hernani
350
A20
  3
Lasarte_Oria
350
A38
  3
Urnieta
350
A0E
  3
Usurbil
350
2E2
  3
Usurbil_1
350
9835
  0
RASTERVARIABLES
  5
2E1
102
{ACAD_REACTORS
330
C
102
}
330
C
100
AcDbRasterVariables
 90
        0
 70
     1
 71
     1
 72
     1
  0
DICTIONARY
  5
1A
102
{ACAD_REACTORS
330
C
102
}
330
C
100
AcDbDictionary
281
     1
  3
14
350
659B
  3
Model
350
22
  3
Presentación2
350
D7
  0
DICTIONARY
  5
6A
102
{ACAD_REACTORS
330
C
102
}
330
C
100
AcDbDictionary
281
     1
  3
ByBlock
350
ED
  3
ByLayer
350
EC
  3
Global
350
EE
  0
DICTIONARY
  5
12D
102
{ACAD_REACTORS
330
C
102
}
330
C
100
AcDbDictionary
281
     1
  3
Anotativo
350
13B
  3
Standard
350
12E
  0
DICTIONARY
  5
17
102
{ACAD_REACTORS
330
C
102
}
330
C
100
AcDbDictionary
281
     1
  3
Standard
350
18
  0
DICTIONARY
  5
19
102
{ACAD_REACTORS
330
C
102
}
330
C
100
AcDbDictionary
281
     1
  0
ACDBDICTIONARYWDFLT
  5
E
102
{ACAD_REACTORS
330
C
102
}
330
C
100
AcDbDictionary
281
     1
  3
Normal
350
F
100
AcDbDictionaryWithDefault
340
F
  0
DICTIONARY
  5
10C
102
{ACAD_REACTORS
330
C
102
}
330
C
100
AcDbDictionary
281
     1
  3
A0
350
10D
  3
A1
350
4B1
  3
A2
350
4B2
  3
A3
350
4B3
  3
A4
350
4B4
  3
A5
350
4B5
  3
A6
350
4B6
  3
A7
350
4B7
  3
A8
350
4B8
  3
A9
350
4B9
  3
B0
350
4BA
  3
B1
350
4BB
  3
B2
350
1C8
  3
B3
350
4BC
  3
B4
350
4BD
  3
B5
350
4BE
  3
B6
350
4BF
  3
B7
350
4C0
  0
DICTIONARY
  5
219
102
{ACAD_REACTORS
330
C
102
}
330
C
100
AcDbDictionary
281
     1
  3
Imperial24
350
188E
  3
Metric50
350
21A
  0
DICTIONARY
  5
7E
102
{ACAD_REACTORS
330
C
102
}
330
C
100
AcDbDictionary
281
     1
  3
Standard
350
7F
  0
DICTIONARY
  5
EF
102
{ACAD_REACTORS
330
C
102
}
330
C
100
AcDbDictionary
281
     1
  3
2dWireframe
350
F5
  3
Basic
350
F4
  3
Brighten
350
FB
  3
ColorChange
350
FF
  3
Conceptual
350
F8
  3
Dim
350
FA
  3
EdgeColorOff
350
1E6
  3
Facepattern
350
FE
  3
Flat
350
F0
  3
FlatWithEdges
350
F1
  3
Gouraud
350
F2
  3
GouraudWithEdges
350
F3
  3
Hidden
350
F7
  3
JitterOff
350
1E4
  3
Linepattern
350
FD
  3
OverhangOff
350
1E5
  3
Realistic
350
F9
  3
Shaded
350
1F3
  3
Shaded with edges
350
1F2
  3
Shades of Gray
350
1EF
  3
Sketchy
350
1F0
  3
Thicken
350
FC
  3
Wireframe
350
F6
  3
X-Ray
350
1F1
  0
XRECORD
  5
9A44
102
{ACAD_REACTORS
330
C
102
}
330
C
100
AcDbXrecord
280
     1
 90
        1
330
7F
330
21A
330
21C
330
188E
330
188F
330
3659
330
6729
330
70D9
330
70E7
330
92BF
  0
DICTIONARY
  5
5E
102
{ACAD_REACTORS
330
C
102
}
330
C
100
AcDbDictionary
281
     1
  3
CANNOSCALE
350
146
  3
CMLEADERSTYLE
350
145
  3
CTABLESTYLE
350
84
  3
CVIEWDETAILSTYLE
350
227
  3
CVIEWSECTIONSTYLE
350
228
  3
DIMASSOC
350
5F
  3
HIDETEXT
350
63
  3
LAYEREVAL
350
1AE
  3
LAYERNOTIFY
350
1AF
  0
DICTIONARY
  5
18A3
102
{ACAD_REACTORS
330
C
102
}
330
C
100
AcDbDictionary
281
     1
  0
DICTIONARY
  5
9234
102
{ACAD_REACTORS
330
1FF
102
}
330
1FF
100
AcDbDictionary
281
     1
  0
DICTIONARY
  5
200
102
{ACAD_REACTORS
330
1FF
102
}
330
1FF
100
AcDbDictionary
281
     1
  0
DICTIONARY
  5
9233
102
{ACAD_REACTORS
330
1FF
102
}
330
1FF
100
AcDbDictionary
281
     1
  3
*A1
350
9235
  3
*A2
350
9236
  3
*A3
350
9237
  3
*A4
350
9238
  3
*A5
350
9239
  3
*A6
350
923A
  3
*A7
350
923B
  3
*A8
350
923C
1001
ACAD
1000
<All
  0
SORTENTSTABLE
  5
254
102
{ACAD_REACTORS
330
1CE
102
}
330
1CE
100
AcDbSortentsTable
330
1F
331
70E7
  5
760C
331
7090
  5
7600
331
747E
  5
761B
331
6BB6
  5
75F8
331
6DA1
  5
12CF
331
6B0C
  5
6B80
331
6B7B
  5
75ED
331
6B77
  5
6F27
331
6B08
  5
6B77
331
6B04
  5
6B68
331
6B73
  5
75C3
331
6BF9
  5
760E
331
6B00
  5
713A
331
6E5A
  5
7619
331
6AC6
  5
6BBB
331
65EC
  5
12CD
331
6ABE
  5
6B2E
331
6AFD
  5
7137
331
6677
  5
69EB
331
6AF9
  5
70D9
331
6673
  5
6994
331
8DA9
  5
12E5
331
6B6B
  5
6BB9
331
6BF1
  5
75FC
331
7060
  5
7605
331
6B67
  5
75C4
331
6BD9
  5
7606
331
6B63
  5
75C2
331
3658
  5
39AC
331
666F
  5
691E
331
6AF5
  5
70BC
331
6F7F
  5
75C0
331
6AF1
  5
703B
331
669E
  5
6B0F
331
6667
  5
6885
331
6AE9
  5
6FC3
331
6663
  5
6853
331
669A
  5
6B0B
331
92C8
  5
9305
331
70BF
  5
7601
331
6B9E
  5
75E9
331
6B9A
  5
6EF2
331
6E2A
  5
7618
331
665F
  5
680A
331
6696
  5
6B07
331
6AE5
  5
6F3F
331
665B
  5
67BC
331
6692
  5
6693
331
6AE1
  5
6DCA
331
6F6B
  5
75BF
331
668E
  5
6739
331
6ADD
  5
6DB1
331
668A
  5
6AF8
331
6653
  5
676D
331
6B33
  5
6B7E
331
6BBD
  5
7139
331
6B2F
  5
75BC
331
6B86
  5
75EE
331
6BB9
  5
75F9
331
6DA8
  5
12D0
331
6AD5
  5
6BFB
331
664F
  5
6769
331
6686
  5
6AF1
331
664B
  5
6765
331
6682
  5
6AEB
331
667E
  5
6ACA
331
6647
  5
6730
331
6ACD
  5
6BF7
331
667A
  5
667C
331
6F57
  5
75BE
331
6AC9
  5
6ACB
331
70EA
  5
7611
331
6B7E
  5
6BD9
331
6B0F
  5
6B85
331
70E6
  5
7607
331
6B7A
  5
6BFE
331
6BFC
  5
7613
331
6B07
  5
6B6B
331
6B76
  5
75EA
331
6B03
  5
713C
331
6B72
  5
75E8
331
6E12
  5
7617
331
6AC5
  5
6BB8
331
65EB
  5
12CC
331
6676
  5
69EA
331
6AF8
  5
70CC
331
6672
  5
697A
331
7471
  5
12D5
331
7455
  5
12D6
331
6B6E
  5
75E5
331
6B6A
  5
6DE2
331
6BD8
  5
7603
331
6B62
  5
6E2A
331
6DFA
  5
7616
331
666E
  5
6670
331
6AF4
  5
7090
331
666A
  5
68BC
331
6729
  5
6B31
331
6AF0
  5
7023
331
669D
  5
6B0E
331
6666
  5
6668
331
6AE8
  5
6F97
331
6F27
  5
75B7
331
6662
  5
6664
331
6699
  5
6B0A
331
92BF
  5
9304
331
70BE
  5
7609
331
6B9D
  5
75BB
331
6B99
  5
75F5
331
7053
  5
75FA
331
665E
  5
67FC
331
6AE4
  5
6E8E
331
665A
  5
67BB
331
6691
  5
6AFE
331
6AE0
  5
6C01
331
6656
  5
677C
331
668D
  5
6AFB
331
6ADC
  5
6C00
331
6689
  5
6AF7
331
6AD8
  5
6BFA
331
6652
  5
676C
331
8CF8
  5
8D46
331
74C4
  5
6BFC
331
703B
  5
75F7
331
6B32
  5
6E5A
331
6DAF
  5
12D1
331
6BBC
  5
6EC2
331
6B2E
  5
6B78
331
6B85
  5
75E7
331
6BB8
  5
7604
331
6DE2
  5
7615
331
6AD4
  5
6BF0
331
664E
  5
6768
331
6685
  5
6AF0
331
664A
  5
6738
331
6681
  5
6AEA
331
667D
  5
6AC9
331
6AC8
  5
6B03
331
6679
  5
6ABE
331
70E9
  5
7612
331
7480
  5
761D
331
6B7D
  5
6BD8
331
6B0E
  5
75B9
331
7023
  5
75F6
331
6B79
  5
6BFD
331
6BFB
  5
760D
331
6B06
  5
6B79
331
6B75
  5
75EB
331
6B02
  5
6B64
331
6B71
  5
75C5
331
6AC4
  5
6B9D
331
6AFF
  5
6B4D
331
65EA
  5
12C6
331
6ABC
  5
6B9A
331
6AFB
  5
70E9
331
6675
  5
69C6
331
6671
  5
694E
331
6BF7
  5
760A
331
6B6D
  5
6BBD
331
6BF3
  5
70E7
331
6B69
  5
6EDA
331
70D9
  5
760F
331
6B65
  5
75C6
331
6EF2
  5
75B5
331
6AF7
  5
70BF
331
666D
  5
6906
331
6AF3
  5
7060
331
6669
  5
68A4
331
6AEF
  5
7016
331
669C
  5
6B0D
331
6AEB
  5
6FDB
331
6665
  5
6878
331
6661
  5
683B
331
6698
  5
6B08
331
6BD7
  5
75FD
331
6B9C
  5
6C02
331
6B4D
  5
75C1
331
6DCA
  5
7614
331
6B98
  5
75F2
331
6EDA
  5
74C4
331
6AE7
  5
6F7F
331
665D
  5
67C9
331
6694
  5
6B01
331
6AE3
  5
6E12
331
6659
  5
677D
331
6690
  5
6AFC
331
6ADF
  5
6B06
331
6655
  5
6656
331
668C
  5
6AFA
331
6ADB
  5
6B04
331
6688
  5
6AF4
331
6651
  5
676B
331
6DB6
  5
12D4
331
74C3
  5
6BB7
331
6B88
  5
7480
331
6B31
  5
6DFA
331
6BBB
  5
75F0
331
6B84
  5
75E6
331
6AD7
  5
6BFF
331
664D
  5
6766
331
6684
  5
6AEE
331
6649
  5
6732
331
6680
  5
6AE8
331
6ACF
  5
6BBC
331
6F0A
  5
75B8
331
6ACB
  5
6ADF
331
747F
  5
761C
331
6BB7
  5
75E4
331
6B0D
  5
75BA
331
6B7C
  5
75E3
331
6B78
  5
6F6B
331
6B09
  5
6B7A
331
6B05
  5
75B6
331
6BFA
  5
7610
331
6B01
  5
713B
331
6B70
  5
6BD7
331
6EC2
  5
74C3
331
6AC7
  5
6BBA
331
65ED
  5
12CE
331
6ABF
  5
6B9E
331
6AFE
  5
7138
331
65E9
  5
12C5
331
6FDB
  5
75FB
331
6AFA
  5
70E6
331
6674
  5
69AE
331
6670
  5
6936
331
6BF6
  5
760B
331
8DAA
  5
8E2D
331
6B6C
  5
6BBE
331
6BF2
  5
70EA
331
6B68
  5
6B98
331
6B64
  5
6BB6
331
3659
  5
39B0
331
6AF6
  5
70BE
331
666C
  5
68EE
331
7016
  5
75F4
331
6AF2
  5
7053
331
6668
  5
6890
331
669F
  5
6B2F
331
6AEE
  5
6FFE
331
6FC3
  5
75F1
331
669B
  5
6B0C
331
6664
  5
686B
331
742F
  5
12D7
331
6660
  5
6823
331
70CC
  5
7608
331
70BC
  5
75FF
331
6B9B
  5
6F0A
331
6B4C
  5
6B9B
331
740B
  5
12D8
331
6B97
  5
75F3
331
6DBD
  5
12D2
331
6E8E
  5
761A
331
6AE6
  5
6F57
331
6697
  5
6697
331
665C
  5
67C8
331
6693
  5
6B02
331
6AE2
  5
6DB8
331
6658
  5
665A
331
668F
  5
6AFD
331
6ADE
  5
6BF8
331
6654
  5
676E
331
668B
  5
6AF9
331
6FFE
  5
75BD
331
71D7
  5
12D3
331
6650
  5
676A
331
6BBE
  5
7602
331
6B87
  5
713D
331
6B30
  5
6B88
331
6BBA
  5
75FE
331
6B83
  5
75EF
331
6687
  5
6AF2
331
6AD6
  5
6BF1
331
6F97
  5
75EC
331
6683
  5
6AED
331
667F
  5
6AE5
331
6ACE
  5
6BF9
331
667B
  5
6AC8
331
6ACA
  5
6ADB
  0
SORTENTSTABLE
  5
2646
102
{ACAD_REACTORS
330
2645
102
}
330
2645
100
AcDbSortentsTable
330
2643
  0
SORTENTSTABLE
  5
9171
102
{ACAD_REACTORS
330
9170
102
}
330
9170
100
AcDbSortentsTable
330
916E
  0
XRECORD
  5
2AF5
102
{ACAD_REACTORS
330
2AF4
102
}
330
2AF4
100
AcDbXrecord
280
     1
 90
        1
340
10D
  0
XRECORD
  5
2AF9
102
{ACAD_REACTORS
330
2AF8
102
}
330
2AF8
100
AcDbXrecord
280
     1
 90
        1
340
10D
  0
DIMASSOC
  5
6B4A
102
{ACAD_REACTORS
330
6B40
102
}
330
6B40
100
AcDbDimAssoc
330
6B33
 90
        3
 70
     0
 71
     0
  1
AcDbOsnapPointRef
 72
     1
331
6B2E
 73
     2
 91
        4
 40
1.0
 10
0.0
 20
0.0
 30
2.000000000000000E+50
 75
     0
  1
AcDbOsnapPointRef
 72
     1
331
6B2F
 73
     2
 91
        4
 40
1.0
 10
0.0
 20
0.0
 30
2.000000000000000E+50
 75
     0
  0
DIMASSOC
  5
6BB5
102
{ACAD_REACTORS
330
6BAB
102
}
330
6BAB
100
AcDbDimAssoc
330
6B9E
 90
        3
 70
     0
 71
     0
  1
AcDbOsnapPointRef
 72
     1
331
6B99
 73
     2
 91
        4
 40
1.0
 10
0.0
 20
0.0
 30
2.000000000000000E+50
 75
     0
  1
AcDbOsnapPointRef
 72
     1
331
6B98
 73
     2
 91
        4
 40
1.0
 10
0.0
 20
0.0
 30
2.000000000000000E+50
 75
     0
  0
DIMASSOC
  5
6BD5
102
{ACAD_REACTORS
330
6BCB
102
}
330
6BCB
100
AcDbDimAssoc
330
6BBE
 90
        3
 70
     0
 71
     0
  1
AcDbOsnapPointRef
 72
     1
331
6BB9
 73
     2
 91
        4
 40
1.0
 10
0.0
 20
0.0
 30
2.000000000000000E+50
 75
     0
  1
AcDbOsnapPointRef
 72
     1
331
6BB8
 73
     2
 91
        4
 40
1.0
 10
0.0
 20
0.0
 30
2.000000000000000E+50
 75
     0
  0
DIMASSOC
  5
6DE1
102
{ACAD_REACTORS
330
6DD7
102
}
330
6DD7
100
AcDbDimAssoc
330
6DCA
 90
        3
 70
     0
 71
     0
  1
AcDbOsnapPointRef
 72
     6
331
6AD4
 73
     2
 91
        0
 40
-0.0318997452196488
 10
0.0
 20
0.0
 30
0.0
332
6ABC
 74
     2
 92
        0
 75
     0
  1
AcDbOsnapPointRef
 72
     1
331
6ABC
 73
     2
 91
        0
 40
0.9712643678161182
 10
0.0
 20
0.0
 30
2.000000000000000E+50
 75
     0
  0
DIMASSOC
  5
6DF9
102
{ACAD_REACTORS
330
6DEF
102
}
330
6DEF
100
AcDbDimAssoc
330
6DE2
 90
        3
 70
     0
 71
     0
  1
AcDbOsnapPointRef
 72
     6
331
6ACA
 73
     2
 91
        0
 40
-0.2445637099536486
 10
0.0
 20
0.0
 30
0.0
332
6AC6
 74
     2
 92
        0
 75
     0
  1
AcDbOsnapPointRef
 72
    13
331
6AC5
 73
     2
 91
        0
 40
0.2222222222219977
 10
0.0
 20
0.0
 30
2.000000000000000E+50
 75
     0
  0
DIMASSOC
  5
6E11
102
{ACAD_REACTORS
330
6E07
102
}
330
6E07
100
AcDbDimAssoc
330
6DFA
 90
        3
 70
     0
 71
     0
  1
AcDbOsnapPointRef
 72
     1
331
6B4C
 73
     2
 91
        4
 40
1.0
 10
0.0
 20
0.0
 30
2.000000000000000E+50
 75
     0
  1
AcDbOsnapPointRef
 72
     1
331
6BD7
 73
     2
 91
        4
 40
1.0
 10
0.0
 20
0.0
 30
2.000000000000000E+50
 75
     0
  0
DIMASSOC
  5
6E29
102
{ACAD_REACTORS
330
6E1F
102
}
330
6E1F
100
AcDbDimAssoc
330
6E12
 90
        3
 70
     0
 71
     0
  1
AcDbOsnapPointRef
 72
    13
331
6AC9
 73
     2
 91
        0
 40
0.0
 10
0.0
 20
0.0
 30
2.000000000000000E+50
 75
     0
  1
AcDbOsnapPointRef
 72
    13
331
6AC5
 73
     2
 91
        0
 40
0.0
 10
0.0
 20
0.0
 30
2.000000000000000E+50
 75
     0
  0
DIMASSOC
  5
6E41
102
{ACAD_REACTORS
330
6E37
102
}
330
6E37
100
AcDbDimAssoc
330
6E2A
 90
        2
 70
     0
 71
     0
  1
AcDbOsnapPointRef
 72
     8
331
6ABF
 73
     2
 91
        0
 40
0.2158310694766539
 10
0.0
 20
0.0
 30
0.0
 75
     1
  1
AcDbOsnapPointRef
 72
     0
 40
0.0
 10
3001.649191234462
 20
881.5960467798563
 30
0.0
 75
     0
  0
DIMASSOC
  5
6E71
102
{ACAD_REACTORS
330
6E67
102
}
330
6E67
100
AcDbDimAssoc
330
6E5A
 90
        3
 70
     0
 71
     0
  1
AcDbOsnapPointRef
 72
     6
331
6AE9
 73
     2
 91
        0
 40
-0.0435063483801604
 10
0.0
 20
0.0
 30
0.0
332
6ABF
 74
     2
 92
        0
 75
     0
  1
AcDbOsnapPointRef
 72
     6
331
6AE6
 73
     2
 91
        0
 40
-0.0736803603791545
 10
0.0
 20
0.0
 30
0.0
332
6ABF
 74
     2
 92
        0
 75
     0
  0
DIMASSOC
  5
6EA5
102
{ACAD_REACTORS
330
6E9B
102
}
330
6E9B
100
AcDbDimAssoc
330
6E8E
 90
        3
 70
     0
 71
     0
  1
AcDbOsnapPointRef
 72
     6
331
6AE4
 73
     2
 91
        0
 40
-0.0736803603791669
 10
0.0
 20
0.0
 30
0.0
332
6ABF
 74
     2
 92
        0
 75
     0
  1
AcDbOsnapPointRef
 72
     6
331
6AD8
 73
     2
 91
        0
 40
-0.0542261709790233
 10
0.0
 20
0.0
 30
0.0
332
6ABF
 74
     2
 92
        0
 75
     0
  0
DIMASSOC
  5
6ED9
102
{ACAD_REACTORS
330
6ECF
102
}
330
6ECF
100
AcDbDimAssoc
330
6EC2
 90
        3
 70
     0
 71
     0
  1
AcDbOsnapPointRef
 72
     6
331
6AD7
 73
     2
 91
        0
 40
-0.0542261709790233
 10
0.0
 20
0.0
 30
0.0
332
6ABF
 74
     2
 92
        0
 75
     0
  1
AcDbOsnapPointRef
 72
     6
331
6AC7
 73
     2
 91
        0
 40
-0.2857142857139145
 10
0.0
 20
0.0
 30
0.0
332
6ABF
 74
     2
 92
        0
 75
     0
  0
DIMASSOC
  5
6EF1
102
{ACAD_REACTORS
330
6EE7
102
}
330
6EE7
100
AcDbDimAssoc
330
6EDA
 90
        3
 70
     0
 71
     0
  1
AcDbOsnapPointRef
 72
     6
331
6ABE
 73
     2
 91
        0
 40
1.030487804878021
 10
0.0
 20
0.0
 30
0.0
332
6ABF
 74
     2
 92
        0
 75
     0
  1
AcDbOsnapPointRef
 72
     1
331
6ABF
 73
     2
 91
        0
 40
0.9732885484490109
 10
0.0
 20
0.0
 30
2.000000000000000E+50
 75
     0
  0
DIMASSOC
  5
6F09
102
{ACAD_REACTORS
330
6EFF
102
}
330
6EFF
100
AcDbDimAssoc
330
6EF2
 90
        3
 70
     0
 71
     0
  1
AcDbOsnapPointRef
 72
     1
331
6B63
 73
     2
 91
        4
 40
1.0
 10
0.0
 20
0.0
 30
2.000000000000000E+50
 75
     0
  1
AcDbOsnapPointRef
 72
     1
331
6B62
 73
     2
 91
        4
 40
1.0
 10
0.0
 20
0.0
 30
2.000000000000000E+50
 75
     0
  0
DIMASSOC
  5
6F21
102
{ACAD_REACTORS
330
6F17
102
}
330
6F17
100
AcDbDimAssoc
330
6F0A
 90
        1
 70
     0
 71
     0
  1
AcDbOsnapPointRef
 72
    13
331
6AE1
 73
     2
 91
        0
 40
0.0
 10
0.0
 20
0.0
 30
2.000000000000000E+50
 75
     0
  0
DIMASSOC
  5
6F3E
102
{ACAD_REACTORS
330
6F34
102
}
330
6F34
100
AcDbDimAssoc
330
6F27
 90
        3
 70
     0
 71
     0
  1
AcDbOsnapPointRef
 72
     8
331
6ACB
 73
     2
 91
        0
 40
0.9326994521009771
 10
0.0
 20
0.0
 30
0.0
 75
     1
  1
AcDbOsnapPointRef
 72
     0
 40
0.0
 10
2994.889191234462
 20
865.9219404019777
 30
0.0
 75
     0
  1
AcDbOsnapPointRef
 72
     2
331
6ACB
 73
     2
 91
        0
 40
0.5601749067379571
 10
0.0
 20
0.0
 30
0.0
 75
     0
  0
DIMASSOC
  5
6F6A
102
{ACAD_REACTORS
330
6F62
102
}
330
6F62
100
AcDbDimAssoc
330
6F57
 90
        2
 70
     0
 71
     0
  1
AcDbOsnapPointRef
 72
     8
331
6AD8
 73
     2
 91
        0
 40
0.6943370750711431
 10
0.0
 20
0.0
 30
0.0
 75
     1
  1
AcDbOsnapPointRef
 72
     0
 40
0.0
 10
2998.88829835734
 20
868.3521640605256
 30
0.0
 75
     0
  0
DIMASSOC
  5
6F7E
102
{ACAD_REACTORS
330
6F76
102
}
330
6F76
100
AcDbDimAssoc
330
6F6B
 90
        2
 70
     0
 71
     0
  1
AcDbOsnapPointRef
 72
     8
331
6AC4
 73
     2
 91
        0
 40
0.7060538284081276
 10
0.0
 20
0.0
 30
0.0
 75
     1
  1
AcDbOsnapPointRef
 72
     0
 40
0.0
 10
2998.48587381576
 20
869.0857872405652
 30
0.0
 75
     0
  0
DIMASSOC
  5
6F96
102
{ACAD_REACTORS
330
6F8C
102
}
330
6F8C
100
AcDbDimAssoc
330
6F7F
 90
        3
 70
     0
 71
     0
  1
AcDbOsnapPointRef
 72
     1
331
6B6A
 73
     2
 91
        0
 40
1.0
 10
0.0
 20
0.0
 30
2.000000000000000E+50
 75
     0
  1
AcDbOsnapPointRef
 72
    13
331
6ADC
 73
     2
 91
        1
 40
0.0
 10
0.0
 20
0.0
 30
2.000000000000000E+50
 75
     0
  0
DIMASSOC
  5
6FAA
102
{ACAD_REACTORS
330
6FA2
102
}
330
6FA2
100
AcDbDimAssoc
330
6F97
 90
        2
 70
     0
 71
     0
  1
AcDbOsnapPointRef
 72
     8
331
6ADC
 73
     2
 91
        3
 40
0.5948234117570596
 10
0.0
 20
0.0
 30
0.0
 75
     1
  1
AcDbOsnapPointRef
 72
     0
 40
0.0
 10
2998.206306812234
 20
873.465719443179
 30
0.0
 75
     0
  0
DIMASSOC
  5
6FDA
102
{ACAD_REACTORS
330
6FD0
102
}
330
6FD0
100
AcDbDimAssoc
330
6FC3
 90
        3
 70
     0
 71
     0
  1
AcDbOsnapPointRef
 72
     1
331
6B6C
 73
     2
 91
        4
 40
1.0
 10
0.0
 20
0.0
 30
2.000000000000000E+50
 75
     0
  1
AcDbOsnapPointRef
 72
     1
331
6B6B
 73
     2
 91
        4
 40
1.0
 10
0.0
 20
0.0
 30
2.000000000000000E+50
 75
     0
  0
DIMASSOC
  5
6FF4
102
{ACAD_REACTORS
330
6FE9
102
}
330
6FE9
100
AcDbDimAssoc
330
6FDB
 90
        2
 70
     0
 71
     0
  1
AcDbOsnapPointRef
 72
     8
331
6AE4
 73
     2
 91
        0
 40
0.8746545819809385
 10
0.0
 20
0.0
 30
0.0
 75
     1
  1
AcDbOsnapPointRef
 72
     0
 40
0.0
 10
2999.075004741673
 20
873.9357194431791
 30
0.0
 75
     0
  0
DIMASSOC
  5
7015
102
{ACAD_REACTORS
330
700B
102
}
330
700B
100
AcDbDimAssoc
330
6FFE
 90
        3
 70
     0
 71
     0
  1
AcDbOsnapPointRef
 72
     1
331
6B70
 73
     2
 91
        4
 40
1.0
 10
0.0
 20
0.0
 30
2.000000000000000E+50
 75
     0
  1
AcDbOsnapPointRef
 72
     1
331
6B71
 73
     2
 91
        4
 40
1.0
 10
0.0
 20
0.0
 30
2.000000000000000E+50
 75
     0
  0
DIMASSOC
  5
703A
102
{ACAD_REACTORS
330
7030
102
}
330
7030
100
AcDbDimAssoc
330
7023
 90
        3
 70
     0
 71
     0
  1
AcDbOsnapPointRef
 72
     1
331
6B79
 73
     2
 91
        4
 40
1.0
 10
0.0
 20
0.0
 30
2.000000000000000E+50
 75
     0
  1
AcDbOsnapPointRef
 72
     1
331
6B7A
 73
     2
 91
        4
 40
1.0
 10
0.0
 20
0.0
 30
2.000000000000000E+50
 75
     0
  0
DIMASSOC
  5
7052
102
{ACAD_REACTORS
330
7048
102
}
330
7048
100
AcDbDimAssoc
330
703B
 90
        3
 70
     0
 71
     0
  1
AcDbOsnapPointRef
 72
     1
331
6B84
 73
     2
 91
        4
 40
1.0
 10
0.0
 20
0.0
 30
2.000000000000000E+50
 75
     0
  1
AcDbOsnapPointRef
 72
     1
331
6B83
 73
     2
 91
        4
 40
1.0
 10
0.0
 20
0.0
 30
2.000000000000000E+50
 75
     0
  0
DIMASSOC
  5
7077
102
{ACAD_REACTORS
330
706D
102
}
330
706D
100
AcDbDimAssoc
330
7060
 90
        2
 70
     0
 71
     0
  1
AcDbOsnapPointRef
 72
    13
331
6AFB
 73
     2
 91
        0
 40
0.0
 10
0.0
 20
0.0
 30
2.000000000000000E+50
 75
     0
  0
DIMASSOC
  5
70A3
102
{ACAD_REACTORS
330
709B
102
}
330
709B
100
AcDbDimAssoc
330
7090
 90
        2
 70
     0
 71
     0
  1
AcDbOsnapPointRef
 72
     8
331
6AC4
 73
     2
 91
        0
 40
0.4757680186612213
 10
0.0
 20
0.0
 30
0.0
 75
     1
  1
AcDbOsnapPointRef
 72
     0
 40
0.0
 10
2998.921783454937
 20
873.1661209661751
 30
0.0
 75
     0
  0
XRECORD
  5
6592
102
{ACAD_REACTORS
330
6591
102
}
330
6591
100
AcDbXrecord
280
     1
 90
        1
340
10D
  0
XRECORD
  5
6595
102
{ACAD_REACTORS
330
6594
102
}
330
6594
100
AcDbXrecord
280
     1
 90
        1
340
10D
  0
XRECORD
  5
6599
102
{ACAD_REACTORS
330
6598
102
}
330
6598
100
AcDbXrecord
280
     1
 90
        1
340
4B1
  0
XRECORD
  5
712F
102
{ACAD_REACTORS
330
712E
102
}
330
712E
100
AcDbXrecord
280
     1
 90
        1
340
10D
  0
ACDBDETAILVIEWSTYLE
  5
188F
102
{ACAD_XDICTIONARY
360
22E2
102
}
102
{ACAD_REACTORS
330
21B
102
}
330
21B
100
AcDbModelDocViewStyle
 70
     0
  3
Imperial24
290
     0
100
AcDbDetailViewStyle
 70
     0
 71
     0
 90
        3
 71
     1
340
11
 62
   256
 40
0.24
340
0
 62
   256
 40
0.24
300

 40
0.36
280
     3
 71
     2
340
16
 90
       25
 62
   256
 71
     3
340
11
 62
   256
 40
0.24
 90
        1
 40
0.75
 90
        1
300
%<\AcVar ViewType \f "%tc1">% %<\AcVar ViewDetailId>%\PESCALA %<\AcVar ViewScale \f "%sn">%
 71
     4
340
16
 90
       25
 62
   256
340
16
 90
       25
 62
   256
280
     0
  0
ACDBDETAILVIEWSTYLE
  5
21C
102
{ACAD_XDICTIONARY
360
236
102
}
102
{ACAD_REACTORS
330
21B
102
}
330
21B
100
AcDbModelDocViewStyle
 70
     0
  3
Metric50
290
     0
100
AcDbDetailViewStyle
 70
     0
 71
     0
 90
        3
 71
     1
340
11
 62
   256
 40
5.0
340
0
 62
   256
 40
5.0
300

 40
0.0
280
     1
 71
     2
340
16
 90
       25
 62
   256
 71
     3
340
11
 62
   256
 40
5.0
 90
        0
 40
15.0
 90
        1
300
%<\AcVar ViewDetailId>% (%<\AcVar ViewScale \f "%sn">%)
 71
     4
340
16
 90
       25
 62
   256
340
16
 90
       25
 62
   256
280
     0
  0
IMAGEDEF
  5
883
102
{ACAD_REACTORS
330
2E0
102
}
330
2E0
100
AcDbRasterImageDef
 90
        0
  1
\\zerbitzaria\pertsonalak$\guztion1\Downloads\Andoain.jpg
 10
400.0
 20
400.0
 11
0.2645833333333333
 21
0.2645833333333333
280
     1
281
     5
  0
IMAGEDEF
  5
A1D
102
{ACAD_REACTORS
330
2E0
102
}
330
2E0
100
AcDbRasterImageDef
 90
        0
  1
\\zerbitzaria\pertsonalak$\guztion1\Downloads\Astigarraga.jpg
 10
306.0
 20
278.0
 11
0.2645833333333333
 21
0.2645833333333333
280
     1
281
     5
  0
IMAGEDEF
  5
A20
102
{ACAD_REACTORS
330
2E0
102
}
330
2E0
100
AcDbRasterImageDef
 90
        0
  1
\\zerbitzaria\pertsonalak$\guztion1\Downloads\Hernani.jpg
 10
512.0
 20
512.0
 11
0.2645833333333333
 21
0.2645833333333333
280
     1
281
     5
  0
IMAGEDEF
  5
A38
102
{ACAD_REACTORS
330
2E0
102
}
330
2E0
100
AcDbRasterImageDef
 90
        0
  1
\\zerbitzaria\pertsonalak$\guztion1\Downloads\Lasarte_Oria.jpg
 10
306.0
 20
278.0
 11
0.2645833333333333
 21
0.2645833333333333
280
     1
281
     5
  0
IMAGEDEF
  5
A0E
102
{ACAD_REACTORS
330
2E0
102
}
330
2E0
100
AcDbRasterImageDef
 90
        0
  1
\\zerbitzaria\pertsonalak$\guztion1\Downloads\Urnieta.jpg
 10
512.0
 20
686.0
 11
0.2645833333333333
 21
0.2645833333333333
280
     1
281
     5
  0
IMAGEDEF
  5
2E2
102
{ACAD_REACTORS
330
2E0
330
6657
330
9915
102
}
330
2E0
100
AcDbRasterImageDef
 90
        0
  1
\\zerbitzaria\pertsonalak$\guztion1\Downloads\Usurbil.jpg
 10
151.0
 20
177.0
 11
0.2645833333333333
 21
0.2645833333333333
280
     1
281
     5
  0
IMAGEDEF
  5
9835
102
{ACAD_REACTORS
330
2E0
330
9917
102
}
330
2E0
100
AcDbRasterImageDef
 90
        0
  1
G:\Udalerriak\US_Usurbil\Usurbil.jpg
 10
151.0
 20
177.0
 11
0.2645833333333333
 21
0.2645833333333333
280
     1
281
     5
  0
LAYOUT
  5
659B
102
{ACAD_REACTORS
330
1A
102
}
330
1A
100
AcDbPlotSettings
  1

  2
DWG To PDF.pc3
  4
UserDefinedMetric (210.00 x 297.00mm)
  6

 40
0.0
 41
0.0
 42
0.0
 43
0.0
 44
210.0
 45
297.0
 46
0.0
 47
0.0000000000000284
 48
-0.0018762920232689
 49
0.2812602170592981
140
0.2081237079767311
141
0.5782602170592981
142
1000.0
143
1.0
 70
   676
 72
     1
 73
     0
 74
     4
  7
Guztion_Planoak_pdf.ctb
 75
     0
147
1000.0
 76
     0
 77
     2
 78
   300
148
0.0018762920232689
149
-0.2812602170592981
100
AcDbLayout
  1
14
 70
     1
 71
     1
 10
-0.0018762920232689
 20
0.2812602170592981
 11
0.2081237079767311
 21
0.5782602170592981
 12
0.0
 22
0.0
 32
0.0
 14
-0.0018762920232689
 24
0.2812602170592981
 34
0.0
 15
231.3
 25
175.5
 35
0.0
146
0.0
 13
0.0
 23
0.0
 33
0.0
 16
1.0
 26
0.0
 36
0.0
 17
0.0
 27
1.0
 37
0.0
 76
     0
330
658E
331
6590
1001
ACAD_PSEXT
1000
DWG To PDF.pc3
1000
DWG To PDF
1000
Archivo
1000

1070
     0
  0
LAYOUT
  5
22
102
{ACAD_XDICTIONARY
360
205
102
}
102
{ACAD_REACTORS
330
1A
102
}
330
1A
100
AcDbPlotSettings
  1

  2
DWG To PDF.pc3
  4
UserDefinedMetric (210.00 x 297.00mm)
  6

 40
0.0
 41
0.0
 42
0.0
 43
0.0
 44
210.0
 45
297.0
 46
0.0
 47
87.12725628375705
 48
-64.87770755501651
 49
-10.86078803921714
140
-49.28250067704721
141
-1.74535342089905
142
1.0
143
0.0742628898950919
 70
 11956
 72
     1
 73
     0
 74
     4
  7
Guztion_Planoak_pdf.ctb
 75
     0
147
13.46567580944747
 76
     0
 77
     2
 78
   300
148
64.87770755501651
149
10.86078803921714
100
AcDbLayout
  1
Model
 70
     1
 71
     0
 10
0.0
 20
0.0
 11
12.0
 21
9.0
 12
0.0
 22
0.0
 32
0.0
 14
0.0
 24
0.0
 34
0.0
 15
0.0
 25
0.0
 35
0.0
146
0.0
 13
0.0
 23
0.0
 33
0.0
 16
1.0
 26
0.0
 36
0.0
 17
0.0
 27
1.0
 37
0.0
 76
     0
330
1F
331
EA
1001
ACAD_PSEXT
1000
DWG To PDF.pc3
1000
DWG To PDF
1000
Archivo
1000

1070
     0
  0
LAYOUT
  5
D7
102
{ACAD_REACTORS
330
1A
102
}
330
1A
100
AcDbPlotSettings
  1

  2
none_device
  4
ISO_A4_(210.00_x_297.00_MM)
  6

 40
7.5
 41
20.0
 42
7.5
 43
20.0
 44
210.0
 45
297.0
 46
0.0
 47
0.0
 48
0.0
 49
0.0
140
0.0
141
0.0
142
1.0
143
1.0
 70
   688
 72
     1
 73
     1
 74
     5
  7
Guztion_Planoak_pdf.ctb
 75
    16
147
1.0
 76
     0
 77
     2
 78
   300
148
0.0
149
0.0
100
AcDbLayout
  1
Presentación2
 70
     1
 71
     2
 10
-20.0
 20
-7.5
 11
277.0
 21
202.5
 12
0.0
 22
0.0
 32
0.0
 14
25.69999999999999
 24
19.5
 34
0.0
 15
231.3
 25
175.5
 35
0.0
146
0.0
 13
0.0
 23
0.0
 33
0.0
 16
1.0
 26
0.0
 36
0.0
 17
0.0
 27
1.0
 37
0.0
 76
     0
330
D6
331
2AF3
1001
ACAD_PSEXT
1000
Ninguno
1000
Ninguno
1000
No aplicable
1000
La presentación no se trazará a menos que se seleccione un nuevo nombre de configuración de trazador.
1070
     0
  0
MATERIAL
  5
ED
102
{ACAD_XDICTIONARY
360
1F9
102
}
102
{ACAD_REACTORS
330
6A
102
}
330
6A
100
AcDbMaterial
  1
ByBlock
 94
       63
  0
MATERIAL
  5
EC
102
{ACAD_XDICTIONARY
360
1F7
102
}
102
{ACAD_REACTORS
330
6A
102
}
330
6A
100
AcDbMaterial
  1
ByLayer
 94
       63
  0
MATERIAL
  5
EE
102
{ACAD_XDICTIONARY
360
173
102
}
102
{ACAD_REACTORS
330
6A
102
}
330
6A
100
AcDbMaterial
  1
Global
 43
0.0007999999797903
 43
0.0
 43
0.0
 43
0.0
 43
0.0
 43
0.0007999999797903
 43
0.0
 43
0.0
 43
0.0
 43
0.0
 43
1.0
 43
0.0
 43
0.0
 43
0.0
 43
0.0
 43
1.0
 49
0.0007999999797903
 49
0.0
 49
0.0
 49
0.0
 49
0.0
 49
0.0007999999797903
 49
0.0
 49
0.0
 49
0.0
 49
0.0
 49
1.0
 49
0.0
 49
0.0
 49
0.0
 49
0.0
 49
1.0
142
0.0007999999797903
142
0.0
142
0.0
142
0.0
142
0.0
142
0.0007999999797903
142
0.0
142
0.0
142
0.0
142
0.0
142
1.0
142
0.0
142
0.0
142
0.0
142
0.0
142
1.0
144
0.0007999999797903
144
0.0
144
0.0
144
0.0
144
0.0
144
0.0007999999797903
144
0.0
144
0.0
144
0.0
144
0.0
144
1.0
144
0.0
144
0.0
144
0.0
144
0.0
144
1.0
 94
       63
1001
ACAD
1070
    -1
1070
     3
1070
     0
1000

1071
        0
1070
     0
  0
MLEADERSTYLE
  5
13B
102
{ACAD_REACTORS
330
12D
102
}
330
12D
100
AcDbMLeaderStyle
179
     2
170
     2
171
     1
172
     0
 90
        2
 40
0.0
 41
0.0
173
     1
 91
-1056964608
340
14
 92
       -2
290
     1
 42
2.0
291
     1
 43
8.0
  3
Standard
 44
4.0
300

342
11
174
     1
178
     1
175
     1
176
     0
 93
-1056964608
 45
4.0
292
     0
297
     0
 46
4.0
 94
-1056964608
 47
1.0
 49
1.0
140
1.0
293
     1
141
0.0
294
     1
177
     0
142
1.0
295
     0
296
     1
143
3.75
271
     0
272
     9
273
     9
298
     0
  0
MLEADERSTYLE
  5
12E
102
{ACAD_REACTORS
330
12D
102
}
330
12D
100
AcDbMLeaderStyle
179
     2
170
     2
171
     1
172
     0
 90
        2
 40
0.0
 41
0.0
173
     1
 91
-1056964608
340
14
 92
       -2
290
     1
 42
2.0
291
     1
 43
8.0
  3
Standard
 44
4.0
300

342
11
174
     1
178
     1
175
     1
176
     0
 93
-1056964608
 45
4.0
292
     0
297
     0
 46
4.0
 94
-1056964608
 47
1.0
 49
1.0
140
1.0
293
     1
141
0.0
294
     1
177
     0
142
1.0
295
     0
296
     0
143
3.75
271
     0
272
     9
273
     9
298
     0
  0
MLINESTYLE
  5
18
102
{ACAD_REACTORS
330
17
102
}
330
17
100
AcDbMlineStyle
  2
STANDARD
 70
     0
  3

 62
   256
 51
90.0
 52
90.0
 71
     2
 49
0.5
 62
   256
  6
BYLAYER
 49
-0.5
 62
   256
  6
BYLAYER
  0
ACDBPLACEHOLDER
  5
F
102
{ACAD_REACTORS
330
E
102
}
330
E
  0
SCALE
  5
10D
102
{ACAD_REACTORS
330
10C
102
}
330
10C
100
AcDbScale
 70
     0
300
1:1
140
1.0
141
1.0
290
     1
  0
SCALE
  5
4B1
102
{ACAD_REACTORS
330
10C
102
}
330
10C
100
AcDbScale
 70
     0
300
1/100 eskala
140
1000.0
141
1.0
290
     0
  0
SCALE
  5
4B2
102
{ACAD_REACTORS
330
10C
102
}
330
10C
100
AcDbScale
 70
     0
300
1:2
140
1.0
141
2.0
290
     0
  0
SCALE
  5
4B3
102
{ACAD_REACTORS
330
10C
102
}
330
10C
100
AcDbScale
 70
     0
300
1:4
140
1.0
141
4.0
290
     0
  0
SCALE
  5
4B4
102
{ACAD_REACTORS
330
10C
102
}
330
10C
100
AcDbScale
 70
     0
300
1:5
140
1.0
141
5.0
290
     0
  0
SCALE
  5
4B5
102
{ACAD_REACTORS
330
10C
102
}
330
10C
100
AcDbScale
 70
     0
300
1:8
140
1.0
141
8.0
290
     0
  0
SCALE
  5
4B6
102
{ACAD_REACTORS
330
10C
102
}
330
10C
100
AcDbScale
 70
     0
300
1:10
140
1.0
141
10.0
290
     0
  0
SCALE
  5
4B7
102
{ACAD_REACTORS
330
10C
102
}
330
10C
100
AcDbScale
 70
     0
300
1:16
140
1.0
141
16.0
290
     0
  0
SCALE
  5
4B8
102
{ACAD_REACTORS
330
10C
102
}
330
10C
100
AcDbScale
 70
     0
300
1:20
140
1.0
141
20.0
290
     0
  0
SCALE
  5
4B9
102
{ACAD_REACTORS
330
10C
102
}
330
10C
100
AcDbScale
 70
     0
300
1:30
140
1.0
141
30.0
290
     0
  0
SCALE
  5
4BA
102
{ACAD_REACTORS
330
10C
102
}
330
10C
100
AcDbScale
 70
     0
300
1:40
140
1.0
141
40.0
290
     0
  0
SCALE
  5
4BB
102
{ACAD_REACTORS
330
10C
102
}
330
10C
100
AcDbScale
 70
     0
300
1:50
140
1.0
141
50.0
290
     0
  0
SCALE
  5
1C8
102
{ACAD_REACTORS
330
10C
102
}
330
10C
100
AcDbScale
 70
     0
300
1:100
140
1.0
141
100.0
290
     0
  0
SCALE
  5
4BC
102
{ACAD_REACTORS
330
10C
102
}
330
10C
100
AcDbScale
 70
     0
300
2:1
140
2.0
141
1.0
290
     0
  0
SCALE
  5
4BD
102
{ACAD_REACTORS
330
10C
102
}
330
10C
100
AcDbScale
 70
     0
300
4:1
140
4.0
141
1.0
290
     0
  0
SCALE
  5
4BE
102
{ACAD_REACTORS
330
10C
102
}
330
10C
100
AcDbScale
 70
     0
300
8:1
140
8.0
141
1.0
290
     0
  0
SCALE
  5
4BF
102
{ACAD_REACTORS
330
10C
102
}
330
10C
100
AcDbScale
 70
     0
300
10:1
140
10.0
141
1.0
290
     0
  0
SCALE
  5
4C0
102
{ACAD_REACTORS
330
10C
102
}
330
10C
100
AcDbScale
 70
     0
300
100:1
140
100.0
141
1.0
290
     0
  0
ACDBSECTIONVIEWSTYLE
  5
188E
102
{ACAD_XDICTIONARY
360
22E0
102
}
102
{ACAD_REACTORS
330
219
102
}
330
219
100
AcDbModelDocViewStyle
 70
     0
  3
Imperial24
290
     0
100
AcDbSectionViewStyle
 70
     0
 71
     0
 90
       78
 71
     1
340
11
 62
   256
 40
0.24
340
0
340
0
 62
   256
 40
0.24
300
I, O, Q, S, X, Z
 40
0.48
 90
        3
 40
0.18
 90
        1
 71
     2
340
16
 90
       25
 62
   256
340
16
 90
       50
 62
   256
 40
0.24
 40
0.0
 40
0.24
 71
     3
340
11
 62
   256
 40
0.24
 90
        1
 40
0.75
 90
        1
300
%<\AcVar ViewType \f "%tc1">% %<\AcVar ViewSectionStartId>%-%<\AcVar ViewSectionEndId>%\PESCALA %<\AcVar ViewScale \f "%sn">%
 71
     4
 62
   256
 62
   257
300
ANSI31
 40
1.0
 90
        0
290
     0
290
     0
 90
        6
 40
0.0
 40
1.570796326794896
 40
0.2617993877991494
 40
1.308996938995747
 40
-0.2617993877991494
 40
1.832595714594046
  0
ACDBSECTIONVIEWSTYLE
  5
21A
102
{ACAD_XDICTIONARY
360
234
102
}
102
{ACAD_REACTORS
330
219
102
}
330
219
100
AcDbModelDocViewStyle
 70
     0
  3
Metric50
290
     0
100
AcDbSectionViewStyle
 70
     0
 71
     0
 90
      102
 71
     1
340
11
 62
   256
 40
5.0
340
0
340
0
 62
   256
 40
5.0
300
I, O, Q, S, X, Z
 40
10.0
 90
        0
 40
2.5
 90
        0
 71
     2
340
16
 90
       25
 62
   256
340
16
 90
       50
 62
   256
 40
5.0
 40
2.5
 40
5.0
 71
     3
340
11
 62
   256
 40
5.0
 90
        0
 40
15.0
 90
        1
300
%<\AcVar ViewSectionStartId>%-%<\AcVar ViewSectionEndId>% (%<\AcVar ViewScale \f "%sn">%)
 71
     4
 62
   256
 62
   257
300
ANSI31
 40
1.0
 90
        0
290
     0
290
     0
 90
        6
 40
0.0
 40
1.570796326794896
 40
0.2617993877991494
 40
1.308996938995747
 40
-0.2617993877991494
 40
1.832595714594046
  0
TABLESTYLE
  5
7F
102
{ACAD_XDICTIONARY
360
162
102
}
102
{ACAD_REACTORS
330
7E
102
}
330
7E
100
AcDbTableStyle
280
     0
  3
Standard
 70
     0
 71
     0
 40
1.5
 41
1.5
280
     0
281
     0
  7
Standard
140
4.5
170
     2
 62
     0
 63
     7
283
     0
 90
      512
 91
        0
  1

274
    -2
284
     1
 64
     0
275
    -2
285
     1
 65
     0
276
    -2
286
     1
 66
     0
277
    -2
287
     1
 67
     0
278
    -2
288
     1
 68
     0
279
    -2
289
     1
 69
     0
  7
Standard
140
6.0
170
     5
 62
     0
 63
     7
283
     0
 90
      512
 91
        0
  1

274
    -2
284
     1
 64
     0
275
    -2
285
     1
 65
     0
276
    -2
286
     1
 66
     0
277
    -2
287
     1
 67
     0
278
    -2
288
     1
 68
     0
279
    -2
289
     1
 69
     0
  7
Standard
140
4.5
170
     5
 62
     0
 63
     7
283
     0
 90
      512
 91
        0
  1

274
    -2
284
     1
 64
     0
275
    -2
285
     1
 65
     0
276
    -2
286
     1
 66
     0
277
    -2
287
     1
 67
     0
278
    -2
288
     1
 68
     0
279
    -2
289
     1
 69
     0
  0
VISUALSTYLE
  5
F5
102
{ACAD_REACTORS
330
EF
102
}
330
EF
100
AcDbVisualStyle
  2
2dWireframe
 70
     4
177
     3
291
     0
 70
    58
 90
        0
176
     1
 90
        2
176
     1
 90
        1
176
     1
 90
        0
176
     1
 40
0.6
176
     1
 40
30.0
176
     1
 62
     7
420
 16777215
176
     1
 90
        1
176
     1
 90
        4
176
     1
 62
     7
176
     1
 62
   257
176
     1
 90
        1
176
     1
 90
        1
176
     1
 40
1.0
176
     1
 90
        0
176
     1
 62
   257
176
     1
 40
1.0
176
     1
 90
        1
176
     1
 90
        6
176
     1
 90
        2
176
     1
 62
     7
176
     1
 90
        5
176
     1
 90
        0
176
     1
 90
        0
176
     1
290
     0
176
     1
 90
        1
176
     1
 40
0.0
176
     1
 90
        0
176
     1
290
     1
176
     1
290
     1
176
     1
290
     0
176
     1
290
     0
176
     1
290
     0
176
     1
290
     0
176
     1
290
     0
176
     1
290
     0
176
     1
290
     0
176
     1
 90
       50
176
     1
 40
0.0
176
     1
 40
1.0
176
     1
 90
        0
176
     1
 62
    18
420
        0
176
     1
 90
       50
176
     1
 90
        3
176
     1
 62
     5
420
      255
176
     1
290
     0
176
     1
 90
       50
176
     1
 90
       50
176
     1
 90
       50
176
     1
290
     0
176
     1
 90
       50
176
     1
 62
   256
176
     0
 40
1.0
176
     0
 90
        2
176
     1
  1
strokes_ogs.tif
176
     1
290
     0
176
     1
 40
1.0
176
     1
 40
1.0
176
     1
  0
VISUALSTYLE
  5
F4
102
{ACAD_REACTORS
330
EF
102
}
330
EF
100
AcDbVisualStyle
  2
Basic
 70
     7
177
     3
291
     1
 70
    58
 90
        1
176
     1
 90
        0
176
     1
 90
        1
176
     1
 90
        0
176
     1
 40
0.6
176
     1
 40
30.0
176
     1
 62
     7
420
 16777215
176
     1
 90
        0
176
     1
 90
        4
176
     1
 62
     7
176
     1
 62
   257
176
     1
 90
        1
176
     1
 90
        1
176
     1
 40
1.0
176
     1
 90
        8
176
     1
 62
     7
176
     1
 40
1.0
176
     1
 90
        1
176
     1
 90
        6
176
     1
 90
        2
176
     1
 62
     7
176
     1
 90
        5
176
     1
 90
        0
176
     1
 90
        0
176
     1
290
     0
176
     1
 90
        1
176
     1
 40
0.0
176
     1
 90
        0
176
     1
290
     0
176
     1
290
     1
176
     1
290
     1
176
     1
290
     0
176
     1
290
     0
176
     1
290
     0
176
     1
290
     0
176
     1
290
     0
176
     1
290
     0
176
     1
 90
       50
176
     1
 40
0.0
176
     1
 40
1.0
176
     1
 90
        0
176
     1
 62
    18
420
        0
176
     1
 90
       50
176
     1
 90
        3
176
     1
 62
     5
420
      255
176
     1
290
     0
176
     1
 90
       50
176
     1
 90
       50
176
     1
 90
       50
176
     1
290
     0
176
     1
 90
       50
176
     1
 62
   256
176
     0
 40
1.0
176
     0
 90
        2
176
     1
  1
strokes_ogs.tif
176
     1
290
     0
176
     1
 40
1.0
176
     1
 40
1.0
176
     1
  0
VISUALSTYLE
  5
FB
102
{ACAD_REACTORS
330
EF
102
}
330
EF
100
AcDbVisualStyle
  2
Brighten
 70
    12
177
     3
291
     1
 70
    58
 90
        2
176
     1
 90
        2
176
     1
 90
        1
176
     1
 90
        0
176
     1
 40
0.6
176
     1
 40
30.0
176
     1
 62
     7
420
 16777215
176
     1
 90
        1
176
     1
 90
        4
176
     1
 62
     7
176
     1
 62
   257
176
     1
 90
        1
176
     1
 90
        1
176
     1
 40
1.0
176
     1
 90
        8
176
     1
 62
     7
176
     1
 40
1.0
176
     1
 90
        1
176
     1
 90
        6
176
     1
 90
        2
176
     1
 62
     7
176
     1
 90
        5
176
     1
 90
        0
176
     1
 90
        0
176
     1
290
     0
176
     1
 90
        1
176
     1
 40
50.0
176
     1
 90
        0
176
     1
290
     0
176
     1
290
     1
176
     1
290
     1
176
     1
290
     0
176
     1
290
     0
176
     1
290
     0
176
     1
290
     0
176
     1
290
     0
176
     1
290
     0
176
     1
 90
       50
176
     1
 40
0.0
176
     1
 40
1.0
176
     1
 90
        0
176
     1
 62
    18
420
        0
176
     1
 90
       50
176
     1
 90
        3
176
     1
 62
     5
420
      255
176
     1
290
     0
176
     1
 90
       50
176
     1
 90
       50
176
     1
 90
       50
176
     1
290
     0
176
     1
 90
       50
176
     1
 62
   256
176
     0
 40
1.0
176
     0
 90
        2
176
     1
  1
strokes_ogs.tif
176
     1
290
     0
176
     1
 40
1.0
176
     1
 40
1.0
176
     1
  0
VISUALSTYLE
  5
FF
102
{ACAD_REACTORS
330
EF
102
}
330
EF
100
AcDbVisualStyle
  2
ColorChange
 70
    16
177
     3
291
     1
 70
    58
 90
        2
176
     1
 90
        2
176
     1
 90
        3
176
     1
 90
        0
176
     1
 40
0.6
176
     1
 40
30.0
176
     1
 62
     8
420
  8421504
176
     1
 90
        1
176
     1
 90
        4
176
     1
 62
     7
176
     1
 62
   257
176
     1
 90
        1
176
     1
 90
        1
176
     1
 40
1.0
176
     1
 90
        8
176
     1
 62
     8
420
  8421504
176
     1
 40
1.0
176
     1
 90
        1
176
     1
 90
        6
176
     1
 90
        2
176
     1
 62
     7
176
     1
 90
        5
176
     1
 90
        0
176
     1
 90
        0
176
     1
290
     0
176
     1
 90
        1
176
     1
 40
0.0
176
     1
 90
        0
176
     1
290
     0
176
     1
290
     1
176
     1
290
     1
176
     1
290
     0
176
     1
290
     0
176
     1
290
     0
176
     1
290
     0
176
     1
290
     0
176
     1
290
     0
176
     1
 90
       50
176
     1
 40
0.0
176
     1
 40
1.0
176
     1
 90
        0
176
     1
 62
    18
420
        0
176
     1
 90
       50
176
     1
 90
        3
176
     1
 62
     5
420
      255
176
     1
290
     0
176
     1
 90
       50
176
     1
 90
       50
176
     1
 90
       50
176
     1
290
     0
176
     1
 90
       50
176
     1
 62
   256
176
     0
 40
1.0
176
     0
 90
        2
176
     1
  1
strokes_ogs.tif
176
     1
290
     0
176
     1
 40
1.0
176
     1
 40
1.0
176
     1
  0
VISUALSTYLE
  5
F8
102
{ACAD_REACTORS
330
EF
102
}
330
EF
100
AcDbVisualStyle
  2
Conceptual
 70
     9
177
     3
291
     0
 70
    58
 90
        3
176
     1
 90
        2
176
     1
 90
        1
176
     1
 90
        0
176
     1
 40
0.6
176
     1
 40
30.0
176
     1
 62
     7
420
 16777215
176
     1
 90
        2
176
     1
 90
        2
176
     1
 62
     7
176
     1
 62
   257
176
     1
 90
        1
176
     1
 90
        1
176
     1
 40
40.0
176
     1
 90
        8
176
     1
 62
     7
176
     1
 40
1.0
176
     1
 90
        1
176
     1
 90
        6
176
     1
 90
        2
176
     1
 62
     7
176
     1
 90
        3
176
     1
 90
        0
176
     1
 90
        0
176
     1
290
     0
176
     1
 90
        1
176
     1
 40
0.0
176
     1
 90
        0
176
     1
290
     0
176
     1
290
     1
176
     1
290
     1
176
     1
290
     0
176
     1
290
     0
176
     1
290
     0
176
     1
290
     0
176
     1
290
     0
176
     1
290
     0
176
     1
 90
       50
176
     1
 40
0.0
176
     1
 40
1.0
176
     1
 90
        0
176
     1
 62
    18
420
        0
176
     1
 90
       50
176
     1
 90
        3
176
     1
 62
     5
420
      255
176
     1
290
     0
176
     1
 90
       50
176
     1
 90
       50
176
     1
 90
       50
176
     1
290
     0
176
     1
 90
       50
176
     1
 62
   256
176
     0
 40
1.0
176
     0
 90
        2
176
     1
  1
strokes_ogs.tif
176
     1
290
     0
176
     1
 40
1.0
176
     1
 40
1.0
176
     1
  0
VISUALSTYLE
  5
FA
102
{ACAD_REACTORS
330
EF
102
}
330
EF
100
AcDbVisualStyle
  2
Dim
 70
    11
177
     3
291
     1
 70
    58
 90
        2
176
     1
 90
        2
176
     1
 90
        1
176
     1
 90
        0
176
     1
 40
0.6
176
     1
 40
30.0
176
     1
 62
     7
420
 16777215
176
     1
 90
        1
176
     1
 90
        4
176
     1
 62
     7
176
     1
 62
   257
176
     1
 90
        1
176
     1
 90
        1
176
     1
 40
1.0
176
     1
 90
        8
176
     1
 62
     7
176
     1
 40
1.0
176
     1
 90
        1
176
     1
 90
        6
176
     1
 90
        2
176
     1
 62
     7
176
     1
 90
        5
176
     1
 90
        0
176
     1
 90
        0
176
     1
290
     0
176
     1
 90
        1
176
     1
 40
-50.0
176
     1
 90
        0
176
     1
290
     0
176
     1
290
     1
176
     1
290
     1
176
     1
290
     0
176
     1
290
     0
176
     1
290
     0
176
     1
290
     0
176
     1
290
     0
176
     1
290
     0
176
     1
 90
       50
176
     1
 40
0.0
176
     1
 40
1.0
176
     1
 90
        0
176
     1
 62
    18
420
        0
176
     1
 90
       50
176
     1
 90
        3
176
     1
 62
     5
420
      255
176
     1
290
     0
176
     1
 90
       50
176
     1
 90
       50
176
     1
 90
       50
176
     1
290
     0
176
     1
 90
       50
176
     1
 62
   256
176
     0
 40
1.0
176
     0
 90
        2
176
     1
  1
strokes_ogs.tif
176
     1
290
     0
176
     1
 40
1.0
176
     1
 40
1.0
176
     1
  0
VISUALSTYLE
  5
1E6
102
{ACAD_REACTORS
330
EF
102
}
330
EF
100
AcDbVisualStyle
  2
EdgeColorOff
 70
    22
177
     3
291
     1
 70
    58
 90
        2
176
     0
 90
        2
176
     0
 90
        0
176
     0
 90
        0
176
     0
 40
0.6
176
     0
 40
30.0
176
     0
 62
     7
420
 16777215
176
     0
 90
        1
176
     0
 90
        4
176
     0
 62
     7
176
     0
 62
   257
176
     0
 90
        1
176
     0
 90
        1
176
     0
 40
1.0
176
     0
 90
        8
176
     2
 62
     7
176
     0
 40
1.0
176
     0
 90
        1
176
     0
 90
        6
176
     0
 90
        2
176
     0
 62
     7
176
     0
 90
        5
176
     0
 90
        0
176
     0
 90
        0
176
     0
290
     0
176
     0
 90
        1
176
     0
 40
0.0
176
     0
 90
        0
176
     0
290
     0
176
     1
290
     1
176
     1
290
     1
176
     1
290
     0
176
     1
290
     0
176
     1
290
     0
176
     1
290
     0
176
     1
290
     0
176
     1
290
     0
176
     1
 90
       50
176
     1
 40
0.0
176
     1
 40
1.0
176
     1
 90
        0
176
     1
 62
    18
420
        0
176
     1
 90
       50
176
     1
 90
        3
176
     1
 62
     5
420
      255
176
     1
290
     0
176
     1
 90
       50
176
     1
 90
       50
176
     1
 90
       50
176
     1
290
     0
176
     1
 90
       50
176
     1
 62
   256
176
     0
 40
1.0
176
     0
 90
        2
176
     1
  1
strokes_ogs.tif
176
     1
290
     0
176
     1
 40
1.0
176
     1
 40
1.0
176
     1
  0
VISUALSTYLE
  5
FE
102
{ACAD_REACTORS
330
EF
102
}
330
EF
100
AcDbVisualStyle
  2
Facepattern
 70
    15
177
     3
291
     1
 70
    58
 90
        2
176
     1
 90
        2
176
     1
 90
        1
176
     1
 90
        0
176
     1
 40
0.6
176
     1
 40
30.0
176
     1
 62
     7
420
 16777215
176
     1
 90
        1
176
     1
 90
        4
176
     1
 62
     7
176
     1
 62
   257
176
     1
 90
        1
176
     1
 90
        1
176
     1
 40
1.0
176
     1
 90
        8
176
     1
 62
     7
176
     1
 40
1.0
176
     1
 90
        1
176
     1
 90
        6
176
     1
 90
        2
176
     1
 62
     7
176
     1
 90
        5
176
     1
 90
        0
176
     1
 90
        0
176
     1
290
     0
176
     1
 90
        1
176
     1
 40
0.0
176
     1
 90
        0
176
     1
290
     0
176
     1
290
     1
176
     1
290
     1
176
     1
290
     0
176
     1
290
     0
176
     1
290
     0
176
     1
290
     0
176
     1
290
     0
176
     1
290
     0
176
     1
 90
       50
176
     1
 40
0.0
176
     1
 40
1.0
176
     1
 90
        0
176
     1
 62
    18
420
        0
176
     1
 90
       50
176
     1
 90
        3
176
     1
 62
     5
420
      255
176
     1
290
     0
176
     1
 90
       50
176
     1
 90
       50
176
     1
 90
       50
176
     1
290
     0
176
     1
 90
       50
176
     1
 62
   256
176
     0
 40
1.0
176
     0
 90
        2
176
     1
  1
strokes_ogs.tif
176
     1
290
     0
176
     1
 40
1.0
176
     1
 40
1.0
176
     1
  0
VISUALSTYLE
  5
F0
102
{ACAD_REACTORS
330
EF
102
}
330
EF
100
AcDbVisualStyle
  2
Flat
 70
     0
177
     3
291
     1
 70
    58
 90
        2
176
     1
 90
        1
176
     1
 90
        1
176
     1
 90
        2
176
     1
 40
0.6
176
     1
 40
30.0
176
     1
 62
     7
420
 16777215
176
     1
 90
        0
176
     1
 90
        0
176
     1
 62
     7
176
     1
 62
   257
176
     1
 90
        1
176
     1
 90
        1
176
     1
 40
1.0
176
     1
 90
        8
176
     1
 62
     7
176
     1
 40
1.0
176
     1
 90
        1
176
     1
 90
        6
176
     1
 90
        2
176
     1
 62
     7
176
     1
 90
        5
176
     1
 90
        0
176
     1
 90
        0
176
     1
290
     0
176
     1
 90
       13
176
     1
 40
0.0
176
     1
 90
        0
176
     1
290
     0
176
     1
290
     1
176
     1
290
     1
176
     1
290
     0
176
     1
290
     0
176
     1
290
     0
176
     1
290
     0
176
     1
290
     0
176
     1
290
     0
176
     1
 90
       50
176
     1
 40
0.0
176
     1
 40
1.0
176
     1
 90
        0
176
     1
 62
    18
420
        0
176
     1
 90
       50
176
     1
 90
        3
176
     1
 62
     5
420
      255
176
     1
290
     0
176
     1
 90
       50
176
     1
 90
       50
176
     1
 90
       50
176
     1
290
     0
176
     1
 90
       50
176
     1
 62
   256
176
     0
 40
1.0
176
     0
 90
        2
176
     1
  1
strokes_ogs.tif
176
     1
290
     0
176
     1
 40
1.0
176
     1
 40
1.0
176
     1
  0
VISUALSTYLE
  5
F1
102
{ACAD_REACTORS
330
EF
102
}
330
EF
100
AcDbVisualStyle
  2
FlatWithEdges
 70
     1
177
     3
291
     1
 70
    58
 90
        2
176
     1
 90
        1
176
     1
 90
        1
176
     1
 90
        2
176
     1
 40
0.6
176
     1
 40
30.0
176
     1
 62
     7
420
 16777215
176
     1
 90
        1
176
     1
 90
        0
176
     1
 62
     7
176
     1
 62
   257
176
     1
 90
        1
176
     1
 90
        1
176
     1
 40
1.0
176
     1
 90
        0
176
     1
 62
   257
176
     1
 40
1.0
176
     1
 90
        1
176
     1
 90
        6
176
     1
 90
        2
176
     1
 62
     7
176
     1
 90
        5
176
     1
 90
        0
176
     1
 90
        0
176
     1
290
     0
176
     1
 90
       13
176
     1
 40
0.0
176
     1
 90
        0
176
     1
290
     0
176
     1
290
     1
176
     1
290
     1
176
     1
290
     0
176
     1
290
     0
176
     1
290
     0
176
     1
290
     0
176
     1
290
     0
176
     1
290
     0
176
     1
 90
       50
176
     1
 40
0.0
176
     1
 40
1.0
176
     1
 90
        0
176
     1
 62
    18
420
        0
176
     1
 90
       50
176
     1
 90
        3
176
     1
 62
     5
420
      255
176
     1
290
     0
176
     1
 90
       50
176
     1
 90
       50
176
     1
 90
       50
176
     1
290
     0
176
     1
 90
       50
176
     1
 62
   256
176
     0
 40
1.0
176
     0
 90
        2
176
     1
  1
strokes_ogs.tif
176
     1
290
     0
176
     1
 40
1.0
176
     1
 40
1.0
176
     1
  0
VISUALSTYLE
  5
F2
102
{ACAD_REACTORS
330
EF
102
}
330
EF
100
AcDbVisualStyle
  2
Gouraud
 70
     2
177
     3
291
     1
 70
    58
 90
        2
176
     1
 90
        2
176
     1
 90
        1
176
     1
 90
        2
176
     1
 40
0.6
176
     1
 40
30.0
176
     1
 62
     7
420
 16777215
176
     1
 90
        0
176
     1
 90
        0
176
     1
 62
     7
176
     1
 62
   257
176
     1
 90
        1
176
     1
 90
        1
176
     1
 40
1.0
176
     1
 90
        0
176
     1
 62
     7
176
     1
 40
1.0
176
     1
 90
        1
176
     1
 90
        6
176
     1
 90
        2
176
     1
 62
     7
176
     1
 90
        5
176
     1
 90
        0
176
     1
 90
        0
176
     1
290
     0
176
     1
 90
       13
176
     1
 40
0.0
176
     1
 90
        0
176
     1
290
     0
176
     1
290
     1
176
     1
290
     1
176
     1
290
     0
176
     1
290
     0
176
     1
290
     0
176
     1
290
     0
176
     1
290
     0
176
     1
290
     0
176
     1
 90
       50
176
     1
 40
0.0
176
     1
 40
1.0
176
     1
 90
        0
176
     1
 62
    18
420
        0
176
     1
 90
       50
176
     1
 90
        3
176
     1
 62
     5
420
      255
176
     1
290
     0
176
     1
 90
       50
176
     1
 90
       50
176
     1
 90
       50
176
     1
290
     0
176
     1
 90
       50
176
     1
 62
   256
176
     0
 40
1.0
176
     0
 90
        2
176
     1
  1
strokes_ogs.tif
176
     1
290
     0
176
     1
 40
1.0
176
     1
 40
1.0
176
     1
  0
VISUALSTYLE
  5
F3
102
{ACAD_REACTORS
330
EF
102
}
330
EF
100
AcDbVisualStyle
  2
GouraudWithEdges
 70
     3
177
     3
291
     1
 70
    58
 90
        2
176
     1
 90
        2
176
     1
 90
        1
176
     1
 90
        2
176
     1
 40
0.6
176
     1
 40
30.0
176
     1
 62
     7
420
 16777215
176
     1
 90
        1
176
     1
 90
        0
176
     1
 62
     7
176
     1
 62
   257
176
     1
 90
        1
176
     1
 90
        1
176
     1
 40
1.0
176
     1
 90
        0
176
     1
 62
   257
176
     1
 40
1.0
176
     1
 90
        1
176
     1
 90
        6
176
     1
 90
        2
176
     1
 62
     7
176
     1
 90
        5
176
     1
 90
        0
176
     1
 90
        0
176
     1
290
     0
176
     1
 90
       13
176
     1
 40
0.0
176
     1
 90
        0
176
     1
290
     0
176
     1
290
     1
176
     1
290
     1
176
     1
290
     0
176
     1
290
     0
176
     1
290
     0
176
     1
290
     0
176
     1
290
     0
176
     1
290
     0
176
     1
 90
       50
176
     1
 40
0.0
176
     1
 40
1.0
176
     1
 90
        0
176
     1
 62
    18
420
        0
176
     1
 90
       50
176
     1
 90
        3
176
     1
 62
     5
420
      255
176
     1
290
     0
176
     1
 90
       50
176
     1
 90
       50
176
     1
 90
       50
176
     1
290
     0
176
     1
 90
       50
176
     1
 62
   256
176
     0
 40
1.0
176
     0
 90
        2
176
     1
  1
strokes_ogs.tif
176
     1
290
     0
176
     1
 40
1.0
176
     1
 40
1.0
176
     1
  0
VISUALSTYLE
  5
F7
102
{ACAD_REACTORS
330
EF
102
}
330
EF
100
AcDbVisualStyle
  2
Hidden
 70
     6
177
     3
291
     0
 70
    58
 90
        1
176
     1
 90
        2
176
     1
 90
        2
176
     1
 90
        0
176
     1
 40
0.6
176
     1
 40
30.0
176
     1
 62
     7
420
 16777215
176
     1
 90
        2
176
     1
 90
        2
176
     1
 62
     7
176
     1
 62
   257
176
     1
 90
        2
176
     1
 90
        1
176
     1
 40
40.0
176
     1
 90
        0
176
     1
 62
   257
176
     1
 40
1.0
176
     1
 90
        1
176
     1
 90
        6
176
     1
 90
        2
176
     1
 62
     7
176
     1
 90
        3
176
     1
 90
        0
176
     1
 90
        0
176
     1
290
     0
176
     1
 90
        1
176
     1
 40
0.0
176
     1
 90
        0
176
     1
290
     0
176
     1
290
     1
176
     1
290
     1
176
     1
290
     0
176
     1
290
     0
176
     1
290
     0
176
     1
290
     0
176
     1
290
     0
176
     1
290
     0
176
     1
 90
       50
176
     1
 40
0.0
176
     1
 40
1.0
176
     1
 90
        0
176
     1
 62
    18
420
        0
176
     1
 90
       50
176
     1
 90
        3
176
     1
 62
     5
420
      255
176
     1
290
     0
176
     1
 90
       50
176
     1
 90
       50
176
     1
 90
       50
176
     1
290
     0
176
     1
 90
       50
176
     1
 62
   256
176
     0
 40
1.0
176
     0
 90
        2
176
     1
  1
strokes_ogs.tif
176
     1
290
     0
176
     1
 40
1.0
176
     1
 40
1.0
176
     1
  0
VISUALSTYLE
  5
1E4
102
{ACAD_REACTORS
330
EF
102
}
330
EF
100
AcDbVisualStyle
  2
JitterOff
 70
    20
177
     3
291
     1
 70
    58
 90
        2
176
     0
 90
        2
176
     0
 90
        0
176
     0
 90
        0
176
     0
 40
0.6
176
     0
 40
30.0
176
     0
 62
     7
420
 16777215
176
     0
 90
        1
176
     0
 90
        4
176
     0
 62
     7
176
     0
 62
   257
176
     0
 90
        1
176
     0
 90
        1
176
     0
 40
1.0
176
     0
 90
       10
176
     2
 62
     7
176
     0
 40
1.0
176
     0
 90
        1
176
     0
 90
        6
176
     0
 90
        2
176
     0
 62
     7
176
     0
 90
        5
176
     0
 90
        0
176
     0
 90
        0
176
     0
290
     0
176
     0
 90
        1
176
     0
 40
0.0
176
     0
 90
        0
176
     0
290
     0
176
     1
290
     1
176
     1
290
     1
176
     1
290
     0
176
     1
290
     0
176
     1
290
     0
176
     1
290
     0
176
     1
290
     0
176
     1
290
     0
176
     1
 90
       50
176
     1
 40
0.0
176
     1
 40
1.0
176
     1
 90
        0
176
     1
 62
    18
420
        0
176
     1
 90
       50
176
     1
 90
        3
176
     1
 62
     5
420
      255
176
     1
290
     0
176
     1
 90
       50
176
     1
 90
       50
176
     1
 90
       50
176
     1
290
     0
176
     1
 90
       50
176
     1
 62
   256
176
     0
 40
1.0
176
     0
 90
        2
176
     1
  1
strokes_ogs.tif
176
     1
290
     0
176
     1
 40
1.0
176
     1
 40
1.0
176
     1
  0
VISUALSTYLE
  5
FD
102
{ACAD_REACTORS
330
EF
102
}
330
EF
100
AcDbVisualStyle
  2
Linepattern
 70
    14
177
     3
291
     1
 70
    58
 90
        2
176
     1
 90
        2
176
     1
 90
        1
176
     1
 90
        0
176
     1
 40
0.6
176
     1
 40
30.0
176
     1
 62
     7
420
 16777215
176
     1
 90
        1
176
     1
 90
        4
176
     1
 62
     7
176
     1
 62
   257
176
     1
 90
        7
176
     1
 90
        7
176
     1
 40
1.0
176
     1
 90
        8
176
     1
 62
     7
176
     1
 40
1.0
176
     1
 90
        1
176
     1
 90
        6
176
     1
 90
        2
176
     1
 62
     7
176
     1
 90
        5
176
     1
 90
        0
176
     1
 90
        0
176
     1
290
     0
176
     1
 90
        1
176
     1
 40
0.0
176
     1
 90
        0
176
     1
290
     0
176
     1
290
     1
176
     1
290
     1
176
     1
290
     0
176
     1
290
     0
176
     1
290
     0
176
     1
290
     0
176
     1
290
     0
176
     1
290
     0
176
     1
 90
       50
176
     1
 40
0.0
176
     1
 40
1.0
176
     1
 90
        0
176
     1
 62
    18
420
        0
176
     1
 90
       50
176
     1
 90
        3
176
     1
 62
     5
420
      255
176
     1
290
     0
176
     1
 90
       50
176
     1
 90
       50
176
     1
 90
       50
176
     1
290
     0
176
     1
 90
       50
176
     1
 62
   256
176
     0
 40
1.0
176
     0
 90
        2
176
     1
  1
strokes_ogs.tif
176
     1
290
     0
176
     1
 40
1.0
176
     1
 40
1.0
176
     1
  0
VISUALSTYLE
  5
1E5
102
{ACAD_REACTORS
330
EF
102
}
330
EF
100
AcDbVisualStyle
  2
OverhangOff
 70
    21
177
     3
291
     1
 70
    58
 90
        2
176
     0
 90
        2
176
     0
 90
        0
176
     0
 90
        0
176
     0
 40
0.6
176
     0
 40
30.0
176
     0
 62
     7
420
 16777215
176
     0
 90
        1
176
     0
 90
        4
176
     0
 62
     7
176
     0
 62
   257
176
     0
 90
        1
176
     0
 90
        1
176
     0
 40
1.0
176
     0
 90
        9
176
     2
 62
     7
176
     0
 40
1.0
176
     0
 90
        1
176
     0
 90
        6
176
     0
 90
        2
176
     0
 62
     7
176
     0
 90
        5
176
     0
 90
        0
176
     0
 90
        0
176
     0
290
     0
176
     0
 90
        1
176
     0
 40
0.0
176
     0
 90
        0
176
     0
290
     0
176
     1
290
     1
176
     1
290
     1
176
     1
290
     0
176
     1
290
     0
176
     1
290
     0
176
     1
290
     0
176
     1
290
     0
176
     1
290
     0
176
     1
 90
       50
176
     1
 40
0.0
176
     1
 40
1.0
176
     1
 90
        0
176
     1
 62
    18
420
        0
176
     1
 90
       50
176
     1
 90
        3
176
     1
 62
     5
420
      255
176
     1
290
     0
176
     1
 90
       50
176
     1
 90
       50
176
     1
 90
       50
176
     1
290
     0
176
     1
 90
       50
176
     1
 62
   256
176
     0
 40
1.0
176
     0
 90
        2
176
     1
  1
strokes_ogs.tif
176
     1
290
     0
176
     1
 40
1.0
176
     1
 40
1.0
176
     1
  0
VISUALSTYLE
  5
F9
102
{ACAD_REACTORS
330
EF
102
}
330
EF
100
AcDbVisualStyle
  2
Realistic
 70
     8
177
     3
291
     0
 70
    58
 90
        2
176
     1
 90
        3
176
     1
 90
        0
176
     1
 90
        2
176
     1
 40
0.6
176
     1
 40
30.0
176
     1
 62
     7
420
 16777215
176
     1
 90
        0
176
     1
 90
        0
176
     1
 62
     7
176
     1
 62
   257
176
     1
 90
        1
176
     1
 90
        1
176
     1
 40
1.0
176
     1
 90
        8
176
     1
 62
   257
176
     1
 40
1.0
176
     1
 90
        1
176
     1
 90
        6
176
     1
 90
        2
176
     1
 62
     7
176
     1
 90
        3
176
     1
 90
        0
176
     1
 90
        0
176
     1
290
     0
176
     1
 90
       13
176
     1
 40
0.0
176
     1
 90
        0
176
     1
290
     0
176
     1
290
     1
176
     1
290
     1
176
     1
290
     0
176
     1
290
     0
176
     1
290
     0
176
     1
290
     0
176
     1
290
     0
176
     1
290
     0
176
     1
 90
       50
176
     1
 40
0.0
176
     1
 40
1.0
176
     1
 90
        0
176
     1
 62
    18
420
        0
176
     1
 90
       50
176
     1
 90
        3
176
     1
 62
     5
420
      255
176
     1
290
     0
176
     1
 90
       50
176
     1
 90
       50
176
     1
 90
       50
176
     1
290
     0
176
     1
 90
       50
176
     1
 62
   256
176
     0
 40
1.0
176
     0
 90
        2
176
     1
  1
strokes_ogs.tif
176
     1
290
     0
176
     1
 40
1.0
176
     1
 40
1.0
176
     1
  0
VISUALSTYLE
  5
1F3
102
{ACAD_REACTORS
330
EF
102
}
330
EF
100
AcDbVisualStyle
  2
Shaded
 70
    27
177
     3
291
     0
 70
    58
 90
        2
176
     1
 90
        2
176
     1
 90
        1
176
     1
 90
        2
176
     1
 40
0.6
176
     1
 40
30.0
176
     1
 62
     7
420
 16777215
176
     1
 90
        0
176
     1
 90
        4
176
     1
 62
     7
176
     1
 62
   257
176
     1
 90
        1
176
     1
 90
        1
176
     1
 40
1.0
176
     1
 90
        8
176
     1
 62
   257
176
     1
 40
1.0
176
     1
 90
        1
176
     1
 90
        6
176
     1
 90
        2
176
     1
 62
     8
420
  7895160
176
     1
 90
        3
176
     1
 90
        0
176
     1
 90
        0
176
     1
290
     0
176
     1
 90
        5
176
     1
 40
0.0
176
     1
 90
        0
176
     1
290
     0
176
     1
290
     1
176
     1
290
     1
176
     1
290
     0
176
     1
290
     0
176
     1
290
     0
176
     1
290
     0
176
     1
290
     0
176
     1
290
     0
176
     1
 90
       50
176
     1
 40
0.0
176
     1
 40
1.0
176
     1
 90
        0
176
     1
 62
    18
420
        0
176
     1
 90
       50
176
     1
 90
        3
176
     1
 62
     5
420
      255
176
     1
290
     0
176
     1
 90
       50
176
     1
 90
       50
176
     1
 90
       50
176
     1
290
     0
176
     1
 90
       50
176
     1
 62
   256
176
     0
 40
1.0
176
     0
 90
        2
176
     1
  1
strokes_ogs.tif
176
     1
290
     0
176
     1
 40
1.0
176
     1
 40
1.0
176
     1
  0
VISUALSTYLE
  5
1F2
102
{ACAD_REACTORS
330
EF
102
}
330
EF
100
AcDbVisualStyle
  2
Shaded with edges
 70
    26
177
     3
291
     0
 70
    58
 90
        2
176
     1
 90
        2
176
     1
 90
        1
176
     1
 90
        2
176
     1
 40
0.6
176
     1
 40
30.0
176
     1
 62
     7
420
 16777215
176
     1
 90
        1
176
     1
 90
       10
176
     1
 62
     7
176
     1
 62
   257
176
     1
 90
        2
176
     1
 90
        1
176
     1
 40
1.0
176
     1
 90
        8
176
     1
 62
   257
176
     1
 40
1.0
176
     1
 90
        1
176
     1
 90
        6
176
     1
 90
        2
176
     1
 62
     7
176
     1
 90
        3
176
     1
 90
        0
176
     1
 90
        0
176
     1
290
     0
176
     1
 90
        5
176
     1
 40
0.0
176
     1
 90
        0
176
     1
290
     0
176
     1
290
     1
176
     1
290
     1
176
     1
290
     0
176
     1
290
     0
176
     1
290
     0
176
     1
290
     0
176
     1
290
     0
176
     1
290
     0
176
     1
 90
       50
176
     1
 40
0.0
176
     1
 40
1.0
176
     1
 90
        0
176
     1
 62
    18
420
        0
176
     1
 90
       50
176
     1
 90
        3
176
     1
 62
     5
420
      255
176
     1
290
     0
176
     1
 90
       50
176
     1
 90
       50
176
     1
 90
       50
176
     1
290
     0
176
     1
 90
       50
176
     1
 62
   256
176
     0
 40
1.0
176
     0
 90
        2
176
     1
  1
strokes_ogs.tif
176
     1
290
     0
176
     1
 40
1.0
176
     1
 40
1.0
176
     1
  0
VISUALSTYLE
  5
1EF
102
{ACAD_REACTORS
330
EF
102
}
330
EF
100
AcDbVisualStyle
  2
Shades of Gray
 70
    23
177
     3
291
     0
 70
    58
 90
        2
176
     1
 90
        2
176
     1
 90
        3
176
     1
 90
        0
176
     1
 40
0.6
176
     1
 40
30.0
176
     1
 62
     7
420
 16777215
176
     1
 90
        2
176
     1
 90
        2
176
     1
 62
     7
176
     1
 62
     7
176
     1
 90
        1
176
     1
 90
        1
176
     1
 40
40.0
176
     1
 90
        8
176
     1
 62
     7
176
     1
 40
1.0
176
     1
 90
        1
176
     1
 90
        6
176
     1
 90
        2
176
     1
 62
     7
176
     1
 90
        3
176
     1
 90
        0
176
     1
 90
        0
176
     1
290
     0
176
     1
 90
        1
176
     1
 40
0.0
176
     1
 90
        0
176
     1
290
     0
176
     1
290
     1
176
     1
290
     1
176
     1
290
     0
176
     1
290
     0
176
     1
290
     0
176
     1
290
     0
176
     1
290
     0
176
     1
290
     0
176
     1
 90
       50
176
     1
 40
0.0
176
     1
 40
1.0
176
     1
 90
        0
176
     1
 62
    18
420
        0
176
     1
 90
       50
176
     1
 90
        3
176
     1
 62
     5
420
      255
176
     1
290
     0
176
     1
 90
       50
176
     1
 90
       50
176
     1
 90
       50
176
     1
290
     0
176
     1
 90
       50
176
     1
 62
   256
176
     0
 40
1.0
176
     0
 90
        2
176
     1
  1
strokes_ogs.tif
176
     1
290
     0
176
     1
 40
1.0
176
     1
 40
1.0
176
     1
  0
VISUALSTYLE
  5
1F0
102
{ACAD_REACTORS
330
EF
102
}
330
EF
100
AcDbVisualStyle
  2
Sketchy
 70
    24
177
     3
291
     0
 70
    58
 90
        1
176
     1
 90
        2
176
     1
 90
        2
176
     1
 90
        0
176
     1
 40
0.6
176
     1
 40
30.0
176
     1
 62
     7
420
 16777215
176
     1
 90
        2
176
     1
 90
        2
176
     1
 62
     7
176
     1
 62
     7
176
     1
 90
        1
176
     1
 90
        1
176
     1
 40
40.0
176
     1
 90
       11
176
     1
 62
     7
176
     1
 40
1.0
176
     1
 90
        1
176
     1
 90
        6
176
     1
 90
        2
176
     1
 62
     7
176
     1
 90
        6
176
     1
 90
        0
176
     1
 90
        0
176
     1
290
     0
176
     1
 90
        1
176
     1
 40
0.0
176
     1
 90
        0
176
     1
290
     0
176
     1
290
     1
176
     1
290
     1
176
     1
290
     0
176
     1
290
     0
176
     1
290
     0
176
     1
290
     0
176
     1
290
     0
176
     1
290
     0
176
     1
 90
       50
176
     1
 40
0.0
176
     1
 40
1.0
176
     1
 90
        0
176
     1
 62
    18
420
        0
176
     1
 90
       50
176
     1
 90
        3
176
     1
 62
     5
420
      255
176
     1
290
     0
176
     1
 90
       50
176
     1
 90
       50
176
     1
 90
       50
176
     1
290
     0
176
     1
 90
       50
176
     1
 62
   256
176
     0
 40
1.0
176
     0
 90
        2
176
     1
  1
strokes_ogs.tif
176
     1
290
     0
176
     1
 40
1.0
176
     1
 40
1.0
176
     1
  0
VISUALSTYLE
  5
FC
102
{ACAD_REACTORS
330
EF
102
}
330
EF
100
AcDbVisualStyle
  2
Thicken
 70
    13
177
     3
291
     1
 70
    58
 90
        2
176
     1
 90
        2
176
     1
 90
        1
176
     1
 90
        0
176
     1
 40
0.6
176
     1
 40
30.0
176
     1
 62
     7
420
 16777215
176
     1
 90
        1
176
     1
 90
        4
176
     1
 62
     7
176
     1
 62
   257
176
     1
 90
        1
176
     1
 90
        1
176
     1
 40
1.0
176
     1
 90
       12
176
     1
 62
     7
176
     1
 40
1.0
176
     1
 90
        1
176
     1
 90
        6
176
     1
 90
        2
176
     1
 62
     7
176
     1
 90
        5
176
     1
 90
        0
176
     1
 90
        0
176
     1
290
     0
176
     1
 90
        1
176
     1
 40
0.0
176
     1
 90
        0
176
     1
290
     0
176
     1
290
     1
176
     1
290
     1
176
     1
290
     0
176
     1
290
     0
176
     1
290
     0
176
     1
290
     0
176
     1
290
     0
176
     1
290
     0
176
     1
 90
       50
176
     1
 40
0.0
176
     1
 40
1.0
176
     1
 90
        0
176
     1
 62
    18
420
        0
176
     1
 90
       50
176
     1
 90
        3
176
     1
 62
     5
420
      255
176
     1
290
     0
176
     1
 90
       50
176
     1
 90
       50
176
     1
 90
       50
176
     1
290
     0
176
     1
 90
       50
176
     1
 62
   256
176
     0
 40
1.0
176
     0
 90
        2
176
     1
  1
strokes_ogs.tif
176
     1
290
     0
176
     1
 40
1.0
176
     1
 40
1.0
176
     1
  0
VISUALSTYLE
  5
F6
102
{ACAD_REACTORS
330
EF
102
}
330
EF
100
AcDbVisualStyle
  2
Wireframe
 70
     5
177
     3
291
     0
 70
    58
 90
        0
176
     1
 90
        2
176
     1
 90
        0
176
     1
 90
        0
176
     1
 40
0.6
176
     1
 40
30.0
176
     1
 62
     7
420
 16777215
176
     1
 90
        1
176
     1
 90
        4
176
     1
 62
     7
176
     1
 62
   257
176
     1
 90
        1
176
     1
 90
        1
176
     1
 40
1.0
176
     1
 90
        0
176
     1
 62
   257
176
     1
 40
1.0
176
     1
 90
        1
176
     1
 90
        6
176
     1
 90
        2
176
     1
 62
     7
176
     1
 90
        3
176
     1
 90
        0
176
     1
 90
        0
176
     1
290
     0
176
     1
 90
        1
176
     1
 40
0.0
176
     1
 90
        0
176
     1
290
     0
176
     1
290
     1
176
     1
290
     1
176
     1
290
     0
176
     1
290
     0
176
     1
290
     0
176
     1
290
     0
176
     1
290
     0
176
     1
290
     0
176
     1
 90
       50
176
     1
 40
0.0
176
     1
 40
1.0
176
     1
 90
        0
176
     1
 62
    18
420
        0
176
     1
 90
       50
176
     1
 90
        3
176
     1
 62
     5
420
      255
176
     1
290
     0
176
     1
 90
       50
176
     1
 90
       50
176
     1
 90
       50
176
     1
290
     0
176
     1
 90
       50
176
     1
 62
   256
176
     0
 40
1.0
176
     0
 90
        2
176
     1
  1
strokes_ogs.tif
176
     1
290
     0
176
     1
 40
1.0
176
     1
 40
1.0
176
     1
  0
VISUALSTYLE
  5
1F1
102
{ACAD_REACTORS
330
EF
102
}
330
EF
100
AcDbVisualStyle
  2
X-Ray
 70
    25
177
     3
291
     0
 70
    58
 90
        2
176
     1
 90
        2
176
     1
 90
        1
176
     1
 90
        1
176
     1
 40
0.5
176
     1
 40
30.0
176
     1
 62
     7
420
 16777215
176
     1
 90
        1
176
     1
 90
        0
176
     1
 62
     7
176
     1
 62
   257
176
     1
 90
        1
176
     1
 90
        1
176
     1
 40
1.0
176
     1
 90
        8
176
     1
 62
     7
176
     1
 40
1.0
176
     1
 90
        1
176
     1
 90
        6
176
     1
 90
        2
176
     1
 62
     7
176
     1
 90
        3
176
     1
 90
        0
176
     1
 90
        0
176
     1
290
     0
176
     1
 90
       13
176
     1
 40
0.0
176
     1
 90
        0
176
     1
290
     0
176
     1
290
     1
176
     1
290
     1
176
     1
290
     0
176
     1
290
     0
176
     1
290
     0
176
     1
290
     0
176
     1
290
     0
176
     1
290
     0
176
     1
 90
       50
176
     1
 40
0.0
176
     1
 40
1.0
176
     1
 90
        0
176
     1
 62
    18
420
        0
176
     1
 90
       50
176
     1
 90
        3
176
     1
 62
     5
420
      255
176
     1
290
     0
176
     1
 90
       50
176
     1
 90
       50
176
     1
 90
       50
176
     1
290
     0
176
     1
 90
       50
176
     1
 62
   256
176
     0
 40
1.0
176
     0
 90
        2
176
     1
  1
strokes_ogs.tif
176
     1
290
     0
176
     1
 40
1.0
176
     1
 40
1.0
176
     1
  0
DICTIONARYVAR
  5
146
102
{ACAD_REACTORS
330
5E
102
}
330
5E
100
DictionaryVariables
280
     0
  1
1:1
  0
DICTIONARYVAR
  5
145
102
{ACAD_REACTORS
330
5E
102
}
330
5E
100
DictionaryVariables
280
     0
  1
STANDARD
  0
DICTIONARYVAR
  5
84
102
{ACAD_REACTORS
330
5E
102
}
330
5E
100
DictionaryVariables
280
     0
  1
STANDARD
  0
DICTIONARYVAR
  5
227
102
{ACAD_REACTORS
330
5E
102
}
330
5E
100
DictionaryVariables
280
     0
  1
Metric50
  0
DICTIONARYVAR
  5
228
102
{ACAD_REACTORS
330
5E
102
}
330
5E
100
DictionaryVariables
280
     0
  1
Metric50
  0
DICTIONARYVAR
  5
5F
102
{ACAD_REACTORS
330
5E
102
}
330
5E
100
DictionaryVariables
280
     0
  1
2
  0
DICTIONARYVAR
  5
63
102
{ACAD_REACTORS
330
5E
102
}
330
5E
100
DictionaryVariables
280
     0
  1
1
  0
DICTIONARYVAR
  5
1AE
102
{ACAD_REACTORS
330
5E
102
}
330
5E
100
DictionaryVariables
280
     0
  1
0
  0
DICTIONARYVAR
  5
1AF
102
{ACAD_REACTORS
330
5E
102
}
330
5E
100
DictionaryVariables
280
     0
  1
0
  0
XRECORD
  5
9235
102
{ACAD_REACTORS
330
9233
102
}
330
9233
100
AcDbXrecord
280
     1
  1
AcLyLayerGroup
 90
        1
300
1. Inskripzio-laukia
330
485
330
6C6
330
659
330
7AC
330
7AE
330
7AD
  0
XRECORD
  5
9236
102
{ACAD_REACTORS
330
9233
102
}
330
9233
100
AcDbXrecord
280
     1
  1
AcLyLayerGroup
 90
        1
300
2. Egitura
330
FC8
330
FC5
330
FC4
330
FC3
330
150C
330
24FF
  0
XRECORD
  5
9237
102
{ACAD_REACTORS
330
9233
102
}
330
9233
100
AcDbXrecord
280
     1
  1
AcLyLayerGroup
 90
        1
300
3. Arotzeria
330
FC9
330
FC7
330
FC6
  0
XRECORD
  5
9238
102
{ACAD_REACTORS
330
9233
102
}
330
9233
100
AcDbXrecord
280
     1
  1
AcLyLayerGroup
 90
        1
300
4. Zorua
330
8D45
330
45C5
330
4035
  0
XRECORD
  5
9239
102
{ACAD_REACTORS
330
9233
102
}
330
9233
100
AcDbXrecord
280
     1
  1
AcLyLayerGroup
 90
        1
300
5. Altzariak
330
1874
  0
XRECORD
  5
923A
102
{ACAD_REACTORS
330
9233
102
}
330
9233
100
AcDbXrecord
280
     1
  1
AcLyLayerGroup
 90
        1
300
6. Elementuak
330
253B
  0
XRECORD
  5
923B
102
{ACAD_REACTORS
330
9233
102
}
330
9233
100
AcDbXrecord
280
     1
  1
AcLyLayerGroup
 90
        1
300
7. Datuak
330
14FC
330
4129
330
3AB1
330
9232
  0
XRECORD
  5
923C
102
{ACAD_REACTORS
330
9233
102
}
330
9233
100
AcDbXrecord
280
     1
  1
AcLyLayerGroup
 90
        1
300
8. Irisgarritasuna
330
3B73
  0
DICTIONARY
  5
22E2
330
188F
100
AcDbDictionary
280
     1
281
     1
  3
ACAD_XREC_ROUNDTRIP
360
9A43
  0
DICTIONARY
  5
236
330
21C
100
AcDbDictionary
280
     1
281
     1
  3
ACAD_XREC_ROUNDTRIP
360
9A41
  0
DICTIONARY
  5
205
330
22
100
AcDbDictionary
280
     1
281
     1
  0
DICTIONARY
  5
1F9
330
ED
100
AcDbDictionary
280
     1
281
     1
  3
FBXASSET
360
1FA
  0
DICTIONARY
  5
1F7
330
EC
100
AcDbDictionary
280
     1
281
     1
  3
FBXASSET
360
1F8
  0
DICTIONARY
  5
173
330
EE
100
AcDbDictionary
280
     1
281
     1
  3
BUMPTILE
360
175
  3
DIFFUSETILE
360
174
  3
FBXASSET
360
1FB
  3
OPACITYTILE
360
176
  3
REFLECTIONTILE
360
177
  0
DICTIONARY
  5
22E0
330
188E
100
AcDbDictionary
280
     1
281
     1
  3
ACAD_XREC_ROUNDTRIP
360
9A42
  0
DICTIONARY
  5
234
330
21A
100
AcDbDictionary
280
     1
281
     1
  3
ACAD_XREC_ROUNDTRIP
360
9A40
  0
DICTIONARY
  5
162
330
7F
100
AcDbDictionary
280
     1
281
     1
  3
ACAD_ROUNDTRIP_2008_TABLESTYLE_CELLSTYLEMAP
360
9A3F
  0
XRECORD
  5
9A43
102
{ACAD_REACTORS
330
22E2
102
}
330
22E2
100
AcDbXrecord
280
     1
102
DISPLAYNAME
  1
Imperial24
102
FLAGS
 90
        0
  0
XRECORD
  5
9A41
102
{ACAD_REACTORS
330
236
102
}
330
236
100
AcDbXrecord
280
     1
102
DISPLAYNAME
  1
Metric50
102
FLAGS
 90
        0
  0
XRECORD
  5
1FA
102
{ACAD_REACTORS
330
1F9
102
}
330
1F9
100
AcDbXrecord
280
     1
 70
     1
 90
429727718
  1
D62C5603-E3A1-4AEA-B7FB-FE5D8D0755AF
310
504B03040A0000080000CC70623B3DEE336E79000000790000001B0000006175746F6465736B2D64657369676E2D7061636B6167652E786D6C3C3F786D6C2076657273696F6E3D22312E302220656E636F64696E673D227574662D3822203F3E3C666F726D6174733E3C666F726D61743E687474703A2F2F736368656D612E
310
6175746F6465736B2E636F6D2F64657369676E2D7061636B6167652F323030393C2F666F726D61743E3C2F666F726D6174733E504B0304140006080800CC70623BD486FD9CA0000000F4000000130000005B436F6E74656E745F54797065735D2E786D6C7D8EC10E82300C865F65E91D8A1E8C310C0EEA1BF002731658846E
310
D98AC1B77784ABF1D8FE5FBFBF75BBCE937A534CCEB38643598122B6FEE978D0B0485F9C41B54DDD7D022595594E1A469170414C76A4D9A4D207E29CF43ECE46F218070CC6BECC4078ACAA135ACF422C856C0E68EA1BF5669944DDD7BCDE7B1F8E415D77AECB980613C2E4AC91FC167A2B244592486606FC29C8FD7F045B9A
310
EF7053A7E60B504B0304140006080800CC70623B853B8169EB0000007C01000008000000636F72652E786D6C8D90416EC3201045AF62CDB6C206821CC7C244919D9CA01740401C94182C03558F5F9C3852BBEB6A467FFE9B197D7EFC9E1EC5975982F5AE035262288C535E5B377690E21535501C055FBC8FBF6C503839990E
310
5619041F179FE64D52DE45E362569DD7661365082642A11EB9E920A89B99642953CC8E702F67A9EE7234257977194EC9EAE275C4EABCCF5EAD5940D4AC6F0E35A568B8F43562CD7046CD199FD07E60174276A7BE677B5EADB0E0D14EEFFB6A31321A0D82627C4084204C3F096B71DD52F6819B16635EADF63F509AF53FA164
310
5DDCD1EDDD17164090FCC8732078B56691CB33A85CD7DCC40F504B0304140006080800CC70623B55019EA25F0000007C00000007000000636E782E786D6C4DCB3B0E80201045D1AD90E915ED2CF8AC45050C11660C8261F98AB1B07AC9C97D42D718D865D3E909258CFD00CCE24AC6E326A164D74DC0B4128928FF32603847
310
2BA13128B1252AC747C6BAB984FC68F0B87FE8960A5C09FE86CFB69FBA01504B0304140006080800CC70623BDBABAAF470010000D40300000C0000006662782F636F72652E786D6CC553D16E823014FD95A6AF4B694182CC941A83FA05FB810A9511A125A5257EFE2E82712ECEB8A7F100CD39F7F69E734AF9FADC366850B6
310
AF8DCE7018308C942E4C59EB2AC3DE1D498AD15A706B8CFB56869196ADCAF00863C12B6B7C374385D14E6907A836A59A41D9F7CA615434B0C8705F7CAA5606D23BA8E84F41278B93AC54100640439DE0BDB320004D43C63716C7C399D30917DCFBBA9CD9BA8469F5B156168B24CED3F7248AC8769F27244EB73B92EED8862C
310
B7F13E0C179B3C8F979C8ECD82BBBABDAA2BAC924E9558448CBD9330242CFA08E3154B5651FCC6D215639C8EE5774DBE2B5F6CF2B5768B68963BB5F5588420E442FC700B1139D4CB01F450C1E918227C2E09DF070D8140C84E1E9AAB8F1340832A9CB13130A5F1376A908D57309505ECF2A0DF179C4E9D30F5B239B87E3823
310
7A79C6F31DE1A8A5AEC08474B03C7837EAE4938639B44E5932B833D2C6B6B279CDC613877FA26EE21F4A2A4C63EC7F29A2F301D1F9F7A0E37D145F504B0304140006080800CC70623B9C113CC27E0000009D0000000B0000006662782F636E782E786D6C4DCCDF0A83201C86E15B91DFB94BFB330DD428C8FB886521330DA7
310
6397BF1A1DECE883878F57749FCDA1B7892F1BBC047A23808C7F84D9FA55424E0BE6803A256208E9EF06C84F9B91703228B1C690F78B66B34CD9A5439DF5CF0BFBF65E35BCA1B8D6A5C6F540381E886698B5741C695F9503EBA150A2F8958E3DC3EA0B504B0304140006080800CC70623B7DF2F77C2A010000120200003100
310
00006662782F41393633353835312D344632462D344230382D423046372D3739314545314133324237412F636F72652E786D6C8D51DB8EC22014FC15C2939B0D2DB4B45643319AE817EC0F6041255A68B86CFCFC856D4D76DF7CE190393373060EDB3DC707F856CE6B6B7A480A0C81328395DA5C7B18C3057510EC3873D686
310
3F34088C18550F330C39BB3A1BA7051AAC09CA84841A2BD5020AEF55806078A44B0FFD7053A328440C89E1EFC52486BBB8AA8214A99D789CF9E05200300FC927E4FB4D5B375D43103D5527440FB843077C5AA3F5861C8F645F5787F59E95B390B318B55CE45AA638FAA2957BD7248B390B7A7CC51F9C124149C82B8C378810
310
84AB2F42B7B8DD56F413775B8C5999E9FF4471926F8AA236A1AE96B8B3CC434E5839373893369E1FAF30EA395917409EB7F26AF8801C171837A4A6AC9C89E9F9C9B1A58BA30FD6A5EF5DDDCF894B9AD9B6A59C957943A9FCAE2FD5BC4DFE03504B0304140006080800CC70623BAD7543B64E01000033030000300000006662
310
782F41393633353835312D344632462D344230382D423046372D3739314545314133324237412F636E782E786D6CD593CD6EC32010845F0571AD6CE3D48AD20813A9873E410FBD12D82434182C7EAAE6EDBB2424CD25871E7B41D6EC30B3FA84F9E67BB2E40B4234DE8DB46F1925E094D7C6ED479AD3AE5951B2113C789FEE
310
6C943839C1488B4C05DF079FE72A69D8C96C13AAD6B8631503449F83828872B949AC57D26200B826A308D316B4064D6E46FCDA41C05550DC9E483A00797BFD207EFB092A45DE9514C1BBD22178396BD39D891265658C238DEA00936C654E5E433CB65A26D9F6EDB5EBC14EBF49A45CB856E66048291F6939A9A81BB5C89177
310
38143CA680F4AA299D66A042CEB3354A2684DC9D8D178FE0D9B8B41CAAD720F880EE7EF93C0C18769E099ECC04D5A102C8049A8A05632F4DDF376CF1DE0F6BB65C2F8627B65A33C6BB62177CEBBDAD973006829F89F22E814B54F4BC2BE347F8AA8F681390B50FA73F804400B5F542E796F19FF974E7F78DB802FE05E20750
310
4B0304140006080800CC70623BE75B7789680500003C100000340000006662782F41393633353835312D344632462D344230382D423046372D3739314545314133324237412F6F626A656374732E786D6CAD575B8F9B3818FD2B887D06C22499CB8AA1CA655245D5B455A356FB305264C061D8018C6C3393D95FBFC7600890
310
A4CD5EF210B0B1BFEBF98E3F7B1FF6596ABC522E1296DF9BAE3D320D9A872C4AF2F8DE2CE5CEBA358D0FBEC719939D65A691938CDE9B6ADAF4BD98B3B2D05311DD91329583D9D5FC0F438434A7A611A644887B5384CF34233629258BA878B12322891DEFF6B66BD70BFB62634E8AE781D082709A4B588AF91C528CDA28B73F
310
1C998EEF39EABBEFA97FBD6A7C7E9553F9D3D79FE442923C3C523610337627CB87ABE99D359D4CC6D6E4FACAB5E6ABF9D2726FC6A3C5F56271377BB88362213924694B38DD99FE47C48627A1E7D49F5A8BB5E1A74C0A599ED3B0F21F1E56366B89112D681E218F0915D0D6F17AD41FBA2A369DCF6335D62ABBD39779D5DDD1
310
11D4D8DE3CBB96B2E04FB8202E41051754A1AA8E8F76B4C6DFE810B580B1547F4B84911149794252234D024EF8BBE963A95AE27B3D310A9D5C215C7960FAEE415ED75694C6AFB17BCACA5D99A60A9AA65F217B0BFC53292ACB92BF283FAD0D3621576592CB5BED907C2FA8E9DF794E35E97BEA31BED21FEB401ABB94C44839
310
DCACBF0E1C5DA8DA5B2F4DFFD32AD86F543D9E565E7056502E157C00AD2671CD534549AB752FCA9CDA00677A313F04E51B22FF19E57B300579E3C97EB29F682D92935CEC18CF901B7B54FD8C51F362B56FC72FE0B3C1EAE335EDCCBF5AEC39ADB17DC238973F804BA5E6F6BFE7AF1FB32E523BE9F3BD571418E3631DCA4D48
310
5250CF639223210A9446CA30052EDF057BD35F8329C1ECD84552BF0DC8D18BE7BCE23BFE6BD960AB4A7DE79923A103BEBD80F911CBAA2C60DB19B01CF164A5583B772EE6D3FFA56666CBCDA74DC97724A48F9A58967497E489C4D979006FD7A05E227A1EBDD0F737C623387A9C844D3709995625106D157315F8B8392CD4E0
310
A0B9A720C4BE9829CEF37EA1E13111214D53925356365ADA634861B52519DD27A00AEB808EAF0628E6F435519D446F45CF2C9CF5214F0A15B2F6D06B79DA3EE3CBF7F56780D2F4E7EF73A0F5E5B02A38D07DC852C6B7C1FBB6664213E0C39E3EBA7FF4E1AD23EA2829407C85E586727488B751B2DB9502BC7B228A3FD68B6E
310
A65A22397E690AA8D158D7E404EC8CDA235CC3B7D1898680131CEC2CDF2638C65196279577750F15884AEE19F94199155B92B13297978469D4F8D358DF0AEF7631E28DC8F0D9F437D5D39A83B2231A1D52D543813A824EF8D44BCFF2FA6A31BD1E8DAD87F1CCB526B3879935BF59CDADD5C37479BB1CDD4CA7B3556B516589
310
EF352754B706114D9C885EC9131DE6EFEB43D99AFE2391C2F958179413D7CFEF6B1B6DB1E7600F00DE6E5C67454A339A4BA2E0FBA85ED26F045D454F463DBFCE484C2F90F2E5E3666003662ED8F755951A7D1BECD5B30B550B2785C8E7320B7292A4838DDA71BBC863ED7613CAF659337A3354231D4FF4A182A54904C2898C
310
98B28C4AD0CE056CCF332A80986E571EE9DBC305BB5FEB7E509220A58D25CF042D712A806AC0AD0C657FDEF80D2D9CEAA2EE4D1C76F60BFE74219A06527D6F82DF6412526107381E55E353090704D085B52408A8913C4ED159D79BDA71BB4BC506F4831350EB6F975CD22D69BF7AC49B91A2C0A9DDA3D5CA36AD20FC478E37
310
E61844E2352865EBCB61A275A65283CAAA9DD27703B4102F5AF51EF5F573B75CBB5AD38BC845F7A49F82A0966A49C2E3EA5EA0ECD326CD965F1DB402C6FA8B51A4658C5C5E2EC9E214602E55810345408596591009A82E7E7FFACA19EEA299B14A0081A705CB3296EBC14CDF658DCD336EA6D1136881AAEB87B81AB9EE53D5
310
F5EB8BC8362082DA24122F98680A4E7930C01A0079749CEA14382A0783E5EBA5A10F8C098456A03D6A4AEB6BB881E2513747552A5DB22C7EDAF83BD5528081A365F7FF06504B0304140006080000CC70623B000000000000000000000000350000006662782F41393633353835312D344632462D344230382D423046372D37
310
39314545314133324237412F76657274696365732E62696E504B0304140006080800CC70623BF270F1330600000004000000360000006662782F41393633353835312D344632462D344230382D423046372D3739314545314133324237412F747269616E676C65732E62696E636660600000504B0304140006080000CC7062
310
3B000000000000000000000000370000006662782F41393633353835312D344632462D344230382D423046372D3739314545314133324237412F617474726962757465732E62696E504B0304140006080800CC70623B08DA0BD19000000041010000360000006662782F41393633353835312D344632462D344230382D4230
310
46372D3739314545314133324237412F6469726563746F72792E786D6C858F410AC3201045AF22B36F53E9A60B35CBEEBAE80D244E44489C6234F4F835464A48035D0DF398FF9F8AF63D0E6CC63039F212F8F9020C7D47C6792B21C5FE7403D62A1188E2E60C98D7234A5830286103A55745067B9D86B8A3CF9C7F90C11DE6
310
07FB144396D7B6A82D282E9A152AD114D5EF2CB866EEE831B8EEA07A7BB5A8D7D61A2BAAEB7FD5F70921FF497D00504B0304140006080800CC70623BEDD1DC58FD000000A00100003B0000006662782F41393633353835312D344632462D344230382D423046372D3739314545314133324237412F7265736F75726365732F
310
636F72652E786D6C8D504B6E833010BD0A9A6D65B00922041947112427E8052C33A156828DFCA97AFC9A40A576D7CDCCE87D344F8F9FBFE667F689CE6B6B3A6039850C8DB2A336530731DC4903D95970676DF82583CCC8193B5861107C72362E3BA4AC096842428D1D7107A5F7182053CF7474E0D507CE32973124857FE48B
310
540F3961CEF244279DE03EB81420DB9EAC1384436FA353E879B1B182C7A8C75DA3C7F453DF353A1075D537A7BA6464B8F535A99AE14A9A2BBD90E350DD183B5CFABE3AF262350B1EF4FC9351399401471025A527C218A1E53BAB5A5AB765F5469B96525EACF23FA6B88CFF34456DC2A1DCE36E360F82A5202F42F062ED2BAD
310
579969AFDD8A6F504B010214000A0000080000CC70623B3DEE336E79000000790000001B00000000000000000000000000000000006175746F6465736B2D64657369676E2D7061636B6167652E786D6C504B01021400140006080800CC70623BD486FD9CA0000000F40000001300000000000000000000000000B20000005B
310
436F6E74656E745F54797065735D2E786D6C504B01021400140006080800CC70623B853B8169EB0000007C010000080000000000000000000000000083010000636F72652E786D6C504B01021400140006080800CC70623B55019EA25F0000007C000000070000000000000000000000000094020000636E782E786D6C504B
310
01021400140006080800CC70623BDBABAAF470010000D40300000C00000000000000000000000000180300006662782F636F72652E786D6C504B01021400140006080800CC70623B9C113CC27E0000009D0000000B00000000000000000000000000B20400006662782F636E782E786D6C504B01021400140006080800CC70
310
623B7DF2F77C2A010000120200003100000000000000000000000000590500006662782F41393633353835312D344632462D344230382D423046372D3739314545314133324237412F636F72652E786D6C504B01021400140006080800CC70623BAD7543B64E010000330300003000000000000000000000000000D2060000
310
6662782F41393633353835312D344632462D344230382D423046372D3739314545314133324237412F636E782E786D6C504B01021400140006080800CC70623BE75B7789680500003C10000034000000000000000000000000006E0800006662782F41393633353835312D344632462D344230382D423046372D3739314545
310
314133324237412F6F626A656374732E786D6C504B01021400140006080000CC70623B0000000000000000000000003500000000000000000000000000280E00006662782F41393633353835312D344632462D344230382D423046372D3739314545314133324237412F76657274696365732E62696E504B01021400140006
310
080800CC70623BF270F133060000000400000036000000000000000000000000007B0E00006662782F41393633353835312D344632462D344230382D423046372D3739314545314133324237412F747269616E676C65732E62696E504B01021400140006080000CC70623B0000000000000000000000003700000000000000
310
000000000000D50E00006662782F41393633353835312D344632462D344230382D423046372D3739314545314133324237412F617474726962757465732E62696E504B01021400140006080800CC70623B08DA0BD1900000004101000036000000000000000000000000002A0F00006662782F41393633353835312D344632
310
462D344230382D423046372D3739314545314133324237412F6469726563746F72792E786D6C504B01021400140006080800CC70623BEDD1DC58FD000000A00100003B000000000000000000000000000E1000006662782F41393633353835312D344632462D344230382D423046372D3739314545314133324237412F7265
310
736F75726365732F636F72652E786D6C504B0506000000000E000E0080040000641100000000
  0
XRECORD
  5
1F8
102
{ACAD_REACTORS
330
1F7
102
}
330
1F7
100
AcDbXrecord
280
     1
 70
     1
 90
429727718
  1
30362254-06B7-45E0-A893-8CFA70E3D6BC
310
504B03040A0000080000CC70623B3DEE336E79000000790000001B0000006175746F6465736B2D64657369676E2D7061636B6167652E786D6C3C3F786D6C2076657273696F6E3D22312E302220656E636F64696E673D227574662D3822203F3E3C666F726D6174733E3C666F726D61743E687474703A2F2F736368656D612E
310
6175746F6465736B2E636F6D2F64657369676E2D7061636B6167652F323030393C2F666F726D61743E3C2F666F726D6174733E504B0304140006080800CC70623BD486FD9CA0000000F4000000130000005B436F6E74656E745F54797065735D2E786D6C7D8EC10E82300C865F65E91D8A1E8C310C0EEA1BF002731658846E
310
D98AC1B77784ABF1D8FE5FBFBF75BBCE937A534CCEB38643598122B6FEE978D0B0485F9C41B54DDD7D022595594E1A469170414C76A4D9A4D207E29CF43ECE46F218070CC6BECC4078ACAA135ACF422C856C0E68EA1BF5669944DDD7BCDE7B1F8E415D77AECB980613C2E4AC91FC167A2B244592486606FC29C8FD7F045B9A
310
EF7053A7E60B504B0304140006080800CC70623B1EC5D7A3EB0000007C01000008000000636F72652E786D6C8D90416EC3201045AF82665B6103C6756C6122AB4D4ED00B204C5C94182C03558F5F9C3852BBEB6A467FFE9B197D71FC9E6FE8CBACC17AD7032D0820E3B41FAD9B7A48F1820F808E52ACDEC75F36404ECDA687
310
4D0629A6D5A76597B477D1B89855E747B38B2A041301E95B6E7A08FAD3CCAA50296647B8168BD2573599823EBB0CA76447F43862C7BCCF5EAC59410E4DDD9C7973C2755553CCCFA4C603E3040F1565ED3B1FDE4E432BCA0D9622DAF9795FAF464533826484B498524CD807E51D79ED187F21878E10516EF63F505AC67F42C9
310
BA58B1FDDD071640D2FCC87D2045B96591CB3DA85CB7DCE40F504B0304140006080800CC70623B55019EA25F0000007C00000007000000636E782E786D6C4DCB3B0E80201045D1AD90E915ED2CF8AC45050C11660C8261F98AB1B07AC9C97D42D718D865D3E909258CFD00CCE24AC6E326A164D74DC0B4128928FF32603847
310
2BA13128B1252AC747C6BAB984FC68F0B87FE8960A5C09FE86CFB69FBA01504B0304140006080800CC70623B8C9102E971010000D40300000C0000006662782F636F72652E786D6CC5535B6E833010BC8AE5DF0A6C08340F1947A84D4ED00B38C6A128602363A31CBFCB234A53A551FA553EC09AD9F5CE8C31DB9E9B1AF5CA
310
7695D1198E428A91D2D214952E33ECDD315861B4E5CC1AE3BE9561A445A3323CC098B3D21ADFCE9034DA29ED00D5A6503328BA4E398C640D8B0C77F253352214DE4145770A5B214FA2546114020D759C75CE8200340D19DE981F0F6746269C33EFAB6266AB02A655C74A59CCF365BADC27CB5D902ED22848F6340DF238A141
310
BE88E2F57B92BFEDF23523433367AE6A2EEAA455C2A902F398D2751045018D3FA264435F3771F242571B4A1919CA6F9A7C5B3CD9E42BED16F12C776AEB308F40C848FC700B1139D4891EF410CEC810227CC6846F8386402064270EF5C5C709A05E49676C024C61FC95EA45ED154CA5211D1FF4FB8291A913A68E9B83EBBB33
310
E2A7673CDE118E5AE8124C0807CB8377834E366998436B950D7A7746DAD846D4CFD978E0F04FD455FC5D49D2D4C6FE9722321F10997F0F32DC47FE05504B0304140006080800CC70623BFFEA85907E0000009D0000000B0000006662782F636E782E786D6C4DCCD10A83201886E15B91FFDC95D95A811AB6F23E625948A6C3
310
E9D8E5AF46073BFAE0E1E365ED67B3E8ADC3CB78C7815C7240DA3DFC64DCC221C519D7805AC182F7F1EF06C88D9BE6703008B6049F9E274D7A1E938DBB5AE3D6131B2589BA0D3D965551E0B2EA732C9B9A624AAEB41E3A557677029960D9AFB4EF11165F504B0304140006080800CC70623B4FEEA4082C0100001202000031
310
0000006662782F39464131463745442D413632322D343644302D413938332D3331353338454246344243312F636F72652E786D6C8D515B6EC32010BC0AE2AB55850DD871ED0813254D72825EC00192A2C460F1A872FC42ED48ED5F7E00CDCECCCEB26C731F6FE05B39AFADE921293004CA082BB5B9F43086336A21D870E6AC
310
0D7F68109861543DCC30E4ECE26C9C164858139409093556AA051CBC570102714B8F1E7AF1A5C6A11862480C7F2DA6415C878B2A4891CA89C7990F2E050073937C42DE1DB7E4F87ED8A36D4329AA9B3D46DBAEAD504556557BD81DEBDD0761E52CE42C462D17B996298E3E6BE59E35C962CE821E1FF18553435012728A7187
310
0841987E927A8D9B35ADDF70BBC6989599FE4F1427F9A4286A132ABAC49D651EF234CD5CE04CDA78BA3DC2A8FB645D00B9DF8B57E215725C60BCA2A463E54C4CE327C7A65E1C7DB02E7DEFCBF594B864C5CA6CDBD49C957943E9FA5D5FBAF336F90F504B0304140006080800CC70623BAD7543B64E01000033030000300000
310
006662782F39464131463745442D413632322D343644302D413938332D3331353338454246344243312F636E782E786D6CD593CD6EC32010845F0571AD6CE3D48AD20813A9873E410FBD12D82434182C7EAAE6EDBB2424CD25871E7B41D6EC30B3FA84F9E67BB2E40B4234DE8DB46F1925E094D7C6ED479AD3AE5951B2113C
310
789FEE6C943839C1488B4C05DF079FE72A69D8C96C13AAD6B8631503449F83828872B949AC57D26200B826A308D316B4064D6E46FCDA41C05550DC9E483A00797BFD207EFB092A45DE9514C1BBD22178396BD39D891265658C238DEA00936C654E5E433CB65A26D9F6EDB5EBC14EBF49A45CB856E66048291F6939A9A81BB5
310
C8917738143CA680F4AA299D66A042CEB3354A2684DC9D8D178FE0D9B8B41CAAD720F880EE7EF93C0C18769E099ECC04D5A102C8049A8A05632F4DDF376CF1DE0F6BB65C2F8627B65A33C6BB62177CEBBDAD973006829F89F22E814B54F4BC2BE347F8AA8F681390B50FA73F804400B5F542E796F19FF974E7F78DB802FE05
310
E207504B0304140006080800CC70623B16AB87BA640500003C100000340000006662782F39464131463745442D413632322D343644302D413938332D3331353338454246344243312F6F626A656374732E786D6CAD575B6FA33818FD2B887DE6924B3BED8A326A92B68A663B534DD4D13E548A0C38942D60649B369D5FBFC7
310
600890A493BDE42160637FD7F31D7FF63E6FB3D478A55C242CBF3247B66B1A340F5994E4F19559CA8D75611A9F7D8F33263BCB4C232719BD32D5B4E97B316765A1A722BA21652A07B3B7B33F0D11D29C9A46981221AE4C113ED38CD8A4942CA2E2C58E882476BCD9DA23BB5ED8171B73523C0F841684D35CC252CCE79062D4
310
468DFA43D7747CCF51DF7D4FFDEB5593E3AB9CCA9FBEFE241792E4E19EB28198C968BAB8199F5D5A67D3E9C49A9E8F47D6EC76B6B0469F26EEFC7C3EBFBCBEB98462213924694B38DD98FE1D62C393D073EA4FADC5DAF04326852CCF6958F90F0F2B9BB5C48816348F90C7840A68EB78EDF68723159BCEE7891A6B95DDE9D3
310
BCEAEEE8086A6C6F9E5D4B59F0175C10A7A0820BAA5055C7473B5AE3CFDD452D602CD5DF12616444529E90D448938013FE6EFA58AA96F85E4F8C42275708571E98FE6827AF6B2B4AE3D7D83D64E5A64C53054DD3AF90BD06FEA9149565C94FCA0F6B834DC85599E4F2423B24DF0B6AFA979E534DFA9E7A4CC6FA631D486393
310
921829879BF5D781A373557BCB85E97FB90DB62B558F8795179C15944B051F40AB495CF35451D26A4727654E6D8033BD98EF82F21D91FF8AF2DD9982BCF1643BDD4EB516C9492E368C67C88DED563FC36D5EACF66DFF057C3658BDBFA69DF9578B3DA735B64F18C7F20770A9D45CFCF7FCF563D6456A277DBEF78A02637CA2
310
43B90A490AEAB94F72244481D24819A6C0E59B606BFA4B3025981DBB48EAB701D97BF19C577CC77F2D1B6C55A9EF3C732474C0B727303F625995056C3B02963D9EAC146BE78EC5FCEC7FA999EBC5EACBAAE41B12D27B4D2C0BBA49F244E2ECDC81B76B502F113D8F5EE8FB1BE3111CDD4FC2AA9B844CAB1288B68AB90A7CDC
310
1C166AB0D3DC5310625FCC14E779BFD0709F8890A629C9292B1B2DED31A4B0DA928CEE135085754027E3018A397D4D5427D15BD1330B677DC8934285AC3DF45A9EB68FF8F2B8FC0A509AFEECFD0FF2DE25CC6047F7214B195F07EFEB9A094D800F7BFAE8FED187B78EA8A3A400F115961BCAD1215E47C966530AF0EE8128FE
310
58CEBB996A8964FFA529A046635D9353B0336A8F700DDF46271A024E70B0B37C9DE01847591E54DED53D54202AB947E4076556AC49C6CA5C9E1226B7F1A7B1BE15DEED62C41B91E1B3E9AFAAA735036547343A925075041DF0A9979E893B391F8FCFA6967B3EFB644DCF6E5CEBFAE272625DCC6FAF3FB93793C5F90CE1EF57
310
407342756B10D1C489E8953CD1617E5CEECAD6F4EF8914CE5D5D504E5C3F1F9736DA62CFC11E00BCDDB8CC8A9466349744C1F75EBDA4DF09BA8A9E8C7A7E9991989E20E5DBDD6A6003664ED8F7A04A8DBE0DF6EAD9B9AA858342E47399053949D2C146EDB85DE4B176BB0965FBAC19BD19AA918E27FA50C1D22402E144464C
310
59462568E704B6E71915404CB72B8FF4EDE184DDAF753F284990D2C6926782963815403548A70C657FDEF80D2D9CEAA2AE4C1C76F60BFE74219A06527D6582DF6412526107381E55E353090704D085B52408D0933C4ED159D79BDA71BB4BC506F4831350EB6F979CD22D69BF7AC49B91A2C0A9DDA3D5CA36AD20FC478E37E6
310
1844E2352865EBCB6EA275A652E3836BE04EFB400BF1A2556F515F1FBB35B2AB35BD889C744FFA1004B5544B121E57F70215746DD2F5E2C1412B602CBF19455AC6C8E5E9922C4E01E65215385004546899059180EAFCF7A707CE7017CD8CDB0410789AB32C63B91E5CEBBBACB17AC6CD347A022D5075FD106377347AAABA7E
310
7D11590744509B44E205134DC1290F06580320F78E537D3D73540E06CB970B431F185308AD40BBD794D6D77003C5A36E8EAA54BA64597CD8F83BD552A080A365F7FF06504B0304140006080000CC70623B000000000000000000000000350000006662782F39464131463745442D413632322D343644302D413938332D3331
310
353338454246344243312F76657274696365732E62696E504B0304140006080800CC70623BF270F1330600000004000000360000006662782F39464131463745442D413632322D343644302D413938332D3331353338454246344243312F747269616E676C65732E62696E636660600000504B0304140006080000CC70623B
310
000000000000000000000000370000006662782F39464131463745442D413632322D343644302D413938332D3331353338454246344243312F617474726962757465732E62696E504B0304140006080800CC70623B08DA0BD19000000041010000360000006662782F39464131463745442D413632322D343644302D413938
310
332D3331353338454246344243312F6469726563746F72792E786D6C858F410AC3201045AF22B36F53E9A60B35CBEEBAE80D244E44489C6234F4F835464A48035D0DF398FF9F8AF63D0E6CC63039F212F8F9020C7D47C6792B21C5FE7403D62A1188E2E60C98D7234A5830286103A55745067B9D86B8A3CF9C7F90C11DE607
310
FB144396D7B6A82D282E9A152AD114D5EF2CB866EEE831B8EEA07A7BB5A8D7D61A2BAAEB7FD5F70921FF497D00504B0304140006080800CC70623B0D6EF93BFE000000A00100003B0000006662782F39464131463745442D413632322D343644302D413938332D3331353338454246344243312F7265736F75726365732F63
310
6F72652E786D6C8D50596E833010BD0A9ADFCA60B334011947A8694ED00B586642AC041B79A97AFC9A40A5F6AF3F33A3B7689E1E3F7DCD8FEC139DD7D6F4C0720A191A65476DA61E62B892236427C19DB5E1970C322367EC618541F0C9D9B8EC90B226A009093576C41D94DE63804C3DD2D18357379C652E63480A7FCF17A9
310
EE72C29CE5894E3AC17D702940B63D59270887DE46A7D0F36263058F518FBB468FE9A7BE6A7420864373B8D4873369AA8691FA421B3294352543C5CAF65C0F6FEF43CB8BD52C78D0F34F46E550061C419494B6843142CB0F5677F4B52BEB177AEC28E5C52AFF638ACBF84F53D42654E51E77B379102C05791282176B5F693D
310
CB4C7BED567C03504B010214000A0000080000CC70623B3DEE336E79000000790000001B00000000000000000000000000000000006175746F6465736B2D64657369676E2D7061636B6167652E786D6C504B01021400140006080800CC70623BD486FD9CA0000000F40000001300000000000000000000000000B20000005B
310
436F6E74656E745F54797065735D2E786D6C504B01021400140006080800CC70623B1EC5D7A3EB0000007C010000080000000000000000000000000083010000636F72652E786D6C504B01021400140006080800CC70623B55019EA25F0000007C000000070000000000000000000000000094020000636E782E786D6C504B
310
01021400140006080800CC70623B8C9102E971010000D40300000C00000000000000000000000000180300006662782F636F72652E786D6C504B01021400140006080800CC70623BFFEA85907E0000009D0000000B00000000000000000000000000B30400006662782F636E782E786D6C504B01021400140006080800CC70
310
623B4FEEA4082C0100001202000031000000000000000000000000005A0500006662782F39464131463745442D413632322D343644302D413938332D3331353338454246344243312F636F72652E786D6C504B01021400140006080800CC70623BAD7543B64E010000330300003000000000000000000000000000D5060000
310
6662782F39464131463745442D413632322D343644302D413938332D3331353338454246344243312F636E782E786D6C504B01021400140006080800CC70623B16AB87BA640500003C1000003400000000000000000000000000710800006662782F39464131463745442D413632322D343644302D413938332D3331353338
310
454246344243312F6F626A656374732E786D6C504B01021400140006080000CC70623B0000000000000000000000003500000000000000000000000000270E00006662782F39464131463745442D413632322D343644302D413938332D3331353338454246344243312F76657274696365732E62696E504B01021400140006
310
080800CC70623BF270F133060000000400000036000000000000000000000000007A0E00006662782F39464131463745442D413632322D343644302D413938332D3331353338454246344243312F747269616E676C65732E62696E504B01021400140006080000CC70623B0000000000000000000000003700000000000000
310
000000000000D40E00006662782F39464131463745442D413632322D343644302D413938332D3331353338454246344243312F617474726962757465732E62696E504B01021400140006080800CC70623B08DA0BD190000000410100003600000000000000000000000000290F00006662782F39464131463745442D413632
310
322D343644302D413938332D3331353338454246344243312F6469726563746F72792E786D6C504B01021400140006080800CC70623B0D6EF93BFE000000A00100003B000000000000000000000000000D1000006662782F39464131463745442D413632322D343644302D413938332D3331353338454246344243312F7265
310
736F75726365732F636F72652E786D6C504B0506000000000E000E0080040000641100000000
  0
XRECORD
  5
175
102
{ACAD_REACTORS
330
173
102
}
330
173
100
AcDbXrecord
280
     1
270
     1
271
     1
  0
XRECORD
  5
174
102
{ACAD_REACTORS
330
173
102
}
330
173
100
AcDbXrecord
280
     1
270
     1
271
     1
  0
XRECORD
  5
1FB
102
{ACAD_REACTORS
330
173
102
}
330
173
100
AcDbXrecord
280
     1
 70
     0
 90
1673772943
  1
ECE7A1D2-D628-4531-984C-D00F80459256
310
504B03040A0000080000CC70623B3DEE336E79000000790000001B0000006175746F6465736B2D64657369676E2D7061636B6167652E786D6C3C3F786D6C2076657273696F6E3D22312E302220656E636F64696E673D227574662D3822203F3E3C666F726D6174733E3C666F726D61743E687474703A2F2F736368656D612E
310
6175746F6465736B2E636F6D2F64657369676E2D7061636B6167652F323030393C2F666F726D61743E3C2F666F726D6174733E504B0304140006080800CC70623BD486FD9CA0000000F4000000130000005B436F6E74656E745F54797065735D2E786D6C7D8EC10E82300C865F65E91D8A1E8C310C0EEA1BF002731658846E
310
D98AC1B77784ABF1D8FE5FBFBF75BBCE937A534CCEB38643598122B6FEE978D0B0485F9C41B54DDD7D022595594E1A469170414C76A4D9A4D207E29CF43ECE46F218070CC6BECC4078ACAA135ACF422C856C0E68EA1BF5669944DDD7BCDE7B1F8E415D77AECB980613C2E4AC91FC167A2B244592486606FC29C8FD7F045B9A
310
EF7053A7E60B504B0304140006080800CC70623BD9DDAED0EC0000007C01000008000000636F72652E786D6C8D90416EC3201045AF82665B61836D9CD8C2444DD39CA01740405C94182C03558F5F9C3852BBEB6A467FFE9B197D7EF89E6EE8CB2CC17A37002D0820E394D7D68D03A478C17B4007C117EFE32F1B20272733C0
310
2A83E0E3E2D3BC49CABB685CCCAAF3DA6CA20CC14440EA969B0182FA34932C648AD911AEC52CD5558EA6A0CF2EC329598D1E47ACCEFBECC59A050463A7EA5833865FEBDD0E37353BE3EE8DBDE3F6786A48D375FBF6CC78B9C282473B3DEFABC5C86834888A900E538A49F5419B9EB47DD5BC907D4F082F57FB1F28CDFA9F50
310
B22ED6D5F6EE030B20687EE43E10BC5CB3C8E51E54AE6B6EE207504B0304140006080800CC70623B55019EA25F0000007C00000007000000636E782E786D6C4DCB3B0E80201045D1AD90E915ED2CF8AC45050C11660C8261F98AB1B07AC9C97D42D718D865D3E909258CFD00CCE24AC6E326A164D74DC0B4128928FF326038
310
472BA13128B1252AC747C6BAB984FC68F0B87FE8960A5C09FE86CFB69FBA01504B0304140006080800CC70623BA24EB22D72010000D40300000C0000006662782F636F72652E786D6CC5535B6E833010BC8AE5DF0A6C5E49888CA3A6694ED00B38E05014B091B1518EDFE511A5A9D228FD2A1F60CDEC7A67C6986DCE4D8D7A
310
69BA4AAB0C073EC548AA5C17952A33ECECD15B61B4E1CC686DBF9561A44423333CC098B3D268D7CE50AE9595CA02AA74216750749DB418E5352C32DCE59FB211BE70162ABA93DF8AFC244AE9073ED050C759670D0840D390E18DF9F1706664C23973AE2A66B62A605A75ACA4C13C4976E1364A12EF355A2EBD384AF65EFA96
310
BC7B8BED2EA6719AAE16FB8491A199335B351775B991C2CA02F390D2D40B028F861F41BCA68B7518BFD0D59A524686F29B26D7164F36B94AD9289CE54E6D1DE6010819891F6E21228B3AD1831EC219194284CF98F06DD01008846CC5A1BEF83801D4CBDC6A1303536877A57A513B0953A94FC707FDBE6064EA84A9E3E6E0FA
310
EE8CF0E9198F7784A316AA0413C2C2F2E0ECA0934D1AE6D05A69BCDE9E91D2A611F573361E38FC1375157F5752AE6B6DFE4B11990F88CCBF0719EE23FF02504B0304140006080800CC70623B408A7D3B7C0000009D0000000B0000006662782F636E782E786D6C4DCCD10A83201886E15B91FFDC552A92A0064DBC8F581632
310
D3703A76F9ABD1C18E3E78F878E5F0D9027ABBFCF2292AE86E2D20171F69F6715550CB827B40839639A5F2770314A7CD293819B45C73AAFB45B35BA61ACAA1C1C7E7855C58C15BC331339661262CC762340413D68D77DA5B42298546CBE6573AF60CEB2F504B0304140006080800CC70623B449FB9BD290100001202000031
310
0000006662782F36394639363044362D344446342D343946362D394244322D3234314243333846323333332F636F72652E786D6C8D515B6EC32010BC0AE22B55850D98B871848994463E412FE002495162B07854397EA176A4F62F3F2C9A9D991D587EB84F37F0AD7D30CEF6905418026DA553C65E7A98E219ED203808EE9D
310
8B7F6810D871D23D2C3014FCE25D9A57483A1BB58D19B54EE9151C43D0110279CB971E06F9A5A7B11A53CC8C70ADE6515EC78BAE4895DB992778883E0700CB907242D17643D7E2538BD869608875438BBAE38922CAC8F1BDD90DB4691A5E2F42C153326A951B95E398B3D1FE599322163C9AE9115F7A3D46ADA0A018778810
310
84E907617BDCEE297BC5BB3DC6BC2EF47FA234AB2745C9D8D8D035EE220B50105E2F0DC1954B9FB747187D9F9D8FA0CCDB042D5FA0C015C65B42DF78BD10F3F3B363CB56C7109DCFDFBBB97E662ED92EB62D13BC2E1BCAE5777DB9966D8A1F504B0304140006080800CC70623BAD7543B64E01000033030000300000006662
310
782F36394639363044362D344446342D343946362D394244322D3234314243333846323333332F636E782E786D6CD593CD6EC32010845F0571AD6CE3D48AD20813A9873E410FBD12D82434182C7EAAE6EDBB2424CD25871E7B41D6EC30B3FA84F9E67BB2E40B4234DE8DB46F1925E094D7C6ED479AD3AE5951B2113C789FEE
310
6C943839C1488B4C05DF079FE72A69D8C96C13AAD6B8631503449F83828872B949AC57D26200B826A308D316B4064D6E46FCDA41C05550DC9E483A00797BFD207EFB092A45DE9514C1BBD22178396BD39D891265658C238DEA00936C654E5E433CB65A26D9F6EDB5EBC14EBF49A45CB856E66048291F6939A9A81BB5C89177
310
38143CA680F4AA299D66A042CEB3354A2684DC9D8D178FE0D9B8B41CAAD720F880EE7EF93C0C18769E099ECC04D5A102C8049A8A05632F4DDF376CF1DE0F6BB65C2F8627B65A33C6BB62177CEBBDAD973006829F89F22E814B54F4BC2BE347F8AA8F681390B50FA73F804400B5F542E796F19FF974E7F78DB802FE05E20750
310
4B0304140006080800CC70623B8D05915C650500003B100000340000006662782F36394639363044362D344446342D343946362D394244322D3234314243333846323333332F6F626A656374732E786D6CAD575B6FA33814FE2B887D06429276DA1565D4266D158D3A339A6846FB502932E050B66023DB74D2FDF5FB190C01
310
9276B2973C046C8ECFF53B17071F77456EBD502133CEAE6CDF9DD81665314F32965ED995DA3A17B6F5310C04E7AA47665B8C14F4CAD6DB7618A48257A5D94AE89654B91AEDDEDDFC61C998326A5B714EA4BCB265FC440BE2924AF184CA6737218AB8E976E7FA6E4338649B0A523E8D98964450A6A029F619B8588D52FE7039
310
B1BD30F0F4F730D0FF866AF6369557DB33949F31A9088B0F848DD8CCFCF9F2767A76E99CCDE733677E3EF59D9BBB9BA5E37F984D16E78BC5E5F5ED25044B25C0C96822E8D60EEFE11B91C581D77CEA34368A1F5329E68CD1B8B61F16D63A1B8E092D294B10C78C4A48EB593D192E7DED9BDEE7995E1B91FDEDD3ACEA9FE831
310
6A756F9F7D4D79F4274C90A7A04248AA51D5F8C718DAE06FB2F75AC4796EBE65D22A88A22223B995679120E2D50E41AA49C260C046A35368846B0BECD0DFF3EBEB8AD4F835768F69B9ADF25C43D30E6B646F807FAA64AD59F61715C7A54127C4AACA98BA3006A9D792DAE165E0D59B61A01FB3A9F9D838D2DAE62445C86166
310
F37564E842E7DE6A69879FEEA2DD5AE7E371E1A5E025154AC307D06A03D73EB5978C58FFA4C8E9033066E0F3BD53BEC1F39F91BE7B55103791EDE6BBB991A2046172CB4581D8B893FA674DDA17A77B3B7C413D1B511FD2743BFF8A38F03A658705E3ADF8015C3A3417FF3D7E439FF591DA0B5F18BC20C1B8981957AE6392A3
310
F43C640C01D1A0B4728E2DD4F26DB4B3C3152A252A3B4E913CEC1C72F012782FF88EFF8637AA552DBEF76408E8A8DE9E50F9E1CB3A2DA0DB1B6039A893B56063DC5B3E3FFB5F72E67AB9FEB4AEC496C4F4C1149625DD662C53E89D7BF0F6151A046260D1337DFDC94502430F83B0EE07A130A224BCAD7DAE1D9FB6CD422FF6
310
920702629C4BB9AE79C12F243C6432A6794E18E5552BA56B431AAB5D91317302B2B071E86C3A42B1A02F999E24061403B5D0EB639195DA655DD3EBEAB4FB862DDF579F014AD0E73C22F99E28DA57FB98E75C6CA2D74D53086D600F4786E0FE3144B771A8A7B900F03594DB8A633CBC49B2EDB69228BB479CF863B5E807AAAB
310
23872F6DFEB4129B949CA33823F58830E86D65621E10047D9DB34D862E8EAC3C2ABC2F7B2C40D67CDFE01F5545B92105AF983AC54D93D69E56FB8E797F88913F898A9FEC705D3F9D1B54EC8426FB500D40A03BD0119B06E1B95DDC7EB8F6975367793EBD70E66733DFB9BC982F9CE564727731999F5D4ECFCE3B8D6A4DC2A0
310
6D50FD148437D110834A64C6CDDF57FBACB5C307A2A477DFE4939736CFEF2B175371E0E10CF0DD1D5C15654E0BCA14D1E87DD02FF93782A162C0A3D95F1524A52770F972BF1EE9809D13CE7DD599467F8ECE9ADD85CE85A34CD45355448C64F9E8A031DC2D596ACC6E5DD93D9B82DE2EF5CAF81363A8E47996A0DE24564A79
310
4115AACE09C55E14540231FDA13C319787134EBF34E3A022514E5B4D9E0826E25C02D5805B15ABE1BEF51B26383D445DD9E875EE33FE4C22DA16427D65A3BCA92CA6D28DD01DF5DC53330704308475351050232CCD31583787BA75774AFB06E5070DD0C8EF484E19968C5D83BA5B90B244D31E54D55A372320FE4786B7EA58
310
44E135AA5467CB7EA333A61683CC6A8C3257034C10CF46F40EF9F5BE59BE5BD30C3C72D235E95D10345C1D45445A5F0BB47E46A5EBE5570F9380B5FA629579952296A773720405982B9DE04011506178964401AA8BDF1FBF0A8EAB6861DD6580C0E38217056766716DAEB2D6FA0917D3E4116581EADB879C4E7CFFB11EFACD
310
3D641311495D92C8676CB409A72D18610D803CE8A626049E8EC1887CB5B44CC39883690DDA8399B4B9855B481E7D71D4A9D22F96E5BB73BF5793020C02137BF837504B0304140006080000CC70623B000000000000000000000000350000006662782F36394639363044362D344446342D343946362D394244322D32343142
310
43333846323333332F76657274696365732E62696E504B0304140006080800CC70623BF270F1330600000004000000360000006662782F36394639363044362D344446342D343946362D394244322D3234314243333846323333332F747269616E676C65732E62696E636660600000504B0304140006080000CC70623B0000
310
00000000000000000000370000006662782F36394639363044362D344446342D343946362D394244322D3234314243333846323333332F617474726962757465732E62696E504B0304140006080800CC70623B08DA0BD19000000041010000360000006662782F36394639363044362D344446342D343946362D394244322D
310
3234314243333846323333332F6469726563746F72792E786D6C858F410AC3201045AF22B36F53E9A60B35CBEEBAE80D244E44489C6234F4F835464A48035D0DF398FF9F8AF63D0E6CC63039F212F8F9020C7D47C6792B21C5FE7403D62A1188E2E60C98D7234A5830286103A55745067B9D86B8A3CF9C7F90C11DE607FB14
310
4396D7B6A82D282E9A152AD114D5EF2CB866EEE831B8EEA07A7BB5A8D7D61A2BAAEB7FD5F70921FF497D00504B0304140006080800CC70623BCA768048FE000000A00100003B0000006662782F36394639363044362D344446342D343946362D394244322D3234314243333846323333332F7265736F75726365732F636F72
310
652E786D6C8D50596E833010BD0A9ADFCA60D600328E9AA639412F609909B1126CE4A5EAF16B0295DABFFECC8CDEA2797AECF8353F924FB44E193D409E5248504B332A3D0D10FC95B4901C39B3C6F85F3248B49871801506CE266BC2B243D2688FDA47549B11775038871E12F988C7004EDE7016A9083E2ADC3D5D84BC8B09
310
D33C8D74D471E6BC8D0192EDC93A815B742658898E651BCB59086ADC356A8C3FD555A1055ED7E7E254D615792D0F075295F585746FF53B694EE78A565DD736979A65AB9933AFE69F8CD2A2F038022F28ED489E135A7CE4554F9BBEA85E68DB53CAB255FEC71496F19FA6A0B42F8B3DEE6673C0F318E4497096AD7DC5F52C33
310
EEB55BFE0D504B010214000A0000080000CC70623B3DEE336E79000000790000001B00000000000000000000000000000000006175746F6465736B2D64657369676E2D7061636B6167652E786D6C504B01021400140006080800CC70623BD486FD9CA0000000F40000001300000000000000000000000000B20000005B436F
310
6E74656E745F54797065735D2E786D6C504B01021400140006080800CC70623BD9DDAED0EC0000007C010000080000000000000000000000000083010000636F72652E786D6C504B01021400140006080800CC70623B55019EA25F0000007C000000070000000000000000000000000095020000636E782E786D6C504B0102
310
1400140006080800CC70623BA24EB22D72010000D40300000C00000000000000000000000000190300006662782F636F72652E786D6C504B01021400140006080800CC70623B408A7D3B7C0000009D0000000B00000000000000000000000000B50400006662782F636E782E786D6C504B01021400140006080800CC70623B
310
449FB9BD290100001202000031000000000000000000000000005A0500006662782F36394639363044362D344446342D343946362D394244322D3234314243333846323333332F636F72652E786D6C504B01021400140006080800CC70623BAD7543B64E010000330300003000000000000000000000000000D20600006662
310
782F36394639363044362D344446342D343946362D394244322D3234314243333846323333332F636E782E786D6C504B01021400140006080800CC70623B8D05915C650500003B10000034000000000000000000000000006E0800006662782F36394639363044362D344446342D343946362D394244322D32343142433338
310
46323333332F6F626A656374732E786D6C504B01021400140006080000CC70623B0000000000000000000000003500000000000000000000000000250E00006662782F36394639363044362D344446342D343946362D394244322D3234314243333846323333332F76657274696365732E62696E504B010214001400060808
310
00CC70623BF270F13306000000040000003600000000000000000000000000780E00006662782F36394639363044362D344446342D343946362D394244322D3234314243333846323333332F747269616E676C65732E62696E504B01021400140006080000CC70623B00000000000000000000000037000000000000000000
310
00000000D20E00006662782F36394639363044362D344446342D343946362D394244322D3234314243333846323333332F617474726962757465732E62696E504B01021400140006080800CC70623B08DA0BD190000000410100003600000000000000000000000000270F00006662782F36394639363044362D344446342D
310
343946362D394244322D3234314243333846323333332F6469726563746F72792E786D6C504B01021400140006080800CC70623BCA768048FE000000A00100003B000000000000000000000000000B1000006662782F36394639363044362D344446342D343946362D394244322D3234314243333846323333332F7265736F
310
75726365732F636F72652E786D6C504B0506000000000E000E0080040000621100000000
  0
XRECORD
  5
176
102
{ACAD_REACTORS
330
173
102
}
330
173
100
AcDbXrecord
280
     1
270
     1
271
     1
  0
XRECORD
  5
177
102
{ACAD_REACTORS
330
173
102
}
330
173
100
AcDbXrecord
280
     1
270
     1
271
     1
  0
XRECORD
  5
9A42
102
{ACAD_REACTORS
330
22E0
102
}
330
22E0
100
AcDbXrecord
280
     1
102
DISPLAYNAME
  1
Imperial24
102
FLAGS
 90
        0
  0
XRECORD
  5
9A40
102
{ACAD_REACTORS
330
234
102
}
330
234
100
AcDbXrecord
280
     1
102
DISPLAYNAME
  1
Metric50
102
FLAGS
 90
        0
  0
CELLSTYLEMAP
  5
9A3F
102
{ACAD_REACTORS
330
162
102
}
330
162
100
AcDbCellStyleMap
 90
        3
300
CELLSTYLE
  1
TABLEFORMAT_BEGIN
 90
        5
170
     1
 91
        0
 92
    32768
 62
   257
 93
        1
300
CONTENTFORMAT
  1
CONTENTFORMAT_BEGIN
 90
        0
 91
        0
 92
      512
 93
        0
300

 40
0.0
140
1.0
 94
        5
 62
     0
340
11
144
6.0
309
CONTENTFORMAT_END
171
     1
301
MARGIN
  1
CELLMARGIN_BEGIN
 40
1.5
 40
1.5
 40
1.5
 40
1.5
 40
4.5
 40
4.5
309
CELLMARGIN_END
 94
        6
 95
        1
302
GRIDFORMAT
  1
GRIDFORMAT_BEGIN
 90
        0
 91
        1
 62
     0
 92
       -2
340
14
 93
        0
 40
1.125
309
GRIDFORMAT_END
 95
        2
302
GRIDFORMAT
  1
GRIDFORMAT_BEGIN
 90
        0
 91
        1
 62
     0
 92
       -2
340
14
 93
        0
 40
1.125
309
GRIDFORMAT_END
 95
        4
302
GRIDFORMAT
  1
GRIDFORMAT_BEGIN
 90
        0
 91
        1
 62
     0
 92
       -2
340
14
 93
        0
 40
1.125
309
GRIDFORMAT_END
 95
        8
302
GRIDFORMAT
  1
GRIDFORMAT_BEGIN
 90
        0
 91
        1
 62
     0
 92
       -2
340
14
 93
        0
 40
1.125
309
GRIDFORMAT_END
 95
       16
302
GRIDFORMAT
  1
GRIDFORMAT_BEGIN
 90
        0
 91
        1
 62
     0
 92
       -2
340
14
 93
        0
 40
1.125
309
GRIDFORMAT_END
 95
       32
302
GRIDFORMAT
  1
GRIDFORMAT_BEGIN
 90
        0
 91
        1
 62
     0
 92
       -2
340
14
 93
        0
 40
1.125
309
GRIDFORMAT_END
309
TABLEFORMAT_END
  1
CELLSTYLE_BEGIN
 90
        1
 91
        1
300
_TITLE
309
CELLSTYLE_END
300
CELLSTYLE
  1
TABLEFORMAT_BEGIN
 90
        5
170
     1
 91
        0
 92
        0
 62
   257
 93
        1
300
CONTENTFORMAT
  1
CONTENTFORMAT_BEGIN
 90
        0
 91
        0
 92
      512
 93
        0
300

 40
0.0
140
1.0
 94
        5
 62
     0
340
11
144
4.5
309
CONTENTFORMAT_END
171
     1
301
MARGIN
  1
CELLMARGIN_BEGIN
 40
1.5
 40
1.5
 40
1.5
 40
1.5
 40
4.5
 40
4.5
309
CELLMARGIN_END
 94
        6
 95
        1
302
GRIDFORMAT
  1
GRIDFORMAT_BEGIN
 90
        0
 91
        1
 62
     0
 92
       -2
340
14
 93
        0
 40
1.125
309
GRIDFORMAT_END
 95
        2
302
GRIDFORMAT
  1
GRIDFORMAT_BEGIN
 90
        0
 91
        1
 62
     0
 92
       -2
340
14
 93
        0
 40
1.125
309
GRIDFORMAT_END
 95
        4
302
GRIDFORMAT
  1
GRIDFORMAT_BEGIN
 90
        0
 91
        1
 62
     0
 92
       -2
340
14
 93
        0
 40
1.125
309
GRIDFORMAT_END
 95
        8
302
GRIDFORMAT
  1
GRIDFORMAT_BEGIN
 90
        0
 91
        1
 62
     0
 92
       -2
340
14
 93
        0
 40
1.125
309
GRIDFORMAT_END
 95
       16
302
GRIDFORMAT
  1
GRIDFORMAT_BEGIN
 90
        0
 91
        1
 62
     0
 92
       -2
340
14
 93
        0
 40
1.125
309
GRIDFORMAT_END
 95
       32
302
GRIDFORMAT
  1
GRIDFORMAT_BEGIN
 90
        0
 91
        1
 62
     0
 92
       -2
340
14
 93
        0
 40
1.125
309
GRIDFORMAT_END
309
TABLEFORMAT_END
  1
CELLSTYLE_BEGIN
 90
        2
 91
        1
300
_HEADER
309
CELLSTYLE_END
300
CELLSTYLE
  1
TABLEFORMAT_BEGIN
 90
        5
170
     1
 91
        0
 92
        0
 62
   257
 93
        1
300
CONTENTFORMAT
  1
CONTENTFORMAT_BEGIN
 90
        0
 91
        0
 92
      512
 93
        0
300

 40
0.0
140
1.0
 94
        2
 62
     0
340
11
144
4.5
309
CONTENTFORMAT_END
171
     1
301
MARGIN
  1
CELLMARGIN_BEGIN
 40
1.5
 40
1.5
 40
1.5
 40
1.5
 40
4.5
 40
4.5
309
CELLMARGIN_END
 94
        6
 95
        1
302
GRIDFORMAT
  1
GRIDFORMAT_BEGIN
 90
        0
 91
        1
 62
     0
 92
       -2
340
14
 93
        0
 40
1.125
309
GRIDFORMAT_END
 95
        2
302
GRIDFORMAT
  1
GRIDFORMAT_BEGIN
 90
        0
 91
        1
 62
     0
 92
       -2
340
14
 93
        0
 40
1.125
309
GRIDFORMAT_END
 95
        4
302
GRIDFORMAT
  1
GRIDFORMAT_BEGIN
 90
        0
 91
        1
 62
     0
 92
       -2
340
14
 93
        0
 40
1.125
309
GRIDFORMAT_END
 95
        8
302
GRIDFORMAT
  1
GRIDFORMAT_BEGIN
 90
        0
 91
        1
 62
     0
 92
       -2
340
14
 93
        0
 40
1.125
309
GRIDFORMAT_END
 95
       16
302
GRIDFORMAT
  1
GRIDFORMAT_BEGIN
 90
        0
 91
        1
 62
     0
 92
       -2
340
14
 93
        0
 40
1.125
309
GRIDFORMAT_END
 95
       32
302
GRIDFORMAT
  1
GRIDFORMAT_BEGIN
 90
        0
 91
        1
 62
     0
 92
       -2
340
14
 93
        0
 40
1.125
309
GRIDFORMAT_END
309
TABLEFORMAT_END
  1
CELLSTYLE_BEGIN
 90
        3
 91
        2
300
_DATA
309
CELLSTYLE_END
  0
ENDSEC
  0
SECTION
  2
ACDSDATA
 70
     2
 71
     8
  0
ACDSSCHEMA
 90
        0
  1
AcDb_Thumbnail_Schema
  2
AcDbDs::ID
280
    10
 91
        8
  2
Thumbnail_Data
280
    15
 91
        0
101
ACDSRECORD
 95
        0
 90
        1
  2
AcDbDs::TreatedAsObjectData
280
     1
291
     1
101
ACDSRECORD
 95
        0
 90
        2
  2
AcDbDs::Legacy
280
     1
291
     1
101
ACDSRECORD
  1
AcDbDs::ID
 90
        3
  2
AcDs:Indexable
280
     1
291
     1
101
ACDSRECORD
  1
AcDbDs::ID
 90
        4
  2
AcDbDs::HandleAttribute
280
     7
282
     1
  0
ACDSSCHEMA
 90
        1
  1
AcDbDs::TreatedAsObjectDataSchema
  2
AcDbDs::TreatedAsObjectData
280
     1
 91
        0
  0
ACDSSCHEMA
 90
        2
  1
AcDbDs::LegacySchema
  2
AcDbDs::Legacy
280
     1
 91
        0
  0
ACDSSCHEMA
 90
        3
  1
AcDbDs::IndexedPropertySchema
  2
AcDs:Indexable
280
     1
 91
        0
  0
ACDSSCHEMA
 90
        4
  1
AcDbDs::HandleAttributeSchema
  2
AcDbDs::HandleAttribute
280
     7
 91
        1
284
     1
  0
ACDSRECORD
 90
        0
  2
AcDbDs::ID
280
    10
320
659B
  2
Thumbnail_Data
280
    15
 94
     2938
310
89504E470D0A1A0A0000000D49484452000000B5000001000803000000C2FDC7E900000300504C5445FFFFFF000000C8C8C80000000000000000000000000000000000000000000000000000330000660000990000CC0000FF0033000033330033660033990033CC0033FF0066000066330066660066990066CC0066FF0099
310
000099330099660099990099CC0099FF00CC0000CC3300CC6600CC9900CCCC00CCFF00FF0000FF3300FF6600FF9900FFCC00FFFF3300003300333300663300993300CC3300FF3333003333333333663333993333CC3333FF3366003366333366663366993366CC3366FF3399003399333399663399993399CC3399FF33CC00
310
33CC3333CC6633CC9933CCCC33CCFF33FF0033FF3333FF6633FF9933FFCC33FFFF6600006600336600666600996600CC6600FF6633006633336633666633996633CC6633FF6666006666336666666666996666CC6666FF6699006699336699666699996699CC6699FF66CC0066CC3366CC6666CC9966CCCC66CCFF66FF0066
310
FF3366FF6666FF9966FFCC66FFFF9900009900339900669900999900CC9900FF9933009933339933669933999933CC9933FF9966009966339966669966999966CC9966FF9999009999339999669999999999CC9999FF99CC0099CC3399CC6699CC9999CCCC99CCFF99FF0099FF3399FF6699FF9999FFCC99FFFFCC0000CC00
310
33CC0066CC0099CC00CCCC00FFCC3300CC3333CC3366CC3399CC33CCCC33FFCC6600CC6633CC6666CC6699CC66CCCC66FFCC9900CC9933CC9966CC9999CC99CCCC99FFCCCC00CCCC33CCCC66CCCC99CCCCCCCCCCFFCCFF00CCFF33CCFF66CCFF99CCFFCCCCFFFFFF0000FF0033FF0066FF0099FF00CCFF00FFFF3300FF3333
310
FF3366FF3399FF33CCFF33FFFF6600FF6633FF6666FF6699FF66CCFF66FFFF9900FF9933FF9966FF9999FF99CCFF99FFFFCC00FFCC33FFCC66FFCC99FFCCCCFFCCFFFFFF00FFFF33FFFF66FFFF99FFFFCCFFFFFF0000000D0D0D1A1A1A2828283535354343435050505D5D5D6B6B6B787878868686939393A1A1A1AEAEAEBB
310
BBBBC9C9C9D6D6D6E4E4E4F1F1F1FFFFFF000000000000000000000000000000000000000000000000000000000000B0E2D235000008354944415478DAED9D3D76DB3810C7F972816C836BB852E563388D7D1157D616DA5B300DD56C52ADBA94A9E22AA9A2AD54CA9AF7761214595BDB2FF1450224485194180C2220B10832
310
94FDCBF8CFC160F0A1EC7584E57BF6FA5B74455067D195449DA81375A2BE5CEA789A45873A162B27EA449DA88F280040961A465243486A185D88DA7A9AF725EAB8A817D7703DAEC02220351F5D12F585502F6CB132E693B075B5AE2E4E72DE27536719CFCC1763AACA9D83B8AACFCAAABEB858A8466A9C3F999ABAAB61D4D4
310
194D6A0EA0CF209355AE300353DB4F1863CD67AEB46B5DABAAE261A46C6BA1067506BA2A2E72E20A31D400A6CAD581B442B87EFC1A55E20A39E4F912F5AF4F6D7B388FAEDDAB759580AD557B07108DAD1963A69966A21E1B35478675FB178142CA2F44944D883C3C59A5C7D626440D468D5A1320AB4D6A5F2146CDB18FBA7A
310
67586AA952E45638579FB5745D3DB58C82AE915BB6AECF1A3EA47C54C1847E04A8311B420DF68140DB584B02785B225A21E0741308D95A3E5EBC7E366D5B837B0B3D6A5721FA223D6AC3E9A336BDF2AAD34B46D7BD9E0FEC3E4DD59B21D1A2BBAD8C9B0FD1BF0779601923D42B40B45B741FB56423436D8480460ED8951091
310
5E3063B47ABB280A602BBE26696BBBDF58B57F6D1FA2B27B54A8AD604E256DD8C062E5807F3E75D56C378EC764DD03526B4D5C0275705D57015E0CBAB67C48DDA008CBB303EF24E1F9AC284353739EC93FFE03116AD3CB8AC3D6DC9FDA2B85EEB3715521D53656071685AEDBD4A475DDE18E93429242A2B675D27514BA0E9D
310
091EA790E059F7510AA1489D3C5FF27CA9450FA310680CEBAAEE2C758580FCB26D0DBD3C54A8799D8854D45C7523555F92726F171AB6CE3AF31D44746DBD6A5D4BABCA8151D2BAF6D83A838EB51C3432C152C0A5B1AD9C98B429B08EEC70D08C5923CD070DAC0C98C196630964F27C4AA975BECC28B71A2190B325C56C175E
310
1D2A5D87A2D6984A21F673078A5D793EAC5C1E12F17C3DC56801AD6B48A295693935EB20F4CEE438BB751392F07CBDB696A308E85C440AAD4C475427DCA0F23099D4B2F5AF485AD7DA51376D2D4FE9EADA444DDAD4CA0DEA73CA0AD17E1BDD151CF294AE42CC6B5B21405F2171793E68B42C7ECF376635ECF4BA56F107774D
310
CD03530FB2B5656D6CC6D761A807E85A464D65B887D88CF9682BC4F6DBC4633E209C7B1AA8106ABDDD186D7D84AEB3A4EB4BD475524852C8485BF7B7D45475AD1251B1E99AB2ADF1A4DD2182D91AFD63606E36BB75C0D00AC111D4187CF59A47237AB91D8817AF3C30FC9C056CD9DAA6F6D91A29CC59C023A991C65A523C8A
310
1AC9AD4DF2AC4A6A6B9ADCDAA4C33E44DF99A8C78FEDE2408520A9F5E8190EB23552DBD3020750D73E92CC5C1C3C486DFDC7E8CCD6C23E5D8B31023BE42333EF095BB6F68C6C984267B656A900547953436D2B04EDE58384E6F3096075F4783E573FA41462EC8920A75830AB1FE0AA8796AE51EF4485A046A37987E669793E
310
04AE667D94D884A91DE12A47A1CE404DD101F036F881A955686F9A90F24437368A5AAF366EB79BA1A9CD7E6AA8A5A1C580D61A694F8C129ADAF838AC26AA626313035F3C18DED62AD1846E0C5DDBDA1B7B27EAD1D4D663A81B6F34CB629153A436EA75423A3427A527F4A7F902CFF8D42665209EC72A7B60F482009CAEAEC5
310
7432B91F87AB1004A2D4D52E7722364555ECA8842E3580DA1F091A912976E6720829C4ED29A28A5B49DABADE73B2316B9C3154B35429EE58602D46B2179F587894F75950D4DAD6D6EE2C1DE308447692B6A80D7CCFB80C215D6BEAAA8D6F5023D2CBE2C89E0B589ECE5D62A5BAEF55434FA58F2EB7B1D0ABA8DAB6C666573D
310
026A446AF96BAB883C58F96AEADECD55698C7074E62317FE5499390B4AAD2DBBB02AAA7453871F03B37E2274A6776852ABC7CE9D57D14CEFB4841D94BAEB5329FA6C1D7C9FE0D314128EDA31FB2085D49E2FA0ADBBCAA2695D3A9EAFF30782AD10273B49A06D1C94D82617870C1DB031D11E8D986FA0ADA5639483634061C7
310
DDC1D4BAAB0E2476DC1DA81011FC990E03819DA48FB0B5B433276FEB26B51E08F955A88110B5F3A176606F296DAE05FB3CB0819D9C6BB04380E09FBD3686FA3A519F971ADC0F7674A8B5AC2952BBEECC5A1168626AFAD41E7F118BADDD6A0CD4BE3E5004D4AD96842AF5941F6E1C482154A94FBF233C75DBB624A9A7FDD4EE
310
A4909F5712753CD4721D8FA93DB91FBAE6DCD2F9CF81A83BCA815B12F5090A39E596F43426EA44FD8B50475362B47596A813F52550FFD72EC9D69351EFF79BCDE679B37991AF7B71697BB8B46FF2BD6D425BAFDF2D979F97CBE563F9E7DD7A1F07F57E5DFC59E49FF2E2535196752CB65E95B0F9C3EDFD435E14CB55340AC9
310
8BFBBBD96E77352FF2686C5D2AE41E764FBBD96E76532C85AEAFCE5ED02CF61870EF60EADBDD6EF7DBAE24BFCDA7B1754D7D3E5DE7BBA7993035CC76C56A127F7B7EEAFD6A3E7B9A5DDDEE84B41FD69150675F1FAE666F6EE7777737B387B743FDF501F974510F2D5BB7E2D3F5327FB89FDFBD293DDF701F322975FD2DB6DB
310
1ECFF7B158DEDD8A433EB1ADAF06BE696B0E9DB65E7D2C3EE6C57CBE2C8F53DBFA6CD4D95AD87839FFE36D916BEA099FC6A3A8B77DBA16D298FFFECF5C0423522113520F6C65B6E6A5DFD6C5DDCDBC3C3E4EECAF8FF221F5EFC0175FBF7F2C1E73E140968FEF370775DDF3E077BEE5FC9EAFE4DEAC575FFEFAB2FAFAB7EA14
310
4440BD7F79D9EFCB97F2A0FE4641FDF2EAC7BF3F6479FE200F93528F0C617DB67E792EFFBEFAB01795E797499FC673514F5ED02AE7A2C67639D4369E427DA6BECCF9A8BBEEF5DAFAE0B7774FE9536F2952EB86BA118AD6BE8E2A75D64B9D32C189FA42A9A31CB98BAB24EA449DA813F565527F8BAE08EA08CBF7FF0158229E
310
CF84D80EC00000000049454E44AE426082
  0
ACDSRECORD
 90
        0
  2
AcDbDs::ID
280
    10
320
22
  2
Thumbnail_Data
280
    15
 94
     3695
310
89504E470D0A1A0A0000000D49484452000001000000007508030000009634CF9200000300504C5445FFFFFF000000C8C8C80000000000000000000000000000000000000000000000000000330000660000990000CC0000FF0033000033330033660033990033CC0033FF0066000066330066660066990066CC0066FF0099
310
000099330099660099990099CC0099FF00CC0000CC3300CC6600CC9900CCCC00CCFF00FF0000FF3300FF6600FF9900FFCC00FFFF3300003300333300663300993300CC3300FF3333003333333333663333993333CC3333FF3366003366333366663366993366CC3366FF3399003399333399663399993399CC3399FF33CC00
310
33CC3333CC6633CC9933CCCC33CCFF33FF0033FF3333FF6633FF9933FFCC33FFFF6600006600336600666600996600CC6600FF6633006633336633666633996633CC6633FF6666006666336666666666996666CC6666FF6699006699336699666699996699CC6699FF66CC0066CC3366CC6666CC9966CCCC66CCFF66FF0066
310
FF3366FF6666FF9966FFCC66FFFF9900009900339900669900999900CC9900FF9933009933339933669933999933CC9933FF9966009966339966669966999966CC9966FF9999009999339999669999999999CC9999FF99CC0099CC3399CC6699CC9999CCCC99CCFF99FF0099FF3399FF6699FF9999FFCC99FFFFCC0000CC00
310
33CC0066CC0099CC00CCCC00FFCC3300CC3333CC3366CC3399CC33CCCC33FFCC6600CC6633CC6666CC6699CC66CCCC66FFCC9900CC9933CC9966CC9999CC99CCCC99FFCCCC00CCCC33CCCC66CCCC99CCCCCCCCCCFFCCFF00CCFF33CCFF66CCFF99CCFFCCCCFFFFFF0000FF0033FF0066FF0099FF00CCFF00FFFF3300FF3333
310
FF3366FF3399FF33CCFF33FFFF6600FF6633FF6666FF6699FF66CCFF66FFFF9900FF9933FF9966FF9999FF99CCFF99FFFFCC00FFCC33FFCC66FFCC99FFCCCCFFCCFFFFFF00FFFF33FFFF66FFFF99FFFFCCFFFFFF0000000D0D0D1A1A1A2828283535354343435050505D5D5D6B6B6B787878868686939393A1A1A1AEAEAEBB
310
BBBBC9C9C9D6D6D6E4E4E4F1F1F1FFFFFF000000000000000000000000000000000000000000000000000000000000B0E2D235000001B74944415478DAEDDD4D8AC3300C86E15CC297C9F17CB0398C8D17021D6264BB4D42BB982E5286E47B55FA47A1C40F92ADC4852E0BF1B5F8393F2E31EE322300CE27BD06C0F3110000
310
00D004509F04BF78B800000000000000000000000000000000000000000000000000000000000000000000001702286F2FCBFB273706E83BE7C791C7FB712BDBBEBA4006941D60BC9B10A52C3A00E515E0F0AC30079467FA17C112601904000000000000000000000000000050076887D00458B768F94F831B02E4754D7DF0
310
9F25C11D01DC93FB187C96CC801423F78E90922640366BB5D6141049B304CC9BCD1AD0CD00698014C9DFEF51019A25308AFF11AACBE058082344E700007600D1128846683643AAAB40244000985952CE003337E139209AC13068CA001E25209D01E2CBA03280F91EA26783EEB5F60C30D546C81E25A03B09CE162816424980
310
DE038D2E40761588D1F73650F75CA09F058CAB62A200E36270B2A67B45288F4D11936D85E7E5E03E070803B47E2EA4DA086DCD80EABEC088B93DBCEA66405B3FFC85C46D011A00DA00FFF88D00000000000000000000000000000000000000000000000000000070D6E18AFEE3E4B5E2179B8AF30BB7ABF21A000000004945
310
4E44AE426082EBDD5B003F0EE6025873DAB7418083DD7B07A0B5E34ECDEB00BB6FA512F848F87B1C000000300FF00559576BED27DDECC10000000049454E44AE42608244AE426082FE432853001CCC80715BE1BAD64AD575AD0CB57DE86904FCD77B052D01FAE76BC36EB7FB56DBEDEB9DF64A00510DBABE33C37E7F9A55C0
310
1901D3B16DE3CA2DB16D2FA4FAFB6BC0770167A65F798AF68986BEBFEA8680FDF493EEA6EA790101372BA0D3EEF708B8A955C0D51F462000027C15E0FB3F4589EF19000110E0B1808F0D01000000000000000000000000000000000000000000805BE637198C5EF717517D810000000049454E44AE42608280000420000108
310
400002108000042000010840000210800004200001084000021080000420C01F03B83D13C77EEBE478CF7758180C0663E6F80650DD99FFE992B15F0000000049454E44AE426082F9A703B0F539C96DEEAD49E90F0078B83BE310F8E2C301000000000000000000000000000000000000000000000000000000000000000000
310
0000000000000000000000EC00B87CCBD4FEF0073EC07EB67F339B0B9C8253D1650000000049454E44AE4260825DA904610A406125C84B21BEE5674460B45FA8B4124CEB21CC07BD02E25EB2EA4AB0E4FA0A408C01A927A2BA126CD2019CB3404905E2D3E054013B1B9D1EC8E5510B80FC41BA02EC1400CFFAEEF2A9017C75
310
3A41C61FAC26B72BECA73E9000E47E8073ED5E39F0E7298807F04901C65727E760F0F0907E0083E766E343C4825D20CD9E9F77BCE791BF7E8A16F6C3EE121560F073923C2960FA2E2BA0D34D5523D091A2FDF06201ECFBF11D26FBA3B4E0C31B70FF17C8FCFC806F0460A40368353C0670D6B97800571B9FD7EF3FE6F9AF0B
310
FC0880C77EC1EF7581BBF62A40340059F60400FC4F44FEE19BBF2403C87FFE57639FE0DCFD6E110046F66F3FF02AE00D822F8017C00BE005F002F8BFF61704DAC6EF5724558A0000000049454E44AE426082C8AAF0763E298820C7663700D04C03D4FC80735FA05203EE9A2ABB39F5F96DCB2D5E6E05676C7E2FE07218BBF7
310
EDF29BAB89C5001873BE66ACD21B07E0EAE1C9C66EB381EDFC670BCFDAC0CFA85243C9144C6D6E2180651400E9C09D06A015610E00500A002C00E806C008E4FB40EE04CC59AD86AAAF60B2C6FBA524FB743DDF850F881FF7FDE7ADB94F4B008D863E1540241EC7EE8A184E0F0D067E009E0100CA01C01500A0863E1340C92B
310
45D3D91F99EE5D0FFB9C606F00BDA5ED57F80522211827B80DDECA0000000049454E44AE426082BB01740544660760FCBF641204F87700C0D7DAB6005C7D81C22200C0BD3CA7AE021F0080E4A536130348B7704E00A39DA156D1E1B05768AC2701312476F6454A649DE08A2A60105C7993D44F0008F9A4514552F301D099E3
310
CE3E3A12B76EA80ACA44E3B400CEF4D1485BEE01C4EAF3B925E0B88F0EA9DF255C55566CB0B804F4BC5011CBC7CC3309F8170030D7093707402A01B82480BE576A628983CE50321F3912B09004F4BC51128B579152550B6C4D00529E0580648F086C5509A0B71A1250E9F105301AC0206F7048C34E37F103007FDCC3FAA6A4
310
AE078B0000000049454E44AE42608204941542EAC209430780AEF77B8680DAD3C0507344BB466D262A4CCA021BB70EE846815C1B9CAC92484AFF9C8B003ED011B3A9D6CDDD50D7E4C190005D17BC0E005D16888E22B1871671E800CDB6BB5D2F785E882708B85750368BA5191C71352A2BA67049FA0000FAB20027008EDA08
310
0008180D409F754433BC104C7F621270134930E6101D6EC758BED60A6975C5A4C2B90A0ED1959EDB0E00A61DE00400B80000C400C05A286842308BE19CCFFB455EC8A5C3106735FD2A96FFE0328DEFC040E65B476E0F315E0815B880E829AD28FD5ABECF80A1F82DBD41BD8DD675F6C21EBBBAA614F4F34FCF1A80935E1275
310
333A5D6FF08DD79D37127D22EE8E7ED08900439BED804D01685B6B1FB285B657340F7557213D5BEE0F694D5F525A3D57E97A79A0751A33539766CFECF5324BEBFA99EE960FEC9A2CC6AC04159B099FAB6C9DEE6B5AEF5F689D71C7A8DECFCE15813B0C331AC3EC809ED123E33D0D1902BB1AC119C5CB18A60794E1F819ED2B
310
1CEF43E605CF50552176C9F2AF254DFF8999E3C459CF025C9F290007841EEF9E16688D0EA8AAF9D6485AA3E714B1771C3F2D7E5DA33D7AA9B3431ADED214D754007088539AA22AC6E88555D8E0C018CDCE7408EC43CC3989432601B734C6AC976BBC7C62ADB7AC35669CAD517558C47B54D3FDAF35034C48C0336552811ED0
310
7A875ED8B8408F283E4F002A8C1EB9D0578B3243EB94F57D384BD13AC40C8987E513668E316BCFF043865919735EF769B8BB7ACCB87CC4E8F7AC5C1E6629C3EBE13C017889774CEDEDD7777B3CC321DED7B74FE8AF347BBCAD9FD2789DC6748FAB678CE3B4CA30C64CDF89ADC535E318EFE27D7DC0192E99EE48EBDD990240
310
9985CBCCDD9A1FD4DCDCE5355ACB56B14D9C9F1267EAFF522A8D63791270C7885D7B5B89CFDF9DB931D8CEEDC614AFB5A82683D60ACED80E705876FAAD13342351BBB98276AF057AEE026094BA102807C6ED34462C98FC7E1D3EB79F437B7C0487DFDC77A7156B47F0AB3C653BC0A3EFC5B5A2BA66B448CD143976D41AFB45
310
9C6E2FEDF301E98083A40504FF3600665247E5436D546269C48A871959203BDCFA77C6C8E87087B22FD28C902B617F235EA886818D78B002801AD8B382A4A67810935D2700F46B7BFE6AC49B102D26AC258AD4CDE34AB0FE9500001300F25A00BE3AA9390F7DA7AF9D1830729A7A8FAAC3C14A0D28170824558D01AC2C90AE
310
03DE1F004D02ACF100D4CDE4C61820BADEB325A00540BF400F995B5920A0EBCDF707801812E0CC87EA89E216002BA4EF02C0BCC04C2E10F744F04100000D008D7332080018004047A8CBA4E8B24F9CEB2188352EDE090060A581ECE502B698D8635F5F57001CB960473E99987FC3D44D1F80C177651692D18DD304E07BE2FF
310
FB770C3C79F2E4C993274F9E3CFD185496EAD33EEC39EB6A608507C003E001F00078003C001E806F1C1E3277A39DFCAAF702C0B92FD2FE0DF6CD808DDD81F67D740778EFCD499B49D2A6E5FD0050F634EA777DD792D456F2B60DE8133BCB37B2F3ED9BD85BF76AEDBEE81D01B0DFEDBC90BEE753DFD661EEF41C07808E77C7
310
AD9A84001F0680DE032600E66DBF4D9937DAC06B2440DDA0637FD5C70040D4DB4B771DA3E5CD88EB6775BFEEAD00909EAFFA1000ACBD8244BFCDAC769B55D0A3F4AC8D52AF04C0DABC65FD57076F0778003C001E000F8007C003F02303F00FE5691FF69C7535B0E2FCC8E7053C79F2E4C993A71F97FE0FDD7D5BAF806EF9BC
310
0000000049454E44AE426082
  0
ACDSRECORD
 90
        0
  2
AcDbDs::ID
280
    10
320
D7
  2
Thumbnail_Data
280
    15
 94
     1439
310
89504E470D0A1A0A0000000D4948445200000100000000B408030000004C80028300000300504C5445FFFFFF000000C8C8C80000000000000000000000000000000000000000000000000000330000660000990000CC0000FF0033000033330033660033990033CC0033FF0066000066330066660066990066CC0066FF0099
310
000099330099660099990099CC0099FF00CC0000CC3300CC6600CC9900CCCC00CCFF00FF0000FF3300FF6600FF9900FFCC00FFFF3300003300333300663300993300CC3300FF3333003333333333663333993333CC3333FF3366003366333366663366993366CC3366FF3399003399333399663399993399CC3399FF33CC00
310
33CC3333CC6633CC9933CCCC33CCFF33FF0033FF3333FF6633FF9933FFCC33FFFF6600006600336600666600996600CC6600FF6633006633336633666633996633CC6633FF6666006666336666666666996666CC6666FF6699006699336699666699996699CC6699FF66CC0066CC3366CC6666CC9966CCCC66CCFF66FF0066
310
FF3366FF6666FF9966FFCC66FFFF9900009900339900669900999900CC9900FF9933009933339933669933999933CC9933FF9966009966339966669966999966CC9966FF9999009999339999669999999999CC9999FF99CC0099CC3399CC6699CC9999CCCC99CCFF99FF0099FF3399FF6699FF9999FFCC99FFFFCC0000CC00
310
33CC0066CC0099CC00CCCC00FFCC3300CC3333CC3366CC3399CC33CCCC33FFCC6600CC6633CC6666CC6699CC66CCCC66FFCC9900CC9933CC9966CC9999CC99CCCC99FFCCCC00CCCC33CCCC66CCCC99CCCCCCCCCCFFCCFF00CCFF33CCFF66CCFF99CCFFCCCCFFFFFF0000FF0033FF0066FF0099FF00CCFF00FFFF3300FF3333
310
FF3366FF3399FF33CCFF33FFFF6600FF6633FF6666FF6699FF66CCFF66FFFF9900FF9933FF9966FF9999FF99CCFF99FFFFCC00FFCC33FFCC66FFCC99FFCCCCFFCCFFFFFF00FFFF33FFFF66FFFF99FFFFCCFFFFFF0000000D0D0D1A1A1A2828283535354343435050505D5D5D6B6B6B787878868686939393A1A1A1AEAEAEBB
310
BBBBC9C9C9D6D6D6E4E4E4F1F1F1FFFFFF000000000000000000000000000000000000000000000000000000000000B0E2D2350000025A4944415478DAEDDD3192DA30140050DD80C3D1E4302953ED115CB117A1DA53A44A641AA7867E1708C9829191D79891F1FBCC52C86BA3797CA12F3183430C738EF83B009837400400
310
0040ABED18AD865B076E9E10C73A21BFAB5900CFFC86030000000000000A2100000000000000401F8038B518B0219257434DADE61B5A0A0300000000000000000000305780DC85C7D88B9A418BA19132208E982A5FDDB507F07580F0C40043364416E9B80058DC310A02481F6A01DCEFFD0700000000008F06884F0C100100
310
000000000000000000000000000000364400000000000000000A2100000000000000000000000000003077001B220000000000000080D90228850100000000000000000000000000C00C016C8800000000000000F30550090200000000000000000000F0B9F5297E58590600780CC0EE14B30508EBD5C763BB0B036F0937D5
310
EF0576DBD57AF37D551EC0901DA1A6599E476706ACEA4DBDD9EE9619D134AD4B2F0B05E83104FEBCD475FD2BEB33E000308D0C68BFC6218BAF67C0B7B7AA7B087401EC0FEFFF0A03B8E87C174055FDA8DE7A00B4DAE3E151F667403C76F37A06AC5F5EF7B340EE10485CBB2C80D06308FCAC3EE6C1709E0117397E6ADD0384
310
490C81D4B4D555086502A4A6C492BE17689273781BA03945DE006892D72EA912BCD2C9BF5DED0248953DFFDA5200C7E7A2009AD83AF56E00FFAFF9F91FAC066D882CDC6CAD1C8062EE375860063C340000000000000000230284FE85508971EF0D91270D00000000000000409935DF23CA48000000000000E0FACA3FB91590
310
3A70F38438D609F95D5508010000000080738099C73B55D119216D027E380000000049454E44AE426082
  0
ENDSEC
  0
EOF
