  0
SECTION
  2
HEADER
  9
$ACADVER
  1
AC1027
  9
$ACADMAINTVER
 70
    83
  9
$DWGCODEPAGE
  3
ANSI_1252
  9
$LASTSAVEDBY
  1
usuario
  9
$REQUIREDVERSIONS
160
                 0
  9
$INSBASE
 10
0.0
 20
0.0
 30
0.0
  9
$EXTMIN
 10
2373.675727232999
 20
847.9093292968554
 30
0.0
  9
$EXTMAX
 10
2422.042608334807
 20
914.832605090417
 30
0.0
  9
$LIMMIN
 10
0.0
 20
0.0
  9
$LIMMAX
 10
420.0
 20
297.0
  9
$ORTHOMODE
 70
     1
  9
$REGENMODE
 70
     1
  9
$FILLMODE
 70
     1
  9
$QTEXTMODE
 70
     0
  9
$MIRRTEXT
 70
     0
  9
$LTSCALE
 40
1.0
  9
$ATTMODE
 70
     1
  9
$TEXTSIZE
 40
2.5
  9
$TRACEWID
 40
1.0
  9
$TEXTSTYLE
  7
Standard
  9
$CLAYER
  8
-
  9
$CELTYPE
  6
ByLayer
  9
$CECOLOR
 62
   256
  9
$CELTSCALE
 40
1.0
  9
$DISPSILH
 70
     0
  9
$DIMSCALE
 40
1.0
  9
$DIMASZ
 40
0.1
  9
$DIMEXO
 40
0.1
  9
$DIMDLI
 40
3.75
  9
$DIMRND
 40
0.0
  9
$DIMDLE
 40
0.0
  9
$DIMEXE
 40
0.1
  9
$DIMTP
 40
0.0
  9
$DIMTM
 40
0.0
  9
$DIMTXT
 40
0.15
  9
$DIMCEN
 40
2.5
  9
$DIMTSZ
 40
0.0
  9
$DIMTOL
 70
     0
  9
$DIMLIM
 70
     0
  9
$DIMTIH
 70
     0
  9
$DIMTOH
 70
     0
  9
$DIMSE1
 70
     0
  9
$DIMSE2
 70
     0
  9
$DIMTAD
 70
     1
  9
$DIMZIN
 70
     1
  9
$DIMBLK
  1
ArchTick
  9
$DIMASO
 70
     1
  9
$DIMSHO
 70
     1
  9
$DIMPOST
  1

  9
$DIMAPOST
  1

  9
$DIMALT
 70
     0
  9
$DIMALTD
 70
     3
  9
$DIMALTF
 40
0.03937007874016
  9
$DIMLFAC
 40
1.0
  9
$DIMTOFL
 70
     1
  9
$DIMTVP
 40
0.0
  9
$DIMTIX
 70
     0
  9
$DIMSOXD
 70
     0
  9
$DIMSAH
 70
     0
  9
$DIMBLK1
  1

  9
$DIMBLK2
  1

  9
$DIMSTYLE
  2
Guztion
  9
$DIMCLRD
 70
   256
  9
$DIMCLRE
 70
   256
  9
$DIMCLRT
 70
   256
  9
$DIMTFAC
 40
1.0
  9
$DIMGAP
 40
0.05
  9
$DIMJUST
 70
     0
  9
$DIMSD1
 70
     0
  9
$DIMSD2
 70
     0
  9
$DIMTOLJ
 70
     0
  9
$DIMTZIN
 70
     8
  9
$DIMALTZ
 70
     0
  9
$DIMALTTZ
 70
     0
  9
$DIMUPT
 70
     0
  9
$DIMDEC
 70
     2
  9
$DIMTDEC
 70
     2
  9
$DIMALTU
 70
     2
  9
$DIMALTTD
 70
     3
  9
$DIMTXSTY
  7
Standard
  9
$DIMAUNIT
 70
     0
  9
$DIMADEC
 70
     0
  9
$DIMALTRND
 40
0.0
  9
$DIMAZIN
 70
     0
  9
$DIMDSEP
 70
    46
  9
$DIMATFIT
 70
     3
  9
$DIMFRAC
 70
     0
  9
$DIMLDRBLK
  1

  9
$DIMLUNIT
 70
     2
  9
$DIMLWD
 70
    -2
  9
$DIMLWE
 70
    -2
  9
$DIMTMOVE
 70
     0
  9
$DIMFXL
 40
1.0
  9
$DIMFXLON
 70
     0
  9
$DIMJOGANG
 40
0.7853981633974483
  9
$DIMTFILL
 70
     0
  9
$DIMTFILLCLR
 70
     0
  9
$DIMARCSYM
 70
     0
  9
$DIMLTYPE
  6

  9
$DIMLTEX1
  6

  9
$DIMLTEX2
  6

  9
$DIMTXTDIRECTION
 70
     0
  9
$LUNITS
 70
     2
  9
$LUPREC
 70
     4
  9
$SKETCHINC
 40
1.0
  9
$FILLETRAD
 40
0.0
  9
$AUNITS
 70
     0
  9
$AUPREC
 70
     0
  9
$MENU
  1
.
  9
$ELEVATION
 40
0.0
  9
$PELEVATION
 40
0.0
  9
$THICKNESS
 40
0.0
  9
$LIMCHECK
 70
     0
  9
$CHAMFERA
 40
0.0
  9
$CHAMFERB
 40
0.0
  9
$CHAMFERC
 40
0.0
  9
$CHAMFERD
 40
0.0
  9
$SKPOLY
 70
     0
  9
$TDCREATE
 40
2458543.388716400
  9
$TDUCREATE
 40
2458543.305383067
  9
$TDUPDATE
 40
2458624.822216759
  9
$TDUUPDATE
 40
2458624.738883426
  9
$TDINDWG
 40
2.8227477199
  9
$TDUSRTIMER
 40
2.8227453704
  9
$USRTIMER
 70
     1
  9
$ANGBASE
 50
0.0
  9
$ANGDIR
 70
     0
  9
$PDMODE
 70
     0
  9
$PDSIZE
 40
0.0
  9
$PLINEWID
 40
0.0
  9
$SPLFRAME
 70
     0
  9
$SPLINETYPE
 70
     6
  9
$SPLINESEGS
 70
     8
  9
$HANDSEED
  5
9A72
  9
$SURFTAB1
 70
     6
  9
$SURFTAB2
 70
     6
  9
$SURFTYPE
 70
     6
  9
$SURFU
 70
     6
  9
$SURFV
 70
     6
  9
$UCSBASE
  2

  9
$UCSNAME
  2

  9
$UCSORG
 10
0.0
 20
0.0
 30
0.0
  9
$UCSXDIR
 10
1.0
 20
0.0
 30
0.0
  9
$UCSYDIR
 10
0.0
 20
1.0
 30
0.0
  9
$UCSORTHOREF
  2

  9
$UCSORTHOVIEW
 70
     0
  9
$UCSORGTOP
 10
0.0
 20
0.0
 30
0.0
  9
$UCSORGBOTTOM
 10
0.0
 20
0.0
 30
0.0
  9
$UCSORGLEFT
 10
0.0
 20
0.0
 30
0.0
  9
$UCSORGRIGHT
 10
0.0
 20
0.0
 30
0.0
  9
$UCSORGFRONT
 10
0.0
 20
0.0
 30
0.0
  9
$UCSORGBACK
 10
0.0
 20
0.0
 30
0.0
  9
$PUCSBASE
  2

  9
$PUCSNAME
  2

  9
$PUCSORG
 10
0.0
 20
0.0
 30
0.0
  9
$PUCSXDIR
 10
1.0
 20
0.0
 30
0.0
  9
$PUCSYDIR
 10
0.0
 20
1.0
 30
0.0
  9
$PUCSORTHOREF
  2

  9
$PUCSORTHOVIEW
 70
     0
  9
$PUCSORGTOP
 10
0.0
 20
0.0
 30
0.0
  9
$PUCSORGBOTTOM
 10
0.0
 20
0.0
 30
0.0
  9
$PUCSORGLEFT
 10
0.0
 20
0.0
 30
0.0
  9
$PUCSORGRIGHT
 10
0.0
 20
0.0
 30
0.0
  9
$PUCSORGFRONT
 10
0.0
 20
0.0
 30
0.0
  9
$PUCSORGBACK
 10
0.0
 20
0.0
 30
0.0
  9
$USERI1
 70
     0
  9
$USERI2
 70
     0
  9
$USERI3
 70
     0
  9
$USERI4
 70
     0
  9
$USERI5
 70
     0
  9
$USERR1
 40
0.0
  9
$USERR2
 40
0.0
  9
$USERR3
 40
0.0
  9
$USERR4
 40
0.0
  9
$USERR5
 40
0.0
  9
$WORLDVIEW
 70
     1
  9
$SHADEDGE
 70
     3
  9
$SHADEDIF
 70
    70
  9
$TILEMODE
 70
     0
  9
$MAXACTVP
 70
    64
  9
$PINSBASE
 10
0.0
 20
0.0
 30
0.0
  9
$PLIMCHECK
 70
     0
  9
$PEXTMIN
 10
-0.0018762920232689
 20
0.2812602170592981
 30
0.0
  9
$PEXTMAX
 10
231.3
 20
175.5
 30
0.0
  9
$PLIMMIN
 10
-0.0018762920232689
 20
0.2812602170592981
  9
$PLIMMAX
 10
0.2081237079767311
 20
0.5782602170592981
  9
$UNITMODE
 70
     0
  9
$VISRETAIN
 70
     1
  9
$PLINEGEN
 70
     0
  9
$PSLTSCALE
 70
     1
  9
$TREEDEPTH
 70
  3020
  9
$CMLSTYLE
  2
Standard
  9
$CMLJUST
 70
     0
  9
$CMLSCALE
 40
20.0
  9
$PROXYGRAPHICS
 70
     1
  9
$MEASUREMENT
 70
     1
  9
$CELWEIGHT
370
    -1
  9
$ENDCAPS
280
     0
  9
$JOINSTYLE
280
     0
  9
$LWDISPLAY
290
     0
  9
$INSUNITS
 70
     4
  9
$HYPERLINKBASE
  1

  9
$STYLESHEET
  1
Guztion_Planoak_pdf.ctb
  9
$XEDIT
290
     1
  9
$CEPSNTYPE
380
     0
  9
$PSTYLEMODE
290
     1
  9
$FINGERPRINTGUID
  2
{454E2246-75CB-45FB-A2E0-00429C7F3A53}
  9
$VERSIONGUID
  2
{616B89AB-D5B4-4C24-918C-020C251AC9FF}
  9
$EXTNAMES
290
     1
  9
$PSVPSCALE
 40
0.0
  9
$OLESTARTUP
290
     0
  9
$SORTENTS
280
   127
  9
$INDEXCTL
280
     0
  9
$HIDETEXT
280
     1
  9
$XCLIPFRAME
280
     2
  9
$HALOGAP
280
     0
  9
$OBSCOLOR
 70
   257
  9
$OBSLTYPE
280
     0
  9
$INTERSECTIONDISPLAY
280
     0
  9
$INTERSECTIONCOLOR
 70
   257
  9
$DIMASSOC
280
     2
  9
$PROJECTNAME
  1

  9
$CAMERADISPLAY
290
     0
  9
$LENSLENGTH
 40
50.0
  9
$CAMERAHEIGHT
 40
0.0
  9
$STEPSPERSEC
 40
2.0
  9
$STEPSIZE
 40
6.0
  9
$3DDWFPREC
 40
2.0
  9
$PSOLWIDTH
 40
5.0
  9
$PSOLHEIGHT
 40
80.0
  9
$LOFTANG1
 40
1.570796326794896
  9
$LOFTANG2
 40
1.570796326794896
  9
$LOFTMAG1
 40
0.0
  9
$LOFTMAG2
 40
0.0
  9
$LOFTPARAM
 70
     7
  9
$LOFTNORMALS
280
     1
  9
$LATITUDE
 40
37.795
  9
$LONGITUDE
 40
-122.394
  9
$NORTHDIRECTION
 40
0.0
  9
$TIMEZONE
 70
 -8000
  9
$LIGHTGLYPHDISPLAY
280
     1
  9
$TILEMODELIGHTSYNCH
280
     1
  9
$CMATERIAL
347
EC
  9
$SOLIDHIST
280
     0
  9
$SHOWHIST
280
     1
  9
$DWFFRAME
280
     2
  9
$DGNFRAME
280
     0
  9
$REALWORLDSCALE
290
     1
  9
$INTERFERECOLOR
 62
     1
  9
$INTERFEREOBJVS
345
F9
  9
$INTERFEREVPVS
346
F6
  9
$CSHADOW
280
     0
  9
$SHADOWPLANELOCATION
 40
0.0
  0
ENDSEC
  0
SECTION
  2
CLASSES
  0
CLASS
  1
ACDBDICTIONARYWDFLT
  2
AcDbDictionaryWithDefault
  3
ObjectDBX Classes
 90
        0
 91
        1
280
     0
281
     0
  0
CLASS
  1
DICTIONARYVAR
  2
AcDbDictionaryVar
  3
ObjectDBX Classes
 90
        0
 91
        9
280
     0
281
     0
  0
CLASS
  1
TABLESTYLE
  2
AcDbTableStyle
  3
ObjectDBX Classes
 90
     4095
 91
        1
280
     0
281
     0
  0
CLASS
  1
MATERIAL
  2
AcDbMaterial
  3
ObjectDBX Classes
 90
     1153
 91
        3
280
     0
281
     0
  0
CLASS
  1
VISUALSTYLE
  2
AcDbVisualStyle
  3
ObjectDBX Classes
 90
     4095
 91
       24
280
     0
281
     0
  0
CLASS
  1
SCALE
  2
AcDbScale
  3
ObjectDBX Classes
 90
     1153
 91
       18
280
     0
281
     0
  0
CLASS
  1
MLEADERSTYLE
  2
AcDbMLeaderStyle
  3
ACDB_MLEADERSTYLE_CLASS
 90
     4095
 91
        2
280
     0
281
     0
  0
CLASS
  1
CELLSTYLEMAP
  2
AcDbCellStyleMap
  3
ObjectDBX Classes
 90
     1152
 91
        1
280
     0
281
     0
  0
CLASS
  1
EXACXREFPANELOBJECT
  2
ExAcXREFPanelObject
  3
EXAC_ESW
 90
     1025
 91
        0
280
     0
281
     0
  0
CLASS
  1
NPOCOLLECTION
  2
AcDbImpNonPersistentObjectsCollection
  3
ObjectDBX Classes
 90
     1153
 91
        0
280
     0
281
     0
  0
CLASS
  1
LAYER_INDEX
  2
AcDbLayerIndex
  3
ObjectDBX Classes
 90
        0
 91
        0
280
     0
281
     0
  0
CLASS
  1
SPATIAL_INDEX
  2
AcDbSpatialIndex
  3
ObjectDBX Classes
 90
        0
 91
        0
280
     0
281
     0
  0
CLASS
  1
IDBUFFER
  2
AcDbIdBuffer
  3
ObjectDBX Classes
 90
        0
 91
        0
280
     0
281
     0
  0
CLASS
  1
ACDBSECTIONVIEWSTYLE
  2
AcDbSectionViewStyle
  3
ObjectDBX Classes
 90
     1025
 91
        2
280
     0
281
     0
  0
CLASS
  1
ACDBDETAILVIEWSTYLE
  2
AcDbDetailViewStyle
  3
ObjectDBX Classes
 90
     1025
 91
        2
280
     0
281
     0
  0
CLASS
  1
SORTENTSTABLE
  2
AcDbSortentsTable
  3
ObjectDBX Classes
 90
        0
 91
        3
280
     0
281
     0
  0
CLASS
  1
RASTERVARIABLES
  2
AcDbRasterVariables
  3
ISM
 90
        0
 91
        1
280
     0
281
     0
  0
CLASS
  1
IMAGEDEF
  2
AcDbRasterImageDef
  3
ISM
 90
        0
 91
        7
280
     0
281
     0
  0
CLASS
  1
IMAGEDEF_REACTOR
  2
AcDbRasterImageDefReactor
  3
ISM
 90
        1
 91
        2
280
     0
281
     0
  0
CLASS
  1
IMAGE
  2
AcDbRasterImage
  3
ISM
 90
     2175
 91
        2
280
     0
281
     1
  0
CLASS
  1
DIMASSOC
  2
AcDbDimAssoc
  3
"AcDbDimAssoc|Product Desc:     AcDim ARX App For Dimension|Company:          Autodesk, Inc.|WEB Address:      www.autodesk.com"
 90
        0
 91
       17
280
     0
281
     0
  0
CLASS
  1
BREAKDATA
  2
AcDbBreakData
  3
ObjectDBX Classes
 90
     1024
 91
        0
280
     0
281
     0
  0
CLASS
  1
SOLID_BACKGROUND
  2
AcDbSolidBackground
  3
SCENEOE
 90
     4095
 91
        0
280
     0
281
     0
  0
ENDSEC
  0
SECTION
  2
TABLES
  0
TABLE
  2
VPORT
  5
8
330
0
100
AcDbSymbolTable
 70
     1
  0
VPORT
  5
EA
330
8
100
AcDbSymbolTableRecord
100
AcDbViewportTableRecord
  2
*Active
 70
     0
 10
0.0
 20
0.0
 11
1.0
 21
1.0
 12
-221.7843052076
 22
3.728714625197881
 13
0.0
 23
0.0
 14
10.0
 24
10.0
 15
10.0
 25
10.0
 16
0.0
 26
0.0
 36
0.6188922984979737
 17
2619.601320438711
 27
877.6296409676874
 37
0.0
 40
67.64758187212272
 41
2.182692307692307
 42
50.0
 43
0.0
 44
0.0
 50
0.0
 51
0.0
 71
     0
 72
  1000
 73
     1
 74
     3
 75
     0
 76
     0
 77
     0
 78
     1
281
     0
 65
     1
110
0.0
120
0.0
130
0.0
111
1.0
121
0.0
131
0.0
112
0.0
122
1.0
132
0.0
 79
     0
146
0.0
348
F5
 60
     3
 61
     5
292
     1
282
     1
141
0.0
142
0.0
 63
   250
421
  3355443
1001
ACAD_NAV_VCDISPLAY
1070
     3
  0
ENDTAB
  0
TABLE
  2
LTYPE
  5
5
330
0
100
AcDbSymbolTable
 70
     4
  0
LTYPE
  5
14
330
5
100
AcDbSymbolTableRecord
100
AcDbLinetypeTableRecord
  2
ByBlock
 70
     0
  3

 72
    65
 73
     0
 40
0.0
  0
LTYPE
  5
15
330
5
100
AcDbSymbolTableRecord
100
AcDbLinetypeTableRecord
  2
ByLayer
 70
     0
  3

 72
    65
 73
     0
 40
0.0
  0
LTYPE
  5
16
330
5
100
AcDbSymbolTableRecord
100
AcDbLinetypeTableRecord
  2
Continuous
 70
     0
  3
Solid line
 72
    65
 73
     0
 40
0.0
  0
LTYPE
  5
3B76
330
5
100
AcDbSymbolTableRecord
100
AcDbLinetypeTableRecord
  2
ACAD_ISO02W100
 70
     0
  3
 ISO trazo __ __ __ __ __ __ __ __ __ __ __ __ 
 72
    65
 73
     2
 40
15.0
 49
12.0
 74
     0
 49
-3.0
 74
     0
  0
LTYPE
  5
3B7A
330
5
100
AcDbSymbolTableRecord
100
AcDbLinetypeTableRecord
  2
ACAD_ISO04W100
 70
     0
  3
 ISO trazo largo, punto ____ . ____ . ____ . __
 72
    65
 73
     4
 40
30.0
 49
24.0
 74
     0
 49
-3.0
 74
     0
 49
0.0
 74
     0
 49
-3.0
 74
     0
  0
LTYPE
  5
9168
330
5
100
AcDbSymbolTableRecord
100
AcDbLinetypeTableRecord
  2
DISCONT
 70
     0
  3
- - - - - - -
 72
    65
 73
     2
 40
2.0
 49
1.0
 74
     0
 49
-1.0
 74
     0
  0
ENDTAB
  0
TABLE
  2
LAYER
  5
2
102
{ACAD_XDICTIONARY
360
1FF
102
}
330
0
100
AcDbSymbolTable
 70
    30
  0
LAYER
  5
10
102
{ACAD_XDICTIONARY
360
13C
102
}
330
2
100
AcDbSymbolTableRecord
100
AcDbLayerTableRecord
  2
0
 70
     0
 62
     7
  6
Continuous
370
    -3
390
F
347
EE
348
0
  0
LAYER
  5
485
330
2
100
AcDbSymbolTableRecord
100
AcDbLayerTableRecord
  2
1.7. Ventanas Gráficas
 70
     0
 62
     5
  6
Continuous
290
     0
370
    -3
390
F
347
EE
348
0
1001
AcAecLayerStandard
1000

1000

1001
AcCmTransparency
1071
        0
  0
LAYER
  5
659
330
2
100
AcDbSymbolTableRecord
100
AcDbLayerTableRecord
  2
1.5. Marra1
 70
     0
 62
   248
  6
Continuous
370
    -3
390
F
347
EE
348
0
1001
AcAecLayerStandard
1000

1000

1001
AcCmTransparency
1071
        0
  0
LAYER
  5
6C6
102
{ACAD_XDICTIONARY
360
6C7
102
}
330
2
100
AcDbSymbolTableRecord
100
AcDbLayerTableRecord
  2
1.6. Marra2
 70
     0
 62
   252
  6
Continuous
370
    -3
390
F
347
EE
348
0
1001
AcAecLayerStandard
1000

1000

  0
LAYER
  5
7AC
330
2
100
AcDbSymbolTableRecord
100
AcDbLayerTableRecord
  2
1.4. Idatzia
 70
     0
 62
     7
  6
Continuous
370
    -3
390
F
347
EE
348
0
1001
AcAecLayerStandard
1000

1000

1001
AcCmTransparency
1071
        0
  0
LAYER
  5
7AD
330
2
100
AcDbSymbolTableRecord
100
AcDbLayerTableRecord
  2
1.1. Armarria
 70
     0
 62
     7
420
 16777215
  6
Continuous
370
    -3
390
F
347
EE
348
0
1001
AcAecLayerStandard
1000

1000

1001
AcCmTransparency
1071
        0
  0
LAYER
  5
7AE
330
2
100
AcDbSymbolTableRecord
100
AcDbLayerTableRecord
  2
1.3. Eskala grafikoa
 70
     0
 62
     7
  6
Continuous
370
    -3
390
F
347
EE
348
0
1001
AcAecLayerStandard
1000

1000

1001
AcCmTransparency
1071
        0
  0
LAYER
  5
FC3
330
2
100
AcDbSymbolTableRecord
100
AcDbLayerTableRecord
  2
2.1. Kanpo Horma
 70
     0
 62
    74
  6
Continuous
370
    -3
390
F
347
EE
348
0
1001
AcAecLayerStandard
1000

1000

1001
AcCmTransparency
1071
        0
  0
LAYER
  5
FC4
330
2
100
AcDbSymbolTableRecord
100
AcDbLayerTableRecord
  2
2.2. Barne Horma
 70
     0
 62
   160
  6
Continuous
370
    -3
390
F
347
EE
348
0
1001
AcAecLayerStandard
1000

1000

1001
AcCmTransparency
1071
        0
  0
LAYER
  5
FC5
330
2
100
AcDbSymbolTableRecord
100
AcDbLayerTableRecord
  2
2.3. Mehelina
 70
     0
 62
    42
  6
Continuous
370
    -3
390
F
347
EE
348
0
1001
AcAecLayerStandard
1000

1000

1001
AcCmTransparency
1071
        0
  0
LAYER
  5
FC6
330
2
100
AcDbSymbolTableRecord
100
AcDbLayerTableRecord
  2
3.1. Atea
 70
     0
 62
   251
  6
Continuous
370
    -3
390
F
347
EE
348
0
1001
AcAecLayerStandard
1000

1000

1001
AcCmTransparency
1071
        0
  0
LAYER
  5
FC7
330
2
100
AcDbSymbolTableRecord
100
AcDbLayerTableRecord
  2
3.2. Leihoa
 70
     0
 62
   251
  6
Continuous
370
    -3
390
F
347
EE
348
0
1001
AcAecLayerStandard
1000

1000

1001
AcCmTransparency
1071
        0
  0
LAYER
  5
FC8
330
2
100
AcDbSymbolTableRecord
100
AcDbLayerTableRecord
  2
2.4. Terraza horma
 70
     0
 62
     9
  6
Continuous
370
    -3
390
F
347
EE
348
0
1001
AcAecLayerStandard
1000

1000

1001
AcCmTransparency
1071
        0
  0
LAYER
  5
FC9
330
2
100
AcDbSymbolTableRecord
100
AcDbLayerTableRecord
  2
3.3. Eskudela
 70
     0
 62
   251
  6
Continuous
370
    -3
390
F
347
EE
348
0
1001
AcAecLayerStandard
1000

1000

1001
AcCmTransparency
1071
        0
  0
LAYER
  5
14FC
330
2
100
AcDbSymbolTableRecord
100
AcDbLayerTableRecord
  2
7.3. Kota
 70
     0
 62
   251
  6
Continuous
370
    -3
390
F
347
EE
348
0
1001
AcAecLayerStandard
1000

1000

1001
AcCmTransparency
1071
        0
  0
LAYER
  5
150C
330
2
100
AcDbSymbolTableRecord
100
AcDbLayerTableRecord
  2
2.5. Horma itzala
 70
     0
 62
   253
  6
Continuous
370
    -3
390
F
347
EE
348
0
1001
AcAecLayerStandard
1000

1000

1001
AcCmTransparency
1071
        0
  0
LAYER
  5
1874
330
2
100
AcDbSymbolTableRecord
100
AcDbLayerTableRecord
  2
5.1. Komuneko altzaria
 70
     0
 62
   252
  6
Continuous
370
    -3
390
F
347
EE
348
0
1001
AcAecLayerStandard
1000

1000

1001
AcCmTransparency
1071
        0
  0
LAYER
  5
194D
330
2
100
AcDbSymbolTableRecord
100
AcDbLayerTableRecord
  2
-
 70
     0
 62
     7
  6
Continuous
370
    -3
390
F
347
EE
348
0
  0
LAYER
  5
1BDA
330
2
100
AcDbSymbolTableRecord
100
AcDbLayerTableRecord
  2
Defpoints
 70
     0
 62
     7
  6
Continuous
290
     0
370
    -3
390
F
347
EE
348
0
  0
LAYER
  5
24FF
330
2
100
AcDbSymbolTableRecord
100
AcDbLayerTableRecord
  2
2.6. Zorua
 70
     0
 62
   253
  6
Continuous
370
    -3
390
F
347
EE
348
0
1001
AcAecLayerStandard
1000

1000

1001
AcCmTransparency
1071
        0
  0
LAYER
  5
253B
330
2
100
AcDbSymbolTableRecord
100
AcDbLayerTableRecord
  2
6.1. Eskailerak
 70
     0
 62
   252
  6
Continuous
370
    -3
390
F
347
EE
348
0
1001
AcAecLayerStandard
1000

1000

1001
AcCmTransparency
1071
        0
  0
LAYER
  5
3AB1
330
2
100
AcDbSymbolTableRecord
100
AcDbLayerTableRecord
  2
7.1. Azalera erabilgarria
 70
     0
 62
   -12
  6
Continuous
290
     0
370
    -3
390
F
347
EE
348
0
1001
AcAecLayerStandard
1000

1000

1001
AcCmTransparency
1071
        0
  0
LAYER
  5
3B73
330
2
100
AcDbSymbolTableRecord
100
AcDbLayerTableRecord
  2
8.1. Irisgarritasun boloa
 70
     0
 62
   252
  6
ACAD_ISO02W100
370
    -3
390
F
347
EE
348
0
1001
AcAecLayerStandard
1000

1000

1001
AcCmTransparency
1071
        0
  0
LAYER
  5
4035
330
2
100
AcDbSymbolTableRecord
100
AcDbLayerTableRecord
  2
4.1. Zeramika-baldosa
 70
     0
 62
   253
  6
Continuous
370
    -3
390
F
347
EE
348
0
1001
AcAecLayerStandard
1000

1000

1001
AcCmTransparency
1071
        0
  0
LAYER
  5
4129
330
2
100
AcDbSymbolTableRecord
100
AcDbLayerTableRecord
  2
7.2. Idatzia
 70
     0
 62
    18
420
   526344
  6
Continuous
370
    -3
390
F
347
EE
348
0
1001
AcAecLayerStandard
1000

1000

1001
AcCmTransparency
1071
        0
  0
LAYER
  5
45C5
330
2
100
AcDbSymbolTableRecord
100
AcDbLayerTableRecord
  2
4.2. Parket
 70
     0
 62
   253
  6
Continuous
370
    -3
390
F
347
EE
348
0
1001
AcAecLayerStandard
1000

1000

1001
AcCmTransparency
1071
        0
  0
LAYER
  5
8D45
330
2
100
AcDbSymbolTableRecord
100
AcDbLayerTableRecord
  2
4.3. Moketa
 70
     0
 62
   253
  6
Continuous
370
    -3
390
F
347
EE
348
0
1001
AcAecLayerStandard
1000

1000

1001
AcCmTransparency
1071
        0
  0
LAYER
  5
9169
102
{ACAD_XDICTIONARY
360
916A
102
}
330
2
100
AcDbSymbolTableRecord
100
AcDbLayerTableRecord
  2
Basea_Eraikuntza
 70
     0
 62
     7
  6
Continuous
370
    -3
390
F
347
EE
348
0
1001
RAK
1000
{ACET-LAYISO
1070
     0
1070
     1
1000
CONTINUOUS
1071
       -3
1071
        1
1005
F
1000
ACET-LAYISO}
  0
LAYER
  5
916B
330
2
100
AcDbSymbolTableRecord
100
AcDbLayerTableRecord
  2
Azterketa Eremua_6. Gunea
 70
     0
 62
   251
  6
DISCONT
370
    53
390
F
347
EE
348
0
1001
AcAecLayerStandard
1000

1000

1001
AcCmTransparency
1071
        0
  0
LAYER
  5
9232
330
2
100
AcDbSymbolTableRecord
100
AcDbLayerTableRecord
  2
7.1.1. Azalera eraikia
 70
     0
 62
   -12
  6
Continuous
290
     0
370
    -3
390
F
347
EE
348
0
1001
AcAecLayerStandard
1000

1000

1001
AcCmTransparency
1071
        0
  0
ENDTAB
  0
TABLE
  2
STYLE
  5
3
330
0
100
AcDbSymbolTable
 70
     3
  0
STYLE
  5
11
330
3
100
AcDbSymbolTableRecord
100
AcDbTextStyleTableRecord
  2
Standard
 70
     0
 40
0.0
 41
1.0
 50
0.0
 71
     0
 42
2.5
  3
arial.ttf
  4

1001
ACAD
1000
Arial
1071
       34
  0
STYLE
  5
132
330
3
100
AcDbSymbolTableRecord
100
AcDbTextStyleTableRecord
  2
Anotativo
 70
     0
 40
0.0
 41
1.0
 50
0.0
 71
     0
 42
2.5
  3
arial.ttf
  4

1001
AcadAnnotative
1000
AnnotativeData
1002
{
1070
     1
1070
     1
1002
}
1001
ACAD
1000
Arial
1071
       34
  0
STYLE
  5
3B75
330
3
100
AcDbSymbolTableRecord
100
AcDbTextStyleTableRecord
  2

 70
     1
 40
0.0
 41
1.0
 50
0.0
 71
     0
 42
2.5
  3
ltypeshp.shx
  4

  0
ENDTAB
  0
TABLE
  2
VIEW
  5
6
330
0
100
AcDbSymbolTable
 70
     2
  0
ENDTAB
  0
TABLE
  2
UCS
  5
7
330
0
100
AcDbSymbolTable
 70
     0
  0
ENDTAB
  0
TABLE
  2
APPID
  5
9
330
0
100
AcDbSymbolTable
 70
    16
  0
APPID
  5
12
330
9
100
AcDbSymbolTableRecord
100
AcDbRegAppTableRecord
  2
ACAD
 70
     0
  0
APPID
  5
9E
330
9
100
AcDbSymbolTableRecord
100
AcDbRegAppTableRecord
  2
ACAD_PSEXT
 70
     0
  0
APPID
  5
133
330
9
100
AcDbSymbolTableRecord
100
AcDbRegAppTableRecord
  2
AcadAnnoPO
 70
     0
  0
APPID
  5
134
330
9
100
AcDbSymbolTableRecord
100
AcDbRegAppTableRecord
  2
AcadAnnotative
 70
     0
  0
APPID
  5
135
330
9
100
AcDbSymbolTableRecord
100
AcDbRegAppTableRecord
  2
ACAD_DSTYLE_DIMJAG
 70
     0
  0
APPID
  5
136
330
9
100
AcDbSymbolTableRecord
100
AcDbRegAppTableRecord
  2
ACAD_DSTYLE_DIMTALN
 70
     0
  0
APPID
  5
165
330
9
100
AcDbSymbolTableRecord
100
AcDbRegAppTableRecord
  2
ACAD_MLEADERVER
 70
     0
  0
APPID
  5
217
330
9
100
AcDbSymbolTableRecord
100
AcDbRegAppTableRecord
  2
ACAD_NAV_VCDISPLAY
 70
     0
  0
APPID
  5
24C
330
9
100
AcDbSymbolTableRecord
100
AcDbRegAppTableRecord
  2
ACAD_EXEMPT_FROM_CAD_STANDARDS
 70
     0
  0
APPID
  5
486
330
9
100
AcDbSymbolTableRecord
100
AcDbRegAppTableRecord
  2
AcAecLayerStandard
 70
     0
  0
APPID
  5
487
330
9
100
AcDbSymbolTableRecord
100
AcDbRegAppTableRecord
  2
AcCmTransparency
 70
     0
  0
APPID
  5
FCA
330
9
100
AcDbSymbolTableRecord
100
AcDbRegAppTableRecord
  2
GradientColor1ACI
 70
     0
  0
APPID
  5
FCB
330
9
100
AcDbSymbolTableRecord
100
AcDbRegAppTableRecord
  2
GradientColor2ACI
 70
     0
  0
APPID
  5
14FB
330
9
100
AcDbSymbolTableRecord
100
AcDbRegAppTableRecord
  2
ACAD_DSTYLE_DIMBREAK
 70
     0
  0
APPID
  5
916C
330
9
100
AcDbSymbolTableRecord
100
AcDbRegAppTableRecord
  2
RAK
 70
     0
  0
APPID
  5
916D
330
9
100
AcDbSymbolTableRecord
100
AcDbRegAppTableRecord
  2
IRD
 70
     0
  0
ENDTAB
  0
TABLE
  2
DIMSTYLE
  5
A
330
0
100
AcDbSymbolTable
 70
     4
100
AcDbDimStyleTable
 71
     3
340
1501
340
27
340
137
  0
DIMSTYLE
105
1B0
330
A
100
AcDbSymbolTableRecord
100
AcDbDimStyleTableRecord
  2
Standard
 70
     0
340
11
  0
DIMSTYLE
105
137
330
A
100
AcDbSymbolTableRecord
100
AcDbDimStyleTableRecord
  2
Anotativo
 70
     0
 40
0.0
 41
2.5
 42
0.625
 43
3.75
 44
1.25
 73
     0
 74
     0
 77
     1
 78
     8
140
2.5
141
2.5
143
0.03937007874016
147
0.625
171
     3
172
     1
271
     2
272
     2
274
     3
278
    44
283
     0
284
     8
340
11
1001
AcadAnnotative
1000
AnnotativeData
1002
{
1070
     1
1070
     1
1002
}
1001
ACAD_DSTYLE_DIMJAG
1070
   388
1040
1.5
1001
ACAD_DSTYLE_DIMTALN
1070
   392
1070
     0
  0
DIMSTYLE
105
27
330
A
100
AcDbSymbolTableRecord
100
AcDbDimStyleTableRecord
  2
ISO-25
 70
     0
 41
2.5
 42
0.625
 43
3.75
 44
1.25
 73
     0
 74
     0
 77
     1
 78
     8
140
2.5
141
2.5
143
0.03937007874016
147
0.625
171
     3
172
     1
271
     2
272
     2
274
     3
278
    44
283
     0
284
     8
340
11
  0
DIMSTYLE
105
1501
102
{ACAD_REACTORS
330
60C4
330
60DC
330
60F4
330
610C
330
613C
330
6154
330
616C
330
6184
330
619C
330
61B4
330
61CC
330
61D9
330
61ED
330
61FA
330
620E
330
6226
330
623E
330
6256
330
626E
330
63C5
102
}
330
A
100
AcDbSymbolTableRecord
100
AcDbDimStyleTableRecord
  2
Guztion
 70
     0
 41
0.1
 42
0.1
 43
3.75
 44
0.1
 73
     0
 74
     0
 77
     1
 78
     1
140
0.15
141
2.5
143
0.03937007874016
147
0.05
171
     3
172
     1
176
   256
177
   256
178
   256
271
     2
272
     2
274
     3
283
     0
284
     8
340
11
342
14FD
1001
ACAD_DSTYLE_DIMBREAK
1070
   391
1040
3.75
1001
ACAD_DSTYLE_DIMJAG
1070
   388
1040
1.5
1001
ACAD_DSTYLE_DIMTALN
1070
   392
1070
     0
  0
ENDTAB
  0
TABLE
  2
BLOCK_RECORD
  5
1
330
0
100
AcDbSymbolTable
 70
    25
  0
BLOCK_RECORD
  5
1F
102
{ACAD_XDICTIONARY
360
1CE
102
}
330
1
100
AcDbSymbolTableRecord
100
AcDbBlockTableRecord
  2
*Model_Space
340
22
 70
     0
280
     1
281
     0
  0
BLOCK_RECORD
  5
2B37
330
1
100
AcDbSymbolTableRecord
100
AcDbBlockTableRecord
  2
*Paper_Space
340
2B44
 70
     0
280
     1
281
     0
  0
BLOCK_RECORD
  5
14FD
330
1
100
AcDbSymbolTableRecord
100
AcDbBlockTableRecord
  2
_ArchTick
340
0
102
{BLKREFS
331
60D5
331
60D6
331
60ED
331
60EE
331
6105
331
6106
331
611D
331
611E
331
614D
331
614E
331
6165
331
6166
331
617D
331
617E
331
6195
331
6196
331
61AD
331
61AE
331
61C5
331
61C6
331
61D3
331
61D4
331
61E6
331
61E7
331
61F4
331
61F5
331
6207
331
6208
331
621F
331
6220
331
6237
331
6238
331
627F
331
6280
331
638F
331
6390
331
6398
331
6399
331
63D6
331
63D7
102
}
 70
     0
280
     1
281
     0
  0
BLOCK_RECORD
  5
194E
330
1
100
AcDbSymbolTableRecord
100
AcDbBlockTableRecord
  2
A$C6A1E31B2
340
0
 70
     0
280
     1
281
     0
  0
BLOCK_RECORD
  5
2643
102
{ACAD_XDICTIONARY
360
2645
102
}
330
1
100
AcDbSymbolTableRecord
100
AcDbBlockTableRecord
  2
A$C4C6C188E
340
0
 70
     4
280
     1
281
     0
  0
BLOCK_RECORD
  5
D6
330
1
100
AcDbSymbolTableRecord
100
AcDbBlockTableRecord
  2
*Paper_Space3
340
D7
 70
     0
280
     1
281
     0
  0
BLOCK_RECORD
  5
60C5
330
1
100
AcDbSymbolTableRecord
100
AcDbBlockTableRecord
  2
*D4
340
0
 70
     0
280
     1
281
     0
  0
BLOCK_RECORD
  5
60DD
330
1
100
AcDbSymbolTableRecord
100
AcDbBlockTableRecord
  2
*D5
340
0
 70
     0
280
     1
281
     0
  0
BLOCK_RECORD
  5
60F5
330
1
100
AcDbSymbolTableRecord
100
AcDbBlockTableRecord
  2
*D6
340
0
 70
     0
280
     1
281
     0
  0
BLOCK_RECORD
  5
610D
330
1
100
AcDbSymbolTableRecord
100
AcDbBlockTableRecord
  2
*D7
340
0
 70
     0
280
     1
281
     0
  0
BLOCK_RECORD
  5
613D
330
1
100
AcDbSymbolTableRecord
100
AcDbBlockTableRecord
  2
*D8
340
0
 70
     0
280
     1
281
     0
  0
BLOCK_RECORD
  5
6155
330
1
100
AcDbSymbolTableRecord
100
AcDbBlockTableRecord
  2
*D9
340
0
 70
     0
280
     1
281
     0
  0
BLOCK_RECORD
  5
616D
330
1
100
AcDbSymbolTableRecord
100
AcDbBlockTableRecord
  2
*D10
340
0
 70
     0
280
     1
281
     0
  0
BLOCK_RECORD
  5
6185
330
1
100
AcDbSymbolTableRecord
100
AcDbBlockTableRecord
  2
*D11
340
0
 70
     0
280
     1
281
     0
  0
BLOCK_RECORD
  5
619D
330
1
100
AcDbSymbolTableRecord
100
AcDbBlockTableRecord
  2
*D12
340
0
 70
     0
280
     1
281
     0
  0
BLOCK_RECORD
  5
61B5
330
1
100
AcDbSymbolTableRecord
100
AcDbBlockTableRecord
  2
*D13
340
0
 70
     0
280
     1
281
     0
  0
BLOCK_RECORD
  5
61CD
330
1
100
AcDbSymbolTableRecord
100
AcDbBlockTableRecord
  2
*D14
340
0
 70
     0
280
     1
281
     0
  0
BLOCK_RECORD
  5
61DA
330
1
100
AcDbSymbolTableRecord
100
AcDbBlockTableRecord
  2
*D15
340
0
 70
     0
280
     1
281
     0
  0
BLOCK_RECORD
  5
61EE
330
1
100
AcDbSymbolTableRecord
100
AcDbBlockTableRecord
  2
*D16
340
0
 70
     0
280
     1
281
     0
  0
BLOCK_RECORD
  5
61FB
330
1
100
AcDbSymbolTableRecord
100
AcDbBlockTableRecord
  2
*D17
340
0
 70
     0
280
     1
281
     0
  0
BLOCK_RECORD
  5
620F
330
1
100
AcDbSymbolTableRecord
100
AcDbBlockTableRecord
  2
*D18
340
0
 70
     0
280
     1
281
     0
  0
BLOCK_RECORD
  5
6227
330
1
100
AcDbSymbolTableRecord
100
AcDbBlockTableRecord
  2
*D19
340
0
 70
     0
280
     1
281
     0
  0
BLOCK_RECORD
  5
623F
330
1
100
AcDbSymbolTableRecord
100
AcDbBlockTableRecord
  2
*D20
340
0
 70
     0
280
     1
281
     0
  0
BLOCK_RECORD
  5
6257
330
1
100
AcDbSymbolTableRecord
100
AcDbBlockTableRecord
  2
*D21
340
0
 70
     0
280
     1
281
     0
  0
BLOCK_RECORD
  5
626F
330
1
100
AcDbSymbolTableRecord
100
AcDbBlockTableRecord
  2
*D22
340
0
 70
     0
280
     1
281
     0
  0
BLOCK_RECORD
  5
63C6
330
1
100
AcDbSymbolTableRecord
100
AcDbBlockTableRecord
  2
*D23
340
0
 70
     0
280
     1
281
     0
  0
BLOCK_RECORD
  5
916E
102
{ACAD_XDICTIONARY
360
9170
102
}
330
1
100
AcDbSymbolTableRecord
100
AcDbBlockTableRecord
  2
A$C56C501B1
340
0
 70
     4
280
     1
281
     0
  0
ENDTAB
  0
ENDSEC
  0
SECTION
  2
BLOCKS
  0
BLOCK
  5
20
330
1F
100
AcDbEntity
  8
0
100
AcDbBlockBegin
  2
*Model_Space
 70
     0
 10
0.0
 20
0.0
 30
0.0
  3
*Model_Space
  1

  0
ENDBLK
  5
21
330
1F
100
AcDbEntity
  8
0
100
AcDbBlockEnd
  0
BLOCK
  5
2B38
330
2B37
100
AcDbEntity
 67
     1
  8
0
100
AcDbBlockBegin
  2
*Paper_Space
 70
     0
 10
0.0
 20
0.0
 30
0.0
  3
*Paper_Space
  1

  0
ENDBLK
  5
2B43
330
2B37
100
AcDbEntity
 67
     1
  8
0
100
AcDbBlockEnd
  0
BLOCK
  5
14FF
330
14FD
100
AcDbEntity
  8
0
100
AcDbBlockBegin
  2
_ArchTick
 70
     0
 10
0.0
 20
0.0
 30
0.0
  3
_ArchTick
  1

  0
LWPOLYLINE
  5
14FE
330
14FD
100
AcDbEntity
  8
0
  6
ByBlock
 62
     0
100
AcDbPolyline
 90
        2
 70
     0
 43
0.15
 10
-0.5
 20
-0.5
 10
0.5
 20
0.5
  0
ENDBLK
  5
1500
330
14FD
100
AcDbEntity
  8
0
100
AcDbBlockEnd
  0
BLOCK
  5
195F
330
194E
100
AcDbEntity
  8
0
100
AcDbBlockBegin
  2
A$C6A1E31B2
 70
     0
 10
0.0
 20
0.0
 30
0.0
  3
A$C6A1E31B2
  1

  0
LWPOLYLINE
  5
194F
330
194E
100
AcDbEntity
  8
-
100
AcDbPolyline
 90
        4
 70
     1
 43
0.0
 10
0.3126854446639626
 20
-0.0000000212661178
 10
0.292428219745922
 20
-0.0000000212661178
 10
0.292428219745922
 20
0.1837702092999933
 10
0.3126854446639626
 20
0.1837702092999933
  0
LINE
  5
1950
330
194E
100
AcDbEntity
  8
-
100
AcDbLine
 10
0.5600000163788366
 20
0.2499999787338809
 30
0.0
 11
0.5600000163788366
 21
0.0799999787338823
 31
0.0
  0
LINE
  5
1951
330
194E
100
AcDbEntity
  8
-
100
AcDbLine
 10
0.0400000163788263
 20
0.0799999787338828
 30
0.0
 11
0.0400000163788263
 21
0.2499999787338831
 31
0.0
  0
LINE
  5
1952
330
194E
100
AcDbEntity
  8
-
100
AcDbLine
 10
0.6000000163788357
 20
0.2499999787338809
 30
0.0
 11
0.6000000163788357
 21
-0.0000000212661178
 31
0.0
  0
LINE
  5
1953
330
194E
100
AcDbEntity
  8
-
100
AcDbLine
 10
0.0000000163788343
 20
-0.0000000212661178
 30
0.0
 11
0.0000000163788272
 21
0.2499999787338818
 31
0.0
  0
LINE
  5
1954
330
194E
100
AcDbEntity
  8
-
100
AcDbLine
 10
0.5600000163788366
 20
0.0799999787338828
 30
0.0
 11
0.3126854446639626
 21
0.0799999787338828
 31
0.0
  0
LINE
  5
1955
330
194E
100
AcDbEntity
  8
-
100
AcDbLine
 10
0.6000000163788357
 20
-0.0000000212661178
 30
0.0
 11
0.0000000163788343
 21
-0.0000000212661178
 31
0.0
  0
LINE
  5
1956
330
194E
100
AcDbEntity
  8
-
100
AcDbLine
 10
0.292428219745922
 20
0.0799999787338828
 30
0.0
 11
0.0400000163788263
 21
0.0799999787338828
 31
0.0
  0
LWPOLYLINE
  5
1957
330
194E
100
AcDbEntity
  8
-
100
AcDbPolyline
 90
        4
 70
     1
 43
0.0
 10
0.3152422604900735
 20
0.0138949237869923
 10
0.3670918531628686
 20
0.0138949237869923
 10
0.3670918531628686
 20
0.0656861417695041
 10
0.3152422604900735
 20
0.0656861417695041
  0
LWPOLYLINE
  5
1958
330
194E
100
AcDbEntity
  8
-
100
AcDbPolyline
 90
        4
 70
     1
 43
0.0
 10
0.2903543029858397
 20
0.0656861417695041
 10
0.2322827209369862
 20
0.0656861417695041
 10
0.2322827209369862
 20
0.0138949237869923
 10
0.2903543029858397
 20
0.0138949237869923
  0
ARC
  5
1959
330
194E
100
AcDbEntity
  8
-
100
AcDbCircle
 10
0.3000000163788385
 20
0.2499999787338809
 30
0.0
 40
0.26
100
AcDbArc
 50
0.0
 51
90.0
  0
ARC
  5
195A
330
194E
100
AcDbEntity
  8
-
100
AcDbCircle
 10
0.3000000163788385
 20
0.2499999787338809
 30
0.0
 40
0.3
100
AcDbArc
 50
0.0
 51
90.0
  0
CIRCLE
  5
195B
330
194E
100
AcDbEntity
  8
-
100
AcDbCircle
 10
0.3000000163788243
 20
0.3321388107524541
 30
0.0
 40
0.0367980598417717
  0
ARC
  5
195C
330
194E
100
AcDbEntity
  8
-
100
AcDbCircle
 10
0.3000000163788243
 20
0.2499999787338818
 30
0.0
 40
0.26
100
AcDbArc
 50
90.0
 51
180.0
  0
LINE
  5
195D
330
194E
100
AcDbEntity
  8
-
100
AcDbLine
 10
0.3000000163788243
 20
0.5499999787338817
 30
0.0
 11
0.3000000163788385
 21
0.5499999787338808
 31
0.0
  0
ARC
  5
195E
330
194E
100
AcDbEntity
  8
-
100
AcDbCircle
 10
0.3000000163788243
 20
0.2499999787338818
 30
0.0
 40
0.3
100
AcDbArc
 50
90.0
 51
180.0
  0
ENDBLK
  5
1960
330
194E
100
AcDbEntity
  8
0
100
AcDbBlockEnd
  0
BLOCK
  5
2647
330
2643
100
AcDbEntity
  8
0
100
AcDbBlockBegin
  2
A$C4C6C188E
 70
     0
 10
0.0
 20
0.0
 30
0.0
  3
A$C4C6C188E
  1

  0
MTEXT
  5
2644
330
2643
100
AcDbEntity
  8
1.4. Idatzia
100
AcDbMText
 10
0.0007080675713951
 20
0.0039339599218238
 30
0.0
 40
0.0025
 41
0.1852149973614974
 46
0.0
 71
     1
 72
     5
  1
{\fCalibri Light|b1|i0|c0|p34;Katastro zk.\fCalibri Light|b0|i0|c0|p34;: 7791177}
 73
     1
 44
1.0
  0
ENDBLK
  5
2648
330
2643
100
AcDbEntity
  8
0
100
AcDbBlockEnd
  0
BLOCK
  5
D8
330
D6
100
AcDbEntity
 67
     1
  8
0
100
AcDbBlockBegin
  2
*Paper_Space3
 70
     0
 10
0.0
 20
0.0
 30
0.0
  3
*Paper_Space3
  1

  0
VIEWPORT
  5
2AF3
102
{ACAD_XDICTIONARY
360
2AF4
102
}
330
D6
100
AcDbEntity
 67
     1
  8
0
100
AcDbViewport
 10
128.5
 20
97.5
 30
0.0
 40
370.9329914529915
 41
222.18
 68
     0
 69
     0
 12
128.5
 22
97.5
 13
0.0
 23
0.0
 14
10.0
 24
10.0
 15
10.0
 25
10.0
 16
0.0
 26
0.0
 36
1.0
 17
0.0
 27
0.0
 37
0.0
 42
50.0
 43
0.0
 44
0.0
 45
222.18
 50
0.0
 51
0.0
 72
  1000
 90
   819232
  1

281
     0
 71
     1
 74
     0
110
0.0
120
0.0
130
0.0
111
1.0
121
0.0
131
0.0
112
0.0
122
1.0
132
0.0
 79
     0
146
0.0
170
     0
 61
     5
348
F5
292
     1
282
     1
141
0.0
142
0.0
 63
   250
421
  3355443
  0
VIEWPORT
  5
2AF7
102
{ACAD_XDICTIONARY
360
2AF8
102
}
330
D6
100
AcDbEntity
 67
     1
  8
0
100
AcDbViewport
 10
128.5
 20
97.5
 30
0.0
 40
205.6
 41
156.0
 68
     0
 69
     0
 12
-245.0678307719495
 22
37.05995025052767
 13
0.0
 23
0.0
 14
10.0
 24
10.0
 15
10.0
 25
10.0
 16
0.0
 26
0.0
 36
0.6188922984979737
 17
2619.601320438711
 27
877.6296409676874
 37
0.0
 42
50.0
 43
0.0
 44
0.0
 45
0.3532727290029537
 50
0.0
 51
0.0
 72
  1000
 90
   819296
  1

281
     0
 71
     1
 74
     0
110
0.0
120
0.0
130
0.0
111
1.0
121
0.0
131
0.0
112
0.0
122
1.0
132
0.0
 79
     0
146
0.0
170
     0
 61
     5
348
F5
292
     1
282
     1
141
0.0
142
0.0
 63
   250
421
  3355443
  0
ENDBLK
  5
D9
330
D6
100
AcDbEntity
 67
     1
  8
0
100
AcDbBlockEnd
  0
BLOCK
  5
60C6
330
60C5
100
AcDbEntity
  8
0
100
AcDbBlockBegin
  2
*D4
 70
     1
 10
0.0
 20
0.0
 30
0.0
  3
*D4
  1

  0
LINE
  5
60D2
330
60C5
100
AcDbEntity
  8
7.3. Kota
440
 16777216
370
    -2
100
AcDbLine
 10
2397.605053096285
 20
864.9260927175085
 30
0.0
 11
2397.605053096285
 21
864.5011551052485
 31
0.0
  0
LINE
  5
60D3
330
60C5
100
AcDbEntity
  8
7.3. Kota
440
 16777216
370
    -2
100
AcDbLine
 10
2399.105053096285
 20
864.9260927175083
 30
0.0
 11
2399.105053096285
 21
864.5011551052485
 31
0.0
  0
LINE
  5
60D4
330
60C5
100
AcDbEntity
  8
7.3. Kota
440
 16777216
370
    -2
100
AcDbLine
 10
2397.605053096285
 20
864.6011551052485
 30
0.0
 11
2399.105053096285
 21
864.6011551052485
 31
0.0
  0
INSERT
  5
60D5
330
60C5
100
AcDbEntity
  8
7.3. Kota
440
 16777216
370
    -2
100
AcDbBlockReference
  2
_ArchTick
 10
2397.605053096285
 20
864.6011551052485
 30
0.0
 41
0.1
 42
0.1
 43
0.1
 50
180.0
  0
INSERT
  5
60D6
330
60C5
100
AcDbEntity
  8
7.3. Kota
440
 16777216
370
    -2
100
AcDbBlockReference
  2
_ArchTick
 10
2399.105053096285
 20
864.6011551052485
 30
0.0
 41
0.1
 42
0.1
 43
0.1
  0
MTEXT
  5
60D7
330
60C5
100
AcDbEntity
  8
7.3. Kota
440
 16777216
100
AcDbMText
 10
2398.355053096285
 20
864.7277410534067
 30
0.0
 40
0.15
 41
0.0
 46
0.0
 71
     5
 72
     1
  1
1.50
 73
     1
 44
1.0
  0
POINT
  5
60D8
330
60C5
100
AcDbEntity
  8
Defpoints
 62
     0
440
 16777216
100
AcDbPoint
 10
2397.605053096285
 20
865.0260927175084
 30
0.0
  0
POINT
  5
60D9
330
60C5
100
AcDbEntity
  8
Defpoints
 62
     0
440
 16777216
100
AcDbPoint
 10
2399.105053096285
 20
865.0260927175084
 30
0.0
  0
POINT
  5
60DA
330
60C5
100
AcDbEntity
  8
Defpoints
 62
     0
440
 16777216
100
AcDbPoint
 10
2399.105053096285
 20
864.6011551052485
 30
0.0
  0
ENDBLK
  5
60C7
330
60C5
100
AcDbEntity
  8
0
100
AcDbBlockEnd
  0
BLOCK
  5
60DE
330
60DD
100
AcDbEntity
  8
0
100
AcDbBlockBegin
  2
*D5
 70
     1
 10
0.0
 20
0.0
 30
0.0
  3
*D5
  1

  0
LINE
  5
60EA
330
60DD
100
AcDbEntity
  8
7.3. Kota
440
 16777216
370
    -2
100
AcDbLine
 10
2400.125053096286
 20
864.9260927175085
 30
0.0
 11
2400.125053096286
 21
864.5011551052485
 31
0.0
  0
LINE
  5
60EB
330
60DD
100
AcDbEntity
  8
7.3. Kota
440
 16777216
370
    -2
100
AcDbLine
 10
2401.625053096286
 20
864.9260927175083
 30
0.0
 11
2401.625053096286
 21
864.5011551052485
 31
0.0
  0
LINE
  5
60EC
330
60DD
100
AcDbEntity
  8
7.3. Kota
440
 16777216
370
    -2
100
AcDbLine
 10
2400.125053096286
 20
864.6011551052485
 30
0.0
 11
2401.625053096286
 21
864.6011551052485
 31
0.0
  0
INSERT
  5
60ED
330
60DD
100
AcDbEntity
  8
7.3. Kota
440
 16777216
370
    -2
100
AcDbBlockReference
  2
_ArchTick
 10
2400.125053096286
 20
864.6011551052485
 30
0.0
 41
0.1
 42
0.1
 43
0.1
 50
180.0
  0
INSERT
  5
60EE
330
60DD
100
AcDbEntity
  8
7.3. Kota
440
 16777216
370
    -2
100
AcDbBlockReference
  2
_ArchTick
 10
2401.625053096286
 20
864.6011551052485
 30
0.0
 41
0.1
 42
0.1
 43
0.1
  0
MTEXT
  5
60EF
330
60DD
100
AcDbEntity
  8
7.3. Kota
440
 16777216
100
AcDbMText
 10
2400.875053096286
 20
864.7277410534067
 30
0.0
 40
0.15
 41
0.0
 46
0.0
 71
     5
 72
     1
  1
1.50
 73
     1
 44
1.0
  0
POINT
  5
60F0
330
60DD
100
AcDbEntity
  8
Defpoints
 62
     0
440
 16777216
100
AcDbPoint
 10
2400.125053096286
 20
865.0260927175084
 30
0.0
  0
POINT
  5
60F1
330
60DD
100
AcDbEntity
  8
Defpoints
 62
     0
440
 16777216
100
AcDbPoint
 10
2401.625053096286
 20
865.0260927175084
 30
0.0
  0
POINT
  5
60F2
330
60DD
100
AcDbEntity
  8
Defpoints
 62
     0
440
 16777216
100
AcDbPoint
 10
2401.625053096286
 20
864.6011551052485
 30
0.0
  0
ENDBLK
  5
60DF
330
60DD
100
AcDbEntity
  8
0
100
AcDbBlockEnd
  0
BLOCK
  5
60F6
330
60F5
100
AcDbEntity
  8
0
100
AcDbBlockBegin
  2
*D6
 70
     1
 10
0.0
 20
0.0
 30
0.0
  3
*D6
  1

  0
LINE
  5
6102
330
60F5
100
AcDbEntity
  8
7.3. Kota
440
 16777216
370
    -2
100
AcDbLine
 10
2397.605053096285
 20
864.9260927175085
 30
0.0
 11
2397.605053096285
 21
864.0667837788441
 31
0.0
  0
LINE
  5
6103
330
60F5
100
AcDbEntity
  8
7.3. Kota
440
 16777216
370
    -2
100
AcDbLine
 10
2401.625053096286
 20
864.9260927175085
 30
0.0
 11
2401.625053096286
 21
864.0667837788441
 31
0.0
  0
LINE
  5
6104
330
60F5
100
AcDbEntity
  8
7.3. Kota
440
 16777216
370
    -2
100
AcDbLine
 10
2397.605053096285
 20
864.1667837788443
 30
0.0
 11
2401.625053096286
 21
864.1667837788443
 31
0.0
  0
INSERT
  5
6105
330
60F5
100
AcDbEntity
  8
7.3. Kota
440
 16777216
370
    -2
100
AcDbBlockReference
  2
_ArchTick
 10
2397.605053096285
 20
864.1667837788443
 30
0.0
 41
0.1
 42
0.1
 43
0.1
 50
180.0
  0
INSERT
  5
6106
330
60F5
100
AcDbEntity
  8
7.3. Kota
440
 16777216
370
    -2
100
AcDbBlockReference
  2
_ArchTick
 10
2401.625053096286
 20
864.1667837788443
 30
0.0
 41
0.1
 42
0.1
 43
0.1
  0
MTEXT
  5
6107
330
60F5
100
AcDbEntity
  8
7.3. Kota
440
 16777216
100
AcDbMText
 10
2399.615053096285
 20
864.2933697270024
 30
0.0
 40
0.15
 41
0.0
 46
0.0
 71
     5
 72
     1
  1
4.02
 73
     1
 44
1.0
  0
POINT
  5
6108
330
60F5
100
AcDbEntity
  8
Defpoints
 62
     0
440
 16777216
100
AcDbPoint
 10
2397.605053096285
 20
865.0260927175084
 30
0.0
  0
POINT
  5
6109
330
60F5
100
AcDbEntity
  8
Defpoints
 62
     0
440
 16777216
100
AcDbPoint
 10
2401.625053096286
 20
865.0260927175084
 30
0.0
  0
POINT
  5
610A
330
60F5
100
AcDbEntity
  8
Defpoints
 62
     0
440
 16777216
100
AcDbPoint
 10
2401.625053096286
 20
864.1667837788443
 30
0.0
  0
ENDBLK
  5
60F7
330
60F5
100
AcDbEntity
  8
0
100
AcDbBlockEnd
  0
BLOCK
  5
610E
330
610D
100
AcDbEntity
  8
0
100
AcDbBlockBegin
  2
*D7
 70
     1
 10
0.0
 20
0.0
 30
0.0
  3
*D7
  1

  0
LINE
  5
611A
330
610D
100
AcDbEntity
  8
7.3. Kota
440
 16777216
370
    -2
100
AcDbLine
 10
2399.235053096285
 20
865.0260927175084
 30
0.0
 11
2399.235053096285
 21
864.5011551052485
 31
0.0
  0
LINE
  5
611B
330
610D
100
AcDbEntity
  8
7.3. Kota
440
 16777216
370
    -2
100
AcDbLine
 10
2399.995053096286
 20
865.0260927175084
 30
0.0
 11
2399.995053096286
 21
864.5011551052485
 31
0.0
  0
LINE
  5
611C
330
610D
100
AcDbEntity
  8
7.3. Kota
440
 16777216
370
    -2
100
AcDbLine
 10
2399.235053096285
 20
864.6011551052485
 30
0.0
 11
2399.995053096286
 21
864.6011551052485
 31
0.0
  0
INSERT
  5
611D
330
610D
100
AcDbEntity
  8
7.3. Kota
440
 16777216
370
    -2
100
AcDbBlockReference
  2
_ArchTick
 10
2399.235053096285
 20
864.6011551052485
 30
0.0
 41
0.1
 42
0.1
 43
0.1
 50
180.0
  0
INSERT
  5
611E
330
610D
100
AcDbEntity
  8
7.3. Kota
440
 16777216
370
    -2
100
AcDbBlockReference
  2
_ArchTick
 10
2399.995053096286
 20
864.6011551052485
 30
0.0
 41
0.1
 42
0.1
 43
0.1
  0
MTEXT
  5
611F
330
610D
100
AcDbEntity
  8
7.3. Kota
440
 16777216
100
AcDbMText
 10
2399.615053096285
 20
864.7277410534067
 30
0.0
 40
0.15
 41
0.0
 46
0.0
 71
     5
 72
     1
  1
0.76
 73
     1
 44
1.0
  0
POINT
  5
6120
330
610D
100
AcDbEntity
  8
Defpoints
 62
     0
440
 16777216
100
AcDbPoint
 10
2399.235053096285
 20
865.1260927175085
 30
0.0
  0
POINT
  5
6121
330
610D
100
AcDbEntity
  8
Defpoints
 62
     0
440
 16777216
100
AcDbPoint
 10
2399.995053096286
 20
865.1260927175085
 30
0.0
  0
POINT
  5
6122
330
610D
100
AcDbEntity
  8
Defpoints
 62
     0
440
 16777216
100
AcDbPoint
 10
2399.995053096286
 20
864.6011551052485
 30
0.0
  0
ENDBLK
  5
610F
330
610D
100
AcDbEntity
  8
0
100
AcDbBlockEnd
  0
BLOCK
  5
613E
330
613D
100
AcDbEntity
  8
0
100
AcDbBlockBegin
  2
*D8
 70
     1
 10
0.0
 20
0.0
 30
0.0
  3
*D8
  1

  0
LINE
  5
614A
330
613D
100
AcDbEntity
  8
7.3. Kota
440
 16777216
370
    -2
100
AcDbLine
 10
2402.475053096285
 20
865.4960927175086
 30
0.0
 11
2402.930873332824
 21
865.4960927175086
 31
0.0
  0
LINE
  5
614B
330
613D
100
AcDbEntity
  8
7.3. Kota
440
 16777216
370
    -2
100
AcDbLine
 10
2402.475053096285
 20
868.6560927175085
 30
0.0
 11
2402.930873332824
 21
868.6560927175085
 31
0.0
  0
LINE
  5
614C
330
613D
100
AcDbEntity
  8
7.3. Kota
440
 16777216
370
    -2
100
AcDbLine
 10
2402.830873332824
 20
865.4960927175086
 30
0.0
 11
2402.830873332824
 21
868.6560927175085
 31
0.0
  0
INSERT
  5
614D
330
613D
100
AcDbEntity
  8
7.3. Kota
440
 16777216
370
    -2
100
AcDbBlockReference
  2
_ArchTick
 10
2402.830873332824
 20
865.4960927175086
 30
0.0
 41
0.1
 42
0.1
 43
0.1
 50
270.0
  0
INSERT
  5
614E
330
613D
100
AcDbEntity
  8
7.3. Kota
440
 16777216
370
    -2
100
AcDbBlockReference
  2
_ArchTick
 10
2402.830873332824
 20
868.6560927175085
 30
0.0
 41
0.1
 42
0.1
 43
0.1
 50
90.0
  0
MTEXT
  5
614F
330
613D
100
AcDbEntity
  8
7.3. Kota
440
 16777216
100
AcDbMText
 10
2402.704236225048
 20
867.076092717509
 30
0.0
 40
0.15
 41
0.0
 46
0.0
 71
     5
 72
     1
  1
3.16
 11
0.0000000000000001
 21
1.0
 31
0.0
 73
     1
 44
1.0
  0
POINT
  5
6150
330
613D
100
AcDbEntity
  8
Defpoints
 62
     0
440
 16777216
100
AcDbPoint
 10
2402.375053096286
 20
865.4960927175086
 30
0.0
  0
POINT
  5
6151
330
613D
100
AcDbEntity
  8
Defpoints
 62
     0
440
 16777216
100
AcDbPoint
 10
2402.375053096286
 20
868.6560927175085
 30
0.0
  0
POINT
  5
6152
330
613D
100
AcDbEntity
  8
Defpoints
 62
     0
440
 16777216
100
AcDbPoint
 10
2402.830873332824
 20
868.6560927175085
 30
0.0
  0
ENDBLK
  5
613F
330
613D
100
AcDbEntity
  8
0
100
AcDbBlockEnd
  0
BLOCK
  5
6156
330
6155
100
AcDbEntity
  8
0
100
AcDbBlockBegin
  2
*D9
 70
     1
 10
0.0
 20
0.0
 30
0.0
  3
*D9
  1

  0
LINE
  5
6162
330
6155
100
AcDbEntity
  8
7.3. Kota
440
 16777216
370
    -2
100
AcDbLine
 10
2402.475053096285
 20
869.0060927175085
 30
0.0
 11
2402.930873332824
 21
869.0060927175085
 31
0.0
  0
LINE
  5
6163
330
6155
100
AcDbEntity
  8
7.3. Kota
440
 16777216
370
    -2
100
AcDbLine
 10
2402.475053096285
 20
871.7560927175085
 30
0.0
 11
2402.930873332824
 21
871.7560927175085
 31
0.0
  0
LINE
  5
6164
330
6155
100
AcDbEntity
  8
7.3. Kota
440
 16777216
370
    -2
100
AcDbLine
 10
2402.830873332824
 20
869.0060927175085
 30
0.0
 11
2402.830873332824
 21
871.7560927175085
 31
0.0
  0
INSERT
  5
6165
330
6155
100
AcDbEntity
  8
7.3. Kota
440
 16777216
370
    -2
100
AcDbBlockReference
  2
_ArchTick
 10
2402.830873332824
 20
869.0060927175085
 30
0.0
 41
0.1
 42
0.1
 43
0.1
 50
270.0
  0
INSERT
  5
6166
330
6155
100
AcDbEntity
  8
7.3. Kota
440
 16777216
370
    -2
100
AcDbBlockReference
  2
_ArchTick
 10
2402.830873332824
 20
871.7560927175085
 30
0.0
 41
0.1
 42
0.1
 43
0.1
 50
90.0
  0
MTEXT
  5
6167
330
6155
100
AcDbEntity
  8
7.3. Kota
440
 16777216
100
AcDbMText
 10
2402.704287384666
 20
870.3810927175089
 30
0.0
 40
0.15
 41
0.0
 46
0.0
 71
     5
 72
     1
  1
2.75
 11
0.0000000000000001
 21
1.0
 31
0.0
 73
     1
 44
1.0
  0
POINT
  5
6168
330
6155
100
AcDbEntity
  8
Defpoints
 62
     0
440
 16777216
100
AcDbPoint
 10
2402.375053096286
 20
869.0060927175085
 30
0.0
  0
POINT
  5
6169
330
6155
100
AcDbEntity
  8
Defpoints
 62
     0
440
 16777216
100
AcDbPoint
 10
2402.375053096286
 20
871.7560927175085
 30
0.0
  0
POINT
  5
616A
330
6155
100
AcDbEntity
  8
Defpoints
 62
     0
440
 16777216
100
AcDbPoint
 10
2402.830873332824
 20
871.7560927175085
 30
0.0
  0
ENDBLK
  5
6157
330
6155
100
AcDbEntity
  8
0
100
AcDbBlockEnd
  0
BLOCK
  5
616E
330
616D
100
AcDbEntity
  8
0
100
AcDbBlockBegin
  2
*D10
 70
     1
 10
0.0
 20
0.0
 30
0.0
  3
*D10
  1

  0
LINE
  5
617A
330
616D
100
AcDbEntity
  8
7.3. Kota
440
 16777216
370
    -2
100
AcDbLine
 10
2402.325053096286
 20
872.9960927175085
 30
0.0
 11
2402.930873332824
 21
872.9960927175085
 31
0.0
  0
LINE
  5
617B
330
616D
100
AcDbEntity
  8
7.3. Kota
440
 16777216
370
    -2
100
AcDbLine
 10
2402.325053096286
 20
872.4260927175084
 30
0.0
 11
2402.930873332824
 21
872.4260927175084
 31
0.0
  0
LINE
  5
617C
330
616D
100
AcDbEntity
  8
7.3. Kota
440
 16777216
370
    -2
100
AcDbLine
 10
2402.830873332824
 20
872.9960927175085
 30
0.0
 11
2402.830873332824
 21
872.4260927175084
 31
0.0
  0
INSERT
  5
617D
330
616D
100
AcDbEntity
  8
7.3. Kota
440
 16777216
370
    -2
100
AcDbBlockReference
  2
_ArchTick
 10
2402.830873332824
 20
872.9960927175085
 30
0.0
 41
0.1
 42
0.1
 43
0.1
 50
90.0
  0
INSERT
  5
617E
330
616D
100
AcDbEntity
  8
7.3. Kota
440
 16777216
370
    -2
100
AcDbBlockReference
  2
_ArchTick
 10
2402.830873332824
 20
872.4260927175084
 30
0.0
 41
0.1
 42
0.1
 43
0.1
 50
270.0
  0
MTEXT
  5
617F
330
616D
100
AcDbEntity
  8
7.3. Kota
440
 16777216
100
AcDbMText
 10
2402.704287384666
 20
872.7110927175088
 30
0.0
 40
0.15
 41
0.0
 46
0.0
 71
     5
 72
     1
  1
0.57
 11
0.0000000000000001
 21
1.0
 31
0.0
 73
     1
 44
1.0
  0
POINT
  5
6180
330
616D
100
AcDbEntity
  8
Defpoints
 62
     0
440
 16777216
100
AcDbPoint
 10
2402.225053096286
 20
872.9960927175085
 30
0.0
  0
POINT
  5
6181
330
616D
100
AcDbEntity
  8
Defpoints
 62
     0
440
 16777216
100
AcDbPoint
 10
2402.225053096286
 20
872.4260927175084
 30
0.0
  0
POINT
  5
6182
330
616D
100
AcDbEntity
  8
Defpoints
 62
     0
440
 16777216
100
AcDbPoint
 10
2402.830873332824
 20
872.4260927175084
 30
0.0
  0
ENDBLK
  5
616F
330
616D
100
AcDbEntity
  8
0
100
AcDbBlockEnd
  0
BLOCK
  5
6186
330
6185
100
AcDbEntity
  8
0
100
AcDbBlockBegin
  2
*D11
 70
     1
 10
0.0
 20
0.0
 30
0.0
  3
*D11
  1

  0
LINE
  5
6192
330
6185
100
AcDbEntity
  8
7.3. Kota
440
 16777216
370
    -2
100
AcDbLine
 10
2402.475053096285
 20
874.7960927175084
 30
0.0
 11
2402.930873332824
 21
874.7960927175084
 31
0.0
  0
LINE
  5
6193
330
6185
100
AcDbEntity
  8
7.3. Kota
440
 16777216
370
    -2
100
AcDbLine
 10
2402.475053096285
 20
874.2960927175085
 30
0.0
 11
2402.930873332824
 21
874.2960927175085
 31
0.0
  0
LINE
  5
6194
330
6185
100
AcDbEntity
  8
7.3. Kota
440
 16777216
370
    -2
100
AcDbLine
 10
2402.830873332824
 20
874.7960927175084
 30
0.0
 11
2402.830873332824
 21
874.2960927175085
 31
0.0
  0
INSERT
  5
6195
330
6185
100
AcDbEntity
  8
7.3. Kota
440
 16777216
370
    -2
100
AcDbBlockReference
  2
_ArchTick
 10
2402.830873332824
 20
874.7960927175084
 30
0.0
 41
0.1
 42
0.1
 43
0.1
 50
90.0
  0
INSERT
  5
6196
330
6185
100
AcDbEntity
  8
7.3. Kota
440
 16777216
370
    -2
100
AcDbBlockReference
  2
_ArchTick
 10
2402.830873332824
 20
874.2960927175085
 30
0.0
 41
0.1
 42
0.1
 43
0.1
 50
270.0
  0
MTEXT
  5
6197
330
6185
100
AcDbEntity
  8
7.3. Kota
440
 16777216
100
AcDbMText
 10
2402.704287384666
 20
874.546092717509
 30
0.0
 40
0.15
 41
0.0
 46
0.0
 71
     5
 72
     1
  1
0.50
 11
0.0000000000000001
 21
1.0
 31
0.0
 73
     1
 44
1.0
  0
POINT
  5
6198
330
6185
100
AcDbEntity
  8
Defpoints
 62
     0
440
 16777216
100
AcDbPoint
 10
2402.375053096286
 20
874.7960927175084
 30
0.0
  0
POINT
  5
6199
330
6185
100
AcDbEntity
  8
Defpoints
 62
     0
440
 16777216
100
AcDbPoint
 10
2402.375053096286
 20
874.2960927175085
 30
0.0
  0
POINT
  5
619A
330
6185
100
AcDbEntity
  8
Defpoints
 62
     0
440
 16777216
100
AcDbPoint
 10
2402.830873332824
 20
874.2960927175085
 30
0.0
  0
ENDBLK
  5
6187
330
6185
100
AcDbEntity
  8
0
100
AcDbBlockEnd
  0
BLOCK
  5
619E
330
619D
100
AcDbEntity
  8
0
100
AcDbBlockBegin
  2
*D12
 70
     1
 10
0.0
 20
0.0
 30
0.0
  3
*D12
  1

  0
LINE
  5
61AA
330
619D
100
AcDbEntity
  8
7.3. Kota
440
 16777216
370
    -2
100
AcDbLine
 10
2402.475053096285
 20
875.6460927175085
 30
0.0
 11
2402.930873332824
 21
875.6460927175085
 31
0.0
  0
LINE
  5
61AB
330
619D
100
AcDbEntity
  8
7.3. Kota
440
 16777216
370
    -2
100
AcDbLine
 10
2402.475053096285
 20
875.1460927175084
 30
0.0
 11
2402.930873332824
 21
875.1460927175084
 31
0.0
  0
LINE
  5
61AC
330
619D
100
AcDbEntity
  8
7.3. Kota
440
 16777216
370
    -2
100
AcDbLine
 10
2402.830873332824
 20
875.6460927175085
 30
0.0
 11
2402.830873332824
 21
875.1460927175084
 31
0.0
  0
INSERT
  5
61AD
330
619D
100
AcDbEntity
  8
7.3. Kota
440
 16777216
370
    -2
100
AcDbBlockReference
  2
_ArchTick
 10
2402.830873332824
 20
875.6460927175085
 30
0.0
 41
0.1
 42
0.1
 43
0.1
 50
90.0
  0
INSERT
  5
61AE
330
619D
100
AcDbEntity
  8
7.3. Kota
440
 16777216
370
    -2
100
AcDbBlockReference
  2
_ArchTick
 10
2402.830873332824
 20
875.1460927175084
 30
0.0
 41
0.1
 42
0.1
 43
0.1
 50
270.0
  0
MTEXT
  5
61AF
330
619D
100
AcDbEntity
  8
7.3. Kota
440
 16777216
100
AcDbMText
 10
2402.704287384666
 20
875.3960927175089
 30
0.0
 40
0.15
 41
0.0
 46
0.0
 71
     5
 72
     1
  1
0.50
 11
0.0000000000000001
 21
1.0
 31
0.0
 73
     1
 44
1.0
  0
POINT
  5
61B0
330
619D
100
AcDbEntity
  8
Defpoints
 62
     0
440
 16777216
100
AcDbPoint
 10
2402.375053096286
 20
875.6460927175085
 30
0.0
  0
POINT
  5
61B1
330
619D
100
AcDbEntity
  8
Defpoints
 62
     0
440
 16777216
100
AcDbPoint
 10
2402.375053096286
 20
875.1460927175084
 30
0.0
  0
POINT
  5
61B2
330
619D
100
AcDbEntity
  8
Defpoints
 62
     0
440
 16777216
100
AcDbPoint
 10
2402.830873332824
 20
875.1460927175084
 30
0.0
  0
ENDBLK
  5
619F
330
619D
100
AcDbEntity
  8
0
100
AcDbBlockEnd
  0
BLOCK
  5
61B6
330
61B5
100
AcDbEntity
  8
0
100
AcDbBlockBegin
  2
*D13
 70
     1
 10
0.0
 20
0.0
 30
0.0
  3
*D13
  1

  0
LINE
  5
61C2
330
61B5
100
AcDbEntity
  8
7.3. Kota
440
 16777216
370
    -2
100
AcDbLine
 10
2402.475053096285
 20
876.0460927175085
 30
0.0
 11
2402.930873332824
 21
876.0460927175085
 31
0.0
  0
LINE
  5
61C3
330
61B5
100
AcDbEntity
  8
7.3. Kota
440
 16777216
370
    -2
100
AcDbLine
 10
2402.475053096285
 20
876.5460927175084
 30
0.0
 11
2402.930873332824
 21
876.5460927175084
 31
0.0
  0
LINE
  5
61C4
330
61B5
100
AcDbEntity
  8
7.3. Kota
440
 16777216
370
    -2
100
AcDbLine
 10
2402.830873332824
 20
876.0460927175085
 30
0.0
 11
2402.830873332824
 21
876.5460927175084
 31
0.0
  0
INSERT
  5
61C5
330
61B5
100
AcDbEntity
  8
7.3. Kota
440
 16777216
370
    -2
100
AcDbBlockReference
  2
_ArchTick
 10
2402.830873332824
 20
876.0460927175085
 30
0.0
 41
0.1
 42
0.1
 43
0.1
 50
270.0
  0
INSERT
  5
61C6
330
61B5
100
AcDbEntity
  8
7.3. Kota
440
 16777216
370
    -2
100
AcDbBlockReference
  2
_ArchTick
 10
2402.830873332824
 20
876.5460927175084
 30
0.0
 41
0.1
 42
0.1
 43
0.1
 50
90.0
  0
MTEXT
  5
61C7
330
61B5
100
AcDbEntity
  8
7.3. Kota
440
 16777216
100
AcDbMText
 10
2402.704287384666
 20
876.296092717509
 30
0.0
 40
0.15
 41
0.0
 46
0.0
 71
     5
 72
     1
  1
0.50
 11
0.0000000000000001
 21
1.0
 31
0.0
 73
     1
 44
1.0
  0
POINT
  5
61C8
330
61B5
100
AcDbEntity
  8
Defpoints
 62
     0
440
 16777216
100
AcDbPoint
 10
2402.375053096286
 20
876.0460927175085
 30
0.0
  0
POINT
  5
61C9
330
61B5
100
AcDbEntity
  8
Defpoints
 62
     0
440
 16777216
100
AcDbPoint
 10
2402.375053096286
 20
876.5460927175084
 30
0.0
  0
POINT
  5
61CA
330
61B5
100
AcDbEntity
  8
Defpoints
 62
     0
440
 16777216
100
AcDbPoint
 10
2402.830873332824
 20
876.5460927175084
 30
0.0
  0
ENDBLK
  5
61B7
330
61B5
100
AcDbEntity
  8
0
100
AcDbBlockEnd
  0
BLOCK
  5
61CE
330
61CD
100
AcDbEntity
  8
0
100
AcDbBlockBegin
  2
*D14
 70
     1
 10
0.0
 20
0.0
 30
0.0
  3
*D14
  1

  0
LINE
  5
61D0
330
61CD
100
AcDbEntity
  8
7.3. Kota
440
 16777216
370
    -2
100
AcDbLine
 10
2397.605053096285
 20
868.1811800306009
 30
0.0
 11
2397.605053096285
 21
868.1661563894433
 31
0.0
  0
LINE
  5
61D1
330
61CD
100
AcDbEntity
  8
7.3. Kota
440
 16777216
370
    -2
100
AcDbLine
 10
2401.625053096286
 20
868.1811800306011
 30
0.0
 11
2401.625053096286
 21
868.1661563894433
 31
0.0
  0
LINE
  5
61D2
330
61CD
100
AcDbEntity
  8
7.3. Kota
440
 16777216
370
    -2
100
AcDbLine
 10
2397.605053096285
 20
868.2661563894434
 30
0.0
 11
2401.625053096286
 21
868.2661563894434
 31
0.0
  0
INSERT
  5
61D3
330
61CD
100
AcDbEntity
  8
7.3. Kota
440
 16777216
370
    -2
100
AcDbBlockReference
  2
_ArchTick
 10
2397.605053096285
 20
868.2661563894434
 30
0.0
 41
0.1
 42
0.1
 43
0.1
 50
180.0
  0
INSERT
  5
61D4
330
61CD
100
AcDbEntity
  8
7.3. Kota
440
 16777216
370
    -2
100
AcDbBlockReference
  2
_ArchTick
 10
2401.625053096286
 20
868.2661563894434
 30
0.0
 41
0.1
 42
0.1
 43
0.1
  0
MTEXT
  5
61D5
330
61CD
100
AcDbEntity
  8
7.3. Kota
440
 16777216
100
AcDbMText
 10
2399.615053096285
 20
868.3927423376015
 30
0.0
 40
0.15
 41
0.0
 46
0.0
 71
     5
 72
     1
  1
4.02
 73
     1
 44
1.0
  0
POINT
  5
61D6
330
61CD
100
AcDbEntity
  8
Defpoints
 62
     0
440
 16777216
100
AcDbPoint
 10
2397.605053096285
 20
868.2811800306009
 30
0.0
  0
POINT
  5
61D7
330
61CD
100
AcDbEntity
  8
Defpoints
 62
     0
440
 16777216
100
AcDbPoint
 10
2401.625053096286
 20
868.281180030601
 30
0.0
  0
POINT
  5
61D8
330
61CD
100
AcDbEntity
  8
Defpoints
 62
     0
440
 16777216
100
AcDbPoint
 10
2401.625053096286
 20
868.2661563894434
 30
0.0
  0
ENDBLK
  5
61CF
330
61CD
100
AcDbEntity
  8
0
100
AcDbBlockEnd
  0
BLOCK
  5
61DB
330
61DA
100
AcDbEntity
  8
0
100
AcDbBlockBegin
  2
*D15
 70
     1
 10
0.0
 20
0.0
 30
0.0
  3
*D15
  1

  0
LINE
  5
61E5
330
61DA
100
AcDbEntity
  8
7.3. Kota
440
 16777216
370
    -2
100
AcDbLine
 10
2398.406004272545
 20
865.2260927175085
 30
0.0
 11
2398.406004272545
 21
873.7160927175086
 31
0.0
  0
INSERT
  5
61E6
330
61DA
100
AcDbEntity
  8
7.3. Kota
440
 16777216
370
    -2
100
AcDbBlockReference
  2
_ArchTick
 10
2398.406004272545
 20
865.2260927175085
 30
0.0
 41
0.1
 42
0.1
 43
0.1
 50
270.0
  0
INSERT
  5
61E7
330
61DA
100
AcDbEntity
  8
7.3. Kota
440
 16777216
370
    -2
100
AcDbBlockReference
  2
_ArchTick
 10
2398.406004272545
 20
873.7160927175086
 30
0.0
 41
0.1
 42
0.1
 43
0.1
 50
90.0
  0
MTEXT
  5
61E8
330
61DA
100
AcDbEntity
  8
7.3. Kota
440
 16777216
100
AcDbMText
 10
2398.279418324387
 20
869.4710927175091
 30
0.0
 40
0.15
 41
0.0
 46
0.0
 71
     5
 72
     1
  1
8.49
 11
0.0000000000000001
 21
1.0
 31
0.0
 73
     1
 44
1.0
  0
POINT
  5
61E9
330
61DA
100
AcDbEntity
  8
Defpoints
 62
     0
440
 16777216
100
AcDbPoint
 10
2398.406004272545
 20
865.2260927175085
 30
0.0
  0
POINT
  5
61EA
330
61DA
100
AcDbEntity
  8
Defpoints
 62
     0
440
 16777216
100
AcDbPoint
 10
2398.406004272545
 20
873.7160927175086
 30
0.0
  0
POINT
  5
61EB
330
61DA
100
AcDbEntity
  8
Defpoints
 62
     0
440
 16777216
100
AcDbPoint
 10
2398.406004272545
 20
873.7160927175086
 30
0.0
  0
ENDBLK
  5
61DC
330
61DA
100
AcDbEntity
  8
0
100
AcDbBlockEnd
  0
BLOCK
  5
61EF
330
61EE
100
AcDbEntity
  8
0
100
AcDbBlockBegin
  2
*D16
 70
     1
 10
0.0
 20
0.0
 30
0.0
  3
*D16
  1

  0
LINE
  5
61F1
330
61EE
100
AcDbEntity
  8
7.3. Kota
440
 16777216
370
    -2
100
AcDbLine
 10
2400.795053096286
 20
873.5009800745299
 30
0.0
 11
2400.795053096286
 21
873.4551020523575
 31
0.0
  0
LINE
  5
61F2
330
61EE
100
AcDbEntity
  8
7.3. Kota
440
 16777216
370
    -2
100
AcDbLine
 10
2401.555053096286
 20
873.50098007453
 30
0.0
 11
2401.555053096286
 21
873.4551020523575
 31
0.0
  0
LINE
  5
61F3
330
61EE
100
AcDbEntity
  8
7.3. Kota
440
 16777216
370
    -2
100
AcDbLine
 10
2400.795053096286
 20
873.5551020523576
 30
0.0
 11
2401.555053096286
 21
873.5551020523576
 31
0.0
  0
INSERT
  5
61F4
330
61EE
100
AcDbEntity
  8
7.3. Kota
440
 16777216
370
    -2
100
AcDbBlockReference
  2
_ArchTick
 10
2400.795053096286
 20
873.5551020523576
 30
0.0
 41
0.1
 42
0.1
 43
0.1
 50
180.0
  0
INSERT
  5
61F5
330
61EE
100
AcDbEntity
  8
7.3. Kota
440
 16777216
370
    -2
100
AcDbBlockReference
  2
_ArchTick
 10
2401.555053096286
 20
873.5551020523576
 30
0.0
 41
0.1
 42
0.1
 43
0.1
  0
MTEXT
  5
61F6
330
61EE
100
AcDbEntity
  8
7.3. Kota
440
 16777216
100
AcDbMText
 10
2401.175053096285
 20
873.6816880005157
 30
0.0
 40
0.15
 41
0.0
 46
0.0
 71
     5
 72
     1
  1
0.76
 73
     1
 44
1.0
  0
POINT
  5
61F7
330
61EE
100
AcDbEntity
  8
Defpoints
 62
     0
440
 16777216
100
AcDbPoint
 10
2400.795053096286
 20
873.60098007453
 30
0.0
  0
POINT
  5
61F8
330
61EE
100
AcDbEntity
  8
Defpoints
 62
     0
440
 16777216
100
AcDbPoint
 10
2401.555053096286
 20
873.60098007453
 30
0.0
  0
POINT
  5
61F9
330
61EE
100
AcDbEntity
  8
Defpoints
 62
     0
440
 16777216
100
AcDbPoint
 10
2401.555053096286
 20
873.5551020523576
 30
0.0
  0
ENDBLK
  5
61F0
330
61EE
100
AcDbEntity
  8
0
100
AcDbBlockEnd
  0
BLOCK
  5
61FC
330
61FB
100
AcDbEntity
  8
0
100
AcDbBlockBegin
  2
*D17
 70
     1
 10
0.0
 20
0.0
 30
0.0
  3
*D17
  1

  0
LINE
  5
6206
330
61FB
100
AcDbEntity
  8
7.3. Kota
440
 16777216
370
    -2
100
AcDbLine
 10
2398.406004272545
 20
873.8160927175085
 30
0.0
 11
2398.406004272545
 21
877.7460927175084
 31
0.0
  0
INSERT
  5
6207
330
61FB
100
AcDbEntity
  8
7.3. Kota
440
 16777216
370
    -2
100
AcDbBlockReference
  2
_ArchTick
 10
2398.406004272545
 20
873.8160927175085
 30
0.0
 41
0.1
 42
0.1
 43
0.1
 50
270.0
  0
INSERT
  5
6208
330
61FB
100
AcDbEntity
  8
7.3. Kota
440
 16777216
370
    -2
100
AcDbBlockReference
  2
_ArchTick
 10
2398.406004272545
 20
877.7460927175084
 30
0.0
 41
0.1
 42
0.1
 43
0.1
 50
90.0
  0
MTEXT
  5
6209
330
61FB
100
AcDbEntity
  8
7.3. Kota
440
 16777216
100
AcDbMText
 10
2398.279367164768
 20
875.7810927175091
 30
0.0
 40
0.15
 41
0.0
 46
0.0
 71
     5
 72
     1
  1
3.93
 11
0.0000000000000001
 21
1.0
 31
0.0
 73
     1
 44
1.0
  0
POINT
  5
620A
330
61FB
100
AcDbEntity
  8
Defpoints
 62
     0
440
 16777216
100
AcDbPoint
 10
2398.406004272545
 20
873.8160927175085
 30
0.0
  0
POINT
  5
620B
330
61FB
100
AcDbEntity
  8
Defpoints
 62
     0
440
 16777216
100
AcDbPoint
 10
2398.406004272545
 20
877.7460927175084
 30
0.0
  0
POINT
  5
620C
330
61FB
100
AcDbEntity
  8
Defpoints
 62
     0
440
 16777216
100
AcDbPoint
 10
2398.406004272545
 20
877.7460927175084
 30
0.0
  0
ENDBLK
  5
61FD
330
61FB
100
AcDbEntity
  8
0
100
AcDbBlockEnd
  0
BLOCK
  5
6210
330
620F
100
AcDbEntity
  8
0
100
AcDbBlockBegin
  2
*D18
 70
     1
 10
0.0
 20
0.0
 30
0.0
  3
*D18
  1

  0
LINE
  5
621C
330
620F
100
AcDbEntity
  8
7.3. Kota
440
 16777216
370
    -2
100
AcDbLine
 10
2402.125053096285
 20
868.1661563894433
 30
0.0
 11
2402.125053096285
 21
867.841628859945
 31
0.0
  0
LINE
  5
621D
330
620F
100
AcDbEntity
  8
7.3. Kota
440
 16777216
370
    -2
100
AcDbLine
 10
2397.195053096285
 20
868.1661563894435
 30
0.0
 11
2397.195053096285
 21
867.841628859945
 31
0.0
  0
LINE
  5
621E
330
620F
100
AcDbEntity
  8
7.3. Kota
440
 16777216
370
    -2
100
AcDbLine
 10
2402.125053096285
 20
867.9416288599449
 30
0.0
 11
2397.195053096285
 21
867.9416288599451
 31
0.0
  0
INSERT
  5
621F
330
620F
100
AcDbEntity
  8
7.3. Kota
440
 16777216
370
    -2
100
AcDbBlockReference
  2
_ArchTick
 10
2402.125053096285
 20
867.9416288599449
 30
0.0
 41
0.1
 42
0.1
 43
0.1
 50
359.9999999999987
  0
INSERT
  5
6220
330
620F
100
AcDbEntity
  8
7.3. Kota
440
 16777216
370
    -2
100
AcDbBlockReference
  2
_ArchTick
 10
2397.195053096285
 20
867.9416288599451
 30
0.0
 41
0.1
 42
0.1
 43
0.1
 50
179.9999999999986
  0
MTEXT
  5
6221
330
620F
100
AcDbEntity
  8
7.3. Kota
440
 16777216
100
AcDbMText
 10
2399.660053096285
 20
868.0682659677213
 30
0.0
 40
0.15
 41
0.0
 46
0.0
 71
     5
 72
     1
  1
4.93
 73
     1
 44
1.0
  0
POINT
  5
6222
330
620F
100
AcDbEntity
  8
Defpoints
 62
     0
440
 16777216
100
AcDbPoint
 10
2402.125053096285
 20
868.2661563894434
 30
0.0
  0
POINT
  5
6223
330
620F
100
AcDbEntity
  8
Defpoints
 62
     0
440
 16777216
100
AcDbPoint
 10
2397.195053096285
 20
868.2661563894434
 30
0.0
  0
POINT
  5
6224
330
620F
100
AcDbEntity
  8
Defpoints
 62
     0
440
 16777216
100
AcDbPoint
 10
2397.195053096285
 20
867.9416288599451
 30
0.0
  0
ENDBLK
  5
6211
330
620F
100
AcDbEntity
  8
0
100
AcDbBlockEnd
  0
BLOCK
  5
6228
330
6227
100
AcDbEntity
  8
0
100
AcDbBlockBegin
  2
*D19
 70
     1
 10
0.0
 20
0.0
 30
0.0
  3
*D19
  1

  0
LINE
  5
6234
330
6227
100
AcDbEntity
  8
7.3. Kota
440
 16777216
370
    -2
100
AcDbLine
 10
2400.735053096286
 20
877.2760927175085
 30
0.0
 11
2400.404706396414
 21
877.2760927175085
 31
0.0
  0
LINE
  5
6235
330
6227
100
AcDbEntity
  8
7.3. Kota
440
 16777216
370
    -2
100
AcDbLine
 10
2400.735053096286
 20
876.7060927175084
 30
0.0
 11
2400.404706396414
 21
876.7060927175084
 31
0.0
  0
LINE
  5
6236
330
6227
100
AcDbEntity
  8
7.3. Kota
440
 16777216
370
    -2
100
AcDbLine
 10
2400.504706396414
 20
877.2760927175085
 30
0.0
 11
2400.504706396414
 21
876.7060927175084
 31
0.0
  0
INSERT
  5
6237
330
6227
100
AcDbEntity
  8
7.3. Kota
440
 16777216
370
    -2
100
AcDbBlockReference
  2
_ArchTick
 10
2400.504706396414
 20
877.2760927175085
 30
0.0
 41
0.1
 42
0.1
 43
0.1
 50
90.0
  0
INSERT
  5
6238
330
6227
100
AcDbEntity
  8
7.3. Kota
440
 16777216
370
    -2
100
AcDbBlockReference
  2
_ArchTick
 10
2400.504706396414
 20
876.7060927175084
 30
0.0
 41
0.1
 42
0.1
 43
0.1
 50
270.0
  0
MTEXT
  5
6239
330
6227
100
AcDbEntity
  8
7.3. Kota
440
 16777216
100
AcDbMText
 10
2400.378120448256
 20
876.9910927175088
 30
0.0
 40
0.15
 41
0.0
 46
0.0
 71
     5
 72
     1
  1
0.57
 11
0.0000000000000001
 21
1.0
 31
0.0
 73
     1
 44
1.0
  0
POINT
  5
623A
330
6227
100
AcDbEntity
  8
Defpoints
 62
     0
440
 16777216
100
AcDbPoint
 10
2400.835053096285
 20
877.2760927175085
 30
0.0
  0
POINT
  5
623B
330
6227
100
AcDbEntity
  8
Defpoints
 62
     0
440
 16777216
100
AcDbPoint
 10
2400.835053096285
 20
876.7060927175084
 30
0.0
  0
POINT
  5
623C
330
6227
100
AcDbEntity
  8
Defpoints
 62
     0
440
 16777216
100
AcDbPoint
 10
2400.504706396414
 20
876.7060927175084
 30
0.0
  0
ENDBLK
  5
6229
330
6227
100
AcDbEntity
  8
0
100
AcDbBlockEnd
  0
BLOCK
  5
6240
330
623F
100
AcDbEntity
  8
0
100
AcDbBlockBegin
  2
*D20
 70
     1
 10
0.0
 20
0.0
 30
0.0
  3
*D20
  1

  0
LINE
  5
6395
330
623F
100
AcDbEntity
  8
7.3. Kota
440
 16777216
370
    -2
100
AcDbLine
 10
2402.475053096285
 20
877.7460927175084
 30
0.0
 11
2402.930873332824
 21
877.7460927175084
 31
0.0
  0
LINE
  5
6396
330
623F
100
AcDbEntity
  8
7.3. Kota
440
 16777216
370
    -2
100
AcDbLine
 10
2402.475053096285
 20
876.5460927175084
 30
0.0
 11
2402.930873332824
 21
876.5460927175084
 31
0.0
  0
LINE
  5
6397
330
623F
100
AcDbEntity
  8
7.3. Kota
440
 16777216
370
    -2
100
AcDbLine
 10
2402.830873332824
 20
877.7460927175084
 30
0.0
 11
2402.830873332824
 21
876.5460927175084
 31
0.0
  0
INSERT
  5
6398
330
623F
100
AcDbEntity
  8
7.3. Kota
440
 16777216
370
    -2
100
AcDbBlockReference
  2
_ArchTick
 10
2402.830873332824
 20
877.7460927175084
 30
0.0
 41
0.1
 42
0.1
 43
0.1
 50
90.0
  0
INSERT
  5
6399
330
623F
100
AcDbEntity
  8
7.3. Kota
440
 16777216
370
    -2
100
AcDbBlockReference
  2
_ArchTick
 10
2402.830873332824
 20
876.5460927175084
 30
0.0
 41
0.1
 42
0.1
 43
0.1
 50
270.0
  0
MTEXT
  5
639A
330
623F
100
AcDbEntity
  8
7.3. Kota
440
 16777216
100
AcDbMText
 10
2402.704287384667
 20
877.1460927175089
 30
0.0
 40
0.15
 41
0.0
 46
0.0
 71
     5
 72
     1
  1
1.20
 11
0.0000000000000001
 21
1.0
 31
0.0
 73
     1
 44
1.0
  0
POINT
  5
639B
330
623F
100
AcDbEntity
  8
Defpoints
 62
     0
440
 16777216
100
AcDbPoint
 10
2402.375053096286
 20
877.7460927175084
 30
0.0
  0
POINT
  5
639C
330
623F
100
AcDbEntity
  8
Defpoints
 62
     0
440
 16777216
100
AcDbPoint
 10
2402.375053096286
 20
876.5460927175084
 30
0.0
  0
POINT
  5
639D
330
623F
100
AcDbEntity
  8
Defpoints
 62
     0
440
 16777216
100
AcDbPoint
 10
2402.830873332824
 20
876.5460927175084
 30
0.0
  0
ENDBLK
  5
6241
330
623F
100
AcDbEntity
  8
0
100
AcDbBlockEnd
  0
BLOCK
  5
6258
330
6257
100
AcDbEntity
  8
0
100
AcDbBlockBegin
  2
*D21
 70
     1
 10
0.0
 20
0.0
 30
0.0
  3
*D21
  1

  0
LINE
  5
638C
330
6257
100
AcDbEntity
  8
7.3. Kota
440
 16777216
370
    -2
100
AcDbLine
 10
2397.195053096285
 20
878.0460927175086
 30
0.0
 11
2397.195053096285
 21
878.6318693233964
 31
0.0
  0
LINE
  5
638D
330
6257
100
AcDbEntity
  8
7.3. Kota
440
 16777216
370
    -2
100
AcDbLine
 10
2402.125053096285
 20
878.0460927175086
 30
0.0
 11
2402.125053096285
 21
878.6318693233964
 31
0.0
  0
LINE
  5
638E
330
6257
100
AcDbEntity
  8
7.3. Kota
440
 16777216
370
    -2
100
AcDbLine
 10
2397.195053096285
 20
878.5318693233962
 30
0.0
 11
2402.125053096285
 21
878.5318693233962
 31
0.0
  0
INSERT
  5
638F
330
6257
100
AcDbEntity
  8
7.3. Kota
440
 16777216
370
    -2
100
AcDbBlockReference
  2
_ArchTick
 10
2397.195053096285
 20
878.5318693233962
 30
0.0
 41
0.1
 42
0.1
 43
0.1
 50
180.0
  0
INSERT
  5
6390
330
6257
100
AcDbEntity
  8
7.3. Kota
440
 16777216
370
    -2
100
AcDbBlockReference
  2
_ArchTick
 10
2402.125053096285
 20
878.5318693233962
 30
0.0
 41
0.1
 42
0.1
 43
0.1
  0
MTEXT
  5
6391
330
6257
100
AcDbEntity
  8
7.3. Kota
440
 16777216
100
AcDbMText
 10
2399.660053096285
 20
878.6585064311726
 30
0.0
 40
0.15
 41
0.0
 46
0.0
 71
     5
 72
     1
  1
4.93
 73
     1
 44
1.0
  0
POINT
  5
6392
330
6257
100
AcDbEntity
  8
Defpoints
 62
     0
440
 16777216
100
AcDbPoint
 10
2397.195053096285
 20
877.9460927175085
 30
0.0
  0
POINT
  5
6393
330
6257
100
AcDbEntity
  8
Defpoints
 62
     0
440
 16777216
100
AcDbPoint
 10
2402.125053096285
 20
877.9460927175085
 30
0.0
  0
POINT
  5
6394
330
6257
100
AcDbEntity
  8
Defpoints
 62
     0
440
 16777216
100
AcDbPoint
 10
2402.125053096285
 20
878.5318693233962
 30
0.0
  0
ENDBLK
  5
6259
330
6257
100
AcDbEntity
  8
0
100
AcDbBlockEnd
  0
BLOCK
  5
6270
330
626F
100
AcDbEntity
  8
0
100
AcDbBlockBegin
  2
*D22
 70
     1
 10
0.0
 20
0.0
 30
0.0
  3
*D22
  1

  0
LINE
  5
627C
330
626F
100
AcDbEntity
  8
7.3. Kota
440
 16777216
370
    -2
100
AcDbLine
 10
2400.935053096286
 20
878.0460927175086
 30
0.0
 11
2400.935053096286
 21
878.2883798728104
 31
0.0
  0
LINE
  5
627D
330
626F
100
AcDbEntity
  8
7.3. Kota
440
 16777216
370
    -2
100
AcDbLine
 10
2402.125053096285
 20
878.0460927175086
 30
0.0
 11
2402.125053096285
 21
878.2883798728104
 31
0.0
  0
LINE
  5
627E
330
626F
100
AcDbEntity
  8
7.3. Kota
440
 16777216
370
    -2
100
AcDbLine
 10
2400.935053096286
 20
878.1883798728104
 30
0.0
 11
2402.125053096285
 21
878.1883798728104
 31
0.0
  0
INSERT
  5
627F
330
626F
100
AcDbEntity
  8
7.3. Kota
440
 16777216
370
    -2
100
AcDbBlockReference
  2
_ArchTick
 10
2400.935053096286
 20
878.1883798728104
 30
0.0
 41
0.1
 42
0.1
 43
0.1
 50
180.0
  0
INSERT
  5
6280
330
626F
100
AcDbEntity
  8
7.3. Kota
440
 16777216
370
    -2
100
AcDbBlockReference
  2
_ArchTick
 10
2402.125053096285
 20
878.1883798728104
 30
0.0
 41
0.1
 42
0.1
 43
0.1
  0
MTEXT
  5
6281
330
626F
100
AcDbEntity
  8
7.3. Kota
440
 16777216
100
AcDbMText
 10
2401.530053096286
 20
878.3149658209685
 30
0.0
 40
0.15
 41
0.0
 46
0.0
 71
     5
 72
     1
  1
1.19
 73
     1
 44
1.0
  0
POINT
  5
6282
330
626F
100
AcDbEntity
  8
Defpoints
 62
     0
440
 16777216
100
AcDbPoint
 10
2400.935053096286
 20
877.9460927175085
 30
0.0
  0
POINT
  5
6283
330
626F
100
AcDbEntity
  8
Defpoints
 62
     0
440
 16777216
100
AcDbPoint
 10
2402.125053096285
 20
877.9460927175085
 30
0.0
  0
POINT
  5
6284
330
626F
100
AcDbEntity
  8
Defpoints
 62
     0
440
 16777216
100
AcDbPoint
 10
2402.125053096285
 20
878.1883798728104
 30
0.0
  0
ENDBLK
  5
6271
330
626F
100
AcDbEntity
  8
0
100
AcDbBlockEnd
  0
BLOCK
  5
63C7
330
63C6
100
AcDbEntity
  8
0
100
AcDbBlockBegin
  2
*D23
 70
     1
 10
0.0
 20
0.0
 30
0.0
  3
*D23
  1

  0
LINE
  5
63D3
330
63C6
100
AcDbEntity
  8
7.3. Kota
440
 16777216
370
    -2
100
AcDbLine
 10
2402.475053096285
 20
877.7460927175084
 30
0.0
 11
2403.562622926838
 21
877.7460927175084
 31
0.0
  0
LINE
  5
63D4
330
63C6
100
AcDbEntity
  8
7.3. Kota
440
 16777216
370
    -2
100
AcDbLine
 10
2402.475053096285
 20
865.4960927175086
 30
0.0
 11
2403.562622926838
 21
865.4960927175086
 31
0.0
  0
LINE
  5
63D5
330
63C6
100
AcDbEntity
  8
7.3. Kota
440
 16777216
370
    -2
100
AcDbLine
 10
2403.462622926838
 20
877.7460927175084
 30
0.0
 11
2403.462622926838
 21
865.4960927175086
 31
0.0
  0
INSERT
  5
63D6
330
63C6
100
AcDbEntity
  8
7.3. Kota
440
 16777216
370
    -2
100
AcDbBlockReference
  2
_ArchTick
 10
2403.462622926838
 20
877.7460927175084
 30
0.0
 41
0.1
 42
0.1
 43
0.1
 50
90.0
  0
INSERT
  5
63D7
330
63C6
100
AcDbEntity
  8
7.3. Kota
440
 16777216
370
    -2
100
AcDbBlockReference
  2
_ArchTick
 10
2403.462622926838
 20
865.4960927175086
 30
0.0
 41
0.1
 42
0.1
 43
0.1
 50
270.0
  0
MTEXT
  5
63D8
330
63C6
100
AcDbEntity
  8
7.3. Kota
440
 16777216
100
AcDbMText
 10
2403.33603697868
 20
871.621092717509
 30
0.0
 40
0.15
 41
0.0
 46
0.0
 71
     5
 72
     1
  1
12.25
 11
0.0000000000000001
 21
1.0
 31
0.0
 73
     1
 44
1.0
  0
POINT
  5
63D9
330
63C6
100
AcDbEntity
  8
Defpoints
 62
     0
440
 16777216
100
AcDbPoint
 10
2402.375053096286
 20
877.7460927175084
 30
0.0
  0
POINT
  5
63DA
330
63C6
100
AcDbEntity
  8
Defpoints
 62
     0
440
 16777216
100
AcDbPoint
 10
2402.375053096286
 20
865.4960927175086
 30
0.0
  0
POINT
  5
63DB
330
63C6
100
AcDbEntity
  8
Defpoints
 62
     0
440
 16777216
100
AcDbPoint
 10
2403.462622926838
 20
865.4960927175086
 30
0.0
  0
ENDBLK
  5
63C8
330
63C6
100
AcDbEntity
  8
0
100
AcDbBlockEnd
  0
BLOCK
  5
9172
330
916E
100
AcDbEntity
  8
0
100
AcDbBlockBegin
  2
A$C56C501B1
 70
     0
 10
0.0
 20
0.0
 30
0.0
  3
A$C56C501B1
  1

  0
LWPOLYLINE
  5
916F
330
916E
100
AcDbEntity
  8
Basea_Eraikuntza
100
AcDbPolyline
 90
       54
 70
     1
 43
0.3
 10
6.693319272482767
 20
50.11846068780869
 10
19.8933192724362
 20
46.78846068959683
 10
21.97331927239429
 20
34.64846068900079
 10
22.35331927239895
 20
31.50846068933606
 10
22.57331927248742
 20
26.47846068814397
 10
22.75331927242223
 20
20.47846068907529
 10
23.19331927248277
 20
12.42846068926155
 10
22.75331927242223
 20
7.178460689261555
 10
22.08331927249674
 20
-0.4715393111109734
 10
21.01331927243155
 20
-9.161539310589432
 10
20.04331927245948
 20
-17.21153931040317
 10
18.25331927242223
 20
-22.17153931036591
 10
17.46331927250139
 20
-24.36153931170702
 10
16.87331927241757
 20
-24.1115393107757
 10
14.74331927241292
 20
-23.21153931040317
 10
13.88331927242689
 20
-22.85153931099921
 10
3.393319272436201
 20
-18.29153930954635
 10
0.5633192724781111
 20
-17.20153931248933
 10
0.7133192725013942
 20
-16.85153931193054
 10
3.853319272398948
 20
-9.65153931081295
 10
5.873319272417575
 20
-5.011539311148226
 10
11.10331927239895
 20
-7.39153931196779
 10
11.70331927249208
 20
-1.881539311259984
 10
8.743319272412918
 20
-1.471539311110973
 10
9.033319272566586
 20
3.528460688889026
 10
4.803319272468797
 20
5.618460687808692
 10
8.543319272459484
 20
11.41846068948507
 10
9.333319272496737
 20
11.45846068952232
 10
12.88331927231047
 20
11.62846068944782
 10
14.21331927250139
 20
22.44846068881452
 10
11.32331927248742
 20
23.11846068780869
 10
12.61331927240826
 20
28.59846068918705
 10
11.94331927248277
 20
28.74846068955958
 10
10.8033192724688
 20
23.3884606892243
 10
2.883319272426888
 20
26.08846068941057
 10
2.123319272417575
 20
24.41846068948507
 10
2.113319272408261
 20
24.39846068900079
 10
2.673319272464141
 20
23.41846068948507
 10
-2.096680727554485
 20
13.02846068888902
 10
0.2833192724501714
 20
11.94846068881452
 10
3.913319272454828
 20
10.28846068959683
 10
5.083319272496737
 20
9.758460689336061
 10
1.673319272464141
 20
2.368460687808692
 10
3.663319272454828
 20
1.488460687920451
 10
2.393319272436201
 20
-1.381539311259984
 10
-3.696680727531202
 20
-15.18153931107372
 10
-20.20668072754052
 20
-7.951539310626685
 10
-14.04668072750792
 20
5.958460690453648
 10
-13.16668072750326
 20
7.738460688851773
 10
-9.326680727419443
 20
16.2784606879577
 10
-4.346680727554485
 20
27.2784606879577
 10
-3.886680727591738
 20
28.29846068937332
 10
-0.9766807275591418
 20
34.18846068903804
 10
1.40331927256193
 20
39.00846068933606
1001
ACAD
1000
RTMaterial
1005
EC
1000
RTMaterial
1005
0
1001
IRD
1002
{
1000
TPMLINK_EDIFICIO-_-ade
1070
   515
1071
        1
1004
0100472000004706000047060000000000000CF3650C96F673400CF3650C96F6734000000000D31A0000
1002
}
  0
ENDBLK
  5
9173
330
916E
100
AcDbEntity
  8
0
100
AcDbBlockEnd
  0
ENDSEC
  0
SECTION
  2
ENTITIES
  0
HATCH
  5
1250
330
1F
100
AcDbEntity
  8
2.5. Horma itzala
100
AcDbHatch
 10
0.0
 20
0.0
 30
0.0
210
0.0
220
0.0
230
1.0
  2
SOLID
 70
     1
 71
     0
 91
        1
 92
        7
 72
     0
 73
     1
 93
       24
 10
2397.605053096285
 20
869.0060927175085
 10
2397.195053096285
 20
869.0060927175085
 10
2397.195053096285
 20
871.7560927175085
 10
2397.605053096285
 20
871.7560927175085
 10
2397.605053096285
 20
872.1060927175086
 10
2397.195053096285
 20
872.1060927175086
 10
2397.195053096285
 20
873.7160927175086
 10
2397.195053096285
 20
873.8160927175085
 10
2397.195053096285
 20
874.7960927175084
 10
2397.605053096285
 20
874.7960927175084
 10
2397.605053096285
 20
875.1460927175084
 10
2397.195053096285
 20
875.1460927175084
 10
2397.195053096285
 20
877.4960927175085
 10
2397.605053096285
 20
877.4960927175085
 10
2397.605053096285
 20
877.7460927175084
 10
2401.625053096286
 20
877.7460927175084
 10
2401.625053096286
 20
877.4960927175085
 10
2402.125053096285
 20
877.4960927175085
 10
2402.125053096285
 20
877.9460927175085
 10
2396.995053096286
 20
877.9460927175085
 10
2396.995053096286
 20
865.4960927175086
 10
2397.195053096285
 20
865.4960927175086
 10
2397.195053096285
 20
868.6560927175085
 10
2397.605053096285
 20
868.6560927175085
 97
        0
 75
     1
 76
     1
 47
0.0092361799809075
 98
        1
 10
2397.14731971003
 20
868.6647517291767
450
        0
451
        0
460
0.0
461
0.0
452
        0
462
1.0
453
        2
463
0.0
 63
     5
421
      255
463
1.0
 63
     2
421
 16776960
470
LINEAR
1001
GradientColor1ACI
1070
     5
1001
GradientColor2ACI
1070
     2
1001
ACAD
1010
0.0
1020
0.0
1030
0.0
  0
MTEXT
  5
1251
330
1F
100
AcDbEntity
  8
0
100
AcDbMText
 10
2393.712111230572
 20
894.0673577912448
 30
0.0
 40
3.0
 41
942.7166960848172
 46
0.0
 71
     1
 72
     5
  1
8. Lokala
 73
     1
 44
1.0
1001
ACAD
1000
ACAD_MTEXT_COLUMN_INFO_BEGIN
1070
    75
1070
     2
1070
    79
1070
     0
1070
    76
1070
     1
1070
    78
1070
     0
1070
    48
1040
942.7166960848172
1070
    49
1040
12.5
1070
    50
1070
     1
1040
0.0
1000
ACAD_MTEXT_COLUMN_INFO_END
  0
LINE
  5
1252
102
{ACAD_REACTORS
330
6225
102
}
330
1F
100
AcDbEntity
  8
2.3. Mehelina
100
AcDbLine
 10
2397.195053096285
 20
868.6560927175085
 30
0.0
 11
2397.195053096285
 21
865.4960927175086
 31
0.0
  0
LINE
  5
1253
330
1F
100
AcDbEntity
  8
2.3. Mehelina
100
AcDbLine
 10
2396.995053096286
 20
877.9460927175085
 30
0.0
 11
2396.995053096286
 21
865.4960927175086
 31
0.0
  0
LINE
  5
1254
330
1F
100
AcDbEntity
  8
2.3. Mehelina
100
AcDbLine
 10
2397.195053096285
 20
869.0060927175085
 30
0.0
 11
2397.195053096285
 21
871.7560927175085
 31
0.0
  0
LINE
  5
1255
330
1F
100
AcDbEntity
  8
2.3. Mehelina
100
AcDbLine
 10
2397.195053096285
 20
872.1060927175086
 30
0.0
 11
2397.195053096285
 21
873.8160927175085
 31
0.0
  0
LINE
  5
1256
330
1F
100
AcDbEntity
  8
2.3. Mehelina
100
AcDbLine
 10
2397.195053096285
 20
873.8160927175085
 30
0.0
 11
2397.195053096285
 21
874.7960927175084
 31
0.0
  0
LINE
  5
1257
330
1F
100
AcDbEntity
  8
2.3. Mehelina
100
AcDbLine
 10
2397.195053096285
 20
875.1460927175084
 30
0.0
 11
2397.195053096285
 21
877.4960927175085
 31
0.0
  0
LINE
  5
1258
330
1F
100
AcDbEntity
  8
2.3. Mehelina
100
AcDbLine
 10
2397.605053096285
 20
872.1060927175086
 30
0.0
 11
2397.605053096285
 21
871.7560927175085
 31
0.0
  0
LINE
  5
1259
330
1F
100
AcDbEntity
  8
2.3. Mehelina
100
AcDbLine
 10
2397.605053096285
 20
869.0060927175085
 30
0.0
 11
2397.605053096285
 21
868.6560927175085
 31
0.0
  0
LINE
  5
125A
330
1F
100
AcDbEntity
  8
2.1. Kanpo Horma
100
AcDbLine
 10
2397.605053096285
 20
865.4960927175086
 30
0.0
 11
2397.605053096285
 21
865.2260927175085
 31
0.0
  0
LINE
  5
125B
330
1F
100
AcDbEntity
  8
2.1. Kanpo Horma
100
AcDbLine
 10
2402.375053096286
 20
865.4960927175086
 30
0.0
 11
2402.375053096286
 21
865.0260927175084
 31
0.0
  0
LINE
  5
125C
330
1F
100
AcDbEntity
  8
2.1. Kanpo Horma
100
AcDbLine
 10
2402.125053096285
 20
872.1060927175086
 30
0.0
 11
2402.125053096285
 21
872.3660927175085
 31
0.0
  0
LINE
  5
125D
330
1F
100
AcDbEntity
  8
2.1. Kanpo Horma
100
AcDbLine
 10
2402.125053096285
 20
873.0560927175085
 30
0.0
 11
2402.125053096285
 21
874.2960927175085
 31
0.0
  0
LINE
  5
125F
330
1F
100
AcDbEntity
  8
2.2. Barne Horma
100
AcDbLine
 10
2400.835053096286
 20
877.3360927175085
 30
0.0
 11
2400.835053096285
 21
877.7460927175084
 31
0.0
  0
LINE
  5
1261
102
{ACAD_REACTORS
330
6285
102
}
330
1F
100
AcDbEntity
  8
2.2. Barne Horma
100
AcDbLine
 10
2400.935053096286
 20
877.3360927175085
 30
0.0
 11
2400.935053096286
 21
877.7460927175084
 31
0.0
  0
LINE
  5
1262
330
1F
100
AcDbEntity
  8
2.2. Barne Horma
100
AcDbLine
 10
2401.615053096286
 20
873.7160927175086
 30
0.0
 11
2401.615053096286
 21
873.8160927175085
 31
0.0
  0
LINE
  5
1263
330
1F
100
AcDbEntity
  8
2.1. Kanpo Horma
100
AcDbLine
 10
2401.625053096286
 20
872.1060927175086
 30
0.0
 11
2401.625053096286
 21
871.7560927175085
 31
0.0
  0
LINE
  5
1264
330
1F
100
AcDbEntity
  8
2.1. Kanpo Horma
100
AcDbLine
 10
2401.625053096286
 20
869.0060927175085
 30
0.0
 11
2401.625053096286
 21
868.6560927175085
 31
0.0
  0
LINE
  5
1265
330
1F
100
AcDbEntity
  8
2.1. Kanpo Horma
100
AcDbLine
 10
2401.625053096286
 20
865.4960927175086
 30
0.0
 11
2401.625053096286
 21
865.2260927175085
 31
0.0
  0
LINE
  5
1266
330
1F
100
AcDbEntity
  8
2.1. Kanpo Horma
100
AcDbLine
 10
2400.055053096286
 20
865.0260927175084
 30
0.0
 11
2400.125053096286
 21
865.0260927175084
 31
0.0
  0
LINE
  5
1267
330
1F
100
AcDbEntity
  8
2.1. Kanpo Horma
100
AcDbLine
 10
2401.625053096286
 20
865.0260927175084
 30
0.0
 11
2402.375053096286
 21
865.0260927175084
 31
0.0
  0
LINE
  5
1268
102
{ACAD_REACTORS
330
61EC
102
}
330
1F
100
AcDbEntity
  8
2.2. Barne Horma
100
AcDbLine
 10
2400.735053096286
 20
873.7160927175086
 30
0.0
 11
2397.195053096285
 21
873.7160927175086
 31
0.0
  0
LINE
  5
1269
330
1F
100
AcDbEntity
  8
2.2. Barne Horma
100
AcDbLine
 10
2401.615053096286
 20
873.7160927175086
 30
0.0
 11
2402.125053096285
 21
873.7160927175086
 31
0.0
  0
LINE
  5
126A
330
1F
100
AcDbEntity
  8
2.2. Barne Horma
100
AcDbLine
 10
2400.735053096286
 20
873.8160927175085
 30
0.0
 11
2397.195053096285
 21
873.8160927175085
 31
0.0
  0
LINE
  5
126B
330
1F
100
AcDbEntity
  8
2.2. Barne Horma
100
AcDbLine
 10
2401.615053096286
 20
873.8160927175085
 30
0.0
 11
2402.125053096285
 21
873.8160927175085
 31
0.0
  0
LINE
  5
126C
330
1F
100
AcDbEntity
  8
2.3. Mehelina
100
AcDbLine
 10
2397.605053096285
 20
872.1060927175086
 30
0.0
 11
2397.195053096285
 21
872.1060927175086
 31
0.0
  0
LINE
  5
126D
330
1F
100
AcDbEntity
  8
2.1. Kanpo Horma
100
AcDbLine
 10
2401.625053096286
 20
872.1060927175086
 30
0.0
 11
2402.125053096285
 21
872.1060927175086
 31
0.0
  0
LINE
  5
126E
330
1F
100
AcDbEntity
  8
2.3. Mehelina
100
AcDbLine
 10
2397.605053096285
 20
871.7560927175085
 30
0.0
 11
2397.195053096285
 21
871.7560927175085
 31
0.0
  0
LINE
  5
126F
330
1F
100
AcDbEntity
  8
2.1. Kanpo Horma
100
AcDbLine
 10
2401.625053096286
 20
871.7560927175085
 30
0.0
 11
2402.125053096285
 21
871.7560927175085
 31
0.0
  0
LINE
  5
1270
330
1F
100
AcDbEntity
  8
2.3. Mehelina
100
AcDbLine
 10
2397.195053096285
 20
869.0060927175085
 30
0.0
 11
2397.605053096285
 21
869.0060927175085
 31
0.0
  0
LINE
  5
1271
330
1F
100
AcDbEntity
  8
2.1. Kanpo Horma
100
AcDbLine
 10
2401.625053096286
 20
869.0060927175085
 30
0.0
 11
2402.125053096285
 21
869.0060927175085
 31
0.0
  0
LINE
  5
1272
330
1F
100
AcDbEntity
  8
2.3. Mehelina
100
AcDbLine
 10
2397.195053096285
 20
868.6560927175085
 30
0.0
 11
2397.605053096285
 21
868.6560927175085
 31
0.0
  0
LINE
  5
1273
330
1F
100
AcDbEntity
  8
2.1. Kanpo Horma
100
AcDbLine
 10
2401.625053096286
 20
868.6560927175085
 30
0.0
 11
2402.125053096285
 21
868.6560927175085
 31
0.0
  0
LINE
  5
1274
330
1F
100
AcDbEntity
  8
2.1. Kanpo Horma
100
AcDbLine
 10
2397.605053096285
 20
865.4960927175086
 30
0.0
 11
2397.195053096285
 21
865.4960927175086
 31
0.0
  0
LINE
  5
1275
330
1F
100
AcDbEntity
  8
2.1. Kanpo Horma
100
AcDbLine
 10
2401.625053096286
 20
865.4960927175086
 30
0.0
 11
2402.125053096285
 21
865.4960927175086
 31
0.0
  0
LWPOLYLINE
  5
1276
102
{ACAD_REACTORS
330
62E8
102
}
330
1F
100
AcDbEntity
  8
3.1. Atea
100
AcDbPolyline
 90
        6
 70
     0
 43
0.0
 10
2400.735053096286
 20
873.8160927175085
 10
2400.760053096286
 20
873.8160927175085
 10
2400.760053096286
 20
873.7910927175084
 10
2400.795053096286
 20
873.7910927175084
 10
2400.795053096286
 20
873.7160927175086
 10
2400.735053096286
 20
873.7160927175086
  0
LWPOLYLINE
  5
1277
102
{ACAD_REACTORS
330
62E8
102
}
330
1F
100
AcDbEntity
  8
3.1. Atea
100
AcDbPolyline
 90
        6
 70
     0
 43
0.0
 10
2401.615053096286
 20
873.8160927175085
 10
2401.590053096285
 20
873.8160927175085
 10
2401.590053096285
 20
873.7910927175084
 10
2401.555053096286
 20
873.7910927175084
 10
2401.555053096286
 20
873.7160927175086
 10
2401.615053096286
 20
873.7160927175086
  0
LINE
  5
1278
330
1F
100
AcDbEntity
  8
2.2. Barne Horma
100
AcDbLine
 10
2400.735053096286
 20
873.7160927175086
 30
0.0
 11
2400.735053096286
 21
873.8160927175085
 31
0.0
  0
LWPOLYLINE
  5
1279
330
1F
100
AcDbEntity
  8
3.1. Atea
100
AcDbPolyline
 90
        4
 70
     1
 43
0.0
 10
2401.565053096286
 20
874.6460927175085
 10
2401.590053096285
 20
874.6460927175085
 10
2401.590053096285
 20
873.8160927175085
 10
2401.565053096286
 20
873.8160927175085
  0
ARC
  5
127A
330
1F
100
AcDbEntity
  8
3.1. Atea
100
AcDbCircle
 10
2401.590720337029
 20
873.8158220804017
 30
0.0
 40
0.8306672848313191
100
AcDbArc
 50
91.77069533705413
 51
179.9813326411722
  0
LINE
  5
127B
330
1F
100
AcDbEntity
  8
2.3. Mehelina
100
AcDbLine
 10
2397.605053096285
 20
874.7960927175084
 30
0.0
 11
2397.195053096285
 21
874.7960927175084
 31
0.0
  0
LINE
  5
127C
330
1F
100
AcDbEntity
  8
2.1. Kanpo Horma
100
AcDbLine
 10
2401.625053096286
 20
874.7960927175084
 30
0.0
 11
2402.125053096285
 21
874.7960927175084
 31
0.0
  0
LINE
  5
127D
330
1F
100
AcDbEntity
  8
2.3. Mehelina
100
AcDbLine
 10
2397.605053096285
 20
875.1460927175084
 30
0.0
 11
2397.195053096285
 21
875.1460927175084
 31
0.0
  0
LINE
  5
127E
330
1F
100
AcDbEntity
  8
2.1. Kanpo Horma
100
AcDbLine
 10
2401.625053096286
 20
875.1460927175084
 30
0.0
 11
2402.125053096285
 21
875.1460927175084
 31
0.0
  0
LINE
  5
127F
330
1F
100
AcDbEntity
  8
2.2. Barne Horma
100
AcDbLine
 10
2400.835053096285
 20
876.5460927175084
 30
0.0
 11
2402.125053096285
 21
876.5460927175084
 31
0.0
  0
LINE
  5
1280
330
1F
100
AcDbEntity
  8
2.2. Barne Horma
100
AcDbLine
 10
2400.935053096286
 20
876.6460927175085
 30
0.0
 11
2402.125053096285
 21
876.6460927175085
 31
0.0
  0
LINE
  5
1281
102
{ACAD_REACTORS
330
620D
102
}
330
1F
100
AcDbEntity
  8
2.3. Mehelina
100
AcDbLine
 10
2401.625053096286
 20
877.7460927175084
 30
0.0
 11
2397.605053096285
 21
877.7460927175084
 31
0.0
  0
LINE
  5
1282
102
{ACAD_REACTORS
330
6285
102
}
330
1F
100
AcDbEntity
  8
2.3. Mehelina
100
AcDbLine
 10
2402.125053096285
 20
877.9460927175085
 30
0.0
 11
2396.995053096286
 21
877.9460927175085
 31
0.0
  0
LINE
  5
1283
330
1F
100
AcDbEntity
  8
2.3. Mehelina
100
AcDbLine
 10
2397.605053096285
 20
877.4960927175085
 30
0.0
 11
2397.195053096285
 21
877.4960927175085
 31
0.0
  0
LINE
  5
1284
330
1F
100
AcDbEntity
  8
2.3. Mehelina
100
AcDbLine
 10
2401.625053096286
 20
877.4960927175085
 30
0.0
 11
2402.125053096285
 21
877.4960927175085
 31
0.0
  0
LINE
  5
1285
330
1F
100
AcDbEntity
  8
2.1. Kanpo Horma
100
AcDbLine
 10
2401.625053096286
 20
874.7960927175084
 30
0.0
 11
2401.625053096286
 21
875.1460927175084
 31
0.0
  0
LINE
  5
1286
330
1F
100
AcDbEntity
  8
2.3. Mehelina
100
AcDbLine
 10
2397.605053096285
 20
875.1460927175084
 30
0.0
 11
2397.605053096285
 21
874.7960927175084
 31
0.0
  0
LINE
  5
1287
330
1F
100
AcDbEntity
  8
2.3. Mehelina
100
AcDbLine
 10
2401.625053096286
 20
877.4960927175085
 30
0.0
 11
2401.625053096286
 21
877.7460927175084
 31
0.0
  0
LINE
  5
1288
330
1F
100
AcDbEntity
  8
2.3. Mehelina
100
AcDbLine
 10
2397.605053096285
 20
877.4960927175085
 30
0.0
 11
2397.605053096285
 21
877.7460927175084
 31
0.0
  0
LWPOLYLINE
  5
1289
102
{ACAD_REACTORS
330
623D
102
}
330
1F
100
AcDbEntity
  8
3.1. Atea
100
AcDbPolyline
 90
        6
 70
     0
 43
0.0
 10
2400.935053096286
 20
877.3360927175085
 10
2400.935053096286
 20
877.3110927175084
 10
2400.910053096286
 20
877.3110927175084
 10
2400.910053096286
 20
877.2760927175085
 10
2400.835053096285
 20
877.2760927175085
 10
2400.835053096285
 20
877.3360927175085
  0
LWPOLYLINE
  5
128A
102
{ACAD_REACTORS
330
623D
102
}
330
1F
100
AcDbEntity
  8
3.1. Atea
100
AcDbPolyline
 90
        6
 70
     0
 43
0.0
 10
2400.935053096286
 20
876.6460927175085
 10
2400.935053096286
 20
876.6710927175084
 10
2400.910053096286
 20
876.6710927175084
 10
2400.910053096286
 20
876.7060927175084
 10
2400.835053096285
 20
876.7060927175084
 10
2400.835053096285
 20
876.6460927175085
  0
LWPOLYLINE
  5
128B
330
1F
100
AcDbEntity
  8
3.1. Atea
100
AcDbPolyline
 90
        4
 70
     1
 43
0.0
 10
2401.575053096286
 20
876.6960927175084
 10
2401.575053096286
 20
876.6710927175084
 10
2400.935053096286
 20
876.6710927175084
 10
2400.935053096286
 20
876.6960927175084
  0
ARC
  5
128C
330
1F
100
AcDbEntity
  8
3.1. Atea
100
AcDbCircle
 10
2400.934683160561
 20
876.6701996136649
 30
0.0
 40
0.640893210610415
100
AcDbArc
 50
2.315470724351941
 51
89.96692778682151
  0
LINE
  5
128D
330
1F
100
AcDbEntity
  8
2.2. Barne Horma
100
AcDbLine
 10
2400.835053096285
 20
876.6460927175085
 30
0.0
 11
2400.935053096286
 21
876.6460927175085
 31
0.0
  0
LINE
  5
128E
330
1F
100
AcDbEntity
  8
2.2. Barne Horma
100
AcDbLine
 10
2400.835053096285
 20
877.3360927175085
 30
0.0
 11
2400.935053096286
 21
877.3360927175085
 31
0.0
  0
LWPOLYLINE
  5
128F
102
{ACAD_REACTORS
330
6123
102
}
330
1F
100
AcDbEntity
  8
3.1. Atea
100
AcDbPolyline
 90
        6
 70
     0
 43
0.0
 10
2399.175053096286
 20
865.2260927175085
 10
2399.200053096286
 20
865.2260927175085
 10
2399.200053096286
 20
865.2010927175085
 10
2399.235053096285
 20
865.2010927175085
 10
2399.235053096285
 20
865.1260927175085
 10
2399.175053096286
 20
865.1260927175085
  0
LWPOLYLINE
  5
1290
102
{ACAD_REACTORS
330
6123
102
}
330
1F
100
AcDbEntity
  8
3.1. Atea
100
AcDbPolyline
 90
        6
 70
     0
 43
0.0
 10
2400.055053096286
 20
865.2260927175085
 10
2400.030053096286
 20
865.2260927175085
 10
2400.030053096286
 20
865.2010927175085
 10
2399.995053096286
 20
865.2010927175085
 10
2399.995053096286
 20
865.1260927175085
 10
2400.055053096286
 20
865.1260927175085
  0
LWPOLYLINE
  5
1291
102
{ACAD_REACTORS
330
62E8
330
62EE
102
}
330
1F
100
AcDbEntity
  8
3.1. Atea
100
AcDbPolyline
 90
        4
 70
     1
 43
0.0
 10
2400.005053096285
 20
866.0560927175085
 10
2400.030053096286
 20
866.0560927175085
 10
2400.030053096286
 20
865.2260927175085
 10
2400.005053096285
 20
865.2260927175085
  0
ARC
  5
1292
102
{ACAD_REACTORS
330
62E8
330
62EE
102
}
330
1F
100
AcDbEntity
  8
3.1. Atea
100
AcDbCircle
 10
2400.030720337029
 20
865.2258220804018
 30
0.0
 40
0.8306672848313191
100
AcDbArc
 50
91.77069533705413
 51
179.9813326411722
  0
LINE
  5
1293
330
1F
100
AcDbEntity
  8
2.1. Kanpo Horma
100
AcDbLine
 10
2399.175053096286
 20
865.2260927175085
 30
0.0
 11
2399.175053096286
 21
865.0260927175084
 31
0.0
  0
LINE
  5
1294
330
1F
100
AcDbEntity
  8
2.1. Kanpo Horma
100
AcDbLine
 10
2400.055053096286
 20
865.2260927175085
 30
0.0
 11
2400.055053096286
 21
865.0260927175084
 31
0.0
  0
LINE
  5
1295
330
1F
100
AcDbEntity
  8
2.1. Kanpo Horma
100
AcDbLine
 10
2400.125053096286
 20
865.2260927175085
 30
0.0
 11
2400.125053096286
 21
865.0260927175084
 31
0.0
  0
LINE
  5
1296
330
1F
100
AcDbEntity
  8
2.1. Kanpo Horma
100
AcDbLine
 10
2402.125053096285
 20
868.6560927175085
 30
0.0
 11
2402.375053096286
 21
868.6560927175085
 31
0.0
  0
LINE
  5
1297
330
1F
100
AcDbEntity
  8
2.1. Kanpo Horma
100
AcDbLine
 10
2402.125053096285
 20
869.0060927175085
 30
0.0
 11
2402.375053096286
 21
869.0060927175085
 31
0.0
  0
LINE
  5
1298
330
1F
100
AcDbEntity
  8
2.1. Kanpo Horma
100
AcDbLine
 10
2402.375053096286
 20
868.6560927175085
 30
0.0
 11
2402.375053096286
 21
869.0060927175085
 31
0.0
  0
LINE
  5
1299
330
1F
100
AcDbEntity
  8
2.1. Kanpo Horma
100
AcDbLine
 10
2402.375053096286
 20
871.7560927175085
 30
0.0
 11
2402.375053096286
 21
872.3660927175085
 31
0.0
  0
LINE
  5
129A
330
1F
100
AcDbEntity
  8
2.1. Kanpo Horma
100
AcDbLine
 10
2402.125053096285
 20
865.4960927175086
 30
0.0
 11
2402.375053096286
 21
865.4960927175086
 31
0.0
  0
LINE
  5
129B
330
1F
100
AcDbEntity
  8
2.1. Kanpo Horma
100
AcDbLine
 10
2402.125053096285
 20
871.7560927175085
 30
0.0
 11
2402.375053096286
 21
871.7560927175085
 31
0.0
  0
LINE
  5
129C
330
1F
100
AcDbEntity
  8
2.1. Kanpo Horma
100
AcDbLine
 10
2402.125053096285
 20
874.7960927175084
 30
0.0
 11
2402.375053096286
 21
874.7960927175084
 31
0.0
  0
LINE
  5
129D
330
1F
100
AcDbEntity
  8
2.1. Kanpo Horma
100
AcDbLine
 10
2402.125053096285
 20
874.2960927175085
 30
0.0
 11
2402.375053096286
 21
874.2960927175085
 31
0.0
  0
LINE
  5
129F
330
1F
100
AcDbEntity
  8
2.1. Kanpo Horma
100
AcDbLine
 10
2402.125053096285
 20
876.5460927175084
 30
0.0
 11
2402.375053096286
 21
876.5460927175084
 31
0.0
  0
LINE
  5
12A0
330
1F
100
AcDbEntity
  8
2.1. Kanpo Horma
100
AcDbLine
 10
2402.125053096285
 20
875.1460927175084
 30
0.0
 11
2402.375053096286
 21
875.1460927175084
 31
0.0
  0
LINE
  5
12A1
330
1F
100
AcDbEntity
  8
2.1. Kanpo Horma
100
AcDbLine
 10
2402.125053096285
 20
875.6460927175085
 30
0.0
 11
2402.375053096286
 21
875.6460927175085
 31
0.0
  0
LINE
  5
12A2
330
1F
100
AcDbEntity
  8
2.1. Kanpo Horma
100
AcDbLine
 10
2402.125053096285
 20
876.5460927175084
 30
0.0
 11
2402.375053096286
 21
876.5460927175084
 31
0.0
  0
LINE
  5
12A3
330
1F
100
AcDbEntity
  8
2.1. Kanpo Horma
100
AcDbLine
 10
2402.125053096285
 20
876.0460927175085
 30
0.0
 11
2402.375053096286
 21
876.0460927175085
 31
0.0
  0
LINE
  5
12A4
330
1F
100
AcDbEntity
  8
2.1. Kanpo Horma
100
AcDbLine
 10
2402.125053096285
 20
875.6460927175085
 30
0.0
 11
2402.125053096285
 21
876.0460927175085
 31
0.0
  0
LWPOLYLINE
  5
12A5
102
{ACAD_REACTORS
330
6183
330
8CDD
102
}
330
1F
100
AcDbEntity
  8
3.1. Atea
100
AcDbPolyline
 90
        6
 70
     0
 43
0.0
 10
2402.125053096285
 20
872.3660927175085
 10
2402.125053096285
 20
872.3910927175085
 10
2402.150053096285
 20
872.3910927175085
 10
2402.150053096285
 20
872.4260927175084
 10
2402.225053096286
 20
872.4260927175084
 10
2402.225053096286
 20
872.3660927175085
  0
LWPOLYLINE
  5
12A6
102
{ACAD_REACTORS
330
6183
330
8CDD
102
}
330
1F
100
AcDbEntity
  8
3.1. Atea
100
AcDbPolyline
 90
        6
 70
     0
 43
0.0
 10
2402.125053096285
 20
873.0560927175085
 10
2402.125053096285
 20
873.0310927175084
 10
2402.150053096285
 20
873.0310927175084
 10
2402.150053096285
 20
872.9960927175085
 10
2402.225053096286
 20
872.9960927175085
 10
2402.225053096286
 20
873.0560927175085
  0
LWPOLYLINE
  5
12A7
102
{ACAD_REACTORS
330
62E8
330
8CDD
102
}
330
1F
100
AcDbEntity
  8
3.1. Atea
100
AcDbPolyline
 90
        4
 70
     1
 43
0.0
 10
2401.485053096286
 20
873.0060927175085
 10
2401.485053096286
 20
873.0310927175084
 10
2402.125053096285
 20
873.0310927175084
 10
2402.125053096285
 20
873.0060927175085
  0
ARC
  5
12A8
102
{ACAD_REACTORS
330
62E8
330
8CDD
102
}
330
1F
100
AcDbEntity
  8
3.1. Atea
100
AcDbCircle
 10
2402.12542303201
 20
873.0319858213519
 30
0.0
 40
0.640893210610415
100
AcDbArc
 50
182.3154707243519
 51
269.9669277868216
  0
LINE
  5
12A9
330
1F
100
AcDbEntity
  8
2.1. Kanpo Horma
100
AcDbLine
 10
2402.375053096286
 20
873.0560927175085
 30
0.0
 11
2402.125053096285
 21
873.0560927175085
 31
0.0
  0
LINE
  5
12AA
330
1F
100
AcDbEntity
  8
2.1. Kanpo Horma
100
AcDbLine
 10
2402.375053096286
 20
872.3660927175085
 30
0.0
 11
2402.125053096285
 21
872.3660927175085
 31
0.0
  0
LWPOLYLINE
  5
12AB
330
1F
100
AcDbEntity
  8
3.1. Atea
100
AcDbPolyline
 90
        4
 70
     0
 43
0.0
 10
2402.375053096286
 20
872.3660927175085
 10
2402.425053096286
 20
872.3660927175085
 10
2402.425053096286
 20
873.0560927175085
 10
2402.375053096286
 20
873.0560927175085
  0
LWPOLYLINE
  5
12AC
330
1F
100
AcDbEntity
  8
3.1. Atea
100
AcDbPolyline
 90
        4
 70
     0
 43
0.0
 10
2399.175053096286
 20
865.0260927175084
 10
2399.175053096286
 20
864.9760927175085
 10
2400.055053096286
 20
864.9760927175085
 10
2400.055053096286
 20
865.0260927175084
  0
LINE
  5
12AE
102
{ACAD_REACTORS
330
60F3
102
}
330
1F
100
AcDbEntity
  8
2.1. Kanpo Horma
100
AcDbLine
 10
2401.625053096286
 20
865.2260927175085
 30
0.0
 11
2401.625053096286
 21
865.0260927175084
 31
0.0
  0
LINE
  5
12AF
330
1F
100
AcDbEntity
  8
3.2. Leihoa
100
AcDbLine
 10
2400.125053096286
 20
865.1610927175084
 30
0.0
 11
2401.625053096286
 21
865.1610927175084
 31
0.0
  0
LWPOLYLINE
  5
12B0
330
1F
100
AcDbEntity
  8
2.1. Kanpo Horma
100
AcDbPolyline
 90
        2
 70
     0
 43
0.0
 10
2400.055053096286
 20
865.2260927175085
 10
2400.125053096286
 20
865.2260927175085
  0
LINE
  5
12B1
102
{ACAD_REACTORS
330
60DB
102
}
330
1F
100
AcDbEntity
  8
2.1. Kanpo Horma
100
AcDbLine
 10
2399.105053096285
 20
865.2260927175085
 30
0.0
 11
2399.105053096285
 21
865.0260927175084
 31
0.0
  0
LINE
  5
12B2
330
1F
100
AcDbEntity
  8
2.1. Kanpo Horma
100
AcDbLine
 10
2397.605053096285
 20
865.2260927175085
 30
0.0
 11
2397.605053096285
 21
865.0260927175084
 31
0.0
  0
LINE
  5
12B3
330
1F
100
AcDbEntity
  8
3.2. Leihoa
100
AcDbLine
 10
2399.105053096285
 20
865.0260927175084
 30
0.0
 11
2397.605053096285
 21
865.0260927175084
 31
0.0
  0
LINE
  5
12B4
102
{ACAD_REACTORS
330
60DB
330
610B
102
}
330
1F
100
AcDbEntity
  8
2.1. Kanpo Horma
100
AcDbLine
 10
2397.605053096285
 20
865.0260927175084
 30
0.0
 11
2396.585053096285
 21
865.0260927175084
 31
0.0
  0
LINE
  5
12B5
330
1F
100
AcDbEntity
  8
2.1. Kanpo Horma
100
AcDbLine
 10
2399.105053096285
 20
865.2260927175085
 30
0.0
 11
2399.175053096286
 21
865.2260927175085
 31
0.0
  0
LINE
  5
12B6
330
1F
100
AcDbEntity
  8
2.1. Kanpo Horma
100
AcDbLine
 10
2399.105053096285
 20
865.0260927175084
 30
0.0
 11
2399.175053096286
 21
865.0260927175084
 31
0.0
  0
LINE
  5
12B7
102
{ACAD_REACTORS
330
616B
102
}
330
1F
100
AcDbEntity
  8
3.2. Leihoa
100
AcDbLine
 10
2402.375053096286
 20
871.7560927175085
 30
0.0
 11
2402.375053096286
 21
869.0060927175085
 31
0.0
  0
LINE
  5
12B8
102
{ACAD_REACTORS
330
6153
330
63DC
102
}
330
1F
100
AcDbEntity
  8
3.2. Leihoa
100
AcDbLine
 10
2402.375053096286
 20
868.6560927175085
 30
0.0
 11
2402.375053096286
 21
865.4960927175086
 31
0.0
  0
LINE
  5
12B9
330
1F
100
AcDbEntity
  8
2.1. Kanpo Horma
100
AcDbLine
 10
2396.585053096285
 20
865.4960927175086
 30
0.0
 11
2396.585053096285
 21
865.0260927175084
 31
0.0
  0
LINE
  5
12BA
330
1F
100
AcDbEntity
  8
2.1. Kanpo Horma
100
AcDbLine
 10
2396.585053096285
 20
865.4960927175086
 30
0.0
 11
2396.995053096286
 21
865.4960927175086
 31
0.0
  0
LINE
  5
12BB
330
1F
100
AcDbEntity
  8
2.1. Kanpo Horma
100
AcDbLine
 10
2402.375053096286
 20
873.0560927175085
 30
0.0
 11
2402.375053096286
 21
874.2960927175085
 31
0.0
  0
LINE
  5
12BC
330
1F
100
AcDbEntity
  8
2.1. Kanpo Horma
100
AcDbLine
 10
2402.375053096286
 20
874.7960927175084
 30
0.0
 11
2402.375053096286
 21
875.1460927175084
 31
0.0
  0
LINE
  5
12BD
330
1F
100
AcDbEntity
  8
2.1. Kanpo Horma
100
AcDbLine
 10
2402.375053096286
 20
875.6460927175085
 30
0.0
 11
2402.375053096286
 21
876.0460927175085
 31
0.0
  0
LINE
  5
12BE
102
{ACAD_REACTORS
330
61B3
102
}
330
1F
100
AcDbEntity
  8
3.2. Leihoa
100
AcDbLine
 10
2402.375053096286
 20
875.1460927175084
 30
0.0
 11
2402.375053096286
 21
875.6460927175085
 31
0.0
  0
LINE
  5
12BF
102
{ACAD_REACTORS
330
61CB
102
}
330
1F
100
AcDbEntity
  8
3.2. Leihoa
100
AcDbLine
 10
2402.375053096286
 20
876.0460927175085
 30
0.0
 11
2402.375053096286
 21
876.5460927175084
 31
0.0
  0
LINE
  5
12C0
102
{ACAD_REACTORS
330
619B
102
}
330
1F
100
AcDbEntity
  8
3.2. Leihoa
100
AcDbLine
 10
2402.375053096286
 20
874.7960927175084
 30
0.0
 11
2402.375053096286
 21
874.2960927175085
 31
0.0
  0
LINE
  5
12C1
102
{ACAD_REACTORS
330
61CB
330
6255
102
}
330
1F
100
AcDbEntity
  8
2.1. Kanpo Horma
100
AcDbLine
 10
2402.375053096286
 20
876.5460927175084
 30
0.0
 11
2402.375053096286
 21
878.2460927175085
 31
0.0
  0
LWPOLYLINE
  5
12C4
330
1F
100
AcDbEntity
  8
0
 62
     1
100
AcDbPolyline
 90
        4
 70
     1
 43
0.0
 10
2374.662998294761
 20
914.832605090417
 10
2422.042608334807
 20
914.832605090417
 10
2422.042608334807
 20
847.9093292968554
 10
2374.662998294761
 20
847.9093292968554
  0
LINE
  5
12F3
102
{ACAD_REACTORS
330
60F3
330
610B
102
}
330
1F
100
AcDbEntity
  8
3.2. Leihoa
100
AcDbLine
 10
2401.625053096286
 20
865.0260927175084
 30
0.0
 11
2400.125053096286
 21
865.0260927175084
 31
0.0
  0
LINE
  5
12F4
330
1F
100
AcDbEntity
  8
3.2. Leihoa
100
AcDbLine
 10
2401.575053096286
 20
865.1760927175084
 30
0.0
 11
2400.175053096285
 21
865.1760927175084
 31
0.0
  0
LINE
  5
12F5
330
1F
100
AcDbEntity
  8
3.2. Leihoa
100
AcDbLine
 10
2401.625053096286
 20
865.2260927175085
 30
0.0
 11
2400.125053096286
 21
865.2260927175085
 31
0.0
  0
LINE
  5
12F6
330
1F
100
AcDbEntity
  8
3.2. Leihoa
100
AcDbLine
 10
2401.575053096286
 20
865.1610927175084
 30
0.0
 11
2401.575053096286
 21
865.2260927175085
 31
0.0
  0
LINE
  5
12F7
330
1F
100
AcDbEntity
  8
3.2. Leihoa
100
AcDbLine
 10
2401.535053096286
 20
865.1760927175084
 30
0.0
 11
2401.535053096286
 21
865.2260927175085
 31
0.0
  0
LINE
  5
12F8
330
1F
100
AcDbEntity
  8
3.2. Leihoa
100
AcDbLine
 10
2400.175053096285
 20
865.1610927175084
 30
0.0
 11
2400.175053096285
 21
865.2260927175085
 31
0.0
  0
LINE
  5
12F9
330
1F
100
AcDbEntity
  8
3.2. Leihoa
100
AcDbLine
 10
2400.215053096286
 20
865.1760927175084
 30
0.0
 11
2400.215053096286
 21
865.2260927175085
 31
0.0
  0
LINE
  5
12FA
330
1F
100
AcDbEntity
  8
3.2. Leihoa
100
AcDbLine
 10
2401.535053096286
 20
865.2010927175085
 30
0.0
 11
2400.215053096286
 21
865.2010927175085
 31
0.0
  0
LINE
  5
12FB
330
1F
100
AcDbEntity
  8
3.2. Leihoa
100
AcDbLine
 10
2397.605053096285
 20
865.1610927175084
 30
0.0
 11
2399.105053096285
 21
865.1610927175084
 31
0.0
  0
LINE
  5
12FC
330
1F
100
AcDbEntity
  8
3.2. Leihoa
100
AcDbLine
 10
2397.655053096285
 20
865.1760927175084
 30
0.0
 11
2399.055053096286
 21
865.1760927175084
 31
0.0
  0
LINE
  5
12FD
102
{ACAD_REACTORS
330
61EC
102
}
330
1F
100
AcDbEntity
  8
3.2. Leihoa
100
AcDbLine
 10
2397.605053096285
 20
865.2260927175085
 30
0.0
 11
2399.105053096285
 21
865.2260927175085
 31
0.0
  0
LINE
  5
12FE
330
1F
100
AcDbEntity
  8
3.2. Leihoa
100
AcDbLine
 10
2397.655053096285
 20
865.1610927175084
 30
0.0
 11
2397.655053096285
 21
865.2260927175085
 31
0.0
  0
LINE
  5
12FF
330
1F
100
AcDbEntity
  8
3.2. Leihoa
100
AcDbLine
 10
2397.695053096285
 20
865.1760927175084
 30
0.0
 11
2397.695053096285
 21
865.2260927175085
 31
0.0
  0
LINE
  5
1300
330
1F
100
AcDbEntity
  8
3.2. Leihoa
100
AcDbLine
 10
2399.055053096286
 20
865.1610927175084
 30
0.0
 11
2399.055053096286
 21
865.2260927175085
 31
0.0
  0
LINE
  5
1301
330
1F
100
AcDbEntity
  8
3.2. Leihoa
100
AcDbLine
 10
2399.015053096286
 20
865.1760927175084
 30
0.0
 11
2399.015053096286
 21
865.2260927175085
 31
0.0
  0
LINE
  5
1302
330
1F
100
AcDbEntity
  8
3.2. Leihoa
100
AcDbLine
 10
2397.695053096285
 20
865.2010927175085
 30
0.0
 11
2399.015053096286
 21
865.2010927175085
 31
0.0
  0
LINE
  5
1303
330
1F
100
AcDbEntity
  8
3.2. Leihoa
100
AcDbLine
 10
2402.190053096286
 20
868.6560927175085
 30
0.0
 11
2402.190053096286
 21
865.4960927175086
 31
0.0
  0
LINE
  5
1304
330
1F
100
AcDbEntity
  8
3.2. Leihoa
100
AcDbLine
 10
2402.175053096286
 20
868.6060927175086
 30
0.0
 11
2402.175053096286
 21
865.5460927175084
 31
0.0
  0
LINE
  5
1305
330
1F
100
AcDbEntity
  8
3.2. Leihoa
100
AcDbLine
 10
2402.125053096285
 20
868.6560927175085
 30
0.0
 11
2402.125053096285
 21
865.4960927175086
 31
0.0
  0
LINE
  5
1306
330
1F
100
AcDbEntity
  8
3.2. Leihoa
100
AcDbLine
 10
2402.190053096286
 20
868.6060927175086
 30
0.0
 11
2402.125053096285
 21
868.6060927175086
 31
0.0
  0
LINE
  5
1307
330
1F
100
AcDbEntity
  8
3.2. Leihoa
100
AcDbLine
 10
2402.175053096286
 20
868.5660927175085
 30
0.0
 11
2402.125053096285
 21
868.5660927175085
 31
0.0
  0
LINE
  5
1308
330
1F
100
AcDbEntity
  8
3.2. Leihoa
100
AcDbLine
 10
2402.190053096286
 20
865.5460927175084
 30
0.0
 11
2402.125053096285
 21
865.5460927175084
 31
0.0
  0
LINE
  5
1309
330
1F
100
AcDbEntity
  8
3.2. Leihoa
100
AcDbLine
 10
2402.175053096286
 20
865.5860927175085
 30
0.0
 11
2402.125053096285
 21
865.5860927175085
 31
0.0
  0
LINE
  5
130A
330
1F
100
AcDbEntity
  8
3.2. Leihoa
100
AcDbLine
 10
2402.150053096285
 20
868.5660927175085
 30
0.0
 11
2402.150053096285
 21
865.5860927175085
 31
0.0
  0
LINE
  5
130B
330
1F
100
AcDbEntity
  8
3.2. Leihoa
100
AcDbLine
 10
2402.190053096286
 20
871.7560927175085
 30
0.0
 11
2402.190053096286
 21
869.0060927175085
 31
0.0
  0
LINE
  5
130C
330
1F
100
AcDbEntity
  8
3.2. Leihoa
100
AcDbLine
 10
2402.175053096286
 20
871.7060927175085
 30
0.0
 11
2402.175053096286
 21
869.0560927175086
 31
0.0
  0
LINE
  5
130D
330
1F
100
AcDbEntity
  8
3.2. Leihoa
100
AcDbLine
 10
2402.125053096285
 20
871.7560927175085
 30
0.0
 11
2402.125053096285
 21
869.0060927175085
 31
0.0
  0
LINE
  5
130E
330
1F
100
AcDbEntity
  8
3.2. Leihoa
100
AcDbLine
 10
2402.190053096286
 20
871.7060927175085
 30
0.0
 11
2402.125053096285
 21
871.7060927175085
 31
0.0
  0
LINE
  5
130F
330
1F
100
AcDbEntity
  8
3.2. Leihoa
100
AcDbLine
 10
2402.175053096286
 20
871.6660927175084
 30
0.0
 11
2402.125053096285
 21
871.6660927175084
 31
0.0
  0
LINE
  5
1310
330
1F
100
AcDbEntity
  8
3.2. Leihoa
100
AcDbLine
 10
2402.190053096286
 20
869.0560927175086
 30
0.0
 11
2402.125053096285
 21
869.0560927175086
 31
0.0
  0
LINE
  5
1311
330
1F
100
AcDbEntity
  8
3.2. Leihoa
100
AcDbLine
 10
2402.175053096286
 20
869.0960927175085
 30
0.0
 11
2402.125053096285
 21
869.0960927175085
 31
0.0
  0
LINE
  5
1312
330
1F
100
AcDbEntity
  8
3.2. Leihoa
100
AcDbLine
 10
2402.150053096285
 20
871.6660927175084
 30
0.0
 11
2402.150053096285
 21
869.0960927175085
 31
0.0
  0
LINE
  5
1313
330
1F
100
AcDbEntity
  8
3.2. Leihoa
100
AcDbLine
 10
2402.190053096286
 20
875.1960927175085
 30
0.0
 11
2402.125053096285
 21
875.1960927175085
 31
0.0
  0
LINE
  5
1314
330
1F
100
AcDbEntity
  8
3.2. Leihoa
100
AcDbLine
 10
2402.175053096286
 20
875.2360927175086
 30
0.0
 11
2402.125053096285
 21
875.2360927175086
 31
0.0
  0
LINE
  5
1315
330
1F
100
AcDbEntity
  8
3.2. Leihoa
100
AcDbLine
 10
2402.190053096286
 20
875.1460927175084
 30
0.0
 11
2402.190053096286
 21
875.6460927175085
 31
0.0
  0
LINE
  5
1316
330
1F
100
AcDbEntity
  8
3.2. Leihoa
100
AcDbLine
 10
2402.175053096286
 20
875.1960927175085
 30
0.0
 11
2402.175053096286
 21
875.5960927175085
 31
0.0
  0
LINE
  5
1317
330
1F
100
AcDbEntity
  8
3.2. Leihoa
100
AcDbLine
 10
2402.125053096285
 20
875.1460927175084
 30
0.0
 11
2402.125053096285
 21
875.6460927175085
 31
0.0
  0
LINE
  5
1318
330
1F
100
AcDbEntity
  8
3.2. Leihoa
100
AcDbLine
 10
2402.150053096285
 20
875.2360927175086
 30
0.0
 11
2402.150053096285
 21
875.5560927175086
 31
0.0
  0
LINE
  5
1319
330
1F
100
AcDbEntity
  8
3.2. Leihoa
100
AcDbLine
 10
2402.190053096286
 20
875.5960927175085
 30
0.0
 11
2402.125053096285
 21
875.5960927175085
 31
0.0
  0
LINE
  5
131A
330
1F
100
AcDbEntity
  8
3.2. Leihoa
100
AcDbLine
 10
2402.175053096286
 20
875.5560927175086
 30
0.0
 11
2402.125053096285
 21
875.5560927175086
 31
0.0
  0
LINE
  5
131B
330
1F
100
AcDbEntity
  8
3.2. Leihoa
100
AcDbLine
 10
2402.190053096286
 20
876.4960927175085
 30
0.0
 11
2402.125053096285
 21
876.4960927175085
 31
0.0
  0
LINE
  5
131C
330
1F
100
AcDbEntity
  8
3.2. Leihoa
100
AcDbLine
 10
2402.175053096286
 20
876.4560927175086
 30
0.0
 11
2402.125053096285
 21
876.4560927175086
 31
0.0
  0
LINE
  5
131D
330
1F
100
AcDbEntity
  8
3.2. Leihoa
100
AcDbLine
 10
2402.190053096286
 20
876.5460927175086
 30
0.0
 11
2402.190053096286
 21
876.0460927175087
 31
0.0
  0
LINE
  5
131E
330
1F
100
AcDbEntity
  8
3.2. Leihoa
100
AcDbLine
 10
2402.175053096286
 20
876.4960927175085
 30
0.0
 11
2402.175053096286
 21
876.0960927175085
 31
0.0
  0
LINE
  5
131F
330
1F
100
AcDbEntity
  8
3.2. Leihoa
100
AcDbLine
 10
2402.125053096285
 20
876.5460927175086
 30
0.0
 11
2402.125053096285
 21
876.0460927175087
 31
0.0
  0
LINE
  5
1320
330
1F
100
AcDbEntity
  8
3.2. Leihoa
100
AcDbLine
 10
2402.150053096285
 20
876.4560927175086
 30
0.0
 11
2402.150053096285
 21
876.1360927175084
 31
0.0
  0
LINE
  5
1321
330
1F
100
AcDbEntity
  8
3.2. Leihoa
100
AcDbLine
 10
2402.190053096286
 20
876.0960927175085
 30
0.0
 11
2402.125053096285
 21
876.0960927175085
 31
0.0
  0
LINE
  5
1322
330
1F
100
AcDbEntity
  8
3.2. Leihoa
100
AcDbLine
 10
2402.175053096286
 20
876.1360927175084
 30
0.0
 11
2402.125053096285
 21
876.1360927175084
 31
0.0
  0
LINE
  5
1323
330
1F
100
AcDbEntity
  8
3.2. Leihoa
100
AcDbLine
 10
2402.190053096286
 20
874.3460927175085
 30
0.0
 11
2402.125053096285
 21
874.3460927175085
 31
0.0
  0
LINE
  5
1324
330
1F
100
AcDbEntity
  8
3.2. Leihoa
100
AcDbLine
 10
2402.175053096286
 20
874.3860927175084
 30
0.0
 11
2402.125053096285
 21
874.3860927175084
 31
0.0
  0
LINE
  5
1325
330
1F
100
AcDbEntity
  8
3.2. Leihoa
100
AcDbLine
 10
2402.190053096286
 20
874.2960927175085
 30
0.0
 11
2402.190053096286
 21
874.7960927175084
 31
0.0
  0
LINE
  5
1326
330
1F
100
AcDbEntity
  8
3.2. Leihoa
100
AcDbLine
 10
2402.175053096286
 20
874.3460927175085
 30
0.0
 11
2402.175053096286
 21
874.7460927175085
 31
0.0
  0
LINE
  5
1327
330
1F
100
AcDbEntity
  8
3.2. Leihoa
100
AcDbLine
 10
2402.125053096285
 20
874.2960927175085
 30
0.0
 11
2402.125053096285
 21
874.7960927175084
 31
0.0
  0
LINE
  5
1328
330
1F
100
AcDbEntity
  8
3.2. Leihoa
100
AcDbLine
 10
2402.150053096285
 20
874.3860927175084
 30
0.0
 11
2402.150053096285
 21
874.7060927175086
 31
0.0
  0
LINE
  5
1329
330
1F
100
AcDbEntity
  8
3.2. Leihoa
100
AcDbLine
 10
2402.190053096286
 20
874.7460927175085
 30
0.0
 11
2402.125053096285
 21
874.7460927175085
 31
0.0
  0
LINE
  5
132A
330
1F
100
AcDbEntity
  8
3.2. Leihoa
100
AcDbLine
 10
2402.175053096286
 20
874.7060927175086
 30
0.0
 11
2402.125053096285
 21
874.7060927175086
 31
0.0
  0
LINE
  5
18A5
330
1F
100
AcDbEntity
  8
5.1. Komuneko altzaria
100
AcDbLine
 10
2401.515053096285
 20
877.1735880647673
 30
0.0
 11
2401.515053096285
 21
877.2935880647672
 31
0.0
  0
ARC
  5
18A6
330
1F
100
AcDbEntity
  8
5.1. Komuneko altzaria
100
AcDbCircle
 10
2401.590053096285
 20
877.2685880647671
 30
0.0
 40
0.05
100
AcDbArc
 50
90.0
 51
180.0
  0
LINE
  5
18A7
330
1F
100
AcDbEntity
  8
5.1. Komuneko altzaria
100
AcDbLine
 10
2402.115053096285
 20
877.373588064767
 30
0.0
 11
2402.115053096285
 21
876.9735880647671
 31
0.0
  0
LINE
  5
18A8
330
1F
100
AcDbEntity
  8
5.1. Komuneko altzaria
100
AcDbLine
 10
2401.985053096285
 20
876.9735880647671
 30
0.0
 11
2401.985053096285
 21
877.373588064767
 31
0.0
  0
LINE
  5
18A9
330
1F
100
AcDbEntity
  8
5.1. Komuneko altzaria
100
AcDbLine
 10
2401.565053096285
 20
877.0035880647672
 30
0.0
 11
2401.985053096285
 21
877.0035880647672
 31
0.0
  0
LINE
  5
18AA
330
1F
100
AcDbEntity
  8
5.1. Komuneko altzaria
100
AcDbLine
 10
2401.590053096285
 20
877.0285880647668
 30
0.0
 11
2401.985053096285
 21
877.0285880647668
 31
0.0
  0
LINE
  5
18AB
330
1F
100
AcDbEntity
  8
5.1. Komuneko altzaria
100
AcDbLine
 10
2402.115053096285
 20
876.9735880647671
 30
0.0
 11
2401.985053096285
 21
876.9735880647671
 31
0.0
  0
ARC
  5
18AC
330
1F
100
AcDbEntity
  8
5.1. Komuneko altzaria
100
AcDbCircle
 10
2401.565053096285
 20
877.0535880647669
 30
0.0
 40
0.05
100
AcDbArc
 50
180.0
 51
270.0
  0
LINE
  5
18AD
330
1F
100
AcDbEntity
  8
5.1. Komuneko altzaria
100
AcDbLine
 10
2401.515053096285
 20
877.1735880647673
 30
0.0
 11
2401.515053096285
 21
877.0535880647669
 31
0.0
  0
LINE
  5
18AE
330
1F
100
AcDbEntity
  8
5.1. Komuneko altzaria
100
AcDbLine
 10
2401.540053096285
 20
877.1735880647673
 30
0.0
 11
2401.540053096285
 21
877.2685880647671
 31
0.0
  0
ARC
  5
18AF
330
1F
100
AcDbEntity
  8
5.1. Komuneko altzaria
100
AcDbCircle
 10
2401.590053096285
 20
877.078588064767
 30
0.0
 40
0.05
100
AcDbArc
 50
180.0
 51
270.0
  0
LINE
  5
18B0
330
1F
100
AcDbEntity
  8
5.1. Komuneko altzaria
100
AcDbLine
 10
2401.540053096285
 20
877.1735880647673
 30
0.0
 11
2401.540053096285
 21
877.078588064767
 31
0.0
  0
LINE
  5
18B1
330
1F
100
AcDbEntity
  8
5.1. Komuneko altzaria
100
AcDbLine
 10
2401.565053096285
 20
877.3435880647669
 30
0.0
 11
2401.985053096285
 21
877.3435880647667
 31
0.0
  0
LINE
  5
18B2
330
1F
100
AcDbEntity
  8
5.1. Komuneko altzaria
100
AcDbLine
 10
2401.590053096285
 20
877.3185880647671
 30
0.0
 11
2401.985053096285
 21
877.3185880647671
 31
0.0
  0
LINE
  5
18B3
330
1F
100
AcDbEntity
  8
5.1. Komuneko altzaria
100
AcDbLine
 10
2401.985053096285
 20
877.373588064767
 30
0.0
 11
2402.115053096285
 21
877.373588064767
 31
0.0
  0
ARC
  5
18B4
330
1F
100
AcDbEntity
  8
5.1. Komuneko altzaria
100
AcDbCircle
 10
2401.565053096285
 20
877.2935880647672
 30
0.0
 40
0.05
100
AcDbArc
 50
90.0
 51
180.0
  0
LINE
  5
18C5
330
1F
100
AcDbEntity
  8
2.2. Barne Horma
100
AcDbLine
 10
2400.835053096285
 20
876.5460927175084
 30
0.0
 11
2400.835053096285
 21
876.6460927175085
 31
0.0
  0
LINE
  5
18C8
330
1F
100
AcDbEntity
  8
5.1. Komuneko altzaria
100
AcDbLine
 10
2400.835053096285
 20
877.3360927175085
 30
0.0
 11
2400.235053096285
 21
877.3360927175085
 31
0.0
  0
LINE
  5
18C9
330
1F
100
AcDbEntity
  8
5.1. Komuneko altzaria
100
AcDbLine
 10
2400.235053096285
 20
877.3360927175085
 30
0.0
 11
2400.235053096285
 21
877.7460927175084
 31
0.0
  0
LWPOLYLINE
  5
18CB
330
1F
100
AcDbEntity
  8
5.1. Komuneko altzaria
100
AcDbPolyline
 90
        6
 70
     0
 43
0.0
 10
2400.545181708745
 20
877.6487079364754
 10
2400.785053096285
 20
877.6487079364754
 10
2400.785053096285
 20
877.3860927175084
 10
2400.285053096285
 20
877.3860927175084
 10
2400.285053096285
 20
877.6487079364754
 10
2400.524924483826
 20
877.6487079364754
  0
LWPOLYLINE
  5
18D9
330
1F
100
AcDbEntity
  8
5.1. Komuneko altzaria
100
AcDbPolyline
 90
        4
 70
     1
 43
0.0
 10
2400.545181708745
 20
877.7363704711454
 10
2400.524924483826
 20
877.7363704711454
 10
2400.524924483826
 20
877.5526002405793
 10
2400.545181708745
 20
877.5526002405793
  0
LWPOLYLINE
  5
18DA
330
1F
100
AcDbEntity
  8
5.1. Komuneko altzaria
100
AcDbPolyline
 90
        4
 70
     1
 43
0.0
 10
2400.547738524571
 20
877.7224755260922
 10
2400.599588117243
 20
877.7224755260922
 10
2400.599588117243
 20
877.6706843081099
 10
2400.547738524571
 20
877.6706843081099
  0
LWPOLYLINE
  5
18DB
330
1F
100
AcDbEntity
  8
5.1. Komuneko altzaria
100
AcDbPolyline
 90
        4
 70
     1
 43
0.0
 10
2400.522850567066
 20
877.6706843081099
 10
2400.464778985018
 20
877.6706843081099
 10
2400.464778985018
 20
877.7224755260922
 10
2400.522850567066
 20
877.7224755260922
  0
CIRCLE
  5
18DC
330
1F
100
AcDbEntity
  8
5.1. Komuneko altzaria
100
AcDbCircle
 10
2400.532496280459
 20
877.4974205652332
 30
0.0
 40
0.0183990299208858
  0
LWPOLYLINE
  5
2755
330
1F
100
AcDbEntity
  8
0
100
AcDbPolyline
 90
        4
 70
     1
 43
0.0
 10
2373.885727232999
 20
914.5356050904169
 10
2373.885727232999
 20
914.832605090417
 10
2373.675727232999
 20
914.832605090417
 10
2373.675727232999
 20
914.5356050904169
  0
MTEXT
  5
2756
330
1F
100
AcDbEntity
  8
1.4. Idatzia
100
AcDbMText
 10
2373.816635018243
 20
914.5548479839774
 30
0.0
 40
0.0018
 41
0.0172399289914779
 46
0.0
 71
     1
 72
     5
  1
{\fCalibri Light|b1|i0|c0|p34;E:\fCalibri Light|b0|i0|c0|p34; 1/75}
 73
     1
 44
1.0
  0
MTEXT
  5
2757
330
1F
100
AcDbEntity
  8
1.4. Idatzia
100
AcDbMText
 10
2373.711444262825
 20
914.5577723873371
 30
0.0
 40
0.0025
 41
0.1852149973614974
 46
0.0
 71
     1
 72
     5
  1
{\fCalibri Light|b1|i0|c0|p34;Katastro zk.\fCalibri Light|b0|i0|c0|p34;: 7791322}
 73
     1
 44
1.0
  0
MTEXT
  5
2758
330
1F
100
AcDbEntity
  8
1.4. Idatzia
100
AcDbMText
 10
2373.711443144042
 20
914.5656113842887
 30
0.0
 40
0.0025
 41
0.1852149973614974
 46
0.0
 71
     1
 72
     5
  1
{\fCalibri Light|b1|i0|c0|p34;Kokapena\fCalibri Light|b0|i0|c0|p34;: BORDA BERRI KALEA, 3, ATZ. 20170 USURBIL}
 73
     1
 44
1.0
  0
MTEXT
  5
2764
330
1F
100
AcDbEntity
  8
1.4. Idatzia
100
AcDbMText
 10
2373.772738805933
 20
914.549710804466
 30
0.0
 40
0.0025
 41
0.0273770814300611
 46
0.0
 71
     1
 72
     5
  1
{\fCalibri Light|b0|i0|c0|p34;Martxoak 2019}
 73
     1
 44
1.0
  0
MTEXT
  5
2765
330
1F
100
AcDbEntity
  8
1.4. Idatzia
100
AcDbMText
 10
2373.818009971493
 20
914.563557252487
 30
0.0
 40
0.0025
 41
0.0373092422454125
 46
0.0
 71
     1
 72
     5
  1
{\fCalibri Light|b1|i0|c0|p34;Planoa:\fCalibri Light|b0|i0|c0|p34; BEHE OINA}
 73
     1
 44
1.0
  0
MTEXT
  5
2766
330
1F
100
AcDbEntity
  8
1.4. Idatzia
100
AcDbMText
 10
2373.71163903936
 20
914.5760936150081
 30
0.0
 40
0.004
 41
0.1447549525279904
 46
0.0
 71
     1
 72
     5
  1
{\fLucida Sans Unicode|b1|i0|c0|p34;MERKATARITZA LOKAL HUTSAK}
 73
     1
 44
1.0
  0
LINE
  5
2767
330
1F
100
AcDbEntity
  8
1.6. Marra2
100
AcDbLine
 10
2373.686371569823
 20
914.5517199274886
 30
0.0
 11
2373.686371569823
 21
914.5461376158506
 31
0.0
  0
IMAGE
  5
2768
330
1F
100
AcDbEntity
  8
1.1. Armarria
 62
     7
420
 16777215
160
               140
310
8C000000010000008400000006000000050000003E13CDBA5F8BA240CCC05BBB6D948C4000000000000000003E13CDBA5F8BA2408048EEC7A0948C4000000000000000004C5C069E6A8BA2408048EEC7A0948C4000000000000000004C5C069E6A8BA240CCC05BBB6D948C4000000000000000003E13CDBA5F8BA240CCC05B
310
BB6D948C400000000000000000
100
AcDbRasterImage
 90
        0
 10
2373.686972054099
 20
914.5535800140583
 30
0.0
 11
0.0001408266873892
 21
0.0
 31
0.0
 12
0.0
 22
0.0001408266873892
 32
0.0
 13
151.0
 23
177.0
340
2E2
 70
     7
280
     0
281
    50
282
    50
283
     0
290
     0
360
2769
 71
     1
 91
        2
 14
-0.5
 24
-0.5
 14
150.5
 24
176.5
  0
LINE
  5
276A
330
1F
100
AcDbEntity
  8
1.6. Marra2
100
AcDbLine
 10
2373.806583233819
 20
914.5461376158506
 30
0.0
 11
2373.806583233819
 21
914.5517199274886
 31
0.0
  0
MTEXT
  5
276B
330
1F
100
AcDbEntity
  8
1.4. Idatzia
100
AcDbMText
 10
2373.711408376105
 20
914.5502490211548
 30
0.0
 40
0.0025
 41
0.0410971974865084
 46
0.0
 71
     1
 72
     5
  1
{\fCalibri Light|b1|i0|c0|p34;Eraikuntza urtea\fCalibri Light|b0|i0|c0|p34;: 1968}
 73
     1
 44
1.0
  0
LWPOLYLINE
  5
276C
330
1F
100
AcDbEntity
  8
1.5. Marra1
100
AcDbPolyline
 90
        2
 70
     0
 43
0.0004
 10
2373.709588700284
 20
914.5702566356071
 10
2373.804347609715
 20
914.5702566356035
  0
LWPOLYLINE
  5
276D
330
1F
100
AcDbEntity
  8
1.5. Marra1
100
AcDbPolyline
 90
        3
 70
     0
 43
0.0003531510107016
 10
2373.816597967337
 20
914.5630521333581
 10
2373.816597967337
 20
914.5599326728751
 10
2373.856597967338
 20
914.5599326728751
  0
LWPOLYLINE
  5
276E
330
1F
100
AcDbEntity
  8
1.5. Marra1
100
AcDbPolyline
 90
        3
 70
     0
 43
0.0003531510107016
 10
2373.816597967337
 20
914.5671371751239
 10
2373.816597967337
 20
914.5702566356071
 10
2373.856597967338
 20
914.5702566356071
  0
LWPOLYLINE
  5
276F
330
1F
100
AcDbEntity
  8
1.6. Marra2
100
AcDbPolyline
 90
        2
 70
     0
 43
0.0002683175052431
 10
2373.809694877585
 20
914.545605090417
 10
2373.809694877585
 20
914.5702566356053
  0
LWPOLYLINE
  5
2770
330
1F
100
AcDbEntity
  8
1.6. Marra2
100
AcDbPolyline
 90
        2
 70
     0
 43
0.0002683175052431
 10
2373.808139055702
 20
914.545605090417
 10
2373.808139055702
 20
914.5702566356053
  0
LWPOLYLINE
  5
2771
330
1F
100
AcDbEntity
  8
1.6. Marra2
100
AcDbPolyline
 90
        2
 70
     0
 43
0.0002683175052431
 10
2373.808960999338
 20
914.545605090417
 10
2373.808960999338
 20
914.5702566356053
  0
LWPOLYLINE
  5
2772
330
1F
100
AcDbEntity
  8
1.6. Marra2
100
AcDbPolyline
 90
        2
 70
     0
 43
0.0002683175052431
 10
2373.80658323382
 20
914.545605090417
 10
2373.80658323382
 20
914.5702566356053
  0
LWPOLYLINE
  5
2773
330
1F
100
AcDbEntity
  8
1.6. Marra2
100
AcDbPolyline
 90
        2
 70
     0
 43
0.0002683175052431
 10
2373.807405177456
 20
914.545605090417
 10
2373.807405177456
 20
914.5702566356053
  0
LWPOLYLINE
  5
2774
330
1F
100
AcDbEntity
  8
1.6. Marra2
100
AcDbPolyline
 90
        2
 70
     0
 43
0.0002683175052431
 10
2373.81280652135
 20
914.545605090417
 10
2373.81280652135
 20
914.5702566356053
  0
LWPOLYLINE
  5
2775
330
1F
100
AcDbEntity
  8
1.6. Marra2
100
AcDbPolyline
 90
        2
 70
     0
 43
0.0002683175052431
 10
2373.811250699467
 20
914.545605090417
 10
2373.811250699467
 20
914.5702566356053
  0
LWPOLYLINE
  5
2776
330
1F
100
AcDbEntity
  8
1.6. Marra2
100
AcDbPolyline
 90
        2
 70
     0
 43
0.0002683175052431
 10
2373.812072643103
 20
914.545605090417
 10
2373.812072643103
 20
914.5702566356053
  0
LWPOLYLINE
  5
2777
330
1F
100
AcDbEntity
  8
1.6. Marra2
100
AcDbPolyline
 90
        2
 70
     0
 43
0.0002683175052431
 10
2373.810516821221
 20
914.545605090417
 10
2373.810516821221
 20
914.5702566356053
  0
LWPOLYLINE
  5
2778
330
1F
100
AcDbEntity
  8
1.6. Marra2
100
AcDbPolyline
 90
        2
 70
     0
 43
0.0002683175052431
 10
2373.814362343232
 20
914.545605090417
 10
2373.814362343232
 20
914.5702566356053
  0
LWPOLYLINE
  5
2779
330
1F
100
AcDbEntity
  8
1.6. Marra2
100
AcDbPolyline
 90
        2
 70
     0
 43
0.0002683175052431
 10
2373.813628464986
 20
914.545605090417
 10
2373.813628464986
 20
914.5702566356053
  0
LINE
  5
277A
330
1F
100
AcDbEntity
  8
1.6. Marra2
100
AcDbLine
 10
2373.804205468301
 20
914.5461376158506
 30
0.0
 11
2373.804205468301
 21
914.5517199274886
 31
0.0
  0
LWPOLYLINE
  5
277B
330
1F
100
AcDbEntity
  8
1.6. Marra2
100
AcDbPolyline
 90
        2
 70
     0
 43
0.0002683175052431
 10
2373.805761290183
 20
914.545605090417
 10
2373.805761290183
 20
914.5517199274886
  0
LWPOLYLINE
  5
277C
330
1F
100
AcDbEntity
  8
1.6. Marra2
100
AcDbPolyline
 90
        2
 70
     0
 43
0.0002683175052431
 10
2373.804205468301
 20
914.545605090417
 10
2373.804205468301
 20
914.5517199274886
  0
LWPOLYLINE
  5
277D
330
1F
100
AcDbEntity
  8
1.6. Marra2
100
AcDbPolyline
 90
        2
 70
     0
 43
0.0002683175052431
 10
2373.805027411937
 20
914.545605090417
 10
2373.805027411937
 20
914.5517199274886
  0
LINE
  5
277E
330
1F
100
AcDbEntity
  8
1.6. Marra2
100
AcDbLine
 10
2373.801827702782
 20
914.5461376158506
 30
0.0
 11
2373.801827702782
 21
914.5517199274886
 31
0.0
  0
LWPOLYLINE
  5
277F
330
1F
100
AcDbEntity
  8
1.6. Marra2
100
AcDbPolyline
 90
        2
 70
     0
 43
0.0002683175052431
 10
2373.803383524665
 20
914.545605090417
 10
2373.803383524665
 20
914.5517199274886
  0
LWPOLYLINE
  5
2780
330
1F
100
AcDbEntity
  8
1.6. Marra2
100
AcDbPolyline
 90
        2
 70
     0
 43
0.0002683175052431
 10
2373.801827702783
 20
914.545605090417
 10
2373.801827702783
 20
914.5517199274886
  0
LWPOLYLINE
  5
2781
330
1F
100
AcDbEntity
  8
1.6. Marra2
100
AcDbPolyline
 90
        2
 70
     0
 43
0.0002683175052431
 10
2373.802649646418
 20
914.545605090417
 10
2373.802649646418
 20
914.5517199274886
  0
LINE
  5
2782
330
1F
100
AcDbEntity
  8
1.6. Marra2
100
AcDbLine
 10
2373.688749335341
 20
914.5461376158506
 30
0.0
 11
2373.688749335341
 21
914.5517199274886
 31
0.0
  0
LWPOLYLINE
  5
2783
330
1F
100
AcDbEntity
  8
1.6. Marra2
100
AcDbPolyline
 90
        2
 70
     0
 43
0.0002683175052431
 10
2373.690305157223
 20
914.545605090417
 10
2373.690305157223
 20
914.5517199274886
  0
LWPOLYLINE
  5
2784
330
1F
100
AcDbEntity
  8
1.6. Marra2
100
AcDbPolyline
 90
        2
 70
     0
 43
0.0002683175052431
 10
2373.688749335341
 20
914.545605090417
 10
2373.688749335341
 20
914.5517199274886
  0
LWPOLYLINE
  5
2785
330
1F
100
AcDbEntity
  8
1.6. Marra2
100
AcDbPolyline
 90
        2
 70
     0
 43
0.0002683175052431
 10
2373.689571278977
 20
914.545605090417
 10
2373.689571278977
 20
914.5517199274886
  0
LWPOLYLINE
  5
2786
330
1F
100
AcDbEntity
  8
1.6. Marra2
100
AcDbPolyline
 90
        2
 70
     0
 43
0.0002683175052431
 10
2373.687927391705
 20
914.545605090417
 10
2373.687927391705
 20
914.5517199274886
  0
LWPOLYLINE
  5
2787
330
1F
100
AcDbEntity
  8
1.6. Marra2
100
AcDbPolyline
 90
        2
 70
     0
 43
0.0002683175052431
 10
2373.687193513458
 20
914.545605090417
 10
2373.687193513458
 20
914.5517199274886
  0
LWPOLYLINE
  5
2788
330
1F
100
AcDbEntity
  8
1.6. Marra2
100
AcDbPolyline
 90
        2
 70
     0
 43
0.0002683175052431
 10
2373.686459635212
 20
914.545605090417
 10
2373.686459635212
 20
914.5517199274886
  0
LINE
  5
2789
330
1F
100
AcDbEntity
  8
1.6. Marra2
100
AcDbLine
 10
2373.692594857352
 20
914.5461376158506
 30
0.0
 11
2373.692594857352
 21
914.5517199274886
 31
0.0
  0
LWPOLYLINE
  5
278A
330
1F
100
AcDbEntity
  8
1.6. Marra2
100
AcDbPolyline
 90
        2
 70
     0
 43
0.0002683175052431
 10
2373.694150679236
 20
914.545605090417
 10
2373.694150679236
 20
914.5517199274886
  0
LWPOLYLINE
  5
278B
330
1F
100
AcDbEntity
  8
1.6. Marra2
100
AcDbPolyline
 90
        2
 70
     0
 43
0.0002683175052431
 10
2373.692594857353
 20
914.545605090417
 10
2373.692594857353
 20
914.5517199274886
  0
LWPOLYLINE
  5
278C
330
1F
100
AcDbEntity
  8
1.6. Marra2
100
AcDbPolyline
 90
        2
 70
     0
 43
0.0002683175052431
 10
2373.693416800989
 20
914.545605090417
 10
2373.693416800989
 20
914.5517199274886
  0
LWPOLYLINE
  5
278D
330
1F
100
AcDbEntity
  8
1.6. Marra2
100
AcDbPolyline
 90
        2
 70
     0
 43
0.0002683175052431
 10
2373.691772913717
 20
914.545605090417
 10
2373.691772913717
 20
914.5517199274886
  0
LWPOLYLINE
  5
278E
330
1F
100
AcDbEntity
  8
1.6. Marra2
100
AcDbPolyline
 90
        2
 70
     0
 43
0.0002683175052431
 10
2373.69103903547
 20
914.545605090417
 10
2373.69103903547
 20
914.5517199274886
  0
LINE
  5
278F
330
1F
100
AcDbEntity
  8
1.6. Marra2
100
AcDbLine
 10
2373.696440379365
 20
914.5461376158506
 30
0.0
 11
2373.696440379365
 21
914.5517199274886
 31
0.0
  0
LWPOLYLINE
  5
2790
330
1F
100
AcDbEntity
  8
1.6. Marra2
100
AcDbPolyline
 90
        2
 70
     0
 43
0.0002683175052431
 10
2373.697996201247
 20
914.545605090417
 10
2373.697996201247
 20
914.5517199274886
  0
LWPOLYLINE
  5
2791
330
1F
100
AcDbEntity
  8
1.6. Marra2
100
AcDbPolyline
 90
        2
 70
     0
 43
0.0002683175052431
 10
2373.696440379365
 20
914.545605090417
 10
2373.696440379365
 20
914.5517199274886
  0
LWPOLYLINE
  5
2792
330
1F
100
AcDbEntity
  8
1.6. Marra2
100
AcDbPolyline
 90
        2
 70
     0
 43
0.0002683175052431
 10
2373.697262323001
 20
914.545605090417
 10
2373.697262323001
 20
914.5517199274886
  0
LWPOLYLINE
  5
2793
330
1F
100
AcDbEntity
  8
1.6. Marra2
100
AcDbPolyline
 90
        2
 70
     0
 43
0.0002683175052431
 10
2373.695618435728
 20
914.545605090417
 10
2373.695618435728
 20
914.5517199274886
  0
LWPOLYLINE
  5
2794
330
1F
100
AcDbEntity
  8
1.6. Marra2
100
AcDbPolyline
 90
        2
 70
     0
 43
0.0002683175052431
 10
2373.694884557482
 20
914.545605090417
 10
2373.694884557482
 20
914.5517199274886
  0
LINE
  5
2795
330
1F
100
AcDbEntity
  8
1.6. Marra2
100
AcDbLine
 10
2373.700285901376
 20
914.5461376158506
 30
0.0
 11
2373.700285901376
 21
914.5517199274886
 31
0.0
  0
LWPOLYLINE
  5
2796
330
1F
100
AcDbEntity
  8
1.6. Marra2
100
AcDbPolyline
 90
        2
 70
     0
 43
0.0002683175052431
 10
2373.70184172326
 20
914.545605090417
 10
2373.70184172326
 20
914.5517199274886
  0
LWPOLYLINE
  5
2797
330
1F
100
AcDbEntity
  8
1.6. Marra2
100
AcDbPolyline
 90
        2
 70
     0
 43
0.0002683175052431
 10
2373.700285901377
 20
914.545605090417
 10
2373.700285901377
 20
914.5517199274886
  0
LWPOLYLINE
  5
2798
330
1F
100
AcDbEntity
  8
1.6. Marra2
100
AcDbPolyline
 90
        2
 70
     0
 43
0.0002683175052431
 10
2373.701107845013
 20
914.545605090417
 10
2373.701107845013
 20
914.5517199274886
  0
LWPOLYLINE
  5
2799
330
1F
100
AcDbEntity
  8
1.6. Marra2
100
AcDbPolyline
 90
        2
 70
     0
 43
0.0002683175052431
 10
2373.699463957741
 20
914.545605090417
 10
2373.699463957741
 20
914.5517199274886
  0
LWPOLYLINE
  5
279A
330
1F
100
AcDbEntity
  8
1.6. Marra2
100
AcDbPolyline
 90
        2
 70
     0
 43
0.0002683175052431
 10
2373.698730079494
 20
914.545605090417
 10
2373.698730079494
 20
914.5517199274886
  0
LINE
  5
279B
330
1F
100
AcDbEntity
  8
1.6. Marra2
100
AcDbLine
 10
2373.702663666895
 20
914.5461376158506
 30
0.0
 11
2373.702663666895
 21
914.5517199274886
 31
0.0
  0
LWPOLYLINE
  5
279C
330
1F
100
AcDbEntity
  8
1.6. Marra2
100
AcDbPolyline
 90
        2
 70
     0
 43
0.0002683175052431
 10
2373.704219488778
 20
914.545605090417
 10
2373.704219488778
 20
914.5517199274886
  0
LWPOLYLINE
  5
279D
330
1F
100
AcDbEntity
  8
1.6. Marra2
100
AcDbPolyline
 90
        2
 70
     0
 43
0.0002683175052431
 10
2373.702663666896
 20
914.545605090417
 10
2373.702663666896
 20
914.5517199274886
  0
LWPOLYLINE
  5
279E
330
1F
100
AcDbEntity
  8
1.6. Marra2
100
AcDbPolyline
 90
        2
 70
     0
 43
0.0002683175052431
 10
2373.703485610532
 20
914.545605090417
 10
2373.703485610532
 20
914.5517199274886
  0
LINE
  5
279F
330
1F
100
AcDbEntity
  8
1.6. Marra2
100
AcDbLine
 10
2373.705041432414
 20
914.5461376158506
 30
0.0
 11
2373.705041432414
 21
914.5517199274886
 31
0.0
  0
LWPOLYLINE
  5
27A0
330
1F
100
AcDbEntity
  8
1.6. Marra2
100
AcDbPolyline
 90
        2
 70
     0
 43
0.0002683175052431
 10
2373.706597254297
 20
914.545605090417
 10
2373.706597254297
 20
914.5517199274886
  0
LWPOLYLINE
  5
27A1
330
1F
100
AcDbEntity
  8
1.6. Marra2
100
AcDbPolyline
 90
        2
 70
     0
 43
0.0002683175052431
 10
2373.705041432415
 20
914.545605090417
 10
2373.705041432415
 20
914.5517199274886
  0
LWPOLYLINE
  5
27A2
330
1F
100
AcDbEntity
  8
1.6. Marra2
100
AcDbPolyline
 90
        2
 70
     0
 43
0.0002683175052431
 10
2373.70586337605
 20
914.545605090417
 10
2373.70586337605
 20
914.5517199274886
  0
LWPOLYLINE
  5
27A3
330
1F
100
AcDbEntity
  8
1.6. Marra2
100
AcDbPolyline
 90
        2
 70
     0
 43
0.0002683175052431
 10
2373.708153076179
 20
914.545605090417
 10
2373.708153076179
 20
914.5517199274886
  0
LWPOLYLINE
  5
27A4
330
1F
100
AcDbEntity
  8
1.6. Marra2
100
AcDbPolyline
 90
        2
 70
     0
 43
0.0002683175052431
 10
2373.707419197933
 20
914.545605090417
 10
2373.707419197933
 20
914.5517199274886
  0
LINE
  5
27A5
330
1F
100
AcDbEntity
  8
1.7. Ventanas Gráficas
100
AcDbLine
 10
2373.880727232999
 20
914.5856050904169
 30
0.0
 11
2373.680727232999
 21
914.5856050904169
 31
0.0
  0
MTEXT
  5
27AF
330
1F
100
AcDbEntity
  8
1.4. Idatzia
100
AcDbMText
 10
2373.864426266223
 20
914.549710804466
 30
0.0
 40
0.002
 41
0.0273770814300611
 46
0.0
 71
     1
 72
     5
  1
{\fCalibri Light|b0|i0|c0|p34;Lokal zk.}
 73
     1
 44
1.0
  0
MTEXT
  5
27B0
330
1F
100
AcDbEntity
  8
1.4. Idatzia
100
AcDbMText
 10
2373.860185536027
 20
914.5673775587049
 30
0.0
 40
0.012
 41
0.0273770814300611
 46
0.0
 71
     1
 72
     5
  1
{\fMicrosoft Sans Serif|b0|i0|c0|p34;08}
 73
     1
 44
1.0
  0
LWPOLYLINE
  5
27B1
330
1F
100
AcDbEntity
  8
1.7. Ventanas Gráficas
100
AcDbPolyline
 90
        4
 70
     1
 43
0.0
 10
2373.680727232999
 20
914.5406050904169
 10
2373.880727232999
 20
914.5406050904169
 10
2373.880727232999
 20
914.822605090417
 10
2373.680727232999
 20
914.822605090417
  0
MTEXT
  5
27B2
330
1F
100
AcDbEntity
  8
1.4. Idatzia
100
AcDbMText
 10
2373.772676915034
 20
914.5577723873367
 30
0.0
 40
0.0025
 41
0.1852149973614974
 46
0.0
 71
     1
 72
     5
  1
{\fCalibri Light|b1|i0|c0|p34;Finka zk.\fCalibri Light|b0|i0|c0|p34;: 3034070X}
 73
     1
 44
1.0
  0
DIMENSION
  5
60C4
102
{ACAD_XDICTIONARY
360
60D1
102
}
102
{ACAD_REACTORS
330
60DB
102
}
330
1F
100
AcDbEntity
  8
7.3. Kota
100
AcDbDimension
280
     0
  2
*D4
 10
2399.105053096285
 20
864.6011551052485
 30
0.0
 11
2398.355053096285
 21
864.7277410534067
 31
0.0
 70
    33
 71
     5
 42
1.5
 73
     0
 74
     0
 75
     0
  3
Guztion
100
AcDbAlignedDimension
 13
2397.605053096285
 23
865.0260927175084
 33
0.0
 14
2399.105053096285
 24
865.0260927175084
 34
0.0
  0
DIMENSION
  5
60DC
102
{ACAD_XDICTIONARY
360
60E9
102
}
102
{ACAD_REACTORS
330
60F3
102
}
330
1F
100
AcDbEntity
  8
7.3. Kota
100
AcDbDimension
280
     0
  2
*D5
 10
2401.625053096286
 20
864.6011551052485
 30
0.0
 11
2400.875053096286
 21
864.7277410534067
 31
0.0
 70
    33
 71
     5
 42
1.5
 73
     0
 74
     0
 75
     0
  3
Guztion
100
AcDbAlignedDimension
 13
2400.125053096286
 23
865.0260927175084
 33
0.0
 14
2401.625053096286
 24
865.0260927175084
 34
0.0
  0
DIMENSION
  5
60F4
102
{ACAD_XDICTIONARY
360
6101
102
}
102
{ACAD_REACTORS
330
610B
102
}
330
1F
100
AcDbEntity
  8
7.3. Kota
100
AcDbDimension
280
     0
  2
*D6
 10
2401.625053096286
 20
864.1667837788443
 30
0.0
 11
2399.615053096285
 21
864.2933697270024
 31
0.0
 70
    33
 71
     5
 42
4.019999999999981
 73
     0
 74
     0
 75
     0
  3
Guztion
100
AcDbAlignedDimension
 13
2397.605053096285
 23
865.0260927175084
 33
0.0
 14
2401.625053096286
 24
865.0260927175084
 34
0.0
  0
DIMENSION
  5
610C
102
{ACAD_XDICTIONARY
360
6119
102
}
102
{ACAD_REACTORS
330
6123
102
}
330
1F
100
AcDbEntity
  8
7.3. Kota
100
AcDbDimension
280
     0
  2
*D7
 10
2399.995053096286
 20
864.6011551052485
 30
0.0
 11
2399.615053096285
 21
864.7277410534067
 31
0.0
 70
    33
 71
     5
 42
0.7600000000002183
 73
     0
 74
     0
 75
     0
  3
Guztion
100
AcDbAlignedDimension
 13
2399.235053096285
 23
865.1260927175085
 33
0.0
 14
2399.995053096286
 24
865.1260927175085
 34
0.0
  0
DIMENSION
  5
613C
102
{ACAD_XDICTIONARY
360
6149
102
}
102
{ACAD_REACTORS
330
6153
102
}
330
1F
100
AcDbEntity
  8
7.3. Kota
100
AcDbDimension
280
     0
  2
*D8
 10
2402.830873332824
 20
868.6560927175085
 30
0.0
 11
2402.704236225048
 21
867.076092717509
 31
0.0
 70
    33
 71
     5
 42
3.159999999999968
 73
     0
 74
     0
 75
     0
  3
Guztion
100
AcDbAlignedDimension
 13
2402.375053096286
 23
865.4960927175086
 33
0.0
 14
2402.375053096286
 24
868.6560927175085
 34
0.0
  0
DIMENSION
  5
6154
102
{ACAD_XDICTIONARY
360
6161
102
}
102
{ACAD_REACTORS
330
616B
102
}
330
1F
100
AcDbEntity
  8
7.3. Kota
100
AcDbDimension
280
     0
  2
*D9
 10
2402.830873332824
 20
871.7560927175085
 30
0.0
 11
2402.704287384666
 21
870.3810927175089
 31
0.0
 70
    33
 71
     5
 42
2.75
 73
     0
 74
     0
 75
     0
  3
Guztion
100
AcDbAlignedDimension
 13
2402.375053096286
 23
869.0060927175085
 33
0.0
 14
2402.375053096286
 24
871.7560927175085
 34
0.0
  0
DIMENSION
  5
616C
102
{ACAD_XDICTIONARY
360
6179
102
}
102
{ACAD_REACTORS
330
6183
102
}
330
1F
100
AcDbEntity
  8
7.3. Kota
100
AcDbDimension
280
     0
  2
*D10
 10
2402.830873332824
 20
872.4260927175084
 30
0.0
 11
2402.704287384666
 21
872.7110927175088
 31
0.0
 70
    33
 71
     5
 42
0.5700000000000501
 73
     0
 74
     0
 75
     0
  3
Guztion
100
AcDbAlignedDimension
 13
2402.225053096286
 23
872.9960927175085
 33
0.0
 14
2402.225053096286
 24
872.4260927175084
 34
0.0
  0
DIMENSION
  5
6184
102
{ACAD_XDICTIONARY
360
6191
102
}
102
{ACAD_REACTORS
330
619B
102
}
330
1F
100
AcDbEntity
  8
7.3. Kota
100
AcDbDimension
280
     0
  2
*D11
 10
2402.830873332824
 20
874.2960927175085
 30
0.0
 11
2402.704287384666
 21
874.546092717509
 31
0.0
 70
    33
 71
     5
 42
0.5
 73
     0
 74
     0
 75
     0
  3
Guztion
100
AcDbAlignedDimension
 13
2402.375053096286
 23
874.7960927175084
 33
0.0
 14
2402.375053096286
 24
874.2960927175085
 34
0.0
  0
DIMENSION
  5
619C
102
{ACAD_XDICTIONARY
360
61A9
102
}
102
{ACAD_REACTORS
330
61B3
102
}
330
1F
100
AcDbEntity
  8
7.3. Kota
100
AcDbDimension
280
     0
  2
*D12
 10
2402.830873332824
 20
875.1460927175084
 30
0.0
 11
2402.704287384666
 21
875.3960927175089
 31
0.0
 70
    33
 71
     5
 42
0.5
 73
     0
 74
     0
 75
     0
  3
Guztion
100
AcDbAlignedDimension
 13
2402.375053096286
 23
875.6460927175085
 33
0.0
 14
2402.375053096286
 24
875.1460927175084
 34
0.0
  0
DIMENSION
  5
61B4
102
{ACAD_XDICTIONARY
360
61C1
102
}
102
{ACAD_REACTORS
330
61CB
102
}
330
1F
100
AcDbEntity
  8
7.3. Kota
100
AcDbDimension
280
     0
  2
*D13
 10
2402.830873332824
 20
876.5460927175084
 30
0.0
 11
2402.704287384666
 21
876.296092717509
 31
0.0
 70
    33
 71
     5
 42
0.5
 73
     0
 74
     0
 75
     0
  3
Guztion
100
AcDbAlignedDimension
 13
2402.375053096286
 23
876.0460927175085
 33
0.0
 14
2402.375053096286
 24
876.5460927175084
 34
0.0
  0
DIMENSION
  5
61CC
330
1F
100
AcDbEntity
  8
7.3. Kota
100
AcDbDimension
280
     0
  2
*D14
 10
2401.625053096286
 20
868.2661563894434
 30
0.0
 11
2399.615053096285
 21
868.3927423376015
 31
0.0
 70
    33
 71
     5
 42
4.019999999999981
 73
     0
 74
     0
 75
     0
  3
Guztion
100
AcDbAlignedDimension
 13
2397.605053096285
 23
868.2811800306009
 33
0.0
 14
2401.625053096286
 24
868.281180030601
 34
0.0
  0
DIMENSION
  5
61D9
102
{ACAD_XDICTIONARY
360
61E4
102
}
102
{ACAD_REACTORS
330
61EC
102
}
330
1F
100
AcDbEntity
  8
7.3. Kota
100
AcDbDimension
280
     0
  2
*D15
 10
2398.406004272545
 20
873.7160927175086
 30
0.0
 11
2398.279418324387
 21
869.4710927175091
 31
0.0
 70
    33
 71
     5
 42
8.490000000000009
 73
     0
 74
     0
 75
     0
  3
Guztion
100
AcDbAlignedDimension
 13
2398.406004272545
 23
865.2260927175085
 33
0.0
 14
2398.406004272545
 24
873.7160927175086
 34
0.0
  0
DIMENSION
  5
61ED
330
1F
100
AcDbEntity
  8
7.3. Kota
100
AcDbDimension
280
     0
  2
*D16
 10
2401.555053096286
 20
873.5551020523576
 30
0.0
 11
2401.175053096285
 21
873.6816880005157
 31
0.0
 70
    33
 71
     5
 42
0.7600000000002183
 73
     0
 74
     0
 75
     0
  3
Guztion
100
AcDbAlignedDimension
 13
2400.795053096286
 23
873.60098007453
 33
0.0
 14
2401.555053096286
 24
873.60098007453
 34
0.0
  0
DIMENSION
  5
61FA
102
{ACAD_XDICTIONARY
360
6205
102
}
102
{ACAD_REACTORS
330
620D
102
}
330
1F
100
AcDbEntity
  8
7.3. Kota
100
AcDbDimension
280
     0
  2
*D17
 10
2398.406004272545
 20
877.7460927175084
 30
0.0
 11
2398.279367164768
 21
875.7810927175091
 31
0.0
 70
    33
 71
     5
 42
3.929999999999949
 73
     0
 74
     0
 75
     0
  3
Guztion
100
AcDbAlignedDimension
 13
2398.406004272545
 23
873.8160927175085
 33
0.0
 14
2398.406004272545
 24
877.7460927175084
 34
0.0
  0
DIMENSION
  5
620E
102
{ACAD_XDICTIONARY
360
621B
102
}
102
{ACAD_REACTORS
330
6225
102
}
330
1F
100
AcDbEntity
  8
7.3. Kota
100
AcDbDimension
280
     0
  2
*D18
 10
2397.195053096285
 20
867.9416288599451
 30
0.0
 11
2399.660053096285
 21
868.0682659677213
 31
0.0
 70
    33
 71
     5
 42
4.929999999999836
 73
     0
 74
     0
 75
     0
  3
Guztion
100
AcDbAlignedDimension
 13
2402.125053096285
 23
868.2661563894434
 33
0.0
 14
2397.195053096285
 24
868.2661563894434
 34
0.0
  0
DIMENSION
  5
6226
102
{ACAD_XDICTIONARY
360
6233
102
}
102
{ACAD_REACTORS
330
623D
102
}
330
1F
100
AcDbEntity
  8
7.3. Kota
100
AcDbDimension
280
     0
  2
*D19
 10
2400.504706396414
 20
876.7060927175084
 30
0.0
 11
2400.378120448256
 21
876.9910927175088
 31
0.0
 70
    33
 71
     5
 42
0.5700000000000501
 73
     0
 74
     0
 75
     0
  3
Guztion
100
AcDbAlignedDimension
 13
2400.835053096285
 23
877.2760927175085
 33
0.0
 14
2400.835053096285
 24
876.7060927175084
 34
0.0
  0
DIMENSION
  5
623E
102
{ACAD_XDICTIONARY
360
624B
102
}
102
{ACAD_REACTORS
330
6255
102
}
330
1F
100
AcDbEntity
  8
7.3. Kota
100
AcDbDimension
280
     0
  2
*D20
 10
2402.830873332824
 20
876.5460927175084
 30
0.0
 11
2402.704287384667
 21
877.1460927175089
 31
0.0
 70
    33
 71
     5
 42
1.200000000000045
 73
     0
 74
     0
 75
     0
  3
Guztion
100
AcDbAlignedDimension
 13
2402.375053096286
 23
877.7460927175084
 33
0.0
 14
2402.375053096286
 24
876.5460927175084
 34
0.0
  0
DIMENSION
  5
6256
330
1F
100
AcDbEntity
  8
7.3. Kota
100
AcDbDimension
280
     0
  2
*D21
 10
2402.125053096285
 20
878.5318693233962
 30
0.0
 11
2399.660053096285
 21
878.6585064311726
 31
0.0
 70
    33
 71
     5
 42
4.929999999999836
 73
     0
 74
     0
 75
     0
  3
Guztion
100
AcDbAlignedDimension
 13
2397.195053096285
 23
877.9460927175085
 33
0.0
 14
2402.125053096285
 24
877.9460927175085
 34
0.0
  0
DIMENSION
  5
626E
102
{ACAD_XDICTIONARY
360
627B
102
}
102
{ACAD_REACTORS
330
6285
102
}
330
1F
100
AcDbEntity
  8
7.3. Kota
100
AcDbDimension
280
     0
  2
*D22
 10
2402.125053096285
 20
878.1883798728104
 30
0.0
 11
2401.530053096286
 21
878.3149658209685
 31
0.0
 70
    33
 71
     5
 42
1.189999999999599
 73
     0
 74
     0
 75
     0
  3
Guztion
100
AcDbAlignedDimension
 13
2400.935053096286
 23
877.9460927175085
 33
0.0
 14
2402.125053096285
 24
877.9460927175085
 34
0.0
  0
CIRCLE
  5
6292
330
1F
100
AcDbEntity
  8
8.1. Irisgarritasun boloa
 48
0.0005
100
AcDbCircle
 10
2399.764669937447
 20
866.9560927175085
 30
0.0
 40
0.9
  0
CIRCLE
  5
6293
330
1F
100
AcDbEntity
  8
8.1. Irisgarritasun boloa
 48
0.0005
100
AcDbCircle
 10
2399.923194043146
 20
876.411763415202
 30
0.0
 40
0.9
  0
MTEXT
  5
62A0
330
1F
100
AcDbEntity
  8
7.2. Idatzia
100
AcDbMText
 10
2396.599938092439
 20
863.8731597041445
 30
0.0
 40
0.25
 41
3.934541634584093
 46
0.0
 71
     1
 72
     5
  1
A{\H0.5x;erabilgarria }= 59.72 m²
 73
     1
 44
1.0
1001
ACAD
1000
ACAD_MTEXT_COLUMN_INFO_BEGIN
1070
    75
1070
     2
1070
    79
1070
     0
1070
    76
1070
     1
1070
    78
1070
     0
1070
    48
1040
3.934541634584093
1070
    49
1040
12.5
1070
    50
1070
     1
1040
0.0
1000
ACAD_MTEXT_COLUMN_INFO_END
  0
MTEXT
  5
62A1
330
1F
100
AcDbEntity
  8
7.2. Idatzia
100
AcDbMText
 10
2399.061560866888
 20
870.5005248400658
 30
0.0
 40
0.25
 41
3.934541634584093
 46
0.0
 71
     1
 72
     5
  1
H=3.19m
 73
     1
 44
1.0
1001
ACAD
1000
ACAD_MTEXT_COLUMN_INFO_BEGIN
1070
    75
1070
     2
1070
    79
1070
     0
1070
    76
1070
     1
1070
    78
1070
     0
1070
    48
1040
3.934541634584093
1070
    49
1040
12.5
1070
    50
1070
     1
1040
0.0
1000
ACAD_MTEXT_COLUMN_INFO_END
  0
LWPOLYLINE
  5
62A2
102
{ACAD_REACTORS
330
62E8
330
62EE
102
}
330
1F
100
AcDbEntity
  8
7.1. Azalera erabilgarria
100
AcDbPolyline
 90
       52
 70
     1
 43
0.0
 10
2397.195053096285
 20
865.4960927175086
 10
2397.605053096285
 20
865.4960927175086
 10
2397.605053096285
 20
865.2260927175085
 10
2401.625053096286
 20
865.2260927175085
 10
2401.625053096286
 20
865.4960927175086
 10
2402.125053096285
 20
865.4960927175086
 10
2402.125053096285
 20
868.6560927175085
 10
2401.625053096286
 20
868.6560927175085
 10
2401.625053096286
 20
869.0060927175085
 10
2402.125053096285
 20
869.0060927175085
 10
2402.125053096285
 20
871.7560927175085
 10
2401.625053096286
 20
871.7560927175085
 10
2401.625053096286
 20
872.1060927175086
 10
2402.125053096285
 20
872.1060927175086
 10
2402.125053096285
 20
873.7160927175086
 10
2401.615053096286
 20
873.7160927175086
 10
2401.615053096286
 20
873.8160927175085
 10
2402.125053096285
 20
873.8160927175085
 10
2402.125053096285
 20
874.7960927175084
 10
2401.625053096286
 20
874.7960927175084
 10
2401.625053096286
 20
875.1460927175084
 10
2402.125053096285
 20
875.1460927175084
 10
2402.125053096285
 20
876.5460927175086
 10
2400.835053096285
 20
876.5460927175087
 10
2400.835053096285
 20
876.6460927175085
 10
2402.125053096285
 20
876.6460927175085
 10
2402.125053096285
 20
877.4960927175085
 10
2401.625053096286
 20
877.4960927175085
 10
2401.625053096286
 20
877.7460927175084
 10
2400.935053096286
 20
877.7460927175084
 10
2400.935053096286
 20
877.3360927175085
 10
2400.835053096286
 20
877.3360927175085
 10
2400.835053096285
 20
877.7460927175084
 10
2397.605053096285
 20
877.7460927175084
 10
2397.605053096285
 20
877.4960927175085
 10
2397.195053096285
 20
877.4960927175083
 10
2397.195053096285
 20
875.1460927175084
 10
2397.605053096285
 20
875.1460927175084
 10
2397.605053096285
 20
874.7960927175084
 10
2397.195053096285
 20
874.7960927175084
 10
2397.195053096285
 20
873.8160927175085
 10
2400.735053096286
 20
873.8160927175085
 10
2400.735053096286
 20
873.7160927175086
 10
2397.195053096285
 20
873.7160927175086
 10
2397.195053096285
 20
872.1060927175086
 10
2397.605053096285
 20
872.1060927175086
 10
2397.605053096285
 20
871.7560927175085
 10
2397.195053096285
 20
871.7560927175085
 10
2397.195053096285
 20
869.0060927175085
 10
2397.605053096285
 20
869.0060927175085
 10
2397.605053096285
 20
868.6560927175085
 10
2397.195053096285
 20
868.6560927175085
  0
MTEXT
  5
62AA
330
1F
100
AcDbEntity
  8
7.2. Idatzia
100
AcDbMText
 10
2399.061560866888
 20
875.1509589714432
 30
0.0
 40
0.25
 41
3.934541634584093
 46
0.0
 71
     1
 72
     5
  1
H=3.19m
 73
     1
 44
1.0
1001
ACAD
1000
ACAD_MTEXT_COLUMN_INFO_BEGIN
1070
    75
1070
     2
1070
    79
1070
     0
1070
    76
1070
     1
1070
    78
1070
     0
1070
    48
1040
3.934541634584093
1070
    49
1040
12.5
1070
    50
1070
     1
1040
0.0
1000
ACAD_MTEXT_COLUMN_INFO_END
  0
LINE
  5
62C3
102
{ACAD_REACTORS
330
62E8
102
}
330
1F
100
AcDbEntity
  8
4.2. Parket
100
AcDbLine
 10
2400.795053096286
 20
873.7160927175086
 30
0.0
 11
2401.555053096286
 21
873.7160927175086
 31
0.0
  0
HATCH
  5
62E8
330
1F
100
AcDbEntity
  8
4.2. Parket
100
AcDbHatch
 10
0.0
 20
0.0
 30
0.0
210
0.0
220
0.0
230
1.0
  2
ANSI31
 70
     0
 71
     1
 91
        1
 92
        7
 72
     1
 73
     1
 93
       36
 10
2401.625053096286
 20
872.1060927175086
 42
0.0
 10
2402.125053096285
 20
872.1060927175086
 42
0.0
 10
2402.125053096285
 20
872.3910927175085
 42
-0.4022582533214208
 10
2401.485053096286
 20
873.0060927175085
 42
0.0
 10
2401.485053096286
 20
873.0310927175084
 42
0.0
 10
2402.125053096285
 20
873.0310927175084
 42
0.0
 10
2402.125053096285
 20
873.7160927175086
 42
0.0
 10
2401.615053096286
 20
873.7160927175086
 42
0.0
 10
2401.555053096286
 20
873.7160927175086
 42
0.0
 10
2400.795053096286
 20
873.7160927175086
 42
0.0
 10
2400.735053096286
 20
873.7160927175086
 42
0.0
 10
2397.195053096285
 20
873.7160927175086
 42
0.0
 10
2397.195053096285
 20
872.1060927175086
 42
0.0
 10
2397.605053096285
 20
872.1060927175086
 42
0.0
 10
2397.605053096285
 20
871.7560927175085
 42
0.0
 10
2397.195053096285
 20
871.7560927175085
 42
0.0
 10
2397.195053096285
 20
869.0060927175085
 42
0.0
 10
2397.605053096285
 20
869.0060927175085
 42
0.0
 10
2397.605053096285
 20
868.6560927175085
 42
0.0
 10
2397.195053096285
 20
868.6560927175085
 42
0.0
 10
2397.195053096285
 20
865.4960927175086
 42
0.0
 10
2397.605053096285
 20
865.4960927175086
 42
0.0
 10
2397.605053096285
 20
865.2260927175085
 42
0.0
 10
2399.200053096286
 20
865.2260927175085
 42
-0.405095729710829
 10
2400.005053096285
 20
866.0560927175085
 42
0.0
 10
2400.030053096286
 20
866.0560927175085
 42
0.0
 10
2400.030053096286
 20
865.2260927175085
 42
0.0
 10
2401.625053096286
 20
865.2260927175085
 42
0.0
 10
2401.625053096286
 20
865.4960927175086
 42
0.0
 10
2402.125053096285
 20
865.4960927175086
 42
0.0
 10
2402.125053096285
 20
868.6560927175085
 42
0.0
 10
2401.625053096286
 20
868.6560927175085
 42
0.0
 10
2401.625053096286
 20
869.0060927175085
 42
0.0
 10
2402.125053096285
 20
869.0060927175085
 42
0.0
 10
2402.125053096285
 20
871.7560927175085
 42
0.0
 10
2401.625053096286
 20
871.7560927175085
 42
0.0
 97
        8
330
62A2
330
12A8
330
12A7
330
1277
330
62C3
330
1276
330
1292
330
1291
 75
     1
 76
     1
 52
135.0
 41
0.06
 77
     0
 78
     1
 53
180.0
 43
0.0
 44
0.0
 45
0.0
 46
-0.1905
 79
     0
 47
0.0185594043435553
 98
        1
 10
2399.230947666847
 20
872.0286628832312
1001
GradientColor1ACI
1070
     5
1001
GradientColor2ACI
1070
     2
1001
ACAD
1010
0.0
1020
0.0
1030
0.0
  0
HATCH
  5
62EE
330
1F
100
AcDbEntity
  8
4.2. Parket
100
AcDbHatch
 10
0.0
 20
0.0
 30
0.0
210
0.0
220
0.0
230
1.0
  2
ANSI31
 70
     0
 71
     1
 91
        1
 92
        7
 72
     1
 73
     1
 93
        3
 10
2400.005053096285
 20
866.0560927175085
 42
0.4050957297108277
 10
2399.200053096286
 20
865.2260927175085
 42
0.0
 10
2400.005053096285
 20
865.2260927175085
 42
0.0
 97
        3
330
1292
330
62A2
330
1291
 75
     1
 76
     1
 52
135.0
 41
0.06
 77
     0
 78
     1
 53
180.0
 43
0.0
 44
0.0
 45
0.0
 46
-0.1905
 79
     0
 47
0.0077715443818205
 98
        1
 10
2399.643503801087
 20
865.6521400416028
1001
GradientColor1ACI
1070
     5
1001
GradientColor2ACI
1070
     2
1001
ACAD
1010
0.0
1020
0.0
1030
0.0
  0
HATCH
  5
6379
330
1F
100
AcDbEntity
  8
2.5. Horma itzala
100
AcDbHatch
 10
0.0
 20
0.0
 30
0.0
210
0.0
220
0.0
230
1.0
  2
SOLID
 70
     1
 71
     0
 91
        6
 92
        7
 72
     0
 73
     1
 93
        7
 10
2397.605053096285
 20
865.2260927175085
 10
2397.605053096285
 20
865.4960927175086
 10
2397.195053096285
 20
865.4960927175086
 10
2396.995053096286
 20
865.4960927175086
 10
2396.585053096285
 20
865.4960927175086
 10
2396.585053096285
 20
865.0260927175084
 10
2397.605053096285
 20
865.0260927175084
 97
        0
 92
        7
 72
     0
 73
     1
 93
        6
 10
2402.375053096286
 20
865.4960927175086
 10
2402.125053096285
 20
865.4960927175086
 10
2401.625053096286
 20
865.4960927175086
 10
2401.625053096286
 20
865.2260927175085
 10
2401.625053096286
 20
865.0260927175084
 10
2402.375053096286
 20
865.0260927175084
 97
        0
 92
        7
 72
     0
 73
     1
 93
        6
 10
2402.375053096286
 20
869.0060927175085
 10
2402.125053096285
 20
869.0060927175085
 10
2401.625053096286
 20
869.0060927175085
 10
2401.625053096286
 20
868.6560927175085
 10
2402.125053096285
 20
868.6560927175085
 10
2402.375053096286
 20
868.6560927175085
 97
        0
 92
        7
 72
     0
 73
     1
 93
        7
 10
2402.375053096286
 20
872.3660927175085
 10
2402.125053096285
 20
872.3660927175085
 10
2402.125053096285
 20
872.1060927175086
 10
2401.625053096286
 20
872.1060927175086
 10
2401.625053096286
 20
871.7560927175085
 10
2402.125053096285
 20
871.7560927175085
 10
2402.375053096286
 20
871.7560927175085
 97
        0
 92
        7
 72
     0
 73
     1
 93
        6
 10
2402.375053096286
 20
875.1460927175084
 10
2402.125053096285
 20
875.1460927175084
 10
2401.625053096286
 20
875.1460927175084
 10
2401.625053096286
 20
874.7960927175084
 10
2402.125053096285
 20
874.7960927175084
 10
2402.375053096286
 20
874.7960927175084
 97
        0
 92
        7
 72
     0
 73
     1
 93
        4
 10
2402.375053096286
 20
876.0460927175085
 10
2402.125053096285
 20
876.0460927175085
 10
2402.125053096285
 20
875.6460927175085
 10
2402.375053096286
 20
875.6460927175085
 97
        0
 75
     1
 76
     1
 47
0.0082263889416348
 98
        6
 10
2397.119210893816
 20
865.2260092607471
 10
2402.036962744893
 20
865.1936341279336
 10
2402.030782298183
 20
868.8603897779298
 10
2402.190154256711
 20
872.0995662402531
 10
2401.999389110834
 20
874.9626384764258
 10
2402.239845048264
 20
875.8920657576199
450
        0
451
        0
460
0.0
461
0.0
452
        0
462
1.0
453
        2
463
0.0
 63
     5
421
      255
463
1.0
 63
     2
421
 16776960
470
LINEAR
1001
GradientColor1ACI
1070
     5
1001
GradientColor2ACI
1070
     2
1001
ACAD
1010
0.0
1020
0.0
1030
0.0
  0
LINE
  5
639E
330
1F
100
AcDbEntity
  8
2.1. Kanpo Horma
100
AcDbLine
 10
2402.125053096285
 20
876.5460927175084
 30
0.0
 11
2402.125053096285
 21
877.4960927175085
 31
0.0
  0
LINE
  5
639F
330
1F
100
AcDbEntity
  8
2.1. Kanpo Horma
100
AcDbLine
 10
2402.125053096285
 20
878.2460927175085
 30
0.0
 11
2402.375053096286
 21
878.2460927175085
 31
0.0
  0
HATCH
  5
63B6
330
1F
100
AcDbEntity
  8
2.5. Horma itzala
100
AcDbHatch
 10
0.0
 20
0.0
 30
0.0
210
0.0
220
0.0
230
1.0
  2
SOLID
 70
     1
 71
     0
 91
        2
 92
        7
 72
     0
 73
     1
 93
        5
 10
2402.375053096286
 20
874.2960927175085
 10
2402.125053096285
 20
874.2960927175085
 10
2402.125053096285
 20
873.8160927175085
 10
2402.125053096285
 20
873.0560927175085
 10
2402.375053096286
 20
873.0560927175085
 97
        0
 92
        7
 72
     0
 73
     1
 93
        4
 10
2402.375053096286
 20
878.2460927175085
 10
2402.125053096285
 20
878.2460927175085
 10
2402.125053096285
 20
876.5460927175084
 10
2402.375053096286
 20
876.5460927175084
 97
        0
 75
     1
 76
     1
 47
0.008922655932944
 98
        2
 10
2402.330321565193
 20
873.6517730338828
 10
2402.23677745753
 20
877.2904475271548
450
        0
451
        0
460
0.0
461
0.0
452
        0
462
1.0
453
        2
463
0.0
 63
     5
421
      255
463
1.0
 63
     2
421
 16776960
470
LINEAR
1001
GradientColor1ACI
1070
     5
1001
GradientColor2ACI
1070
     2
1001
ACAD
1010
0.0
1020
0.0
1030
0.0
  0
DIMENSION
  5
63C5
102
{ACAD_XDICTIONARY
360
63D2
102
}
102
{ACAD_REACTORS
330
63DC
102
}
330
1F
100
AcDbEntity
  8
7.3. Kota
100
AcDbDimension
280
     0
  2
*D23
 10
2403.462622926838
 20
865.4960927175086
 30
0.0
 11
2403.33603697868
 21
871.621092717509
 31
0.0
 70
    33
 71
     5
 42
12.25
 73
     0
 74
     0
 75
     0
  3
Guztion
100
AcDbAlignedDimension
 13
2402.375053096286
 23
877.7460927175084
 33
0.0
 14
2402.375053096286
 24
865.4960927175086
 34
0.0
  0
HATCH
  5
75B5
330
1F
100
AcDbEntity
  8
1.3. Eskala grafikoa
100
AcDbHatch
 10
0.0
 20
0.0
 30
0.0
210
0.0
220
0.0
230
1.0
  2
SOLID
 70
     1
 71
     0
 91
        1
 92
        1
 93
        4
 72
     1
 10
2373.823264528349
 20
914.549786849848
 11
2373.823264528349
 21
914.5493130727722
 72
     1
 10
2373.823264528349
 20
914.5493130727722
 11
2373.829931089361
 21
914.5493130727722
 72
     1
 10
2373.829931089361
 20
914.5493130727722
 11
2373.829931089361
 21
914.549786849848
 72
     1
 10
2373.829931089361
 20
914.549786849848
 11
2373.823264528349
 21
914.549786849848
 97
        0
 75
     1
 76
     1
 98
        1
 10
2373.824097967338
 20
914.5495499613101
450
        0
451
        0
460
0.0
461
0.0
452
        0
462
1.0
453
        2
463
0.0
 63
     5
421
      255
463
1.0
 63
     2
421
 16776960
470
LINEAR
1001
GradientColor1ACI
1070
     5
1001
GradientColor2ACI
1070
     2
1001
ACAD
1010
0.0
1020
0.0
1030
0.0
  0
HATCH
  5
75B6
330
1F
100
AcDbEntity
  8
1.3. Eskala grafikoa
100
AcDbHatch
 10
0.0
 20
0.0
 30
0.0
210
0.0
220
0.0
230
1.0
  2
SOLID
 70
     1
 71
     0
 91
        1
 92
        1
 93
        4
 72
     1
 10
2373.843264211387
 20
914.5493130727723
 11
2373.829931089361
 21
914.5493130727723
 72
     1
 10
2373.829931089361
 20
914.5493130727723
 11
2373.829931089361
 21
914.5488392956963
 72
     1
 10
2373.829931089361
 20
914.5488392956963
 11
2373.843264211386
 21
914.5488392956963
 72
     1
 10
2373.843264211386
 20
914.5488392956963
 11
2373.843264211387
 21
914.5493130727723
 97
        0
 75
     1
 76
     1
 98
        1
 10
2373.830985846603
 20
914.5490098999349
450
        0
451
        0
460
0.0
461
0.0
452
        0
462
1.0
453
        2
463
0.0
 63
     5
421
      255
463
1.0
 63
     2
421
 16776960
470
LINEAR
1001
GradientColor1ACI
1070
     5
1001
GradientColor2ACI
1070
     2
1001
ACAD
1010
0.0
1020
0.0
1030
0.0
  0
HATCH
  5
75B7
330
1F
100
AcDbEntity
  8
1.3. Eskala grafikoa
100
AcDbHatch
 10
0.0
 20
0.0
 30
0.0
210
0.0
220
0.0
230
1.0
  2
SOLID
 70
     1
 71
     0
 91
        1
 92
        1
 93
        4
 72
     1
 10
2373.856597967338
 20
914.5497868498484
 11
2373.843264211386
 21
914.5497868498484
 72
     1
 10
2373.843264211386
 20
914.5497868498484
 11
2373.843264211386
 21
914.5493130727723
 72
     1
 10
2373.843264211386
 20
914.5493130727723
 11
2373.856597967338
 21
914.5493130727723
 72
     1
 10
2373.856597967338
 20
914.5493130727723
 11
2373.856597967338
 21
914.5497868498484
 97
        0
 75
     1
 76
     1
 98
        1
 10
2373.853369261061
 20
914.5496267808001
450
        0
451
        0
460
0.0
461
0.0
452
        0
462
1.0
453
        2
463
0.0
 63
     5
421
      255
463
1.0
 63
     2
421
 16776960
470
LINEAR
1001
GradientColor1ACI
1070
     5
1001
GradientColor2ACI
1070
     2
1001
ACAD
1010
0.0
1020
0.0
1030
0.0
  0
HATCH
  5
75B8
330
1F
100
AcDbEntity
  8
1.3. Eskala grafikoa
100
AcDbHatch
 10
0.0
 20
0.0
 30
0.0
210
0.0
220
0.0
230
1.0
  2
SOLID
 70
     1
 71
     0
 91
        1
 92
        1
 93
        4
 72
     1
 10
2373.816597967337
 20
914.5493130727722
 11
2373.816597967337
 21
914.5488392956961
 72
     1
 10
2373.816597967337
 20
914.5488392956961
 11
2373.823264528349
 21
914.5488392956961
 72
     1
 10
2373.823264528349
 20
914.5488392956961
 11
2373.82326452835
 21
914.5493130727722
 72
     1
 10
2373.82326452835
 20
914.5493130727722
 11
2373.816597967337
 21
914.5493130727722
 97
        0
 75
     1
 76
     1
 98
        1
 10
2373.819097967337
 20
914.5490761842342
450
        0
451
        0
460
0.0
461
0.0
452
        0
462
1.0
453
        2
463
0.0
 63
     5
421
      255
463
1.0
 63
     2
421
 16776960
470
LINEAR
1001
GradientColor1ACI
1070
     5
1001
GradientColor2ACI
1070
     2
1001
ACAD
1010
0.0
1020
0.0
1030
0.0
  0
LINE
  5
75B9
330
1F
100
AcDbEntity
  8
1.3. Eskala grafikoa
 48
0.01
100
AcDbLine
 10
2373.816597967337
 20
914.5488392956961
 30
0.0
 11
2373.856597967338
 21
914.5488392956961
 31
0.0
  0
LINE
  5
75BA
330
1F
100
AcDbEntity
  8
1.3. Eskala grafikoa
 48
0.01
100
AcDbLine
 10
2373.816597967337
 20
914.549786849848
 30
0.0
 11
2373.816597967337
 21
914.5488392956961
 31
0.0
  0
LINE
  5
75BB
330
1F
100
AcDbEntity
  8
1.3. Eskala grafikoa
 48
0.01
100
AcDbLine
 10
2373.856597967338
 20
914.549786849848
 30
0.0
 11
2373.856597967338
 21
914.5488392956961
 31
0.0
  0
MTEXT
  5
75BC
330
1F
100
AcDbEntity
  8
1.3. Eskala grafikoa
100
AcDbMText
 10
2373.81640062189
 20
914.548463318191
 30
0.0
 40
0.001
 41
0.0010406224438389
 46
0.0
 71
     1
 72
     5
  1
{\fCalibri Light|b0|i0|c0|p34;0}
 73
     1
 44
1.0
  0
LINE
  5
75BD
330
1F
100
AcDbEntity
  8
1.3. Eskala grafikoa
 48
0.01
100
AcDbLine
 10
2373.816597967337
 20
914.549786849848
 30
0.0
 11
2373.856597967338
 21
914.549786849848
 31
0.0
  0
LINE
  5
75BE
330
1F
100
AcDbEntity
  8
1.3. Eskala grafikoa
 48
0.01
100
AcDbLine
 10
2373.816597967337
 20
914.549786849848
 30
0.0
 11
2373.856597967338
 21
914.549786849848
 31
0.0
  0
LINE
  5
75BF
330
1F
100
AcDbEntity
  8
1.3. Eskala grafikoa
 48
0.01
100
AcDbLine
 10
2373.816597967337
 20
914.5493130727722
 30
0.0
 11
2373.856597967338
 21
914.549313072772
 31
0.0
  0
MTEXT
  5
75C0
330
1F
100
AcDbEntity
  8
1.3. Eskala grafikoa
100
AcDbMText
 10
2373.829673449778
 20
914.548463318191
 30
0.0
 40
0.001
 41
0.0010406224438389
 46
0.0
 71
     1
 72
     5
  1
{\fCalibri Light|b0|i0|c0|p34;1}
 73
     1
 44
1.0
  0
MTEXT
  5
75C1
330
1F
100
AcDbEntity
  8
1.3. Eskala grafikoa
100
AcDbMText
 10
2373.842928757132
 20
914.548463318191
 30
0.0
 40
0.001
 41
0.0010406224438389
 46
0.0
 71
     1
 72
     5
  1
{\fCalibri Light|b0|i0|c0|p34;2}
 73
     1
 44
1.0
  0
MTEXT
  5
75C2
330
1F
100
AcDbEntity
  8
1.3. Eskala grafikoa
100
AcDbMText
 10
2373.856328223485
 20
914.548463318191
 30
0.0
 40
0.001
 41
0.0010406224438389
 46
0.0
 71
     1
 72
     5
  1
{\fCalibri Light|b0|i0|c0|p34;3m}
 73
     1
 44
1.0
  0
MTEXT
  5
75C3
330
1F
100
AcDbEntity
  8
1.3. Eskala grafikoa
100
AcDbMText
 10
2373.822339584666
 20
914.548463318191
 30
0.0
 40
0.001
 41
0.0010406224438389
 46
0.0
 71
     1
 72
     5
  1
{\fCalibri Light|b0|i0|c0|p34;0.5}
 73
     1
 44
1.0
  0
LINE
  5
75C4
330
1F
100
AcDbEntity
  8
1.3. Eskala grafikoa
100
AcDbLine
 10
2373.829931089361
 20
914.549786849848
 30
0.0
 11
2373.829931089362
 21
914.5488392956961
 31
0.0
  0
LINE
  5
75C5
330
1F
100
AcDbEntity
  8
1.3. Eskala grafikoa
100
AcDbLine
 10
2373.823264528349
 20
914.549786849848
 30
0.0
 11
2373.823264528349
 21
914.5488392956961
 31
0.0
  0
LINE
  5
75C6
330
1F
100
AcDbEntity
  8
1.3. Eskala grafikoa
100
AcDbLine
 10
2373.843264211386
 20
914.549786849848
 30
0.0
 11
2373.843264211386
 21
914.5488392956961
 31
0.0
  0
LINE
  5
8CC2
102
{ACAD_REACTORS
330
8CDD
102
}
330
1F
100
AcDbEntity
  8
4.2. Parket
100
AcDbLine
 10
2402.150053096285
 20
872.4260927175084
 30
0.0
 11
2402.150053096285
 21
872.9960927175085
 31
0.0
  0
HATCH
  5
8CDD
330
1F
100
AcDbEntity
  8
4.2. Parket
100
AcDbHatch
 10
0.0
 20
0.0
 30
0.0
210
0.0
220
0.0
230
1.0
  2
ANSI31
 70
     0
 71
     1
 91
        1
 92
        7
 72
     1
 73
     1
 93
        8
 10
2402.150053096285
 20
872.9960927175085
 42
0.0
 10
2402.150053096285
 20
873.0310927175084
 42
0.0
 10
2402.125053096285
 20
873.0310927175084
 42
0.0
 10
2402.125053096285
 20
873.0060927175085
 42
0.0
 10
2401.485053096286
 20
873.0060927175085
 42
0.4025936021641545
 10
2402.125792967735
 20
872.3910927175085
 42
0.0
 10
2402.150053096285
 20
872.3910927175085
 42
0.0
 10
2402.150053096285
 20
872.4260927175084
 42
0.0
 97
        5
330
12A6
330
12A7
330
12A8
330
12A5
330
8CC2
 75
     1
 76
     1
 52
135.0
 41
0.06
 77
     0
 78
     1
 53
180.0
 43
0.0
 44
0.0
 45
0.0
 46
-0.1905
 79
     0
 47
0.003473610868881
 98
        1
 10
2401.866753248333
 20
872.7299808825323
1001
GradientColor1ACI
1070
     5
1001
GradientColor2ACI
1070
     2
1001
ACAD
1010
0.0
1020
0.0
1030
0.0
  0
LINE
  5
8E99
330
1F
100
AcDbEntity
  8
2.1. Kanpo Horma
100
AcDbLine
 10
2402.125053096285
 20
877.9460927175085
 30
0.0
 11
2402.125053096285
 21
878.2460927175085
 31
0.0
  0
LWPOLYLINE
  5
9246
330
1F
100
AcDbEntity
  8
7.1.1. Azalera eraikia
100
AcDbPolyline
 90
        5
 70
     1
 43
0.0
 10
2397.095053096286
 20
865.0260927175084
 10
2397.095053096286
 20
877.8460927175085
 10
2402.282303108359
 20
877.8460927175085
 10
2402.375053096286
 20
877.8460927175085
 10
2402.375053096286
 20
865.0260927175084
  0
MTEXT
  5
9247
330
1F
100
AcDbEntity
  8
7.2. Idatzia
100
AcDbMText
 10
2400.013846639249
 20
863.8647960026849
 30
0.0
 40
0.25
 41
3.934541634584093
 46
0.0
 71
     1
 72
     5
  1
A{\H0.5x;eraikia }= 67.70 m²
 73
     1
 44
1.0
1001
ACAD
1000
ACAD_MTEXT_COLUMN_INFO_BEGIN
1070
    75
1070
     2
1070
    79
1070
     0
1070
    76
1070
     1
1070
    78
1070
     0
1070
    48
1040
3.934541634584093
1070
    49
1040
12.5
1070
    50
1070
     1
1040
0.0
1000
ACAD_MTEXT_COLUMN_INFO_END
  0
IMAGE
  5
9837
330
1F
100
AcDbEntity
  8
1.1. Armarria
160
               140
310
8C00000001000000840000000600000005000000952A186C5F8BA24058A377D76A948C400000000000000000952A186C5F8BA24054E491219F948C400000000000000000813D0A936A8BA24054E491219F948C400000000000000000813D0A936A8BA24058A377D76A948C400000000000000000952A186C5F8BA24058A377
310
D76A948C400000000000000000
100
AcDbRasterImage
 90
        0
 10
2373.686371569823
 20
914.5521687838291
 30
0.0
 11
0.0001442483864702
 21
0.0
 31
0.0
 12
0.0
 22
0.0001442483864702
 32
0.0
 13
151.0
 23
177.0
340
9835
 70
     7
280
     0
281
    50
282
    50
283
     0
290
     0
360
9836
 71
     1
 91
        2
 14
-0.5
 24
-0.5
 14
150.5
 24
176.5
  0
VIEWPORT
  5
2B39
102
{ACAD_XDICTIONARY
360
2B3A
102
}
330
2B37
100
AcDbEntity
 67
     1
  8
0
100
AcDbViewport
 10
0.2044040964297977
 20
0.4407967560970353
 30
0.0
 40
1.032942850002689
 41
0.3945713371128288
 68
     1
 69
     1
 12
0.2044040964297977
 22
0.4407967560970353
 13
0.0
 23
0.0
 14
10.0
 24
10.0
 15
10.0
 25
10.0
 16
0.0
 26
0.0
 36
1.0
 17
0.0
 27
0.0
 37
0.0
 42
50.0
 43
0.0
 44
0.0
 45
0.3945713371128288
 50
0.0
 51
0.0
 72
  1000
 90
   819232
  1

281
     0
 71
     1
 74
     0
110
0.0
120
0.0
130
0.0
111
1.0
121
0.0
131
0.0
112
0.0
122
1.0
132
0.0
 79
     0
146
0.0
170
     0
 61
     5
348
F5
292
     1
282
     1
141
0.0
142
0.0
 63
   250
421
  3355443
  0
VIEWPORT
  5
2B3C
102
{ACAD_XDICTIONARY
360
2B3D
102
}
330
2B37
100
AcDbEntity
 67
     1
  8
0
100
AcDbViewport
 10
128.5
 20
97.5
 30
0.0
 40
205.6
 41
156.0
 68
    -1
 69
     2
 12
2430.557043024972
 22
927.4626459547476
 13
0.0
 23
0.0
 14
10.0
 24
10.0
 15
10.0
 25
10.0
 16
0.0
 26
0.0
 36
1.0
 17
0.0
 27
0.0
 37
0.0
 42
50.0
 43
0.0
 44
0.0
 45
103.1514029277946
 50
0.0
 51
0.0
 72
  1000
 90
   819296
  1

281
     0
 71
     1
 74
     0
110
0.0
120
0.0
130
0.0
111
1.0
121
0.0
131
0.0
112
0.0
122
1.0
132
0.0
 79
     0
146
0.0
170
     0
 61
     5
348
F5
292
     1
282
     1
141
0.0
142
0.0
 63
   250
421
  3355443
  0
LWPOLYLINE
  5
2B3F
330
2B37
100
AcDbEntity
 67
     1
  8
1.7. Ventanas Gráficas
100
AcDbPolyline
 90
        4
 70
     1
 43
0.0
 10
-0.0018762920232689
 20
0.2812602170592981
 10
0.2081237079767311
 20
0.2812602170592981
 10
0.2081237079767311
 20
0.5782602170592981
 10
-0.0018762920232689
 20
0.5782602170592981
  0
VIEWPORT
  5
2B40
102
{ACAD_XDICTIONARY
360
2B41
102
}
330
2B37
100
AcDbEntity
 67
     1
  8
1.7. Ventanas Gráficas
100
AcDbViewport
 10
0.1031310771647043
 20
0.4297528240861653
 30
0.0
 40
0.1983417124039874
 41
0.275393485691211
 68
     2
 69
     3
 12
2373.780509967382
 22
914.6799516162001
 13
0.0
 23
0.0
 14
10.0
 24
10.0
 15
10.0
 25
10.0
 16
0.0
 26
0.0
 36
1.0
 17
0.0
 27
0.0
 37
0.0
 42
50.0
 43
0.0
 44
0.0
 45
0.2810139466820929
 50
0.0
 51
0.0
 72
  1000
 90
   819296
  1

281
     0
 71
     1
 74
     0
110
0.0
120
0.0
130
0.0
111
1.0
121
0.0
131
0.0
112
0.0
122
1.0
132
0.0
 79
     0
146
0.0
170
     0
 61
     5
348
F5
292
     1
282
     1
141
0.0
142
0.0
 63
   250
421
  3355443
  0
VIEWPORT
  5
6309
102
{ACAD_XDICTIONARY
360
630A
102
}
330
2B37
100
AcDbEntity
 67
     1
  8
1.7. Ventanas Gráficas
100
AcDbViewport
 10
0.103167326916946
 20
0.4527510251153473
 30
0.0
 40
0.1689980703276888
 41
0.2075915343514509
 68
     3
 69
     4
 12
2399.441021884466
 22
871.2309500746767
 13
0.0
 23
0.0
 14
10.0
 24
10.0
 15
10.0
 25
10.0
 16
0.0
 26
0.0
 36
1.0
 17
0.0
 27
0.0
 37
0.0
 42
50.0
 43
0.0
 44
0.0
 45
15.56936507635882
 50
0.0
 51
0.0
 72
  1000
 90
   819296
  1

281
     0
 71
     1
 74
     0
110
0.0
120
0.0
130
0.0
111
1.0
121
0.0
131
0.0
112
0.0
122
1.0
132
0.0
 79
     0
146
0.0
170
     0
 61
     5
348
F5
292
     1
282
     1
141
0.0
142
0.0
 63
   250
421
  3355443
  0
ENDSEC
  0
SECTION
  2
OBJECTS
  0
DICTIONARY
  5
C
330
0
100
AcDbDictionary
281
     1
  3
ACAD_BACKGROUND
350
222A
  3
ACAD_CIP_PREVIOUS_PRODUCT_INFO
350
216
  3
ACAD_COLOR
350
6B
  3
ACAD_DETAILVIEWSTYLE
350
21B
  3
ACAD_GROUP
350
D
  3
ACAD_IMAGE_DICT
350
2E0
  3
ACAD_IMAGE_VARS
350
2E1
  3
ACAD_LAYOUT
350
1A
  3
ACAD_MATERIAL
350
6A
  3
ACAD_MLEADERSTYLE
350
12D
  3
ACAD_MLINESTYLE
350
17
  3
ACAD_PLOTSETTINGS
350
19
  3
ACAD_PLOTSTYLENAME
350
E
  3
ACAD_SCALELIST
350
10C
  3
ACAD_SECTIONVIEWSTYLE
350
219
  3
ACAD_TABLESTYLE
350
7E
  3
ACAD_VISUALSTYLE
350
EF
  3
ACDB_RECOMPOSE_DATA
350
9A71
  3
AcDbVariableDictionary
350
5E
  3
AEC_PROPERTY_SET_DEFS
350
18A3
  0
DICTIONARY
  5
1FF
330
2
100
AcDbDictionary
280
     1
281
     1
  3
ACAD_LAYERFILTERS
360
9234
  3
ACAD_LAYERSTATES
360
200
  3
ACLYDICTIONARY
360
9233
  0
DICTIONARY
  5
13C
330
10
100
AcDbDictionary
280
     1
281
     1
  0
DICTIONARY
  5
6C7
330
6C6
100
AcDbDictionary
280
     1
281
     1
  0
DICTIONARY
  5
916A
330
9169
100
AcDbDictionary
280
     1
281
     1
  0
DICTIONARY
  5
1CE
330
1F
100
AcDbDictionary
280
     1
281
     1
  3
ACAD_SORTENTS
360
254
  0
DICTIONARY
  5
2645
330
2643
100
AcDbDictionary
280
     1
281
     1
  3
ACAD_SORTENTS
360
2646
  0
DICTIONARY
  5
9170
330
916E
100
AcDbDictionary
280
     1
281
     1
  3
ACAD_SORTENTS
360
9171
  0
DICTIONARY
  5
2AF4
330
2AF3
100
AcDbDictionary
280
     1
281
     1
  3
ASDK_XREC_ANNOTATION_SCALE_INFO
360
2AF5
  0
DICTIONARY
  5
2AF8
330
2AF7
100
AcDbDictionary
280
     1
281
     1
  3
ASDK_XREC_ANNOTATION_SCALE_INFO
360
2AF9
  0
IMAGEDEF_REACTOR
  5
2769
330
2768
100
AcDbRasterImageDefReactor
 90
        2
330
2768
  0
DICTIONARY
  5
60D1
330
60C4
100
AcDbDictionary
280
     1
281
     1
  3
ACAD_DIMASSOC
360
60DB
  0
DICTIONARY
  5
60E9
330
60DC
100
AcDbDictionary
280
     1
281
     1
  3
ACAD_DIMASSOC
360
60F3
  0
DICTIONARY
  5
6101
330
60F4
100
AcDbDictionary
280
     1
281
     1
  3
ACAD_DIMASSOC
360
610B
  0
DICTIONARY
  5
6119
330
610C
100
AcDbDictionary
280
     1
281
     1
  3
ACAD_DIMASSOC
360
6123
  0
DICTIONARY
  5
6149
330
613C
100
AcDbDictionary
280
     1
281
     1
  3
ACAD_DIMASSOC
360
6153
  0
DICTIONARY
  5
6161
330
6154
100
AcDbDictionary
280
     1
281
     1
  3
ACAD_DIMASSOC
360
616B
  0
DICTIONARY
  5
6179
330
616C
100
AcDbDictionary
280
     1
281
     1
  3
ACAD_DIMASSOC
360
6183
  0
DICTIONARY
  5
6191
330
6184
100
AcDbDictionary
280
     1
281
     1
  3
ACAD_DIMASSOC
360
619B
  0
DICTIONARY
  5
61A9
330
619C
100
AcDbDictionary
280
     1
281
     1
  3
ACAD_DIMASSOC
360
61B3
  0
DICTIONARY
  5
61C1
330
61B4
100
AcDbDictionary
280
     1
281
     1
  3
ACAD_DIMASSOC
360
61CB
  0
DICTIONARY
  5
61E4
330
61D9
100
AcDbDictionary
280
     1
281
     1
  3
ACAD_DIMASSOC
360
61EC
  0
DICTIONARY
  5
6205
330
61FA
100
AcDbDictionary
280
     1
281
     1
  3
ACAD_DIMASSOC
360
620D
  0
DICTIONARY
  5
621B
330
620E
100
AcDbDictionary
280
     1
281
     1
  3
ACAD_DIMASSOC
360
6225
  0
DICTIONARY
  5
6233
330
6226
100
AcDbDictionary
280
     1
281
     1
  3
ACAD_DIMASSOC
360
623D
  0
DICTIONARY
  5
624B
330
623E
100
AcDbDictionary
280
     1
281
     1
  3
ACAD_DIMASSOC
360
6255
  0
DICTIONARY
  5
627B
330
626E
100
AcDbDictionary
280
     1
281
     1
  3
ACAD_DIMASSOC
360
6285
  0
DICTIONARY
  5
63D2
330
63C5
100
AcDbDictionary
280
     1
281
     1
  3
ACAD_DIMASSOC
360
63DC
  0
IMAGEDEF_REACTOR
  5
9836
330
9837
100
AcDbRasterImageDefReactor
 90
        2
330
9837
  0
DICTIONARY
  5
2B3A
330
2B39
100
AcDbDictionary
280
     1
281
     1
  3
ASDK_XREC_ANNOTATION_SCALE_INFO
360
2B3B
  0
DICTIONARY
  5
2B3D
330
2B3C
100
AcDbDictionary
280
     1
281
     1
  3
ASDK_XREC_ANNOTATION_SCALE_INFO
360
2B3E
  0
DICTIONARY
  5
2B41
330
2B40
100
AcDbDictionary
280
     1
281
     1
  3
ASDK_XREC_ANNOTATION_SCALE_INFO
360
2B42
  0
DICTIONARY
  5
630A
330
6309
100
AcDbDictionary
280
     1
281
     1
  3
ASDK_XREC_ANNOTATION_SCALE_INFO
360
630B
  0
DICTIONARY
  5
222A
102
{ACAD_REACTORS
330
C
102
}
330
C
100
AcDbDictionary
281
     1
  0
XRECORD
  5
216
102
{ACAD_REACTORS
330
C
102
}
330
C
100
AcDbXrecord
280
     1
300
ACD
300
2015
300
ACD_F_S
  0
DICTIONARY
  5
6B
102
{ACAD_REACTORS
330
C
102
}
330
C
100
AcDbDictionary
281
     1
  0
DICTIONARY
  5
21B
102
{ACAD_REACTORS
330
C
102
}
330
C
100
AcDbDictionary
281
     1
  3
Imperial24
350
188F
  3
Metric50
350
21C
  0
DICTIONARY
  5
D
102
{ACAD_REACTORS
330
C
102
}
330
C
100
AcDbDictionary
281
     1
  0
DICTIONARY
  5
2E0
102
{ACAD_REACTORS
330
C
102
}
330
C
100
AcDbDictionary
281
     1
  3
Andoain
350
883
  3
Astigarraga
350
A1D
  3
Hernani
350
A20
  3
Lasarte_Oria
350
A38
  3
Urnieta
350
A0E
  3
Usurbil
350
2E2
  3
Usurbil_1
350
9835
  0
RASTERVARIABLES
  5
2E1
102
{ACAD_REACTORS
330
C
102
}
330
C
100
AcDbRasterVariables
 90
        0
 70
     1
 71
     1
 72
     1
  0
DICTIONARY
  5
1A
102
{ACAD_REACTORS
330
C
102
}
330
C
100
AcDbDictionary
281
     1
  3
8
350
2B44
  3
Model
350
22
  3
Presentación2
350
D7
  0
DICTIONARY
  5
6A
102
{ACAD_REACTORS
330
C
102
}
330
C
100
AcDbDictionary
281
     1
  3
ByBlock
350
ED
  3
ByLayer
350
EC
  3
Global
350
EE
  0
DICTIONARY
  5
12D
102
{ACAD_REACTORS
330
C
102
}
330
C
100
AcDbDictionary
281
     1
  3
Anotativo
350
13B
  3
Standard
350
12E
  0
DICTIONARY
  5
17
102
{ACAD_REACTORS
330
C
102
}
330
C
100
AcDbDictionary
281
     1
  3
Standard
350
18
  0
DICTIONARY
  5
19
102
{ACAD_REACTORS
330
C
102
}
330
C
100
AcDbDictionary
281
     1
  0
ACDBDICTIONARYWDFLT
  5
E
102
{ACAD_REACTORS
330
C
102
}
330
C
100
AcDbDictionary
281
     1
  3
Normal
350
F
100
AcDbDictionaryWithDefault
340
F
  0
DICTIONARY
  5
10C
102
{ACAD_REACTORS
330
C
102
}
330
C
100
AcDbDictionary
281
     1
  3
A0
350
10D
  3
A1
350
4B1
  3
A2
350
4B2
  3
A3
350
4B3
  3
A4
350
4B4
  3
A5
350
4B5
  3
A6
350
4B6
  3
A7
350
4B7
  3
A8
350
4B8
  3
A9
350
4B9
  3
B0
350
4BA
  3
B1
350
4BB
  3
B2
350
1C8
  3
B3
350
4BC
  3
B4
350
4BD
  3
B5
350
4BE
  3
B6
350
4BF
  3
B7
350
4C0
  0
DICTIONARY
  5
219
102
{ACAD_REACTORS
330
C
102
}
330
C
100
AcDbDictionary
281
     1
  3
Imperial24
350
188E
  3
Metric50
350
21A
  0
DICTIONARY
  5
7E
102
{ACAD_REACTORS
330
C
102
}
330
C
100
AcDbDictionary
281
     1
  3
Standard
350
7F
  0
DICTIONARY
  5
EF
102
{ACAD_REACTORS
330
C
102
}
330
C
100
AcDbDictionary
281
     1
  3
2dWireframe
350
F5
  3
Basic
350
F4
  3
Brighten
350
FB
  3
ColorChange
350
FF
  3
Conceptual
350
F8
  3
Dim
350
FA
  3
EdgeColorOff
350
1E6
  3
Facepattern
350
FE
  3
Flat
350
F0
  3
FlatWithEdges
350
F1
  3
Gouraud
350
F2
  3
GouraudWithEdges
350
F3
  3
Hidden
350
F7
  3
JitterOff
350
1E4
  3
Linepattern
350
FD
  3
OverhangOff
350
1E5
  3
Realistic
350
F9
  3
Shaded
350
1F3
  3
Shaded with edges
350
1F2
  3
Shades of Gray
350
1EF
  3
Sketchy
350
1F0
  3
Thicken
350
FC
  3
Wireframe
350
F6
  3
X-Ray
350
1F1
  0
XRECORD
  5
9A71
102
{ACAD_REACTORS
330
C
102
}
330
C
100
AcDbXrecord
280
     1
 90
        1
330
7F
330
21A
330
21C
330
1251
330
188E
330
188F
330
62A0
330
62A1
330
62AA
330
9247
  0
DICTIONARY
  5
5E
102
{ACAD_REACTORS
330
C
102
}
330
C
100
AcDbDictionary
281
     1
  3
CANNOSCALE
350
146
  3
CMLEADERSTYLE
350
145
  3
CTABLESTYLE
350
84
  3
CVIEWDETAILSTYLE
350
227
  3
CVIEWSECTIONSTYLE
350
228
  3
DIMASSOC
350
5F
  3
HIDETEXT
350
63
  3
LAYEREVAL
350
1AE
  3
LAYERNOTIFY
350
1AF
  0
DICTIONARY
  5
18A3
102
{ACAD_REACTORS
330
C
102
}
330
C
100
AcDbDictionary
281
     1
  0
DICTIONARY
  5
9234
102
{ACAD_REACTORS
330
1FF
102
}
330
1FF
100
AcDbDictionary
281
     1
  0
DICTIONARY
  5
200
102
{ACAD_REACTORS
330
1FF
102
}
330
1FF
100
AcDbDictionary
281
     1
  0
DICTIONARY
  5
9233
102
{ACAD_REACTORS
330
1FF
102
}
330
1FF
100
AcDbDictionary
281
     1
  3
*A1
350
9235
  3
*A2
350
9236
  3
*A3
350
9237
  3
*A4
350
9238
  3
*A5
350
9239
  3
*A6
350
923A
  3
*A7
350
923B
  3
*A8
350
923C
1001
ACAD
1000
<All
  0
SORTENTSTABLE
  5
254
102
{ACAD_REACTORS
330
1CE
102
}
330
1CE
100
AcDbSortentsTable
330
1F
331
2794
  5
2894
331
616C
  5
6636
331
2790
  5
2890
331
278C
  5
288C
331
2788
  5
2888
331
18AF
  5
2264
331
12C1
  5
13FB
331
18AB
  5
2251
331
1286
  5
13B9
331
12BD
  5
13F7
331
1324
  5
145D
331
18A7
  5
224C
331
2784
  5
2884
331
1282
  5
13B4
331
12B9
  5
13F3
331
1320
  5
1459
331
2780
  5
287F
331
8E99
  5
913B
331
61FA
  5
663D
331
131C
  5
1455
331
127E
  5
13AF
331
12B5
  5
13EF
331
1318
  5
1451
331
277C
  5
287B
331
127A
  5
13AA
331
12B1
  5
13EB
331
1314
  5
144D
331
2778
  5
2870
331
1276
  5
13A5
331
2774
  5
286C
331
1272
  5
13A0
331
12A9
  5
13E4
331
1310
  5
1449
331
2770
  5
2860
331
8CDD
  5
12DA
331
6154
  5
6635
331
62C3
  5
6649
331
27AF
  5
28A6
331
130C
  5
1445
331
126E
  5
139C
331
12A5
  5
13E0
331
1308
  5
1441
331
276C
  5
285C
331
126A
  5
1397
331
12A1
  5
13DC
331
1304
  5
143D
331
18DA
  5
22CE
331
2768
  5
2859
331
1266
  5
1393
331
129D
  5
13D9
331
1299
  5
13D4
331
2764
  5
2855
331
1262
  5
138D
331
1300
  5
1439
331
75C5
  5
762A
331
63B6
  5
12AF
331
75C1
  5
7626
331
75BD
  5
7622
331
639E
  5
664A
331
613C
  5
6634
331
75B9
  5
761E
331
27A3
  5
28A3
331
279F
  5
289F
331
279B
  5
289B
331
12FC
  5
1435
331
1295
  5
13D0
331
12F8
  5
1431
331
1291
  5
13C3
331
125A
  5
1384
331
12F4
  5
142D
331
128D
  5
13BF
331
2758
  5
2854
331
1256
  5
1380
331
1252
  5
137A
331
1289
  5
13BC
331
18B2
  5
2287
331
75B5
  5
12E6
331
6293
  5
6644
331
2797
  5
2897
331
2793
  5
2893
331
278F
  5
288F
331
610C
  5
6633
331
278B
  5
288B
331
12C4
  5
13FC
331
18AE
  5
2263
331
12C0
  5
13FA
331
1327
  5
1460
331
18AA
  5
2250
331
2787
  5
2887
331
1285
  5
13B8
331
12BC
  5
13F6
331
1323
  5
145C
331
18A6
  5
223D
331
2783
  5
2882
331
1281
  5
13B2
331
12B8
  5
13F2
331
60F4
  5
6632
331
131F
  5
1458
331
131B
  5
1454
331
277F
  5
287E
331
127D
  5
13AE
331
12B4
  5
13EE
331
12B0
  5
13EA
331
277B
  5
287A
331
1279
  5
13A8
331
1317
  5
1450
331
2777
  5
286F
331
1275
  5
13A4
331
12AC
  5
13E7
331
1313
  5
144C
331
2773
  5
286B
331
1271
  5
139F
331
12A8
  5
13E3
331
62EE
  5
12B1
331
9247
  5
9294
331
63C5
  5
664C
331
61ED
  5
663C
331
27B2
  5
28A9
331
60DC
  5
6631
331
130F
  5
1448
331
130B
  5
1444
331
276F
  5
285F
331
126D
  5
139B
331
12A4
  5
13DF
331
1307
  5
1440
331
276B
  5
285B
331
1269
  5
1396
331
12A0
  5
13DB
331
1303
  5
143C
331
2767
  5
2858
331
18D9
  5
22CD
331
1265
  5
1392
331
129C
  5
13D8
331
1298
  5
13D3
331
1261
  5
138C
331
18C9
  5
22CB
331
75C4
  5
7629
331
75C0
  5
7625
331
62AA
  5
6648
331
75BC
  5
7621
331
62A2
  5
6647
331
75B8
  5
12E9
331
27A2
  5
28A2
331
61D9
  5
663B
331
279E
  5
289E
331
60C4
  5
662E
331
279A
  5
289A
331
12FF
  5
1438
331
12FB
  5
1434
331
1294
  5
13CE
331
125D
  5
138A
331
12F7
  5
1430
331
1290
  5
13C2
331
18C5
  5
22C9
331
1259
  5
1383
331
12F3
  5
142C
331
128C
  5
13BE
331
2757
  5
2853
331
1255
  5
137F
331
1251
  5
1379
331
1288
  5
13BB
331
132A
  5
1463
331
18B1
  5
2285
331
6292
  5
6643
331
2796
  5
2896
331
2792
  5
2892
331
278E
  5
288E
331
278A
  5
288A
331
12BF
  5
13F9
331
1326
  5
145F
331
18AD
  5
2254
331
1284
  5
13B7
331
12BB
  5
13F5
331
1322
  5
145B
331
18A9
  5
224F
331
2786
  5
2886
331
1280
  5
13B1
331
18A5
  5
223C
331
2782
  5
2881
331
6379
  5
12AE
331
131E
  5
1457
331
12B7
  5
13F1
331
131A
  5
1453
331
127C
  5
13AD
331
12B3
  5
13ED
331
277E
  5
287D
331
12AF
  5
13E9
331
1278
  5
13A7
331
1316
  5
144F
331
277A
  5
2872
331
1274
  5
13A2
331
12AB
  5
13E6
331
1312
  5
144B
331
2776
  5
286E
331
1270
  5
139E
331
2772
  5
2862
331
9246
  5
927E
331
626E
  5
6642
331
27B1
  5
28A8
331
130E
  5
1447
331
12A7
  5
13E2
331
130A
  5
1443
331
126C
  5
1399
331
12A3
  5
13DE
331
276E
  5
285E
331
1306
  5
143F
331
1268
  5
1395
331
129F
  5
13DA
331
18DC
  5
22D0
331
276A
  5
285A
331
129B
  5
13D6
331
1264
  5
138F
331
1302
  5
143B
331
2766
  5
2857
331
18C8
  5
22CA
331
75C3
  5
7628
331
75BF
  5
7624
331
6256
  5
6641
331
75BB
  5
7620
331
62A1
  5
6646
331
27A5
  5
28A5
331
27A1
  5
28A1
331
279D
  5
289D
331
2799
  5
2899
331
12FE
  5
1437
331
1297
  5
13D2
331
12FA
  5
1433
331
1293
  5
13CD
331
125C
  5
1387
331
12F6
  5
142F
331
128F
  5
13C1
331
1258
  5
1382
331
1254
  5
137D
331
128B
  5
13BD
331
2756
  5
2852
331
1250
  5
6D3
331
18B4
  5
228A
331
1329
  5
1462
331
18B0
  5
2276
331
75B7
  5
12E8
331
61CC
  5
663A
331
2795
  5
2895
331
2791
  5
2891
331
278D
  5
288D
331
2789
  5
2889
331
1287
  5
13BA
331
12BE
  5
13F8
331
1325
  5
145E
331
18AC
  5
2253
331
1283
  5
13B6
331
12BA
  5
13F4
331
1321
  5
145A
331
18A8
  5
224D
331
2785
  5
2885
331
2781
  5
2880
331
623E
  5
6640
331
61B4
  5
6639
331
131D
  5
1456
331
127F
  5
13B0
331
12B6
  5
13F0
331
1319
  5
1452
331
127B
  5
13AB
331
12B2
  5
13EC
331
277D
  5
287C
331
12AE
  5
13E8
331
1277
  5
13A6
331
1315
  5
144E
331
2779
  5
2871
331
1273
  5
13A1
331
12AA
  5
13E5
331
1311
  5
144A
331
2775
  5
286D
331
2771
  5
2861
331
62E8
  5
12B0
331
8CC2
  5
8CD1
331
6226
  5
663F
331
619C
  5
6638
331
27B0
  5
28A7
331
130D
  5
1446
331
126F
  5
139D
331
12A6
  5
13E1
331
1309
  5
1442
331
126B
  5
1398
331
12A2
  5
13DD
331
276D
  5
285D
331
1267
  5
1394
331
1305
  5
143E
331
18DB
  5
22CF
331
129A
  5
13D5
331
1263
  5
138E
331
1301
  5
143A
331
2765
  5
2856
331
18CB
  5
22CC
331
75C6
  5
7685
331
75C2
  5
7627
331
75BE
  5
7623
331
639F
  5
664B
331
75BA
  5
761F
331
62A0
  5
6645
331
27A4
  5
28A4
331
6184
  5
6637
331
27A0
  5
28A0
331
279C
  5
289C
331
2798
  5
2898
331
12FD
  5
1436
331
1296
  5
13D1
331
125F
  5
138B
331
12F9
  5
1432
331
1292
  5
13CC
331
125B
  5
1385
331
12F5
  5
142E
331
128E
  5
13C0
331
1257
  5
1381
331
1253
  5
137C
331
128A
  5
130A
331
2755
  5
2851
331
18B3
  5
2288
331
1328
  5
1461
331
75B6
  5
12E7
331
620E
  5
663E
  0
SORTENTSTABLE
  5
2646
102
{ACAD_REACTORS
330
2645
102
}
330
2645
100
AcDbSortentsTable
330
2643
  0
SORTENTSTABLE
  5
9171
102
{ACAD_REACTORS
330
9170
102
}
330
9170
100
AcDbSortentsTable
330
916E
  0
XRECORD
  5
2AF5
102
{ACAD_REACTORS
330
2AF4
102
}
330
2AF4
100
AcDbXrecord
280
     1
 90
        1
340
10D
  0
XRECORD
  5
2AF9
102
{ACAD_REACTORS
330
2AF8
102
}
330
2AF8
100
AcDbXrecord
280
     1
 90
        1
340
10D
  0
DIMASSOC
  5
60DB
102
{ACAD_REACTORS
330
60D1
102
}
330
60D1
100
AcDbDimAssoc
330
60C4
 90
        3
 70
     0
 71
     0
  1
AcDbOsnapPointRef
 72
    13
331
12B4
 73
     2
 91
        0
 40
0.0
 10
0.0
 20
0.0
 30
2.000000000000000E+50
 75
     0
  1
AcDbOsnapPointRef
 72
     8
331
12B1
 73
     2
 91
        0
 40
1.0
 10
0.0
 20
0.0
 30
0.0
 75
     1
  1
AcDbOsnapPointRef
 72
    13
331
12B4
 73
     2
 91
        0
 40
0.0
 10
0.0
 20
0.0
 30
2.000000000000000E+50
 75
     0
  0
DIMASSOC
  5
60F3
102
{ACAD_REACTORS
330
60E9
102
}
330
60E9
100
AcDbDimAssoc
330
60DC
 90
        3
 70
     0
 71
     0
  1
AcDbOsnapPointRef
 72
     1
331
12F3
 73
     2
 91
        0
 40
1.0
 10
0.0
 20
0.0
 30
2.000000000000000E+50
 75
     0
  1
AcDbOsnapPointRef
 72
     8
331
12AE
 73
     2
 91
        0
 40
1.0
 10
0.0
 20
0.0
 30
0.0
 75
     1
  1
AcDbOsnapPointRef
 72
     1
331
12F3
 73
     2
 91
        0
 40
1.0
 10
0.0
 20
0.0
 30
2.000000000000000E+50
 75
     0
  0
DIMASSOC
  5
610B
102
{ACAD_REACTORS
330
6101
102
}
330
6101
100
AcDbDimAssoc
330
60F4
 90
        3
 70
     0
 71
     0
  1
AcDbOsnapPointRef
 72
    13
331
12B4
 73
     2
 91
        0
 40
0.0
 10
0.0
 20
0.0
 30
2.000000000000000E+50
 75
     0
  1
AcDbOsnapPointRef
 72
    13
331
12F3
 73
     2
 91
        0
 40
0.0
 10
0.0
 20
0.0
 30
2.000000000000000E+50
 75
     0
  0
DIMASSOC
  5
6123
102
{ACAD_REACTORS
330
6119
102
}
330
6119
100
AcDbDimAssoc
330
610C
 90
        3
 70
     0
 71
     0
  1
AcDbOsnapPointRef
 72
     1
331
128F
 73
     2
 91
        4
 40
1.0
 10
0.0
 20
0.0
 30
2.000000000000000E+50
 75
     0
  1
AcDbOsnapPointRef
 72
     1
331
1290
 73
     2
 91
        4
 40
1.0
 10
0.0
 20
0.0
 30
2.000000000000000E+50
 75
     0
  0
DIMASSOC
  5
6153
102
{ACAD_REACTORS
330
6149
102
}
330
6149
100
AcDbDimAssoc
330
613C
 90
        3
 70
     0
 71
     0
  1
AcDbOsnapPointRef
 72
     1
331
12B8
 73
     2
 91
        0
 40
1.0
 10
0.0
 20
0.0
 30
2.000000000000000E+50
 75
     0
  1
AcDbOsnapPointRef
 72
    13
331
12B8
 73
     2
 91
        0
 40
0.0
 10
0.0
 20
0.0
 30
2.000000000000000E+50
 75
     0
  0
DIMASSOC
  5
616B
102
{ACAD_REACTORS
330
6161
102
}
330
6161
100
AcDbDimAssoc
330
6154
 90
        3
 70
     0
 71
     0
  1
AcDbOsnapPointRef
 72
     1
331
12B7
 73
     2
 91
        0
 40
1.0
 10
0.0
 20
0.0
 30
2.000000000000000E+50
 75
     0
  1
AcDbOsnapPointRef
 72
    13
331
12B7
 73
     2
 91
        0
 40
0.0
 10
0.0
 20
0.0
 30
2.000000000000000E+50
 75
     0
  0
DIMASSOC
  5
6183
102
{ACAD_REACTORS
330
6179
102
}
330
6179
100
AcDbDimAssoc
330
616C
 90
        3
 70
     0
 71
     0
  1
AcDbOsnapPointRef
 72
     1
331
12A6
 73
     2
 91
        4
 40
1.0
 10
0.0
 20
0.0
 30
2.000000000000000E+50
 75
     0
  1
AcDbOsnapPointRef
 72
     1
331
12A5
 73
     2
 91
        4
 40
1.0
 10
0.0
 20
0.0
 30
2.000000000000000E+50
 75
     0
  0
DIMASSOC
  5
619B
102
{ACAD_REACTORS
330
6191
102
}
330
6191
100
AcDbDimAssoc
330
6184
 90
        3
 70
     0
 71
     0
  1
AcDbOsnapPointRef
 72
    13
331
12C0
 73
     2
 91
        0
 40
0.0
 10
0.0
 20
0.0
 30
2.000000000000000E+50
 75
     0
  1
AcDbOsnapPointRef
 72
     1
331
12C0
 73
     2
 91
        0
 40
1.0
 10
0.0
 20
0.0
 30
2.000000000000000E+50
 75
     0
  0
DIMASSOC
  5
61B3
102
{ACAD_REACTORS
330
61A9
102
}
330
61A9
100
AcDbDimAssoc
330
619C
 90
        3
 70
     0
 71
     0
  1
AcDbOsnapPointRef
 72
     1
331
12BE
 73
     2
 91
        0
 40
1.0
 10
0.0
 20
0.0
 30
2.000000000000000E+50
 75
     0
  1
AcDbOsnapPointRef
 72
    13
331
12BE
 73
     2
 91
        0
 40
0.0
 10
0.0
 20
0.0
 30
2.000000000000000E+50
 75
     0
  0
DIMASSOC
  5
61CB
102
{ACAD_REACTORS
330
61C1
102
}
330
61C1
100
AcDbDimAssoc
330
61B4
 90
        3
 70
     0
 71
     0
  1
AcDbOsnapPointRef
 72
    13
331
12BF
 73
     2
 91
        0
 40
0.0
 10
0.0
 20
0.0
 30
2.000000000000000E+50
 75
     0
  1
AcDbOsnapPointRef
 72
    13
331
12C1
 73
     2
 91
        0
 40
0.0
 10
0.0
 20
0.0
 30
2.000000000000000E+50
 75
     0
  0
DIMASSOC
  5
61EC
102
{ACAD_REACTORS
330
61E4
102
}
330
61E4
100
AcDbDimAssoc
330
61D9
 90
        3
 70
     0
 71
     0
  1
AcDbOsnapPointRef
 72
     8
331
12FD
 73
     2
 91
        0
 40
0.5339674508395547
 10
0.0
 20
0.0
 30
0.0
 75
     1
  1
AcDbOsnapPointRef
 72
     0
 40
0.0
 10
2398.406004272545
 20
865.324280874988
 30
0.0
 75
     0
  1
AcDbOsnapPointRef
 72
     8
331
1268
 73
     2
 91
        0
 40
0.6579233965369494
 10
0.0
 20
0.0
 30
0.0
 75
     1
  1
AcDbOsnapPointRef
 72
     8
331
12FD
 73
     2
 91
        0
 40
0.5339674508395547
 10
0.0
 20
0.0
 30
0.0
 75
     1
  1
AcDbOsnapPointRef
 72
     0
 40
0.0
 10
2398.406004272545
 20
865.324280874988
 30
0.0
 75
     0
  0
DIMASSOC
  5
620D
102
{ACAD_REACTORS
330
6205
102
}
330
6205
100
AcDbDimAssoc
330
61FA
 90
        2
 70
     0
 71
     0
  1
AcDbOsnapPointRef
 72
     8
331
1281
 73
     2
 91
        0
 40
0.8007584138658369
 10
0.0
 20
0.0
 30
0.0
 75
     1
  1
AcDbOsnapPointRef
 72
     0
 40
0.0
 10
2398.406004272545
 20
873.8160927175085
 30
0.0
 75
     0
  0
DIMASSOC
  5
6225
102
{ACAD_REACTORS
330
621B
102
}
330
621B
100
AcDbDimAssoc
330
620E
 90
        2
 70
     0
 71
     0
  1
AcDbOsnapPointRef
 72
     8
331
1252
 73
     2
 91
        0
 40
0.1233975721724712
 10
0.0
 20
0.0
 30
0.0
 75
     1
  1
AcDbOsnapPointRef
 72
     0
 40
0.0
 10
2402.125053096285
 20
868.2661563894434
 30
0.0
 75
     0
  0
DIMASSOC
  5
623D
102
{ACAD_REACTORS
330
6233
102
}
330
6233
100
AcDbDimAssoc
330
6226
 90
        3
 70
     0
 71
     0
  1
AcDbOsnapPointRef
 72
     1
331
1289
 73
     2
 91
        4
 40
1.0
 10
0.0
 20
0.0
 30
2.000000000000000E+50
 75
     0
  1
AcDbOsnapPointRef
 72
     1
331
128A
 73
     2
 91
        4
 40
1.0
 10
0.0
 20
0.0
 30
2.000000000000000E+50
 75
     0
  0
DIMASSOC
  5
6255
102
{ACAD_REACTORS
330
624B
102
}
330
624B
100
AcDbDimAssoc
330
623E
 90
        2
 70
     0
 71
     0
  1
AcDbOsnapPointRef
 72
    13
331
12C1
 73
     2
 91
        0
 40
0.071428571428583
 10
0.0
 20
0.0
 30
2.000000000000000E+50
 75
     0
  0
DIMASSOC
  5
6285
102
{ACAD_REACTORS
330
627B
102
}
330
627B
100
AcDbDimAssoc
330
626E
 90
        1
 70
     0
 71
     0
  1
AcDbOsnapPointRef
 72
     6
331
1261
 73
     2
 91
        0
 40
1.487804878048794
 10
0.0
 20
0.0
 30
0.0
332
1282
 74
     2
 92
        0
 75
     0
  0
DIMASSOC
  5
63DC
102
{ACAD_REACTORS
330
63D2
102
}
330
63D2
100
AcDbDimAssoc
330
63C5
 90
        2
 70
     0
 71
     0
  1
AcDbOsnapPointRef
 72
     1
331
12B8
 73
     2
 91
        0
 40
1.0
 10
0.0
 20
0.0
 30
2.000000000000000E+50
 75
     0
  0
XRECORD
  5
2B3B
102
{ACAD_REACTORS
330
2B3A
102
}
330
2B3A
100
AcDbXrecord
280
     1
 90
        1
340
10D
  0
XRECORD
  5
2B3E
102
{ACAD_REACTORS
330
2B3D
102
}
330
2B3D
100
AcDbXrecord
280
     1
 90
        1
340
10D
  0
XRECORD
  5
2B42
102
{ACAD_REACTORS
330
2B41
102
}
330
2B41
100
AcDbXrecord
280
     1
 90
        1
340
4B1
  0
XRECORD
  5
630B
102
{ACAD_REACTORS
330
630A
102
}
330
630A
100
AcDbXrecord
280
     1
 90
        1
340
10D
  0
ACDBDETAILVIEWSTYLE
  5
188F
102
{ACAD_XDICTIONARY
360
22E2
102
}
102
{ACAD_REACTORS
330
21B
102
}
330
21B
100
AcDbModelDocViewStyle
 70
     0
  3
Imperial24
290
     0
100
AcDbDetailViewStyle
 70
     0
 71
     0
 90
        3
 71
     1
340
11
 62
   256
 40
0.24
340
0
 62
   256
 40
0.24
300

 40
0.36
280
     3
 71
     2
340
16
 90
       25
 62
   256
 71
     3
340
11
 62
   256
 40
0.24
 90
        1
 40
0.75
 90
        1
300
%<\AcVar ViewType \f "%tc1">% %<\AcVar ViewDetailId>%\PESCALA %<\AcVar ViewScale \f "%sn">%
 71
     4
340
16
 90
       25
 62
   256
340
16
 90
       25
 62
   256
280
     0
  0
ACDBDETAILVIEWSTYLE
  5
21C
102
{ACAD_XDICTIONARY
360
236
102
}
102
{ACAD_REACTORS
330
21B
102
}
330
21B
100
AcDbModelDocViewStyle
 70
     0
  3
Metric50
290
     0
100
AcDbDetailViewStyle
 70
     0
 71
     0
 90
        3
 71
     1
340
11
 62
   256
 40
5.0
340
0
 62
   256
 40
5.0
300

 40
0.0
280
     1
 71
     2
340
16
 90
       25
 62
   256
 71
     3
340
11
 62
   256
 40
5.0
 90
        0
 40
15.0
 90
        1
300
%<\AcVar ViewDetailId>% (%<\AcVar ViewScale \f "%sn">%)
 71
     4
340
16
 90
       25
 62
   256
340
16
 90
       25
 62
   256
280
     0
  0
IMAGEDEF
  5
883
102
{ACAD_REACTORS
330
2E0
102
}
330
2E0
100
AcDbRasterImageDef
 90
        0
  1
\\zerbitzaria\pertsonalak$\guztion1\Downloads\Andoain.jpg
 10
400.0
 20
400.0
 11
0.2645833333333333
 21
0.2645833333333333
280
     1
281
     5
  0
IMAGEDEF
  5
A1D
102
{ACAD_REACTORS
330
2E0
102
}
330
2E0
100
AcDbRasterImageDef
 90
        0
  1
\\zerbitzaria\pertsonalak$\guztion1\Downloads\Astigarraga.jpg
 10
306.0
 20
278.0
 11
0.2645833333333333
 21
0.2645833333333333
280
     1
281
     5
  0
IMAGEDEF
  5
A20
102
{ACAD_REACTORS
330
2E0
102
}
330
2E0
100
AcDbRasterImageDef
 90
        0
  1
\\zerbitzaria\pertsonalak$\guztion1\Downloads\Hernani.jpg
 10
512.0
 20
512.0
 11
0.2645833333333333
 21
0.2645833333333333
280
     1
281
     5
  0
IMAGEDEF
  5
A38
102
{ACAD_REACTORS
330
2E0
102
}
330
2E0
100
AcDbRasterImageDef
 90
        0
  1
\\zerbitzaria\pertsonalak$\guztion1\Downloads\Lasarte_Oria.jpg
 10
306.0
 20
278.0
 11
0.2645833333333333
 21
0.2645833333333333
280
     1
281
     5
  0
IMAGEDEF
  5
A0E
102
{ACAD_REACTORS
330
2E0
102
}
330
2E0
100
AcDbRasterImageDef
 90
        0
  1
\\zerbitzaria\pertsonalak$\guztion1\Downloads\Urnieta.jpg
 10
512.0
 20
686.0
 11
0.2645833333333333
 21
0.2645833333333333
280
     1
281
     5
  0
IMAGEDEF
  5
2E2
102
{ACAD_REACTORS
330
2E0
330
2769
102
}
330
2E0
100
AcDbRasterImageDef
 90
        0
  1
\\zerbitzaria\pertsonalak$\guztion1\Downloads\Usurbil.jpg
 10
151.0
 20
177.0
 11
0.2645833333333333
 21
0.2645833333333333
280
     1
281
     5
  0
IMAGEDEF
  5
9835
102
{ACAD_REACTORS
330
2E0
330
9836
102
}
330
2E0
100
AcDbRasterImageDef
 90
        0
  1
G:\Udalerriak\US_Usurbil\Usurbil.jpg
 10
151.0
 20
177.0
 11
0.2645833333333333
 21
0.2645833333333333
280
     1
281
     5
  0
LAYOUT
  5
2B44
102
{ACAD_REACTORS
330
1A
102
}
330
1A
100
AcDbPlotSettings
  1

  2
DWG To PDF.pc3
  4
UserDefinedMetric (210.00 x 297.00mm)
  6

 40
0.0
 41
0.0
 42
0.0
 43
0.0
 44
210.0
 45
297.0
 46
0.0
 47
0.0000000000000284
 48
-0.0018762920232689
 49
0.2812602170592981
140
0.2081237079767311
141
0.5782602170592981
142
1000.0
143
1.0
 70
   676
 72
     1
 73
     0
 74
     4
  7
Guztion_Planoak_pdf.ctb
 75
     0
147
1000.0
 76
     0
 77
     2
 78
   300
148
0.0018762920232689
149
-0.2812602170592981
100
AcDbLayout
  1
8
 70
     1
 71
     1
 10
-0.0018762920232689
 20
0.2812602170592981
 11
0.2081237079767311
 21
0.5782602170592981
 12
0.0
 22
0.0
 32
0.0
 14
-0.0018762920232689
 24
0.2812602170592981
 34
0.0
 15
231.3
 25
175.5
 35
0.0
146
0.0
 13
0.0
 23
0.0
 33
0.0
 16
1.0
 26
0.0
 36
0.0
 17
0.0
 27
1.0
 37
0.0
 76
     0
330
2B37
331
2B39
1001
ACAD_PSEXT
1000
DWG To PDF.pc3
1000
DWG To PDF
1000
Archivo
1000

1070
     0
  0
LAYOUT
  5
22
102
{ACAD_XDICTIONARY
360
205
102
}
102
{ACAD_REACTORS
330
1A
102
}
330
1A
100
AcDbPlotSettings
  1

  2
DWG To PDF.pc3
  4
UserDefinedMetric (210.00 x 297.00mm)
  6

 40
0.0
 41
0.0
 42
0.0
 43
0.0
 44
210.0
 45
297.0
 46
0.0
 47
87.12725628375705
 48
-64.87770755501651
 49
-10.86078803921714
140
-49.28250067704721
141
-1.74535342089905
142
1.0
143
0.0742628898950919
 70
 11956
 72
     1
 73
     0
 74
     4
  7
Guztion_Planoak_pdf.ctb
 75
     0
147
13.46567580944747
 76
     0
 77
     2
 78
   300
148
64.87770755501651
149
10.86078803921714
100
AcDbLayout
  1
Model
 70
     1
 71
     0
 10
0.0
 20
0.0
 11
12.0
 21
9.0
 12
0.0
 22
0.0
 32
0.0
 14
0.0
 24
0.0
 34
0.0
 15
0.0
 25
0.0
 35
0.0
146
0.0
 13
0.0
 23
0.0
 33
0.0
 16
1.0
 26
0.0
 36
0.0
 17
0.0
 27
1.0
 37
0.0
 76
     0
330
1F
331
EA
1001
ACAD_PSEXT
1000
DWG To PDF.pc3
1000
DWG To PDF
1000
Archivo
1000

1070
     0
  0
LAYOUT
  5
D7
102
{ACAD_REACTORS
330
1A
102
}
330
1A
100
AcDbPlotSettings
  1

  2
none_device
  4
ISO_A4_(210.00_x_297.00_MM)
  6

 40
7.5
 41
20.0
 42
7.5
 43
20.0
 44
210.0
 45
297.0
 46
0.0
 47
0.0
 48
0.0
 49
0.0
140
0.0
141
0.0
142
1.0
143
1.0
 70
   688
 72
     1
 73
     1
 74
     5
  7
Guztion_Planoak_pdf.ctb
 75
    16
147
1.0
 76
     0
 77
     2
 78
   300
148
0.0
149
0.0
100
AcDbLayout
  1
Presentación2
 70
     1
 71
     2
 10
-20.0
 20
-7.5
 11
277.0
 21
202.5
 12
0.0
 22
0.0
 32
0.0
 14
25.69999999999999
 24
19.5
 34
0.0
 15
231.3
 25
175.5
 35
0.0
146
0.0
 13
0.0
 23
0.0
 33
0.0
 16
1.0
 26
0.0
 36
0.0
 17
0.0
 27
1.0
 37
0.0
 76
     0
330
D6
331
2AF3
1001
ACAD_PSEXT
1000
Ninguno
1000
Ninguno
1000
No aplicable
1000
La presentación no se trazará a menos que se seleccione un nuevo nombre de configuración de trazador.
1070
     0
  0
MATERIAL
  5
ED
102
{ACAD_XDICTIONARY
360
1F9
102
}
102
{ACAD_REACTORS
330
6A
102
}
330
6A
100
AcDbMaterial
  1
ByBlock
 94
       63
  0
MATERIAL
  5
EC
102
{ACAD_XDICTIONARY
360
1F7
102
}
102
{ACAD_REACTORS
330
6A
102
}
330
6A
100
AcDbMaterial
  1
ByLayer
 94
       63
  0
MATERIAL
  5
EE
102
{ACAD_XDICTIONARY
360
173
102
}
102
{ACAD_REACTORS
330
6A
102
}
330
6A
100
AcDbMaterial
  1
Global
 43
0.0007999999797903
 43
0.0
 43
0.0
 43
0.0
 43
0.0
 43
0.0007999999797903
 43
0.0
 43
0.0
 43
0.0
 43
0.0
 43
1.0
 43
0.0
 43
0.0
 43
0.0
 43
0.0
 43
1.0
 49
0.0007999999797903
 49
0.0
 49
0.0
 49
0.0
 49
0.0
 49
0.0007999999797903
 49
0.0
 49
0.0
 49
0.0
 49
0.0
 49
1.0
 49
0.0
 49
0.0
 49
0.0
 49
0.0
 49
1.0
142
0.0007999999797903
142
0.0
142
0.0
142
0.0
142
0.0
142
0.0007999999797903
142
0.0
142
0.0
142
0.0
142
0.0
142
1.0
142
0.0
142
0.0
142
0.0
142
0.0
142
1.0
144
0.0007999999797903
144
0.0
144
0.0
144
0.0
144
0.0
144
0.0007999999797903
144
0.0
144
0.0
144
0.0
144
0.0
144
1.0
144
0.0
144
0.0
144
0.0
144
0.0
144
1.0
 94
       63
1001
ACAD
1070
    -1
1070
     3
1070
     0
1000

1071
        0
1070
     0
  0
MLEADERSTYLE
  5
13B
102
{ACAD_REACTORS
330
12D
102
}
330
12D
100
AcDbMLeaderStyle
179
     2
170
     2
171
     1
172
     0
 90
        2
 40
0.0
 41
0.0
173
     1
 91
-1056964608
340
14
 92
       -2
290
     1
 42
2.0
291
     1
 43
8.0
  3
Standard
 44
4.0
300

342
11
174
     1
178
     1
175
     1
176
     0
 93
-1056964608
 45
4.0
292
     0
297
     0
 46
4.0
 94
-1056964608
 47
1.0
 49
1.0
140
1.0
293
     1
141
0.0
294
     1
177
     0
142
1.0
295
     0
296
     1
143
3.75
271
     0
272
     9
273
     9
298
     0
  0
MLEADERSTYLE
  5
12E
102
{ACAD_REACTORS
330
12D
102
}
330
12D
100
AcDbMLeaderStyle
179
     2
170
     2
171
     1
172
     0
 90
        2
 40
0.0
 41
0.0
173
     1
 91
-1056964608
340
14
 92
       -2
290
     1
 42
2.0
291
     1
 43
8.0
  3
Standard
 44
4.0
300

342
11
174
     1
178
     1
175
     1
176
     0
 93
-1056964608
 45
4.0
292
     0
297
     0
 46
4.0
 94
-1056964608
 47
1.0
 49
1.0
140
1.0
293
     1
141
0.0
294
     1
177
     0
142
1.0
295
     0
296
     0
143
3.75
271
     0
272
     9
273
     9
298
     0
  0
MLINESTYLE
  5
18
102
{ACAD_REACTORS
330
17
102
}
330
17
100
AcDbMlineStyle
  2
STANDARD
 70
     0
  3

 62
   256
 51
90.0
 52
90.0
 71
     2
 49
0.5
 62
   256
  6
BYLAYER
 49
-0.5
 62
   256
  6
BYLAYER
  0
ACDBPLACEHOLDER
  5
F
102
{ACAD_REACTORS
330
E
102
}
330
E
  0
SCALE
  5
10D
102
{ACAD_REACTORS
330
10C
102
}
330
10C
100
AcDbScale
 70
     0
300
1:1
140
1.0
141
1.0
290
     1
  0
SCALE
  5
4B1
102
{ACAD_REACTORS
330
10C
102
}
330
10C
100
AcDbScale
 70
     0
300
1/100 eskala
140
1000.0
141
1.0
290
     0
  0
SCALE
  5
4B2
102
{ACAD_REACTORS
330
10C
102
}
330
10C
100
AcDbScale
 70
     0
300
1:2
140
1.0
141
2.0
290
     0
  0
SCALE
  5
4B3
102
{ACAD_REACTORS
330
10C
102
}
330
10C
100
AcDbScale
 70
     0
300
1:4
140
1.0
141
4.0
290
     0
  0
SCALE
  5
4B4
102
{ACAD_REACTORS
330
10C
102
}
330
10C
100
AcDbScale
 70
     0
300
1:5
140
1.0
141
5.0
290
     0
  0
SCALE
  5
4B5
102
{ACAD_REACTORS
330
10C
102
}
330
10C
100
AcDbScale
 70
     0
300
1:8
140
1.0
141
8.0
290
     0
  0
SCALE
  5
4B6
102
{ACAD_REACTORS
330
10C
102
}
330
10C
100
AcDbScale
 70
     0
300
1:10
140
1.0
141
10.0
290
     0
  0
SCALE
  5
4B7
102
{ACAD_REACTORS
330
10C
102
}
330
10C
100
AcDbScale
 70
     0
300
1:16
140
1.0
141
16.0
290
     0
  0
SCALE
  5
4B8
102
{ACAD_REACTORS
330
10C
102
}
330
10C
100
AcDbScale
 70
     0
300
1:20
140
1.0
141
20.0
290
     0
  0
SCALE
  5
4B9
102
{ACAD_REACTORS
330
10C
102
}
330
10C
100
AcDbScale
 70
     0
300
1:30
140
1.0
141
30.0
290
     0
  0
SCALE
  5
4BA
102
{ACAD_REACTORS
330
10C
102
}
330
10C
100
AcDbScale
 70
     0
300
1:40
140
1.0
141
40.0
290
     0
  0
SCALE
  5
4BB
102
{ACAD_REACTORS
330
10C
102
}
330
10C
100
AcDbScale
 70
     0
300
1:50
140
1.0
141
50.0
290
     0
  0
SCALE
  5
1C8
102
{ACAD_REACTORS
330
10C
102
}
330
10C
100
AcDbScale
 70
     0
300
1:100
140
1.0
141
100.0
290
     0
  0
SCALE
  5
4BC
102
{ACAD_REACTORS
330
10C
102
}
330
10C
100
AcDbScale
 70
     0
300
2:1
140
2.0
141
1.0
290
     0
  0
SCALE
  5
4BD
102
{ACAD_REACTORS
330
10C
102
}
330
10C
100
AcDbScale
 70
     0
300
4:1
140
4.0
141
1.0
290
     0
  0
SCALE
  5
4BE
102
{ACAD_REACTORS
330
10C
102
}
330
10C
100
AcDbScale
 70
     0
300
8:1
140
8.0
141
1.0
290
     0
  0
SCALE
  5
4BF
102
{ACAD_REACTORS
330
10C
102
}
330
10C
100
AcDbScale
 70
     0
300
10:1
140
10.0
141
1.0
290
     0
  0
SCALE
  5
4C0
102
{ACAD_REACTORS
330
10C
102
}
330
10C
100
AcDbScale
 70
     0
300
100:1
140
100.0
141
1.0
290
     0
  0
ACDBSECTIONVIEWSTYLE
  5
188E
102
{ACAD_XDICTIONARY
360
22E0
102
}
102
{ACAD_REACTORS
330
219
102
}
330
219
100
AcDbModelDocViewStyle
 70
     0
  3
Imperial24
290
     0
100
AcDbSectionViewStyle
 70
     0
 71
     0
 90
       78
 71
     1
340
11
 62
   256
 40
0.24
340
0
340
0
 62
   256
 40
0.24
300
I, O, Q, S, X, Z
 40
0.48
 90
        3
 40
0.18
 90
        1
 71
     2
340
16
 90
       25
 62
   256
340
16
 90
       50
 62
   256
 40
0.24
 40
0.0
 40
0.24
 71
     3
340
11
 62
   256
 40
0.24
 90
        1
 40
0.75
 90
        1
300
%<\AcVar ViewType \f "%tc1">% %<\AcVar ViewSectionStartId>%-%<\AcVar ViewSectionEndId>%\PESCALA %<\AcVar ViewScale \f "%sn">%
 71
     4
 62
   256
 62
   257
300
ANSI31
 40
1.0
 90
        0
290
     0
290
     0
 90
        6
 40
0.0
 40
1.570796326794896
 40
0.2617993877991494
 40
1.308996938995747
 40
-0.2617993877991494
 40
1.832595714594046
  0
ACDBSECTIONVIEWSTYLE
  5
21A
102
{ACAD_XDICTIONARY
360
234
102
}
102
{ACAD_REACTORS
330
219
102
}
330
219
100
AcDbModelDocViewStyle
 70
     0
  3
Metric50
290
     0
100
AcDbSectionViewStyle
 70
     0
 71
     0
 90
      102
 71
     1
340
11
 62
   256
 40
5.0
340
0
340
0
 62
   256
 40
5.0
300
I, O, Q, S, X, Z
 40
10.0
 90
        0
 40
2.5
 90
        0
 71
     2
340
16
 90
       25
 62
   256
340
16
 90
       50
 62
   256
 40
5.0
 40
2.5
 40
5.0
 71
     3
340
11
 62
   256
 40
5.0
 90
        0
 40
15.0
 90
        1
300
%<\AcVar ViewSectionStartId>%-%<\AcVar ViewSectionEndId>% (%<\AcVar ViewScale \f "%sn">%)
 71
     4
 62
   256
 62
   257
300
ANSI31
 40
1.0
 90
        0
290
     0
290
     0
 90
        6
 40
0.0
 40
1.570796326794896
 40
0.2617993877991494
 40
1.308996938995747
 40
-0.2617993877991494
 40
1.832595714594046
  0
TABLESTYLE
  5
7F
102
{ACAD_XDICTIONARY
360
162
102
}
102
{ACAD_REACTORS
330
7E
102
}
330
7E
100
AcDbTableStyle
280
     0
  3
Standard
 70
     0
 71
     0
 40
1.5
 41
1.5
280
     0
281
     0
  7
Standard
140
4.5
170
     2
 62
     0
 63
     7
283
     0
 90
      512
 91
        0
  1

274
    -2
284
     1
 64
     0
275
    -2
285
     1
 65
     0
276
    -2
286
     1
 66
     0
277
    -2
287
     1
 67
     0
278
    -2
288
     1
 68
     0
279
    -2
289
     1
 69
     0
  7
Standard
140
6.0
170
     5
 62
     0
 63
     7
283
     0
 90
      512
 91
        0
  1

274
    -2
284
     1
 64
     0
275
    -2
285
     1
 65
     0
276
    -2
286
     1
 66
     0
277
    -2
287
     1
 67
     0
278
    -2
288
     1
 68
     0
279
    -2
289
     1
 69
     0
  7
Standard
140
4.5
170
     5
 62
     0
 63
     7
283
     0
 90
      512
 91
        0
  1

274
    -2
284
     1
 64
     0
275
    -2
285
     1
 65
     0
276
    -2
286
     1
 66
     0
277
    -2
287
     1
 67
     0
278
    -2
288
     1
 68
     0
279
    -2
289
     1
 69
     0
  0
VISUALSTYLE
  5
F5
102
{ACAD_REACTORS
330
EF
102
}
330
EF
100
AcDbVisualStyle
  2
2dWireframe
 70
     4
177
     3
291
     0
 70
    58
 90
        0
176
     1
 90
        2
176
     1
 90
        1
176
     1
 90
        0
176
     1
 40
0.6
176
     1
 40
30.0
176
     1
 62
     7
420
 16777215
176
     1
 90
        1
176
     1
 90
        4
176
     1
 62
     7
176
     1
 62
   257
176
     1
 90
        1
176
     1
 90
        1
176
     1
 40
1.0
176
     1
 90
        0
176
     1
 62
   257
176
     1
 40
1.0
176
     1
 90
        1
176
     1
 90
        6
176
     1
 90
        2
176
     1
 62
     7
176
     1
 90
        5
176
     1
 90
        0
176
     1
 90
        0
176
     1
290
     0
176
     1
 90
        1
176
     1
 40
0.0
176
     1
 90
        0
176
     1
290
     1
176
     1
290
     1
176
     1
290
     0
176
     1
290
     0
176
     1
290
     0
176
     1
290
     0
176
     1
290
     0
176
     1
290
     0
176
     1
290
     0
176
     1
 90
       50
176
     1
 40
0.0
176
     1
 40
1.0
176
     1
 90
        0
176
     1
 62
    18
420
        0
176
     1
 90
       50
176
     1
 90
        3
176
     1
 62
     5
420
      255
176
     1
290
     0
176
     1
 90
       50
176
     1
 90
       50
176
     1
 90
       50
176
     1
290
     0
176
     1
 90
       50
176
     1
 62
   256
176
     0
 40
1.0
176
     0
 90
        2
176
     1
  1
strokes_ogs.tif
176
     1
290
     0
176
     1
 40
1.0
176
     1
 40
1.0
176
     1
  0
VISUALSTYLE
  5
F4
102
{ACAD_REACTORS
330
EF
102
}
330
EF
100
AcDbVisualStyle
  2
Basic
 70
     7
177
     3
291
     1
 70
    58
 90
        1
176
     1
 90
        0
176
     1
 90
        1
176
     1
 90
        0
176
     1
 40
0.6
176
     1
 40
30.0
176
     1
 62
     7
420
 16777215
176
     1
 90
        0
176
     1
 90
        4
176
     1
 62
     7
176
     1
 62
   257
176
     1
 90
        1
176
     1
 90
        1
176
     1
 40
1.0
176
     1
 90
        8
176
     1
 62
     7
176
     1
 40
1.0
176
     1
 90
        1
176
     1
 90
        6
176
     1
 90
        2
176
     1
 62
     7
176
     1
 90
        5
176
     1
 90
        0
176
     1
 90
        0
176
     1
290
     0
176
     1
 90
        1
176
     1
 40
0.0
176
     1
 90
        0
176
     1
290
     0
176
     1
290
     1
176
     1
290
     1
176
     1
290
     0
176
     1
290
     0
176
     1
290
     0
176
     1
290
     0
176
     1
290
     0
176
     1
290
     0
176
     1
 90
       50
176
     1
 40
0.0
176
     1
 40
1.0
176
     1
 90
        0
176
     1
 62
    18
420
        0
176
     1
 90
       50
176
     1
 90
        3
176
     1
 62
     5
420
      255
176
     1
290
     0
176
     1
 90
       50
176
     1
 90
       50
176
     1
 90
       50
176
     1
290
     0
176
     1
 90
       50
176
     1
 62
   256
176
     0
 40
1.0
176
     0
 90
        2
176
     1
  1
strokes_ogs.tif
176
     1
290
     0
176
     1
 40
1.0
176
     1
 40
1.0
176
     1
  0
VISUALSTYLE
  5
FB
102
{ACAD_REACTORS
330
EF
102
}
330
EF
100
AcDbVisualStyle
  2
Brighten
 70
    12
177
     3
291
     1
 70
    58
 90
        2
176
     1
 90
        2
176
     1
 90
        1
176
     1
 90
        0
176
     1
 40
0.6
176
     1
 40
30.0
176
     1
 62
     7
420
 16777215
176
     1
 90
        1
176
     1
 90
        4
176
     1
 62
     7
176
     1
 62
   257
176
     1
 90
        1
176
     1
 90
        1
176
     1
 40
1.0
176
     1
 90
        8
176
     1
 62
     7
176
     1
 40
1.0
176
     1
 90
        1
176
     1
 90
        6
176
     1
 90
        2
176
     1
 62
     7
176
     1
 90
        5
176
     1
 90
        0
176
     1
 90
        0
176
     1
290
     0
176
     1
 90
        1
176
     1
 40
50.0
176
     1
 90
        0
176
     1
290
     0
176
     1
290
     1
176
     1
290
     1
176
     1
290
     0
176
     1
290
     0
176
     1
290
     0
176
     1
290
     0
176
     1
290
     0
176
     1
290
     0
176
     1
 90
       50
176
     1
 40
0.0
176
     1
 40
1.0
176
     1
 90
        0
176
     1
 62
    18
420
        0
176
     1
 90
       50
176
     1
 90
        3
176
     1
 62
     5
420
      255
176
     1
290
     0
176
     1
 90
       50
176
     1
 90
       50
176
     1
 90
       50
176
     1
290
     0
176
     1
 90
       50
176
     1
 62
   256
176
     0
 40
1.0
176
     0
 90
        2
176
     1
  1
strokes_ogs.tif
176
     1
290
     0
176
     1
 40
1.0
176
     1
 40
1.0
176
     1
  0
VISUALSTYLE
  5
FF
102
{ACAD_REACTORS
330
EF
102
}
330
EF
100
AcDbVisualStyle
  2
ColorChange
 70
    16
177
     3
291
     1
 70
    58
 90
        2
176
     1
 90
        2
176
     1
 90
        3
176
     1
 90
        0
176
     1
 40
0.6
176
     1
 40
30.0
176
     1
 62
     8
420
  8421504
176
     1
 90
        1
176
     1
 90
        4
176
     1
 62
     7
176
     1
 62
   257
176
     1
 90
        1
176
     1
 90
        1
176
     1
 40
1.0
176
     1
 90
        8
176
     1
 62
     8
420
  8421504
176
     1
 40
1.0
176
     1
 90
        1
176
     1
 90
        6
176
     1
 90
        2
176
     1
 62
     7
176
     1
 90
        5
176
     1
 90
        0
176
     1
 90
        0
176
     1
290
     0
176
     1
 90
        1
176
     1
 40
0.0
176
     1
 90
        0
176
     1
290
     0
176
     1
290
     1
176
     1
290
     1
176
     1
290
     0
176
     1
290
     0
176
     1
290
     0
176
     1
290
     0
176
     1
290
     0
176
     1
290
     0
176
     1
 90
       50
176
     1
 40
0.0
176
     1
 40
1.0
176
     1
 90
        0
176
     1
 62
    18
420
        0
176
     1
 90
       50
176
     1
 90
        3
176
     1
 62
     5
420
      255
176
     1
290
     0
176
     1
 90
       50
176
     1
 90
       50
176
     1
 90
       50
176
     1
290
     0
176
     1
 90
       50
176
     1
 62
   256
176
     0
 40
1.0
176
     0
 90
        2
176
     1
  1
strokes_ogs.tif
176
     1
290
     0
176
     1
 40
1.0
176
     1
 40
1.0
176
     1
  0
VISUALSTYLE
  5
F8
102
{ACAD_REACTORS
330
EF
102
}
330
EF
100
AcDbVisualStyle
  2
Conceptual
 70
     9
177
     3
291
     0
 70
    58
 90
        3
176
     1
 90
        2
176
     1
 90
        1
176
     1
 90
        0
176
     1
 40
0.6
176
     1
 40
30.0
176
     1
 62
     7
420
 16777215
176
     1
 90
        2
176
     1
 90
        2
176
     1
 62
     7
176
     1
 62
   257
176
     1
 90
        1
176
     1
 90
        1
176
     1
 40
40.0
176
     1
 90
        8
176
     1
 62
     7
176
     1
 40
1.0
176
     1
 90
        1
176
     1
 90
        6
176
     1
 90
        2
176
     1
 62
     7
176
     1
 90
        3
176
     1
 90
        0
176
     1
 90
        0
176
     1
290
     0
176
     1
 90
        1
176
     1
 40
0.0
176
     1
 90
        0
176
     1
290
     0
176
     1
290
     1
176
     1
290
     1
176
     1
290
     0
176
     1
290
     0
176
     1
290
     0
176
     1
290
     0
176
     1
290
     0
176
     1
290
     0
176
     1
 90
       50
176
     1
 40
0.0
176
     1
 40
1.0
176
     1
 90
        0
176
     1
 62
    18
420
        0
176
     1
 90
       50
176
     1
 90
        3
176
     1
 62
     5
420
      255
176
     1
290
     0
176
     1
 90
       50
176
     1
 90
       50
176
     1
 90
       50
176
     1
290
     0
176
     1
 90
       50
176
     1
 62
   256
176
     0
 40
1.0
176
     0
 90
        2
176
     1
  1
strokes_ogs.tif
176
     1
290
     0
176
     1
 40
1.0
176
     1
 40
1.0
176
     1
  0
VISUALSTYLE
  5
FA
102
{ACAD_REACTORS
330
EF
102
}
330
EF
100
AcDbVisualStyle
  2
Dim
 70
    11
177
     3
291
     1
 70
    58
 90
        2
176
     1
 90
        2
176
     1
 90
        1
176
     1
 90
        0
176
     1
 40
0.6
176
     1
 40
30.0
176
     1
 62
     7
420
 16777215
176
     1
 90
        1
176
     1
 90
        4
176
     1
 62
     7
176
     1
 62
   257
176
     1
 90
        1
176
     1
 90
        1
176
     1
 40
1.0
176
     1
 90
        8
176
     1
 62
     7
176
     1
 40
1.0
176
     1
 90
        1
176
     1
 90
        6
176
     1
 90
        2
176
     1
 62
     7
176
     1
 90
        5
176
     1
 90
        0
176
     1
 90
        0
176
     1
290
     0
176
     1
 90
        1
176
     1
 40
-50.0
176
     1
 90
        0
176
     1
290
     0
176
     1
290
     1
176
     1
290
     1
176
     1
290
     0
176
     1
290
     0
176
     1
290
     0
176
     1
290
     0
176
     1
290
     0
176
     1
290
     0
176
     1
 90
       50
176
     1
 40
0.0
176
     1
 40
1.0
176
     1
 90
        0
176
     1
 62
    18
420
        0
176
     1
 90
       50
176
     1
 90
        3
176
     1
 62
     5
420
      255
176
     1
290
     0
176
     1
 90
       50
176
     1
 90
       50
176
     1
 90
       50
176
     1
290
     0
176
     1
 90
       50
176
     1
 62
   256
176
     0
 40
1.0
176
     0
 90
        2
176
     1
  1
strokes_ogs.tif
176
     1
290
     0
176
     1
 40
1.0
176
     1
 40
1.0
176
     1
  0
VISUALSTYLE
  5
1E6
102
{ACAD_REACTORS
330
EF
102
}
330
EF
100
AcDbVisualStyle
  2
EdgeColorOff
 70
    22
177
     3
291
     1
 70
    58
 90
        2
176
     0
 90
        2
176
     0
 90
        0
176
     0
 90
        0
176
     0
 40
0.6
176
     0
 40
30.0
176
     0
 62
     7
420
 16777215
176
     0
 90
        1
176
     0
 90
        4
176
     0
 62
     7
176
     0
 62
   257
176
     0
 90
        1
176
     0
 90
        1
176
     0
 40
1.0
176
     0
 90
        8
176
     2
 62
     7
176
     0
 40
1.0
176
     0
 90
        1
176
     0
 90
        6
176
     0
 90
        2
176
     0
 62
     7
176
     0
 90
        5
176
     0
 90
        0
176
     0
 90
        0
176
     0
290
     0
176
     0
 90
        1
176
     0
 40
0.0
176
     0
 90
        0
176
     0
290
     0
176
     1
290
     1
176
     1
290
     1
176
     1
290
     0
176
     1
290
     0
176
     1
290
     0
176
     1
290
     0
176
     1
290
     0
176
     1
290
     0
176
     1
 90
       50
176
     1
 40
0.0
176
     1
 40
1.0
176
     1
 90
        0
176
     1
 62
    18
420
        0
176
     1
 90
       50
176
     1
 90
        3
176
     1
 62
     5
420
      255
176
     1
290
     0
176
     1
 90
       50
176
     1
 90
       50
176
     1
 90
       50
176
     1
290
     0
176
     1
 90
       50
176
     1
 62
   256
176
     0
 40
1.0
176
     0
 90
        2
176
     1
  1
strokes_ogs.tif
176
     1
290
     0
176
     1
 40
1.0
176
     1
 40
1.0
176
     1
  0
VISUALSTYLE
  5
FE
102
{ACAD_REACTORS
330
EF
102
}
330
EF
100
AcDbVisualStyle
  2
Facepattern
 70
    15
177
     3
291
     1
 70
    58
 90
        2
176
     1
 90
        2
176
     1
 90
        1
176
     1
 90
        0
176
     1
 40
0.6
176
     1
 40
30.0
176
     1
 62
     7
420
 16777215
176
     1
 90
        1
176
     1
 90
        4
176
     1
 62
     7
176
     1
 62
   257
176
     1
 90
        1
176
     1
 90
        1
176
     1
 40
1.0
176
     1
 90
        8
176
     1
 62
     7
176
     1
 40
1.0
176
     1
 90
        1
176
     1
 90
        6
176
     1
 90
        2
176
     1
 62
     7
176
     1
 90
        5
176
     1
 90
        0
176
     1
 90
        0
176
     1
290
     0
176
     1
 90
        1
176
     1
 40
0.0
176
     1
 90
        0
176
     1
290
     0
176
     1
290
     1
176
     1
290
     1
176
     1
290
     0
176
     1
290
     0
176
     1
290
     0
176
     1
290
     0
176
     1
290
     0
176
     1
290
     0
176
     1
 90
       50
176
     1
 40
0.0
176
     1
 40
1.0
176
     1
 90
        0
176
     1
 62
    18
420
        0
176
     1
 90
       50
176
     1
 90
        3
176
     1
 62
     5
420
      255
176
     1
290
     0
176
     1
 90
       50
176
     1
 90
       50
176
     1
 90
       50
176
     1
290
     0
176
     1
 90
       50
176
     1
 62
   256
176
     0
 40
1.0
176
     0
 90
        2
176
     1
  1
strokes_ogs.tif
176
     1
290
     0
176
     1
 40
1.0
176
     1
 40
1.0
176
     1
  0
VISUALSTYLE
  5
F0
102
{ACAD_REACTORS
330
EF
102
}
330
EF
100
AcDbVisualStyle
  2
Flat
 70
     0
177
     3
291
     1
 70
    58
 90
        2
176
     1
 90
        1
176
     1
 90
        1
176
     1
 90
        2
176
     1
 40
0.6
176
     1
 40
30.0
176
     1
 62
     7
420
 16777215
176
     1
 90
        0
176
     1
 90
        0
176
     1
 62
     7
176
     1
 62
   257
176
     1
 90
        1
176
     1
 90
        1
176
     1
 40
1.0
176
     1
 90
        8
176
     1
 62
     7
176
     1
 40
1.0
176
     1
 90
        1
176
     1
 90
        6
176
     1
 90
        2
176
     1
 62
     7
176
     1
 90
        5
176
     1
 90
        0
176
     1
 90
        0
176
     1
290
     0
176
     1
 90
       13
176
     1
 40
0.0
176
     1
 90
        0
176
     1
290
     0
176
     1
290
     1
176
     1
290
     1
176
     1
290
     0
176
     1
290
     0
176
     1
290
     0
176
     1
290
     0
176
     1
290
     0
176
     1
290
     0
176
     1
 90
       50
176
     1
 40
0.0
176
     1
 40
1.0
176
     1
 90
        0
176
     1
 62
    18
420
        0
176
     1
 90
       50
176
     1
 90
        3
176
     1
 62
     5
420
      255
176
     1
290
     0
176
     1
 90
       50
176
     1
 90
       50
176
     1
 90
       50
176
     1
290
     0
176
     1
 90
       50
176
     1
 62
   256
176
     0
 40
1.0
176
     0
 90
        2
176
     1
  1
strokes_ogs.tif
176
     1
290
     0
176
     1
 40
1.0
176
     1
 40
1.0
176
     1
  0
VISUALSTYLE
  5
F1
102
{ACAD_REACTORS
330
EF
102
}
330
EF
100
AcDbVisualStyle
  2
FlatWithEdges
 70
     1
177
     3
291
     1
 70
    58
 90
        2
176
     1
 90
        1
176
     1
 90
        1
176
     1
 90
        2
176
     1
 40
0.6
176
     1
 40
30.0
176
     1
 62
     7
420
 16777215
176
     1
 90
        1
176
     1
 90
        0
176
     1
 62
     7
176
     1
 62
   257
176
     1
 90
        1
176
     1
 90
        1
176
     1
 40
1.0
176
     1
 90
        0
176
     1
 62
   257
176
     1
 40
1.0
176
     1
 90
        1
176
     1
 90
        6
176
     1
 90
        2
176
     1
 62
     7
176
     1
 90
        5
176
     1
 90
        0
176
     1
 90
        0
176
     1
290
     0
176
     1
 90
       13
176
     1
 40
0.0
176
     1
 90
        0
176
     1
290
     0
176
     1
290
     1
176
     1
290
     1
176
     1
290
     0
176
     1
290
     0
176
     1
290
     0
176
     1
290
     0
176
     1
290
     0
176
     1
290
     0
176
     1
 90
       50
176
     1
 40
0.0
176
     1
 40
1.0
176
     1
 90
        0
176
     1
 62
    18
420
        0
176
     1
 90
       50
176
     1
 90
        3
176
     1
 62
     5
420
      255
176
     1
290
     0
176
     1
 90
       50
176
     1
 90
       50
176
     1
 90
       50
176
     1
290
     0
176
     1
 90
       50
176
     1
 62
   256
176
     0
 40
1.0
176
     0
 90
        2
176
     1
  1
strokes_ogs.tif
176
     1
290
     0
176
     1
 40
1.0
176
     1
 40
1.0
176
     1
  0
VISUALSTYLE
  5
F2
102
{ACAD_REACTORS
330
EF
102
}
330
EF
100
AcDbVisualStyle
  2
Gouraud
 70
     2
177
     3
291
     1
 70
    58
 90
        2
176
     1
 90
        2
176
     1
 90
        1
176
     1
 90
        2
176
     1
 40
0.6
176
     1
 40
30.0
176
     1
 62
     7
420
 16777215
176
     1
 90
        0
176
     1
 90
        0
176
     1
 62
     7
176
     1
 62
   257
176
     1
 90
        1
176
     1
 90
        1
176
     1
 40
1.0
176
     1
 90
        0
176
     1
 62
     7
176
     1
 40
1.0
176
     1
 90
        1
176
     1
 90
        6
176
     1
 90
        2
176
     1
 62
     7
176
     1
 90
        5
176
     1
 90
        0
176
     1
 90
        0
176
     1
290
     0
176
     1
 90
       13
176
     1
 40
0.0
176
     1
 90
        0
176
     1
290
     0
176
     1
290
     1
176
     1
290
     1
176
     1
290
     0
176
     1
290
     0
176
     1
290
     0
176
     1
290
     0
176
     1
290
     0
176
     1
290
     0
176
     1
 90
       50
176
     1
 40
0.0
176
     1
 40
1.0
176
     1
 90
        0
176
     1
 62
    18
420
        0
176
     1
 90
       50
176
     1
 90
        3
176
     1
 62
     5
420
      255
176
     1
290
     0
176
     1
 90
       50
176
     1
 90
       50
176
     1
 90
       50
176
     1
290
     0
176
     1
 90
       50
176
     1
 62
   256
176
     0
 40
1.0
176
     0
 90
        2
176
     1
  1
strokes_ogs.tif
176
     1
290
     0
176
     1
 40
1.0
176
     1
 40
1.0
176
     1
  0
VISUALSTYLE
  5
F3
102
{ACAD_REACTORS
330
EF
102
}
330
EF
100
AcDbVisualStyle
  2
GouraudWithEdges
 70
     3
177
     3
291
     1
 70
    58
 90
        2
176
     1
 90
        2
176
     1
 90
        1
176
     1
 90
        2
176
     1
 40
0.6
176
     1
 40
30.0
176
     1
 62
     7
420
 16777215
176
     1
 90
        1
176
     1
 90
        0
176
     1
 62
     7
176
     1
 62
   257
176
     1
 90
        1
176
     1
 90
        1
176
     1
 40
1.0
176
     1
 90
        0
176
     1
 62
   257
176
     1
 40
1.0
176
     1
 90
        1
176
     1
 90
        6
176
     1
 90
        2
176
     1
 62
     7
176
     1
 90
        5
176
     1
 90
        0
176
     1
 90
        0
176
     1
290
     0
176
     1
 90
       13
176
     1
 40
0.0
176
     1
 90
        0
176
     1
290
     0
176
     1
290
     1
176
     1
290
     1
176
     1
290
     0
176
     1
290
     0
176
     1
290
     0
176
     1
290
     0
176
     1
290
     0
176
     1
290
     0
176
     1
 90
       50
176
     1
 40
0.0
176
     1
 40
1.0
176
     1
 90
        0
176
     1
 62
    18
420
        0
176
     1
 90
       50
176
     1
 90
        3
176
     1
 62
     5
420
      255
176
     1
290
     0
176
     1
 90
       50
176
     1
 90
       50
176
     1
 90
       50
176
     1
290
     0
176
     1
 90
       50
176
     1
 62
   256
176
     0
 40
1.0
176
     0
 90
        2
176
     1
  1
strokes_ogs.tif
176
     1
290
     0
176
     1
 40
1.0
176
     1
 40
1.0
176
     1
  0
VISUALSTYLE
  5
F7
102
{ACAD_REACTORS
330
EF
102
}
330
EF
100
AcDbVisualStyle
  2
Hidden
 70
     6
177
     3
291
     0
 70
    58
 90
        1
176
     1
 90
        2
176
     1
 90
        2
176
     1
 90
        0
176
     1
 40
0.6
176
     1
 40
30.0
176
     1
 62
     7
420
 16777215
176
     1
 90
        2
176
     1
 90
        2
176
     1
 62
     7
176
     1
 62
   257
176
     1
 90
        2
176
     1
 90
        1
176
     1
 40
40.0
176
     1
 90
        0
176
     1
 62
   257
176
     1
 40
1.0
176
     1
 90
        1
176
     1
 90
        6
176
     1
 90
        2
176
     1
 62
     7
176
     1
 90
        3
176
     1
 90
        0
176
     1
 90
        0
176
     1
290
     0
176
     1
 90
        1
176
     1
 40
0.0
176
     1
 90
        0
176
     1
290
     0
176
     1
290
     1
176
     1
290
     1
176
     1
290
     0
176
     1
290
     0
176
     1
290
     0
176
     1
290
     0
176
     1
290
     0
176
     1
290
     0
176
     1
 90
       50
176
     1
 40
0.0
176
     1
 40
1.0
176
     1
 90
        0
176
     1
 62
    18
420
        0
176
     1
 90
       50
176
     1
 90
        3
176
     1
 62
     5
420
      255
176
     1
290
     0
176
     1
 90
       50
176
     1
 90
       50
176
     1
 90
       50
176
     1
290
     0
176
     1
 90
       50
176
     1
 62
   256
176
     0
 40
1.0
176
     0
 90
        2
176
     1
  1
strokes_ogs.tif
176
     1
290
     0
176
     1
 40
1.0
176
     1
 40
1.0
176
     1
  0
VISUALSTYLE
  5
1E4
102
{ACAD_REACTORS
330
EF
102
}
330
EF
100
AcDbVisualStyle
  2
JitterOff
 70
    20
177
     3
291
     1
 70
    58
 90
        2
176
     0
 90
        2
176
     0
 90
        0
176
     0
 90
        0
176
     0
 40
0.6
176
     0
 40
30.0
176
     0
 62
     7
420
 16777215
176
     0
 90
        1
176
     0
 90
        4
176
     0
 62
     7
176
     0
 62
   257
176
     0
 90
        1
176
     0
 90
        1
176
     0
 40
1.0
176
     0
 90
       10
176
     2
 62
     7
176
     0
 40
1.0
176
     0
 90
        1
176
     0
 90
        6
176
     0
 90
        2
176
     0
 62
     7
176
     0
 90
        5
176
     0
 90
        0
176
     0
 90
        0
176
     0
290
     0
176
     0
 90
        1
176
     0
 40
0.0
176
     0
 90
        0
176
     0
290
     0
176
     1
290
     1
176
     1
290
     1
176
     1
290
     0
176
     1
290
     0
176
     1
290
     0
176
     1
290
     0
176
     1
290
     0
176
     1
290
     0
176
     1
 90
       50
176
     1
 40
0.0
176
     1
 40
1.0
176
     1
 90
        0
176
     1
 62
    18
420
        0
176
     1
 90
       50
176
     1
 90
        3
176
     1
 62
     5
420
      255
176
     1
290
     0
176
     1
 90
       50
176
     1
 90
       50
176
     1
 90
       50
176
     1
290
     0
176
     1
 90
       50
176
     1
 62
   256
176
     0
 40
1.0
176
     0
 90
        2
176
     1
  1
strokes_ogs.tif
176
     1
290
     0
176
     1
 40
1.0
176
     1
 40
1.0
176
     1
  0
VISUALSTYLE
  5
FD
102
{ACAD_REACTORS
330
EF
102
}
330
EF
100
AcDbVisualStyle
  2
Linepattern
 70
    14
177
     3
291
     1
 70
    58
 90
        2
176
     1
 90
        2
176
     1
 90
        1
176
     1
 90
        0
176
     1
 40
0.6
176
     1
 40
30.0
176
     1
 62
     7
420
 16777215
176
     1
 90
        1
176
     1
 90
        4
176
     1
 62
     7
176
     1
 62
   257
176
     1
 90
        7
176
     1
 90
        7
176
     1
 40
1.0
176
     1
 90
        8
176
     1
 62
     7
176
     1
 40
1.0
176
     1
 90
        1
176
     1
 90
        6
176
     1
 90
        2
176
     1
 62
     7
176
     1
 90
        5
176
     1
 90
        0
176
     1
 90
        0
176
     1
290
     0
176
     1
 90
        1
176
     1
 40
0.0
176
     1
 90
        0
176
     1
290
     0
176
     1
290
     1
176
     1
290
     1
176
     1
290
     0
176
     1
290
     0
176
     1
290
     0
176
     1
290
     0
176
     1
290
     0
176
     1
290
     0
176
     1
 90
       50
176
     1
 40
0.0
176
     1
 40
1.0
176
     1
 90
        0
176
     1
 62
    18
420
        0
176
     1
 90
       50
176
     1
 90
        3
176
     1
 62
     5
420
      255
176
     1
290
     0
176
     1
 90
       50
176
     1
 90
       50
176
     1
 90
       50
176
     1
290
     0
176
     1
 90
       50
176
     1
 62
   256
176
     0
 40
1.0
176
     0
 90
        2
176
     1
  1
strokes_ogs.tif
176
     1
290
     0
176
     1
 40
1.0
176
     1
 40
1.0
176
     1
  0
VISUALSTYLE
  5
1E5
102
{ACAD_REACTORS
330
EF
102
}
330
EF
100
AcDbVisualStyle
  2
OverhangOff
 70
    21
177
     3
291
     1
 70
    58
 90
        2
176
     0
 90
        2
176
     0
 90
        0
176
     0
 90
        0
176
     0
 40
0.6
176
     0
 40
30.0
176
     0
 62
     7
420
 16777215
176
     0
 90
        1
176
     0
 90
        4
176
     0
 62
     7
176
     0
 62
   257
176
     0
 90
        1
176
     0
 90
        1
176
     0
 40
1.0
176
     0
 90
        9
176
     2
 62
     7
176
     0
 40
1.0
176
     0
 90
        1
176
     0
 90
        6
176
     0
 90
        2
176
     0
 62
     7
176
     0
 90
        5
176
     0
 90
        0
176
     0
 90
        0
176
     0
290
     0
176
     0
 90
        1
176
     0
 40
0.0
176
     0
 90
        0
176
     0
290
     0
176
     1
290
     1
176
     1
290
     1
176
     1
290
     0
176
     1
290
     0
176
     1
290
     0
176
     1
290
     0
176
     1
290
     0
176
     1
290
     0
176
     1
 90
       50
176
     1
 40
0.0
176
     1
 40
1.0
176
     1
 90
        0
176
     1
 62
    18
420
        0
176
     1
 90
       50
176
     1
 90
        3
176
     1
 62
     5
420
      255
176
     1
290
     0
176
     1
 90
       50
176
     1
 90
       50
176
     1
 90
       50
176
     1
290
     0
176
     1
 90
       50
176
     1
 62
   256
176
     0
 40
1.0
176
     0
 90
        2
176
     1
  1
strokes_ogs.tif
176
     1
290
     0
176
     1
 40
1.0
176
     1
 40
1.0
176
     1
  0
VISUALSTYLE
  5
F9
102
{ACAD_REACTORS
330
EF
102
}
330
EF
100
AcDbVisualStyle
  2
Realistic
 70
     8
177
     3
291
     0
 70
    58
 90
        2
176
     1
 90
        3
176
     1
 90
        0
176
     1
 90
        2
176
     1
 40
0.6
176
     1
 40
30.0
176
     1
 62
     7
420
 16777215
176
     1
 90
        0
176
     1
 90
        0
176
     1
 62
     7
176
     1
 62
   257
176
     1
 90
        1
176
     1
 90
        1
176
     1
 40
1.0
176
     1
 90
        8
176
     1
 62
   257
176
     1
 40
1.0
176
     1
 90
        1
176
     1
 90
        6
176
     1
 90
        2
176
     1
 62
     7
176
     1
 90
        3
176
     1
 90
        0
176
     1
 90
        0
176
     1
290
     0
176
     1
 90
       13
176
     1
 40
0.0
176
     1
 90
        0
176
     1
290
     0
176
     1
290
     1
176
     1
290
     1
176
     1
290
     0
176
     1
290
     0
176
     1
290
     0
176
     1
290
     0
176
     1
290
     0
176
     1
290
     0
176
     1
 90
       50
176
     1
 40
0.0
176
     1
 40
1.0
176
     1
 90
        0
176
     1
 62
    18
420
        0
176
     1
 90
       50
176
     1
 90
        3
176
     1
 62
     5
420
      255
176
     1
290
     0
176
     1
 90
       50
176
     1
 90
       50
176
     1
 90
       50
176
     1
290
     0
176
     1
 90
       50
176
     1
 62
   256
176
     0
 40
1.0
176
     0
 90
        2
176
     1
  1
strokes_ogs.tif
176
     1
290
     0
176
     1
 40
1.0
176
     1
 40
1.0
176
     1
  0
VISUALSTYLE
  5
1F3
102
{ACAD_REACTORS
330
EF
102
}
330
EF
100
AcDbVisualStyle
  2
Shaded
 70
    27
177
     3
291
     0
 70
    58
 90
        2
176
     1
 90
        2
176
     1
 90
        1
176
     1
 90
        2
176
     1
 40
0.6
176
     1
 40
30.0
176
     1
 62
     7
420
 16777215
176
     1
 90
        0
176
     1
 90
        4
176
     1
 62
     7
176
     1
 62
   257
176
     1
 90
        1
176
     1
 90
        1
176
     1
 40
1.0
176
     1
 90
        8
176
     1
 62
   257
176
     1
 40
1.0
176
     1
 90
        1
176
     1
 90
        6
176
     1
 90
        2
176
     1
 62
     8
420
  7895160
176
     1
 90
        3
176
     1
 90
        0
176
     1
 90
        0
176
     1
290
     0
176
     1
 90
        5
176
     1
 40
0.0
176
     1
 90
        0
176
     1
290
     0
176
     1
290
     1
176
     1
290
     1
176
     1
290
     0
176
     1
290
     0
176
     1
290
     0
176
     1
290
     0
176
     1
290
     0
176
     1
290
     0
176
     1
 90
       50
176
     1
 40
0.0
176
     1
 40
1.0
176
     1
 90
        0
176
     1
 62
    18
420
        0
176
     1
 90
       50
176
     1
 90
        3
176
     1
 62
     5
420
      255
176
     1
290
     0
176
     1
 90
       50
176
     1
 90
       50
176
     1
 90
       50
176
     1
290
     0
176
     1
 90
       50
176
     1
 62
   256
176
     0
 40
1.0
176
     0
 90
        2
176
     1
  1
strokes_ogs.tif
176
     1
290
     0
176
     1
 40
1.0
176
     1
 40
1.0
176
     1
  0
VISUALSTYLE
  5
1F2
102
{ACAD_REACTORS
330
EF
102
}
330
EF
100
AcDbVisualStyle
  2
Shaded with edges
 70
    26
177
     3
291
     0
 70
    58
 90
        2
176
     1
 90
        2
176
     1
 90
        1
176
     1
 90
        2
176
     1
 40
0.6
176
     1
 40
30.0
176
     1
 62
     7
420
 16777215
176
     1
 90
        1
176
     1
 90
       10
176
     1
 62
     7
176
     1
 62
   257
176
     1
 90
        2
176
     1
 90
        1
176
     1
 40
1.0
176
     1
 90
        8
176
     1
 62
   257
176
     1
 40
1.0
176
     1
 90
        1
176
     1
 90
        6
176
     1
 90
        2
176
     1
 62
     7
176
     1
 90
        3
176
     1
 90
        0
176
     1
 90
        0
176
     1
290
     0
176
     1
 90
        5
176
     1
 40
0.0
176
     1
 90
        0
176
     1
290
     0
176
     1
290
     1
176
     1
290
     1
176
     1
290
     0
176
     1
290
     0
176
     1
290
     0
176
     1
290
     0
176
     1
290
     0
176
     1
290
     0
176
     1
 90
       50
176
     1
 40
0.0
176
     1
 40
1.0
176
     1
 90
        0
176
     1
 62
    18
420
        0
176
     1
 90
       50
176
     1
 90
        3
176
     1
 62
     5
420
      255
176
     1
290
     0
176
     1
 90
       50
176
     1
 90
       50
176
     1
 90
       50
176
     1
290
     0
176
     1
 90
       50
176
     1
 62
   256
176
     0
 40
1.0
176
     0
 90
        2
176
     1
  1
strokes_ogs.tif
176
     1
290
     0
176
     1
 40
1.0
176
     1
 40
1.0
176
     1
  0
VISUALSTYLE
  5
1EF
102
{ACAD_REACTORS
330
EF
102
}
330
EF
100
AcDbVisualStyle
  2
Shades of Gray
 70
    23
177
     3
291
     0
 70
    58
 90
        2
176
     1
 90
        2
176
     1
 90
        3
176
     1
 90
        0
176
     1
 40
0.6
176
     1
 40
30.0
176
     1
 62
     7
420
 16777215
176
     1
 90
        2
176
     1
 90
        2
176
     1
 62
     7
176
     1
 62
     7
176
     1
 90
        1
176
     1
 90
        1
176
     1
 40
40.0
176
     1
 90
        8
176
     1
 62
     7
176
     1
 40
1.0
176
     1
 90
        1
176
     1
 90
        6
176
     1
 90
        2
176
     1
 62
     7
176
     1
 90
        3
176
     1
 90
        0
176
     1
 90
        0
176
     1
290
     0
176
     1
 90
        1
176
     1
 40
0.0
176
     1
 90
        0
176
     1
290
     0
176
     1
290
     1
176
     1
290
     1
176
     1
290
     0
176
     1
290
     0
176
     1
290
     0
176
     1
290
     0
176
     1
290
     0
176
     1
290
     0
176
     1
 90
       50
176
     1
 40
0.0
176
     1
 40
1.0
176
     1
 90
        0
176
     1
 62
    18
420
        0
176
     1
 90
       50
176
     1
 90
        3
176
     1
 62
     5
420
      255
176
     1
290
     0
176
     1
 90
       50
176
     1
 90
       50
176
     1
 90
       50
176
     1
290
     0
176
     1
 90
       50
176
     1
 62
   256
176
     0
 40
1.0
176
     0
 90
        2
176
     1
  1
strokes_ogs.tif
176
     1
290
     0
176
     1
 40
1.0
176
     1
 40
1.0
176
     1
  0
VISUALSTYLE
  5
1F0
102
{ACAD_REACTORS
330
EF
102
}
330
EF
100
AcDbVisualStyle
  2
Sketchy
 70
    24
177
     3
291
     0
 70
    58
 90
        1
176
     1
 90
        2
176
     1
 90
        2
176
     1
 90
        0
176
     1
 40
0.6
176
     1
 40
30.0
176
     1
 62
     7
420
 16777215
176
     1
 90
        2
176
     1
 90
        2
176
     1
 62
     7
176
     1
 62
     7
176
     1
 90
        1
176
     1
 90
        1
176
     1
 40
40.0
176
     1
 90
       11
176
     1
 62
     7
176
     1
 40
1.0
176
     1
 90
        1
176
     1
 90
        6
176
     1
 90
        2
176
     1
 62
     7
176
     1
 90
        6
176
     1
 90
        0
176
     1
 90
        0
176
     1
290
     0
176
     1
 90
        1
176
     1
 40
0.0
176
     1
 90
        0
176
     1
290
     0
176
     1
290
     1
176
     1
290
     1
176
     1
290
     0
176
     1
290
     0
176
     1
290
     0
176
     1
290
     0
176
     1
290
     0
176
     1
290
     0
176
     1
 90
       50
176
     1
 40
0.0
176
     1
 40
1.0
176
     1
 90
        0
176
     1
 62
    18
420
        0
176
     1
 90
       50
176
     1
 90
        3
176
     1
 62
     5
420
      255
176
     1
290
     0
176
     1
 90
       50
176
     1
 90
       50
176
     1
 90
       50
176
     1
290
     0
176
     1
 90
       50
176
     1
 62
   256
176
     0
 40
1.0
176
     0
 90
        2
176
     1
  1
strokes_ogs.tif
176
     1
290
     0
176
     1
 40
1.0
176
     1
 40
1.0
176
     1
  0
VISUALSTYLE
  5
FC
102
{ACAD_REACTORS
330
EF
102
}
330
EF
100
AcDbVisualStyle
  2
Thicken
 70
    13
177
     3
291
     1
 70
    58
 90
        2
176
     1
 90
        2
176
     1
 90
        1
176
     1
 90
        0
176
     1
 40
0.6
176
     1
 40
30.0
176
     1
 62
     7
420
 16777215
176
     1
 90
        1
176
     1
 90
        4
176
     1
 62
     7
176
     1
 62
   257
176
     1
 90
        1
176
     1
 90
        1
176
     1
 40
1.0
176
     1
 90
       12
176
     1
 62
     7
176
     1
 40
1.0
176
     1
 90
        1
176
     1
 90
        6
176
     1
 90
        2
176
     1
 62
     7
176
     1
 90
        5
176
     1
 90
        0
176
     1
 90
        0
176
     1
290
     0
176
     1
 90
        1
176
     1
 40
0.0
176
     1
 90
        0
176
     1
290
     0
176
     1
290
     1
176
     1
290
     1
176
     1
290
     0
176
     1
290
     0
176
     1
290
     0
176
     1
290
     0
176
     1
290
     0
176
     1
290
     0
176
     1
 90
       50
176
     1
 40
0.0
176
     1
 40
1.0
176
     1
 90
        0
176
     1
 62
    18
420
        0
176
     1
 90
       50
176
     1
 90
        3
176
     1
 62
     5
420
      255
176
     1
290
     0
176
     1
 90
       50
176
     1
 90
       50
176
     1
 90
       50
176
     1
290
     0
176
     1
 90
       50
176
     1
 62
   256
176
     0
 40
1.0
176
     0
 90
        2
176
     1
  1
strokes_ogs.tif
176
     1
290
     0
176
     1
 40
1.0
176
     1
 40
1.0
176
     1
  0
VISUALSTYLE
  5
F6
102
{ACAD_REACTORS
330
EF
102
}
330
EF
100
AcDbVisualStyle
  2
Wireframe
 70
     5
177
     3
291
     0
 70
    58
 90
        0
176
     1
 90
        2
176
     1
 90
        0
176
     1
 90
        0
176
     1
 40
0.6
176
     1
 40
30.0
176
     1
 62
     7
420
 16777215
176
     1
 90
        1
176
     1
 90
        4
176
     1
 62
     7
176
     1
 62
   257
176
     1
 90
        1
176
     1
 90
        1
176
     1
 40
1.0
176
     1
 90
        0
176
     1
 62
   257
176
     1
 40
1.0
176
     1
 90
        1
176
     1
 90
        6
176
     1
 90
        2
176
     1
 62
     7
176
     1
 90
        3
176
     1
 90
        0
176
     1
 90
        0
176
     1
290
     0
176
     1
 90
        1
176
     1
 40
0.0
176
     1
 90
        0
176
     1
290
     0
176
     1
290
     1
176
     1
290
     1
176
     1
290
     0
176
     1
290
     0
176
     1
290
     0
176
     1
290
     0
176
     1
290
     0
176
     1
290
     0
176
     1
 90
       50
176
     1
 40
0.0
176
     1
 40
1.0
176
     1
 90
        0
176
     1
 62
    18
420
        0
176
     1
 90
       50
176
     1
 90
        3
176
     1
 62
     5
420
      255
176
     1
290
     0
176
     1
 90
       50
176
     1
 90
       50
176
     1
 90
       50
176
     1
290
     0
176
     1
 90
       50
176
     1
 62
   256
176
     0
 40
1.0
176
     0
 90
        2
176
     1
  1
strokes_ogs.tif
176
     1
290
     0
176
     1
 40
1.0
176
     1
 40
1.0
176
     1
  0
VISUALSTYLE
  5
1F1
102
{ACAD_REACTORS
330
EF
102
}
330
EF
100
AcDbVisualStyle
  2
X-Ray
 70
    25
177
     3
291
     0
 70
    58
 90
        2
176
     1
 90
        2
176
     1
 90
        1
176
     1
 90
        1
176
     1
 40
0.5
176
     1
 40
30.0
176
     1
 62
     7
420
 16777215
176
     1
 90
        1
176
     1
 90
        0
176
     1
 62
     7
176
     1
 62
   257
176
     1
 90
        1
176
     1
 90
        1
176
     1
 40
1.0
176
     1
 90
        8
176
     1
 62
     7
176
     1
 40
1.0
176
     1
 90
        1
176
     1
 90
        6
176
     1
 90
        2
176
     1
 62
     7
176
     1
 90
        3
176
     1
 90
        0
176
     1
 90
        0
176
     1
290
     0
176
     1
 90
       13
176
     1
 40
0.0
176
     1
 90
        0
176
     1
290
     0
176
     1
290
     1
176
     1
290
     1
176
     1
290
     0
176
     1
290
     0
176
     1
290
     0
176
     1
290
     0
176
     1
290
     0
176
     1
290
     0
176
     1
 90
       50
176
     1
 40
0.0
176
     1
 40
1.0
176
     1
 90
        0
176
     1
 62
    18
420
        0
176
     1
 90
       50
176
     1
 90
        3
176
     1
 62
     5
420
      255
176
     1
290
     0
176
     1
 90
       50
176
     1
 90
       50
176
     1
 90
       50
176
     1
290
     0
176
     1
 90
       50
176
     1
 62
   256
176
     0
 40
1.0
176
     0
 90
        2
176
     1
  1
strokes_ogs.tif
176
     1
290
     0
176
     1
 40
1.0
176
     1
 40
1.0
176
     1
  0
DICTIONARYVAR
  5
146
102
{ACAD_REACTORS
330
5E
102
}
330
5E
100
DictionaryVariables
280
     0
  1
1:1
  0
DICTIONARYVAR
  5
145
102
{ACAD_REACTORS
330
5E
102
}
330
5E
100
DictionaryVariables
280
     0
  1
STANDARD
  0
DICTIONARYVAR
  5
84
102
{ACAD_REACTORS
330
5E
102
}
330
5E
100
DictionaryVariables
280
     0
  1
STANDARD
  0
DICTIONARYVAR
  5
227
102
{ACAD_REACTORS
330
5E
102
}
330
5E
100
DictionaryVariables
280
     0
  1
Metric50
  0
DICTIONARYVAR
  5
228
102
{ACAD_REACTORS
330
5E
102
}
330
5E
100
DictionaryVariables
280
     0
  1
Metric50
  0
DICTIONARYVAR
  5
5F
102
{ACAD_REACTORS
330
5E
102
}
330
5E
100
DictionaryVariables
280
     0
  1
2
  0
DICTIONARYVAR
  5
63
102
{ACAD_REACTORS
330
5E
102
}
330
5E
100
DictionaryVariables
280
     0
  1
1
  0
DICTIONARYVAR
  5
1AE
102
{ACAD_REACTORS
330
5E
102
}
330
5E
100
DictionaryVariables
280
     0
  1
0
  0
DICTIONARYVAR
  5
1AF
102
{ACAD_REACTORS
330
5E
102
}
330
5E
100
DictionaryVariables
280
     0
  1
0
  0
XRECORD
  5
9235
102
{ACAD_REACTORS
330
9233
102
}
330
9233
100
AcDbXrecord
280
     1
  1
AcLyLayerGroup
 90
        1
300
1. Inskripzio-laukia
330
485
330
6C6
330
659
330
7AC
330
7AE
330
7AD
  0
XRECORD
  5
9236
102
{ACAD_REACTORS
330
9233
102
}
330
9233
100
AcDbXrecord
280
     1
  1
AcLyLayerGroup
 90
        1
300
2. Egitura
330
FC8
330
FC5
330
FC4
330
FC3
330
150C
330
24FF
  0
XRECORD
  5
9237
102
{ACAD_REACTORS
330
9233
102
}
330
9233
100
AcDbXrecord
280
     1
  1
AcLyLayerGroup
 90
        1
300
3. Arotzeria
330
FC9
330
FC7
330
FC6
  0
XRECORD
  5
9238
102
{ACAD_REACTORS
330
9233
102
}
330
9233
100
AcDbXrecord
280
     1
  1
AcLyLayerGroup
 90
        1
300
4. Zorua
330
8D45
330
45C5
330
4035
  0
XRECORD
  5
9239
102
{ACAD_REACTORS
330
9233
102
}
330
9233
100
AcDbXrecord
280
     1
  1
AcLyLayerGroup
 90
        1
300
5. Altzariak
330
1874
  0
XRECORD
  5
923A
102
{ACAD_REACTORS
330
9233
102
}
330
9233
100
AcDbXrecord
280
     1
  1
AcLyLayerGroup
 90
        1
300
6. Elementuak
330
253B
  0
XRECORD
  5
923B
102
{ACAD_REACTORS
330
9233
102
}
330
9233
100
AcDbXrecord
280
     1
  1
AcLyLayerGroup
 90
        1
300
7. Datuak
330
14FC
330
4129
330
3AB1
330
9232
  0
XRECORD
  5
923C
102
{ACAD_REACTORS
330
9233
102
}
330
9233
100
AcDbXrecord
280
     1
  1
AcLyLayerGroup
 90
        1
300
8. Irisgarritasuna
330
3B73
  0
DICTIONARY
  5
22E2
330
188F
100
AcDbDictionary
280
     1
281
     1
  3
ACAD_XREC_ROUNDTRIP
360
9A70
  0
DICTIONARY
  5
236
330
21C
100
AcDbDictionary
280
     1
281
     1
  3
ACAD_XREC_ROUNDTRIP
360
9A6E
  0
DICTIONARY
  5
205
330
22
100
AcDbDictionary
280
     1
281
     1
  0
DICTIONARY
  5
1F9
330
ED
100
AcDbDictionary
280
     1
281
     1
  3
FBXASSET
360
1FA
  0
DICTIONARY
  5
1F7
330
EC
100
AcDbDictionary
280
     1
281
     1
  3
FBXASSET
360
1F8
  0
DICTIONARY
  5
173
330
EE
100
AcDbDictionary
280
     1
281
     1
  3
BUMPTILE
360
175
  3
DIFFUSETILE
360
174
  3
FBXASSET
360
1FB
  3
OPACITYTILE
360
176
  3
REFLECTIONTILE
360
177
  0
DICTIONARY
  5
22E0
330
188E
100
AcDbDictionary
280
     1
281
     1
  3
ACAD_XREC_ROUNDTRIP
360
9A6F
  0
DICTIONARY
  5
234
330
21A
100
AcDbDictionary
280
     1
281
     1
  3
ACAD_XREC_ROUNDTRIP
360
9A6D
  0
DICTIONARY
  5
162
330
7F
100
AcDbDictionary
280
     1
281
     1
  3
ACAD_ROUNDTRIP_2008_TABLESTYLE_CELLSTYLEMAP
360
9A6C
  0
XRECORD
  5
9A70
102
{ACAD_REACTORS
330
22E2
102
}
330
22E2
100
AcDbXrecord
280
     1
102
DISPLAYNAME
  1
Imperial24
102
FLAGS
 90
        0
  0
XRECORD
  5
9A6E
102
{ACAD_REACTORS
330
236
102
}
330
236
100
AcDbXrecord
280
     1
102
DISPLAYNAME
  1
Metric50
102
FLAGS
 90
        0
  0
XRECORD
  5
1FA
102
{ACAD_REACTORS
330
1F9
102
}
330
1F9
100
AcDbXrecord
280
     1
 70
     1
 90
429727718
  1
D62C5603-E3A1-4AEA-B7FB-FE5D8D0755AF
310
504B03040A0000080000CC70623B3DEE336E79000000790000001B0000006175746F6465736B2D64657369676E2D7061636B6167652E786D6C3C3F786D6C2076657273696F6E3D22312E302220656E636F64696E673D227574662D3822203F3E3C666F726D6174733E3C666F726D61743E687474703A2F2F736368656D612E
310
6175746F6465736B2E636F6D2F64657369676E2D7061636B6167652F323030393C2F666F726D61743E3C2F666F726D6174733E504B0304140006080800CC70623BD486FD9CA0000000F4000000130000005B436F6E74656E745F54797065735D2E786D6C7D8EC10E82300C865F65E91D8A1E8C310C0EEA1BF002731658846E
310
D98AC1B77784ABF1D8FE5FBFBF75BBCE937A534CCEB38643598122B6FEE978D0B0485F9C41B54DDD7D022595594E1A469170414C76A4D9A4D207E29CF43ECE46F218070CC6BECC4078ACAA135ACF422C856C0E68EA1BF5669944DDD7BCDE7B1F8E415D77AECB980613C2E4AC91FC167A2B244592486606FC29C8FD7F045B9A
310
EF7053A7E60B504B0304140006080800CC70623B853B8169EB0000007C01000008000000636F72652E786D6C8D90416EC3201045AF62CDB6C206821CC7C244919D9CA01740401C94182C03558F5F9C3852BBEB6A467FFE9B197D7EFC9E1EC5975982F5AE035262288C535E5B377690E21535501C055FBC8FBF6C503839990E
310
5619041F179FE64D52DE45E362569DD7661365082642A11EB9E920A89B99642953CC8E702F67A9EE7234257977194EC9EAE275C4EABCCF5EAD5940D4AC6F0E35A568B8F43562CD7046CD199FD07E60174276A7BE677B5EADB0E0D14EEFFB6A31321A0D82627C4084204C3F096B71DD52F6819B16635EADF63F509AF53FA164
310
5DDCD1EDDD17164090FCC8732078B56691CB33A85CD7DCC40F504B0304140006080800CC70623B55019EA25F0000007C00000007000000636E782E786D6C4DCB3B0E80201045D1AD90E915ED2CF8AC45050C11660C8261F98AB1B07AC9C97D42D718D865D3E909258CFD00CCE24AC6E326A164D74DC0B4128928FF32603847
310
2BA13128B1252AC747C6BAB984FC68F0B87FE8960A5C09FE86CFB69FBA01504B0304140006080800CC70623BDBABAAF470010000D40300000C0000006662782F636F72652E786D6CC553D16E823014FD95A6AF4B694182CC941A83FA05FB810A9511A125A5257EFE2E82712ECEB8A7F100CD39F7F69E734AF9FADC366850B6
310
AF8DCE7018308C942E4C59EB2AC3DE1D498AD15A706B8CFB56869196ADCAF00863C12B6B7C374385D14E6907A836A59A41D9F7CA615434B0C8705F7CAA5606D23BA8E84F41278B93AC54100640439DE0BDB320004D43C63716C7C399D30917DCFBBA9CD9BA8469F5B156168B24CED3F7248AC8769F27244EB73B92EED8862C
310
B7F13E0C179B3C8F979C8ECD82BBBABDAA2BAC924E9558448CBD9330242CFA08E3154B5651FCC6D215639C8EE5774DBE2B5F6CF2B5768B68963BB5F5588420E442FC700B1139D4CB01F450C1E918227C2E09DF070D8140C84E1E9AAB8F1340832A9CB13130A5F1376A908D57309505ECF2A0DF179C4E9D30F5B239B87E3823
310
7A79C6F31DE1A8A5AEC08474B03C7837EAE4938639B44E5932B833D2C6B6B279CDC613877FA26EE21F4A2A4C63EC7F29A2F301D1F9F7A0E37D145F504B0304140006080800CC70623B9C113CC27E0000009D0000000B0000006662782F636E782E786D6C4DCCDF0A83201C86E15B91DFB94BFB330DD428C8FB886521330DA7
310
6397BF1A1DECE883878F57749FCDA1B7892F1BBC047A23808C7F84D9FA55424E0BE6803A256208E9EF06C84F9B91703228B1C690F78B66B34CD9A5439DF5CF0BFBF65E35BCA1B8D6A5C6F540381E886698B5741C695F9503EBA150A2F8958E3DC3EA0B504B0304140006080800CC70623B7DF2F77C2A010000120200003100
310
00006662782F41393633353835312D344632462D344230382D423046372D3739314545314133324237412F636F72652E786D6C8D51DB8EC22014FC15C2939B0D2DB4B45643319AE817EC0F6041255A68B86CFCFC856D4D76DF7CE190393373060EDB3DC707F856CE6B6B7A480A0C81328395DA5C7B18C3057510EC3873D686
310
3F34088C18550F330C39BB3A1BA7051AAC09CA84841A2BD5020AEF55806078A44B0FFD7053A328440C89E1EFC52486BBB8AA8214A99D789CF9E05200300FC927E4FB4D5B375D43103D5527440FB843077C5AA3F5861C8F645F5787F59E95B390B318B55CE45AA638FAA2957BD7248B390B7A7CC51F9C124149C82B8C378810
310
84AB2F42B7B8DD56F413775B8C5999E9FF4471926F8AA236A1AE96B8B3CC434E5839373893369E1FAF30EA395917409EB7F26AF8801C171837A4A6AC9C89E9F9C9B1A58BA30FD6A5EF5DDDCF894B9AD9B6A59C957943A9FCAE2FD5BC4DFE03504B0304140006080800CC70623BAD7543B64E01000033030000300000006662
310
782F41393633353835312D344632462D344230382D423046372D3739314545314133324237412F636E782E786D6CD593CD6EC32010845F0571AD6CE3D48AD20813A9873E410FBD12D82434182C7EAAE6EDBB2424CD25871E7B41D6EC30B3FA84F9E67BB2E40B4234DE8DB46F1925E094D7C6ED479AD3AE5951B2113C789FEE
310
6C943839C1488B4C05DF079FE72A69D8C96C13AAD6B8631503449F83828872B949AC57D26200B826A308D316B4064D6E46FCDA41C05550DC9E483A00797BFD207EFB092A45DE9514C1BBD22178396BD39D891265658C238DEA00936C654E5E433CB65A26D9F6EDB5EBC14EBF49A45CB856E66048291F6939A9A81BB5C89177
310
38143CA680F4AA299D66A042CEB3354A2684DC9D8D178FE0D9B8B41CAAD720F880EE7EF93C0C18769E099ECC04D5A102C8049A8A05632F4DDF376CF1DE0F6BB65C2F8627B65A33C6BB62177CEBBDAD973006829F89F22E814B54F4BC2BE347F8AA8F681390B50FA73F804400B5F542E796F19FF974E7F78DB802FE05E20750
310
4B0304140006080800CC70623BE75B7789680500003C100000340000006662782F41393633353835312D344632462D344230382D423046372D3739314545314133324237412F6F626A656374732E786D6CAD575B8F9B3818FD2B887D06C22499CB8AA1CA655245D5B455A356FB305264C061D8018C6C3393D95FBFC7600890
310
A4CD5EF210B0B1BFEBF98E3F7B1FF6596ABC522E1296DF9BAE3D320D9A872C4AF2F8DE2CE5CEBA358D0FBEC719939D65A691938CDE9B6ADAF4BD98B3B2D05311DD91329583D9D5FC0F438434A7A611A644887B5384CF34233629258BA878B12322891DEFF6B66BD70BFB62634E8AE781D082709A4B588AF91C528CDA28B73F
310
1C998EEF39EABBEFA97FBD6A7C7E9553F9D3D79FE442923C3C523610337627CB87ABE99D359D4CC6D6E4FACAB5E6ABF9D2726FC6A3C5F56271377BB88362213924694B38DD99FE47C48627A1E7D49F5A8BB5E1A74C0A599ED3B0F21F1E56366B89112D681E218F0915D0D6F17AD41FBA2A369DCF6335D62ABBD39779D5DDD1
310
11D4D8DE3CBB96B2E04FB8202E41051754A1AA8E8F76B4C6DFE810B580B1547F4B84911149794252234D024EF8BBE963A95AE27B3D310A9D5C215C7960FAEE415ED75694C6AFB17BCACA5D99A60A9AA65F217B0BFC53292ACB92BF283FAD0D3621576592CB5BED907C2FA8E9DF794E35E97BEA31BED21FEB401ABB94C44839
310
DCACBF0E1C5DA8DA5B2F4DFFD32AD86F543D9E565E7056502E157C00AD2671CD534549AB752FCA9CDA00677A313F04E51B22FF19E57B300579E3C97EB29F682D92935CEC18CF901B7B54FD8C51F362B56FC72FE0B3C1EAE335EDCCBF5AEC39ADB17DC238973F804BA5E6F6BFE7AF1FB32E523BE9F3BD571418E3631DCA4D48
310
5250CF639223210A9446CA30052EDF057BD35F8329C1ECD84552BF0DC8D18BE7BCE23BFE6BD960AB4A7DE79923A103BEBD80F911CBAA2C60DB19B01CF164A5583B772EE6D3FFA56666CBCDA74DC97724A48F9A58967497E489C4D979006FD7A05E227A1EBDD0F737C623387A9C844D3709995625106D157315F8B8392CD4E0
310
A0B9A720C4BE9829CEF37EA1E13111214D53925356365ADA634861B52519DD27A00AEB808EAF0628E6F435519D446F45CF2C9CF5214F0A15B2F6D06B79DA3EE3CBF7F56780D2F4E7EF73A0F5E5B02A38D07DC852C6B7C1FBB6664213E0C39E3EBA7FF4E1AD23EA2829407C85E586727488B751B2DB9502BC7B228A3FD68B6E
310
A65A22397E690AA8D158D7E404EC8CDA235CC3B7D1898680131CEC2CDF2638C65196279577750F15884AEE19F94199155B92B13297978469D4F8D358DF0AEF7631E28DC8F0D9F437D5D39A83B2231A1D52D543813A824EF8D44BCFF2FA6A31BD1E8DAD87F1CCB526B3879935BF59CDADD5C37479BB1CDD4CA7B3556B516589
310
EF352754B706114D9C885EC9131DE6EFEB43D99AFE2391C2F958179413D7CFEF6B1B6DB1E7600F00DE6E5C67454A339A4BA2E0FBA85ED26F045D454F463DBFCE484C2F90F2E5E3666003662ED8F755951A7D1BECD5B30B550B2785C8E7320B7292A4838DDA71BBC863ED7613CAF659337A3354231D4FF4A182A54904C2898C
310
98B28C4AD0CE056CCF332A80986E571EE9DBC305BB5FEB7E509220A58D25CF042D712A806AC0AD0C657FDEF80D2D9CEAA2EE4D1C76F60BFE74219A06527D6F82DF6412526107381E55E353090704D085B52408A8913C4ED159D79BDA71BB4BC506F4831350EB6F975CD22D69BF7AC49B91A2C0A9DDA3D5CA36AD20FC478E37
310
E61844E2352865EBCB61A275A65283CAAA9DD27703B4102F5AF51EF5F573B75CBB5AD38BC845F7A49F82A0966A49C2E3EA5EA0ECD326CD965F1DB402C6FA8B51A4658C5C5E2EC9E214602E55810345408596591009A82E7E7FFACA19EEA299B14A0081A705CB3296EBC14CDF658DCD336EA6D1136881AAEB87B81AB9EE53D5
310
F5EB8BC8362082DA24122F98680A4E7930C01A0079749CEA14382A0783E5EBA5A10F8C098456A03D6A4AEB6BB881E2513747552A5DB22C7EDAF83BD5528081A365F7FF06504B0304140006080000CC70623B000000000000000000000000350000006662782F41393633353835312D344632462D344230382D423046372D37
310
39314545314133324237412F76657274696365732E62696E504B0304140006080800CC70623BF270F1330600000004000000360000006662782F41393633353835312D344632462D344230382D423046372D3739314545314133324237412F747269616E676C65732E62696E636660600000504B0304140006080000CC7062
310
3B000000000000000000000000370000006662782F41393633353835312D344632462D344230382D423046372D3739314545314133324237412F617474726962757465732E62696E504B0304140006080800CC70623B08DA0BD19000000041010000360000006662782F41393633353835312D344632462D344230382D4230
310
46372D3739314545314133324237412F6469726563746F72792E786D6C858F410AC3201045AF22B36F53E9A60B35CBEEBAE80D244E44489C6234F4F835464A48035D0DF398FF9F8AF63D0E6CC63039F212F8F9020C7D47C6792B21C5FE7403D62A1188E2E60C98D7234A5830286103A55745067B9D86B8A3CF9C7F90C11DE6
310
07FB144396D7B6A82D282E9A152AD114D5EF2CB866EEE831B8EEA07A7BB5A8D7D61A2BAAEB7FD5F70921FF497D00504B0304140006080800CC70623BEDD1DC58FD000000A00100003B0000006662782F41393633353835312D344632462D344230382D423046372D3739314545314133324237412F7265736F75726365732F
310
636F72652E786D6C8D504B6E833010BD0A9A6D65B00922041947112427E8052C33A156828DFCA97AFC9A40A576D7CDCCE87D344F8F9FBFE667F689CE6B6B3A6039850C8DB2A336530731DC4903D95970676DF82583CCC8193B5861107C72362E3BA4AC096842428D1D7107A5F7182053CF7474E0D507CE32973124857FE48B
310
540F3961CEF244279DE03EB81420DB9EAC1384436FA353E879B1B182C7A8C75DA3C7F453DF353A1075D537A7BA6464B8F535A99AE14A9A2BBD90E350DD183B5CFABE3AF262350B1EF4FC9351399401471025A527C218A1E53BAB5A5AB765F5469B96525EACF23FA6B88CFF34456DC2A1DCE36E360F82A5202F42F062ED2BAD
310
579969AFDD8A6F504B010214000A0000080000CC70623B3DEE336E79000000790000001B00000000000000000000000000000000006175746F6465736B2D64657369676E2D7061636B6167652E786D6C504B01021400140006080800CC70623BD486FD9CA0000000F40000001300000000000000000000000000B20000005B
310
436F6E74656E745F54797065735D2E786D6C504B01021400140006080800CC70623B853B8169EB0000007C010000080000000000000000000000000083010000636F72652E786D6C504B01021400140006080800CC70623B55019EA25F0000007C000000070000000000000000000000000094020000636E782E786D6C504B
310
01021400140006080800CC70623BDBABAAF470010000D40300000C00000000000000000000000000180300006662782F636F72652E786D6C504B01021400140006080800CC70623B9C113CC27E0000009D0000000B00000000000000000000000000B20400006662782F636E782E786D6C504B01021400140006080800CC70
310
623B7DF2F77C2A010000120200003100000000000000000000000000590500006662782F41393633353835312D344632462D344230382D423046372D3739314545314133324237412F636F72652E786D6C504B01021400140006080800CC70623BAD7543B64E010000330300003000000000000000000000000000D2060000
310
6662782F41393633353835312D344632462D344230382D423046372D3739314545314133324237412F636E782E786D6C504B01021400140006080800CC70623BE75B7789680500003C10000034000000000000000000000000006E0800006662782F41393633353835312D344632462D344230382D423046372D3739314545
310
314133324237412F6F626A656374732E786D6C504B01021400140006080000CC70623B0000000000000000000000003500000000000000000000000000280E00006662782F41393633353835312D344632462D344230382D423046372D3739314545314133324237412F76657274696365732E62696E504B01021400140006
310
080800CC70623BF270F133060000000400000036000000000000000000000000007B0E00006662782F41393633353835312D344632462D344230382D423046372D3739314545314133324237412F747269616E676C65732E62696E504B01021400140006080000CC70623B0000000000000000000000003700000000000000
310
000000000000D50E00006662782F41393633353835312D344632462D344230382D423046372D3739314545314133324237412F617474726962757465732E62696E504B01021400140006080800CC70623B08DA0BD1900000004101000036000000000000000000000000002A0F00006662782F41393633353835312D344632
310
462D344230382D423046372D3739314545314133324237412F6469726563746F72792E786D6C504B01021400140006080800CC70623BEDD1DC58FD000000A00100003B000000000000000000000000000E1000006662782F41393633353835312D344632462D344230382D423046372D3739314545314133324237412F7265
310
736F75726365732F636F72652E786D6C504B0506000000000E000E0080040000641100000000
  0
XRECORD
  5
1F8
102
{ACAD_REACTORS
330
1F7
102
}
330
1F7
100
AcDbXrecord
280
     1
 70
     1
 90
429727718
  1
30362254-06B7-45E0-A893-8CFA70E3D6BC
310
504B03040A0000080000CC70623B3DEE336E79000000790000001B0000006175746F6465736B2D64657369676E2D7061636B6167652E786D6C3C3F786D6C2076657273696F6E3D22312E302220656E636F64696E673D227574662D3822203F3E3C666F726D6174733E3C666F726D61743E687474703A2F2F736368656D612E
310
6175746F6465736B2E636F6D2F64657369676E2D7061636B6167652F323030393C2F666F726D61743E3C2F666F726D6174733E504B0304140006080800CC70623BD486FD9CA0000000F4000000130000005B436F6E74656E745F54797065735D2E786D6C7D8EC10E82300C865F65E91D8A1E8C310C0EEA1BF002731658846E
310
D98AC1B77784ABF1D8FE5FBFBF75BBCE937A534CCEB38643598122B6FEE978D0B0485F9C41B54DDD7D022595594E1A469170414C76A4D9A4D207E29CF43ECE46F218070CC6BECC4078ACAA135ACF422C856C0E68EA1BF5669944DDD7BCDE7B1F8E415D77AECB980613C2E4AC91FC167A2B244592486606FC29C8FD7F045B9A
310
EF7053A7E60B504B0304140006080800CC70623B1EC5D7A3EB0000007C01000008000000636F72652E786D6C8D90416EC3201045AF82665B6103C6756C6122AB4D4ED00B204C5C94182C03558F5F9C3852BBEB6A467FFE9B197D71FC9E6FE8CBACC17AD7032D0820E3B41FAD9B7A48F1820F808E52ACDEC75F36404ECDA687
310
4D0629A6D5A76597B477D1B89855E747B38B2A041301E95B6E7A08FAD3CCAA50296647B8168BD2573599823EBB0CA76447F43862C7BCCF5EAC59410E4DDD9C7973C2755553CCCFA4C603E3040F1565ED3B1FDE4E432BCA0D9622DAF9795FAF464533826484B498524CD807E51D79ED187F21878E10516EF63F505AC67F42C9
310
BA58B1FDDD071640D2FCC87D2045B96591CB3DA85CB7DCE40F504B0304140006080800CC70623B55019EA25F0000007C00000007000000636E782E786D6C4DCB3B0E80201045D1AD90E915ED2CF8AC45050C11660C8261F98AB1B07AC9C97D42D718D865D3E909258CFD00CCE24AC6E326A164D74DC0B4128928FF32603847
310
2BA13128B1252AC747C6BAB984FC68F0B87FE8960A5C09FE86CFB69FBA01504B0304140006080800CC70623B8C9102E971010000D40300000C0000006662782F636F72652E786D6CC5535B6E833010BC8AE5DF0A6C08340F1947A84D4ED00B38C6A128602363A31CBFCB234A53A551FA553EC09AD9F5CE8C31DB9E9B1AF5CA
310
7695D1198E428A91D2D214952E33ECDD315861B4E5CC1AE3BE9561A445A3323CC098B3D21ADFCE9034DA29ED00D5A6503328BA4E398C640D8B0C77F253352214DE4145770A5B214FA2546114020D759C75CE8200340D19DE981F0F6746269C33EFAB6266AB02A655C74A59CCF365BADC27CB5D902ED22848F6340DF238A141
310
BE88E2F57B92BFEDF23523433367AE6A2EEAA455C2A902F398D2751045018D3FA264435F3771F242571B4A1919CA6F9A7C5B3CD9E42BED16F12C776AEB308F40C848FC700B1139D4891EF410CEC810227CC6846F8386402064270EF5C5C709A05E49676C024C61FC95EA45ED154CA5211D1FF4FB8291A913A68E9B83EBBB33
310
E2A7673CDE118E5AE8124C0807CB8377834E366998436B950D7A7746DAD846D4CFD978E0F04FD455FC5D49D2D4C6FE9722321F10997F0F32DC47FE05504B0304140006080800CC70623BFFEA85907E0000009D0000000B0000006662782F636E782E786D6C4DCCD10A83201886E15B91FFDC95D95A811AB6F23E625948A6C3
310
E9D8E5AF46073BFAE0E1E365ED67B3E8ADC3CB78C7815C7240DA3DFC64DCC221C519D7805AC182F7F1EF06C88D9BE6703008B6049F9E274D7A1E938DBB5AE3D6131B2589BA0D3D965551E0B2EA732C9B9A624AAEB41E3A557677029960D9AFB4EF11165F504B0304140006080800CC70623B4FEEA4082C0100001202000031
310
0000006662782F39464131463745442D413632322D343644302D413938332D3331353338454246344243312F636F72652E786D6C8D515B6EC32010BC0AE2AB55850DD871ED0813254D72825EC00192A2C460F1A872FC42ED48ED5F7E00CDCECCCEB26C731F6FE05B39AFADE921293004CA082BB5B9F43086336A21D870E6AC
310
0D7F68109861543DCC30E4ECE26C9C164858139409093556AA051CBC570102714B8F1E7AF1A5C6A11862480C7F2DA6415C878B2A4891CA89C7990F2E050073937C42DE1DB7E4F87ED8A36D4329AA9B3D46DBAEAD504556557BD81DEBDD0761E52CE42C462D17B996298E3E6BE59E35C962CE821E1FF18553435012728A7187
310
0841987E927A8D9B35ADDF70BBC6989599FE4F1427F9A4286A132ABAC49D651EF234CD5CE04CDA78BA3DC2A8FB645D00B9DF8B57E215725C60BCA2A463E54C4CE327C7A65E1C7DB02E7DEFCBF594B864C5CA6CDBD49C957943E9FA5D5FBAF336F90F504B0304140006080800CC70623BAD7543B64E01000033030000300000
310
006662782F39464131463745442D413632322D343644302D413938332D3331353338454246344243312F636E782E786D6CD593CD6EC32010845F0571AD6CE3D48AD20813A9873E410FBD12D82434182C7EAAE6EDBB2424CD25871E7B41D6EC30B3FA84F9E67BB2E40B4234DE8DB46F1925E094D7C6ED479AD3AE5951B2113C
310
789FEE6C943839C1488B4C05DF079FE72A69D8C96C13AAD6B8631503449F83828872B949AC57D26200B826A308D316B4064D6E46FCDA41C05550DC9E483A00797BFD207EFB092A45DE9514C1BBD22178396BD39D891265658C238DEA00936C654E5E433CB65A26D9F6EDB5EBC14EBF49A45CB856E66048291F6939A9A81BB5
310
C8917738143CA680F4AA299D66A042CEB3354A2684DC9D8D178FE0D9B8B41CAAD720F880EE7EF93C0C18769E099ECC04D5A102C8049A8A05632F4DDF376CF1DE0F6BB65C2F8627B65A33C6BB62177CEBBDAD973006829F89F22E814B54F4BC2BE347F8AA8F681390B50FA73F804400B5F542E796F19FF974E7F78DB802FE05
310
E207504B0304140006080800CC70623B16AB87BA640500003C100000340000006662782F39464131463745442D413632322D343644302D413938332D3331353338454246344243312F6F626A656374732E786D6CAD575B6FA33818FD2B887DE6924B3BED8A326A92B68A663B534DD4D13E548A0C38942D60649B369D5FBFC7
310
600890A493BDE42160637FD7F31D7FF63E6FB3D478A55C242CBF3247B66B1A340F5994E4F19559CA8D75611A9F7D8F33263BCB4C232719BD32D5B4E97B316765A1A722BA21652A07B3B7B33F0D11D29C9A46981221AE4C113ED38CD8A4942CA2E2C58E882476BCD9DA23BB5ED8171B73523C0F841684D35CC252CCE79062D4
310
468DFA43D7747CCF51DF7D4FFDEB5593E3AB9CCA9FBEFE241792E4E19EB28198C968BAB8199F5D5A67D3E9C49A9E8F47D6EC76B6B0469F26EEFC7C3EBFBCBEB98462213924694B38DD98FE1D62C393D073EA4FADC5DAF04326852CCF6958F90F0F2B9BB5C48816348F90C7840A68EB78EDF68723159BCEE7891A6B95DDE9D3
310
BCEAEEE8086A6C6F9E5D4B59F0175C10A7A0820BAA5055C7473B5AE3CFDD452D602CD5DF12616444529E90D448938013FE6EFA58AA96F85E4F8C42275708571E98FE6827AF6B2B4AE3D7D83D64E5A64C53054DD3AF90BD06FEA9149565C94FCA0F6B834DC85599E4F2423B24DF0B6AFA979E534DFA9E7A4CC6FA631D486393
310
921829879BF5D781A373557BCB85E97FB90DB62B558F8795179C15944B051F40AB495CF35451D26A4727654E6D8033BD98EF82F21D91FF8AF2DD9982BCF1643BDD4EB516C9492E368C67C88DED563FC36D5EACF66DFF057C3658BDBFA69DF9578B3DA735B64F18C7F20770A9D45CFCF7FCF563D6456A277DBEF78A02637CA2
310
43B90A490AEAB94F72244481D24819A6C0E59B606BFA4B3025981DBB48EAB701D97BF19C577CC77F2D1B6C55A9EF3C732474C0B727303F625995056C3B02963D9EAC146BE78EC5FCEC7FA999EBC5EACBAAE41B12D27B4D2C0BBA49F244E2ECDC81B76B502F113D8F5EE8FB1BE3111CDD4FC2AA9B844CAB1288B68AB90A7CDC
310
1C166AB0D3DC5310625FCC14E779BFD0709F8890A629C9292B1B2DED31A4B0DA928CEE135085754027E3018A397D4D5427D15BD1330B677DC8934285AC3DF45A9EB68FF8F2B8FC0A509AFEECFD0FF2DE25CC6047F7214B195F07EFEB9A094D800F7BFAE8FED187B78EA8A3A400F115961BCAD1215E47C966530AF0EE8128FE
310
58CEBB996A8964FFA529A046635D9353B0336A8F700DDF46271A024E70B0B37C9DE01847591E54DED53D54202AB947E4076556AC49C6CA5C9E1226B7F1A7B1BE15DEED62C41B91E1B3E9AFAAA735036547343A925075041DF0A9979E893B391F8FCFA6967B3EFB644DCF6E5CEBFAE272625DCC6FAF3FB93793C5F90CE1EF57
310
407342756B10D1C489E8953CD1617E5CEECAD6F4EF8914CE5D5D504E5C3F1F9736DA62CFC11E00BCDDB8CC8A9466349744C1F75EBDA4DF09BA8A9E8C7A7E9991989E20E5DBDD6A6003664ED8F7A04A8DBE0DF6EAD9B9AA858342E47399053949D2C146EDB85DE4B176BB0965FBAC19BD19AA918E27FA50C1D22402E144464C
310
59462568E704B6E71915404CB72B8FF4EDE184DDAF753F284990D2C6926782963815403548A70C657FDEF80D2D9CEAA2AE4C1C76F60BFE74219A06527D6582DF6412526107381E55E353090704D085B52408D0933C4ED159D79BDA71BB4BC506F4831350EB6F979CD22D69BF7AC49B91A2C0A9DDA3D5CA36AD20FC478E37E6
310
1844E2352865EBCB6EA275A652E3836BE04EFB400BF1A2556F515F1FBB35B2AB35BD889C744FFA1004B5544B121E57F70215746DD2F5E2C1412B602CBF19455AC6C8E5E9922C4E01E65215385004546899059180EAFCF7A707CE7017CD8CDB0410789AB32C63B91E5CEBBBACB17AC6CD347A022D5075FD106377347AAABA7E
310
7D11590744509B44E205134DC1290F06580320F78E537D3D73540E06CB970B431F185308AD40BBD794D6D77003C5A36E8EAA54BA64597CD8F83BD552A080A365F7FF06504B0304140006080000CC70623B000000000000000000000000350000006662782F39464131463745442D413632322D343644302D413938332D3331
310
353338454246344243312F76657274696365732E62696E504B0304140006080800CC70623BF270F1330600000004000000360000006662782F39464131463745442D413632322D343644302D413938332D3331353338454246344243312F747269616E676C65732E62696E636660600000504B0304140006080000CC70623B
310
000000000000000000000000370000006662782F39464131463745442D413632322D343644302D413938332D3331353338454246344243312F617474726962757465732E62696E504B0304140006080800CC70623B08DA0BD19000000041010000360000006662782F39464131463745442D413632322D343644302D413938
310
332D3331353338454246344243312F6469726563746F72792E786D6C858F410AC3201045AF22B36F53E9A60B35CBEEBAE80D244E44489C6234F4F835464A48035D0DF398FF9F8AF63D0E6CC63039F212F8F9020C7D47C6792B21C5FE7403D62A1188E2E60C98D7234A5830286103A55745067B9D86B8A3CF9C7F90C11DE607
310
FB144396D7B6A82D282E9A152AD114D5EF2CB866EEE831B8EEA07A7BB5A8D7D61A2BAAEB7FD5F70921FF497D00504B0304140006080800CC70623B0D6EF93BFE000000A00100003B0000006662782F39464131463745442D413632322D343644302D413938332D3331353338454246344243312F7265736F75726365732F63
310
6F72652E786D6C8D50596E833010BD0A9ADFCA60B334011947A8694ED00B586642AC041B79A97AFC9A40A5F6AF3F33A3B7689E1E3F7DCD8FEC139DD7D6F4C0720A191A65476DA61E62B892236427C19DB5E1970C322367EC618541F0C9D9B8EC90B226A009093576C41D94DE63804C3DD2D18357379C652E63480A7FCF17A9
310
EE72C29CE5894E3AC17D702940B63D59270887DE46A7D0F36263058F518FBB468FE9A7BE6A7420864373B8D4873369AA8691FA421B3294352543C5CAF65C0F6FEF43CB8BD52C78D0F34F46E550061C419494B6843142CB0F5677F4B52BEB177AEC28E5C52AFF638ACBF84F53D42654E51E77B379102C05791282176B5F693D
310
CB4C7BED567C03504B010214000A0000080000CC70623B3DEE336E79000000790000001B00000000000000000000000000000000006175746F6465736B2D64657369676E2D7061636B6167652E786D6C504B01021400140006080800CC70623BD486FD9CA0000000F40000001300000000000000000000000000B20000005B
310
436F6E74656E745F54797065735D2E786D6C504B01021400140006080800CC70623B1EC5D7A3EB0000007C010000080000000000000000000000000083010000636F72652E786D6C504B01021400140006080800CC70623B55019EA25F0000007C000000070000000000000000000000000094020000636E782E786D6C504B
310
01021400140006080800CC70623B8C9102E971010000D40300000C00000000000000000000000000180300006662782F636F72652E786D6C504B01021400140006080800CC70623BFFEA85907E0000009D0000000B00000000000000000000000000B30400006662782F636E782E786D6C504B01021400140006080800CC70
310
623B4FEEA4082C0100001202000031000000000000000000000000005A0500006662782F39464131463745442D413632322D343644302D413938332D3331353338454246344243312F636F72652E786D6C504B01021400140006080800CC70623BAD7543B64E010000330300003000000000000000000000000000D5060000
310
6662782F39464131463745442D413632322D343644302D413938332D3331353338454246344243312F636E782E786D6C504B01021400140006080800CC70623B16AB87BA640500003C1000003400000000000000000000000000710800006662782F39464131463745442D413632322D343644302D413938332D3331353338
310
454246344243312F6F626A656374732E786D6C504B01021400140006080000CC70623B0000000000000000000000003500000000000000000000000000270E00006662782F39464131463745442D413632322D343644302D413938332D3331353338454246344243312F76657274696365732E62696E504B01021400140006
310
080800CC70623BF270F133060000000400000036000000000000000000000000007A0E00006662782F39464131463745442D413632322D343644302D413938332D3331353338454246344243312F747269616E676C65732E62696E504B01021400140006080000CC70623B0000000000000000000000003700000000000000
310
000000000000D40E00006662782F39464131463745442D413632322D343644302D413938332D3331353338454246344243312F617474726962757465732E62696E504B01021400140006080800CC70623B08DA0BD190000000410100003600000000000000000000000000290F00006662782F39464131463745442D413632
310
322D343644302D413938332D3331353338454246344243312F6469726563746F72792E786D6C504B01021400140006080800CC70623B0D6EF93BFE000000A00100003B000000000000000000000000000D1000006662782F39464131463745442D413632322D343644302D413938332D3331353338454246344243312F7265
310
736F75726365732F636F72652E786D6C504B0506000000000E000E0080040000641100000000
  0
XRECORD
  5
175
102
{ACAD_REACTORS
330
173
102
}
330
173
100
AcDbXrecord
280
     1
270
     1
271
     1
  0
XRECORD
  5
174
102
{ACAD_REACTORS
330
173
102
}
330
173
100
AcDbXrecord
280
     1
270
     1
271
     1
  0
XRECORD
  5
1FB
102
{ACAD_REACTORS
330
173
102
}
330
173
100
AcDbXrecord
280
     1
 70
     0
 90
1673772943
  1
ECE7A1D2-D628-4531-984C-D00F80459256
310
504B03040A0000080000CC70623B3DEE336E79000000790000001B0000006175746F6465736B2D64657369676E2D7061636B6167652E786D6C3C3F786D6C2076657273696F6E3D22312E302220656E636F64696E673D227574662D3822203F3E3C666F726D6174733E3C666F726D61743E687474703A2F2F736368656D612E
310
6175746F6465736B2E636F6D2F64657369676E2D7061636B6167652F323030393C2F666F726D61743E3C2F666F726D6174733E504B0304140006080800CC70623BD486FD9CA0000000F4000000130000005B436F6E74656E745F54797065735D2E786D6C7D8EC10E82300C865F65E91D8A1E8C310C0EEA1BF002731658846E
310
D98AC1B77784ABF1D8FE5FBFBF75BBCE937A534CCEB38643598122B6FEE978D0B0485F9C41B54DDD7D022595594E1A469170414C76A4D9A4D207E29CF43ECE46F218070CC6BECC4078ACAA135ACF422C856C0E68EA1BF5669944DDD7BCDE7B1F8E415D77AECB980613C2E4AC91FC167A2B244592486606FC29C8FD7F045B9A
310
EF7053A7E60B504B0304140006080800CC70623BD9DDAED0EC0000007C01000008000000636F72652E786D6C8D90416EC3201045AF82665B61836D9CD8C2444DD39CA01740405C94182C03558F5F9C3852BBEB6A467FFE9B197D7EF89E6EE8CB2CC17A37002D0820E394D7D68D03A478C17B4007C117EFE32F1B20272733C0
310
2A83E0E3E2D3BC49CABB685CCCAAF3DA6CA20CC14440EA969B0182FA34932C648AD911AEC52CD5558EA6A0CF2EC329598D1E47ACCEFBECC59A050463A7EA5833865FEBDD0E37353BE3EE8DBDE3F6786A48D375FBF6CC78B9C282473B3DEFABC5C86834888A900E538A49F5419B9EB47DD5BC907D4F082F57FB1F28CDFA9F50
310
B22ED6D5F6EE030B20687EE43E10BC5CB3C8E51E54AE6B6EE207504B0304140006080800CC70623B55019EA25F0000007C00000007000000636E782E786D6C4DCB3B0E80201045D1AD90E915ED2CF8AC45050C11660C8261F98AB1B07AC9C97D42D718D865D3E909258CFD00CCE24AC6E326A164D74DC0B4128928FF326038
310
472BA13128B1252AC747C6BAB984FC68F0B87FE8960A5C09FE86CFB69FBA01504B0304140006080800CC70623BA24EB22D72010000D40300000C0000006662782F636F72652E786D6CC5535B6E833010BC8AE5DF0A6C5E49888CA3A6694ED00B38E05014B091B1518EDFE511A5A9D228FD2A1F60CDEC7A67C6986DCE4D8D7A
310
69BA4AAB0C073EC548AA5C17952A33ECECD15B61B4E1CC686DBF9561A44423333CC098B3D268D7CE50AE9595CA02AA74216750749DB418E5352C32DCE59FB211BE70162ABA93DF8AFC244AE9073ED050C759670D0840D390E18DF9F1706664C23973AE2A66B62A605A75ACA4C13C4976E1364A12EF355A2EBD384AF65EFA96
310
BC7B8BED2EA6719AAE16FB8491A199335B351775B991C2CA02F390D2D40B028F861F41BCA68B7518BFD0D59A524686F29B26D7164F36B94AD9289CE54E6D1DE6010819891F6E21228B3AD1831EC219194284CF98F06DD01008846CC5A1BEF83801D4CBDC6A1303536877A57A513B0953A94FC707FDBE6064EA84A9E3E6E0FA
310
EE8CF0E9198F7784A316AA0413C2C2F2E0ECA0934D1AE6D05A69BCDE9E91D2A611F573361E38FC1375157F5752AE6B6DFE4B11990F88CCBF0719EE23FF02504B0304140006080800CC70623B408A7D3B7C0000009D0000000B0000006662782F636E782E786D6C4DCCD10A83201886E15B91FFDC552A92A0064DBC8F581632
310
D3703A76F9ABD1C18E3E78F878E5F0D9027ABBFCF2292AE86E2D20171F69F6715550CB827B40839639A5F2770314A7CD293819B45C73AAFB45B35BA61ACAA1C1C7E7855C58C15BC331339661262CC762340413D68D77DA5B42298546CBE6573AF60CEB2F504B0304140006080800CC70623B449FB9BD290100001202000031
310
0000006662782F36394639363044362D344446342D343946362D394244322D3234314243333846323333332F636F72652E786D6C8D515B6EC32010BC0AE22B55850D98B871848994463E412FE002495162B07854397EA176A4F62F3F2C9A9D991D587EB84F37F0AD7D30CEF6905418026DA553C65E7A98E219ED203808EE9D
310
8B7F6810D871D23D2C3014FCE25D9A57483A1BB58D19B54EE9151C43D0110279CB971E06F9A5A7B11A53CC8C70ADE6515EC78BAE4895DB992778883E0700CB907242D17643D7E2538BD869608875438BBAE38922CAC8F1BDD90DB4691A5E2F42C153326A951B95E398B3D1FE599322163C9AE9115F7A3D46ADA0A018778810
310
84E907617BDCEE297BC5BB3DC6BC2EF47FA234AB2745C9D8D8D035EE220B50105E2F0DC1954B9FB747187D9F9D8FA0CCDB042D5FA0C015C65B42DF78BD10F3F3B363CB56C7109DCFDFBBB97E662ED92EB62D13BC2E1BCAE5777DB9966D8A1F504B0304140006080800CC70623BAD7543B64E01000033030000300000006662
310
782F36394639363044362D344446342D343946362D394244322D3234314243333846323333332F636E782E786D6CD593CD6EC32010845F0571AD6CE3D48AD20813A9873E410FBD12D82434182C7EAAE6EDBB2424CD25871E7B41D6EC30B3FA84F9E67BB2E40B4234DE8DB46F1925E094D7C6ED479AD3AE5951B2113C789FEE
310
6C943839C1488B4C05DF079FE72A69D8C96C13AAD6B8631503449F83828872B949AC57D26200B826A308D316B4064D6E46FCDA41C05550DC9E483A00797BFD207EFB092A45DE9514C1BBD22178396BD39D891265658C238DEA00936C654E5E433CB65A26D9F6EDB5EBC14EBF49A45CB856E66048291F6939A9A81BB5C89177
310
38143CA680F4AA299D66A042CEB3354A2684DC9D8D178FE0D9B8B41CAAD720F880EE7EF93C0C18769E099ECC04D5A102C8049A8A05632F4DDF376CF1DE0F6BB65C2F8627B65A33C6BB62177CEBBDAD973006829F89F22E814B54F4BC2BE347F8AA8F681390B50FA73F804400B5F542E796F19FF974E7F78DB802FE05E20750
310
4B0304140006080800CC70623B8D05915C650500003B100000340000006662782F36394639363044362D344446342D343946362D394244322D3234314243333846323333332F6F626A656374732E786D6CAD575B6FA33814FE2B887D06429276DA1565D4266D158D3A339A6846FB502932E050B66023DB74D2FDF5FB190C01
310
9276B2973C046C8ECFF53B17071F77456EBD502133CEAE6CDF9DD81665314F32965ED995DA3A17B6F5310C04E7AA47665B8C14F4CAD6DB7618A48257A5D94AE89654B91AEDDEDDFC61C998326A5B714EA4BCB265FC440BE2924AF184CA6737218AB8E976E7FA6E4338649B0A523E8D98964450A6A029F619B8588D52FE7039
310
B1BD30F0F4F730D0FF866AF6369557DB33949F31A9088B0F848DD8CCFCF9F2767A76E99CCDE733677E3EF59D9BBB9BA5E37F984D16E78BC5E5F5ED25044B25C0C96822E8D60EEFE11B91C581D77CEA34368A1F5329E68CD1B8B61F16D63A1B8E092D294B10C78C4A48EB593D192E7DED9BDEE7995E1B91FDEDD3ACEA9FE831
310
6A756F9F7D4D79F4274C90A7A04248AA51D5F8C718DAE06FB2F75AC4796EBE65D22A88A22223B995679120E2D50E41AA49C260C046A35368846B0BECD0DFF3EBEB8AD4F835768F69B9ADF25C43D30E6B646F807FAA64AD59F61715C7A54127C4AACA98BA3006A9D792DAE165E0D59B61A01FB3A9F9D838D2DAE62445C86166
310
F37564E842E7DE6A69879FEEA2DD5AE7E371E1A5E025154AC307D06A03D73EB5978C58FFA4C8E9033066E0F3BD53BEC1F39F91BE7B55103791EDE6BBB991A2046172CB4581D8B893FA674DDA17A77B3B7C413D1B511FD2743BFF8A38F03A658705E3ADF8015C3A3417FF3D7E439FF591DA0B5F18BC20C1B8981957AE6392A3
310
F43C640C01D1A0B4728E2DD4F26DB4B3C3152A252A3B4E913CEC1C72F012782FF88EFF8637AA552DBEF76408E8A8DE9E50F9E1CB3A2DA0DB1B6039A893B56063DC5B3E3FFB5F72E67AB9FEB4AEC496C4F4C1149625DD662C53E89D7BF0F6151A046260D1337DFDC94502430F83B0EE07A130A224BCAD7DAE1D9FB6CD422FF6
310
920702629C4BB9AE79C12F243C6432A6794E18E5552BA56B431AAB5D91317302B2B071E86C3A42B1A02F999E24061403B5D0EB639195DA655DD3EBEAB4FB862DDF579F014AD0E73C22F99E28DA57FB98E75C6CA2D74D53086D600F4786E0FE3144B771A8A7B900F03594DB8A633CBC49B2EDB69228BB479CF863B5E807AAAB
310
23872F6DFEB4129B949CA33823F58830E86D65621E10047D9DB34D862E8EAC3C2ABC2F7B2C40D67CDFE01F5545B92105AF983AC54D93D69E56FB8E797F88913F898A9FEC705D3F9D1B54EC8426FB500D40A03BD0119B06E1B95DDC7EB8F6975367793EBD70E66733DFB9BC982F9CE564727731999F5D4ECFCE3B8D6A4DC2A0
310
6D50FD148437D110834A64C6CDDF57FBACB5C307A2A477DFE4939736CFEF2B175371E0E10CF0DD1D5C15654E0BCA14D1E87DD02FF93782A162C0A3D95F1524A52770F972BF1EE9809D13CE7DD599467F8ECE9ADD85CE85A34CD45355448C64F9E8A031DC2D596ACC6E5DD93D9B82DE2EF5CAF81363A8E47996A0DE24564A79
310
4115AACE09C55E14540231FDA13C319787134EBF34E3A022514E5B4D9E0826E25C02D5805B15ABE1BEF51B26383D445DD9E875EE33FE4C22DA16427D65A3BCA92CA6D28DD01DF5DC53330704308475351050232CCD31583787BA75774AFB06E5070DD0C8EF484E19968C5D83BA5B90B244D31E54D55A372320FE4786B7EA58
310
44E135AA5467CB7EA333A61683CC6A8C3257034C10CF46F40EF9F5BE59BE5BD30C3C72D235E95D10345C1D45445A5F0BB47E46A5EBE5570F9380B5FA629579952296A773720405982B9DE04011506178964401AA8BDF1FBF0A8EAB6861DD6580C0E38217056766716DAEB2D6FA0917D3E4116581EADB879C4E7CFFB11EFACD
310
3D641311495D92C8676CB409A72D18610D803CE8A626049E8EC1887CB5B44CC39883690DDA8399B4B9855B481E7D71D4A9D22F96E5BB73BF5793020C02137BF837504B0304140006080000CC70623B000000000000000000000000350000006662782F36394639363044362D344446342D343946362D394244322D32343142
310
43333846323333332F76657274696365732E62696E504B0304140006080800CC70623BF270F1330600000004000000360000006662782F36394639363044362D344446342D343946362D394244322D3234314243333846323333332F747269616E676C65732E62696E636660600000504B0304140006080000CC70623B0000
310
00000000000000000000370000006662782F36394639363044362D344446342D343946362D394244322D3234314243333846323333332F617474726962757465732E62696E504B0304140006080800CC70623B08DA0BD19000000041010000360000006662782F36394639363044362D344446342D343946362D394244322D
310
3234314243333846323333332F6469726563746F72792E786D6C858F410AC3201045AF22B36F53E9A60B35CBEEBAE80D244E44489C6234F4F835464A48035D0DF398FF9F8AF63D0E6CC63039F212F8F9020C7D47C6792B21C5FE7403D62A1188E2E60C98D7234A5830286103A55745067B9D86B8A3CF9C7F90C11DE607FB14
310
4396D7B6A82D282E9A152AD114D5EF2CB866EEE831B8EEA07A7BB5A8D7D61A2BAAEB7FD5F70921FF497D00504B0304140006080800CC70623BCA768048FE000000A00100003B0000006662782F36394639363044362D344446342D343946362D394244322D3234314243333846323333332F7265736F75726365732F636F72
310
652E786D6C8D50596E833010BD0A9ADFCA60D600328E9AA639412F609909B1126CE4A5EAF16B0295DABFFECC8CDEA2797AECF8353F924FB44E193D409E5248504B332A3D0D10FC95B4901C39B3C6F85F3248B49871801506CE266BC2B243D2688FDA47549B11775038871E12F988C7004EDE7016A9083E2ADC3D5D84BC8B09
310
D33C8D74D471E6BC8D0192EDC93A815B742658898E651BCB59086ADC356A8C3FD555A1055ED7E7E254D615792D0F075295F585746FF53B694EE78A565DD736979A65AB9933AFE69F8CD2A2F038022F28ED489E135A7CE4554F9BBEA85E68DB53CAB255FEC71496F19FA6A0B42F8B3DEE6673C0F318E4497096AD7DC5F52C33
310
EEB55BFE0D504B010214000A0000080000CC70623B3DEE336E79000000790000001B00000000000000000000000000000000006175746F6465736B2D64657369676E2D7061636B6167652E786D6C504B01021400140006080800CC70623BD486FD9CA0000000F40000001300000000000000000000000000B20000005B436F
310
6E74656E745F54797065735D2E786D6C504B01021400140006080800CC70623BD9DDAED0EC0000007C010000080000000000000000000000000083010000636F72652E786D6C504B01021400140006080800CC70623B55019EA25F0000007C000000070000000000000000000000000095020000636E782E786D6C504B0102
310
1400140006080800CC70623BA24EB22D72010000D40300000C00000000000000000000000000190300006662782F636F72652E786D6C504B01021400140006080800CC70623B408A7D3B7C0000009D0000000B00000000000000000000000000B50400006662782F636E782E786D6C504B01021400140006080800CC70623B
310
449FB9BD290100001202000031000000000000000000000000005A0500006662782F36394639363044362D344446342D343946362D394244322D3234314243333846323333332F636F72652E786D6C504B01021400140006080800CC70623BAD7543B64E010000330300003000000000000000000000000000D20600006662
310
782F36394639363044362D344446342D343946362D394244322D3234314243333846323333332F636E782E786D6C504B01021400140006080800CC70623B8D05915C650500003B10000034000000000000000000000000006E0800006662782F36394639363044362D344446342D343946362D394244322D32343142433338
310
46323333332F6F626A656374732E786D6C504B01021400140006080000CC70623B0000000000000000000000003500000000000000000000000000250E00006662782F36394639363044362D344446342D343946362D394244322D3234314243333846323333332F76657274696365732E62696E504B010214001400060808
310
00CC70623BF270F13306000000040000003600000000000000000000000000780E00006662782F36394639363044362D344446342D343946362D394244322D3234314243333846323333332F747269616E676C65732E62696E504B01021400140006080000CC70623B00000000000000000000000037000000000000000000
310
00000000D20E00006662782F36394639363044362D344446342D343946362D394244322D3234314243333846323333332F617474726962757465732E62696E504B01021400140006080800CC70623B08DA0BD190000000410100003600000000000000000000000000270F00006662782F36394639363044362D344446342D
310
343946362D394244322D3234314243333846323333332F6469726563746F72792E786D6C504B01021400140006080800CC70623BCA768048FE000000A00100003B000000000000000000000000000B1000006662782F36394639363044362D344446342D343946362D394244322D3234314243333846323333332F7265736F
310
75726365732F636F72652E786D6C504B0506000000000E000E0080040000621100000000
  0
XRECORD
  5
176
102
{ACAD_REACTORS
330
173
102
}
330
173
100
AcDbXrecord
280
     1
270
     1
271
     1
  0
XRECORD
  5
177
102
{ACAD_REACTORS
330
173
102
}
330
173
100
AcDbXrecord
280
     1
270
     1
271
     1
  0
XRECORD
  5
9A6F
102
{ACAD_REACTORS
330
22E0
102
}
330
22E0
100
AcDbXrecord
280
     1
102
DISPLAYNAME
  1
Imperial24
102
FLAGS
 90
        0
  0
XRECORD
  5
9A6D
102
{ACAD_REACTORS
330
234
102
}
330
234
100
AcDbXrecord
280
     1
102
DISPLAYNAME
  1
Metric50
102
FLAGS
 90
        0
  0
CELLSTYLEMAP
  5
9A6C
102
{ACAD_REACTORS
330
162
102
}
330
162
100
AcDbCellStyleMap
 90
        3
300
CELLSTYLE
  1
TABLEFORMAT_BEGIN
 90
        5
170
     1
 91
        0
 92
    32768
 62
   257
 93
        1
300
CONTENTFORMAT
  1
CONTENTFORMAT_BEGIN
 90
        0
 91
        0
 92
      512
 93
        0
300

 40
0.0
140
1.0
 94
        5
 62
     0
340
11
144
6.0
309
CONTENTFORMAT_END
171
     1
301
MARGIN
  1
CELLMARGIN_BEGIN
 40
1.5
 40
1.5
 40
1.5
 40
1.5
 40
4.5
 40
4.5
309
CELLMARGIN_END
 94
        6
 95
        1
302
GRIDFORMAT
  1
GRIDFORMAT_BEGIN
 90
        0
 91
        1
 62
     0
 92
       -2
340
14
 93
        0
 40
1.125
309
GRIDFORMAT_END
 95
        2
302
GRIDFORMAT
  1
GRIDFORMAT_BEGIN
 90
        0
 91
        1
 62
     0
 92
       -2
340
14
 93
        0
 40
1.125
309
GRIDFORMAT_END
 95
        4
302
GRIDFORMAT
  1
GRIDFORMAT_BEGIN
 90
        0
 91
        1
 62
     0
 92
       -2
340
14
 93
        0
 40
1.125
309
GRIDFORMAT_END
 95
        8
302
GRIDFORMAT
  1
GRIDFORMAT_BEGIN
 90
        0
 91
        1
 62
     0
 92
       -2
340
14
 93
        0
 40
1.125
309
GRIDFORMAT_END
 95
       16
302
GRIDFORMAT
  1
GRIDFORMAT_BEGIN
 90
        0
 91
        1
 62
     0
 92
       -2
340
14
 93
        0
 40
1.125
309
GRIDFORMAT_END
 95
       32
302
GRIDFORMAT
  1
GRIDFORMAT_BEGIN
 90
        0
 91
        1
 62
     0
 92
       -2
340
14
 93
        0
 40
1.125
309
GRIDFORMAT_END
309
TABLEFORMAT_END
  1
CELLSTYLE_BEGIN
 90
        1
 91
        1
300
_TITLE
309
CELLSTYLE_END
300
CELLSTYLE
  1
TABLEFORMAT_BEGIN
 90
        5
170
     1
 91
        0
 92
        0
 62
   257
 93
        1
300
CONTENTFORMAT
  1
CONTENTFORMAT_BEGIN
 90
        0
 91
        0
 92
      512
 93
        0
300

 40
0.0
140
1.0
 94
        5
 62
     0
340
11
144
4.5
309
CONTENTFORMAT_END
171
     1
301
MARGIN
  1
CELLMARGIN_BEGIN
 40
1.5
 40
1.5
 40
1.5
 40
1.5
 40
4.5
 40
4.5
309
CELLMARGIN_END
 94
        6
 95
        1
302
GRIDFORMAT
  1
GRIDFORMAT_BEGIN
 90
        0
 91
        1
 62
     0
 92
       -2
340
14
 93
        0
 40
1.125
309
GRIDFORMAT_END
 95
        2
302
GRIDFORMAT
  1
GRIDFORMAT_BEGIN
 90
        0
 91
        1
 62
     0
 92
       -2
340
14
 93
        0
 40
1.125
309
GRIDFORMAT_END
 95
        4
302
GRIDFORMAT
  1
GRIDFORMAT_BEGIN
 90
        0
 91
        1
 62
     0
 92
       -2
340
14
 93
        0
 40
1.125
309
GRIDFORMAT_END
 95
        8
302
GRIDFORMAT
  1
GRIDFORMAT_BEGIN
 90
        0
 91
        1
 62
     0
 92
       -2
340
14
 93
        0
 40
1.125
309
GRIDFORMAT_END
 95
       16
302
GRIDFORMAT
  1
GRIDFORMAT_BEGIN
 90
        0
 91
        1
 62
     0
 92
       -2
340
14
 93
        0
 40
1.125
309
GRIDFORMAT_END
 95
       32
302
GRIDFORMAT
  1
GRIDFORMAT_BEGIN
 90
        0
 91
        1
 62
     0
 92
       -2
340
14
 93
        0
 40
1.125
309
GRIDFORMAT_END
309
TABLEFORMAT_END
  1
CELLSTYLE_BEGIN
 90
        2
 91
        1
300
_HEADER
309
CELLSTYLE_END
300
CELLSTYLE
  1
TABLEFORMAT_BEGIN
 90
        5
170
     1
 91
        0
 92
        0
 62
   257
 93
        1
300
CONTENTFORMAT
  1
CONTENTFORMAT_BEGIN
 90
        0
 91
        0
 92
      512
 93
        0
300

 40
0.0
140
1.0
 94
        2
 62
     0
340
11
144
4.5
309
CONTENTFORMAT_END
171
     1
301
MARGIN
  1
CELLMARGIN_BEGIN
 40
1.5
 40
1.5
 40
1.5
 40
1.5
 40
4.5
 40
4.5
309
CELLMARGIN_END
 94
        6
 95
        1
302
GRIDFORMAT
  1
GRIDFORMAT_BEGIN
 90
        0
 91
        1
 62
     0
 92
       -2
340
14
 93
        0
 40
1.125
309
GRIDFORMAT_END
 95
        2
302
GRIDFORMAT
  1
GRIDFORMAT_BEGIN
 90
        0
 91
        1
 62
     0
 92
       -2
340
14
 93
        0
 40
1.125
309
GRIDFORMAT_END
 95
        4
302
GRIDFORMAT
  1
GRIDFORMAT_BEGIN
 90
        0
 91
        1
 62
     0
 92
       -2
340
14
 93
        0
 40
1.125
309
GRIDFORMAT_END
 95
        8
302
GRIDFORMAT
  1
GRIDFORMAT_BEGIN
 90
        0
 91
        1
 62
     0
 92
       -2
340
14
 93
        0
 40
1.125
309
GRIDFORMAT_END
 95
       16
302
GRIDFORMAT
  1
GRIDFORMAT_BEGIN
 90
        0
 91
        1
 62
     0
 92
       -2
340
14
 93
        0
 40
1.125
309
GRIDFORMAT_END
 95
       32
302
GRIDFORMAT
  1
GRIDFORMAT_BEGIN
 90
        0
 91
        1
 62
     0
 92
       -2
340
14
 93
        0
 40
1.125
309
GRIDFORMAT_END
309
TABLEFORMAT_END
  1
CELLSTYLE_BEGIN
 90
        3
 91
        2
300
_DATA
309
CELLSTYLE_END
  0
ENDSEC
  0
SECTION
  2
ACDSDATA
 70
     2
 71
     8
  0
ACDSSCHEMA
 90
        0
  1
AcDb_Thumbnail_Schema
  2
AcDbDs::ID
280
    10
 91
        8
  2
Thumbnail_Data
280
    15
 91
        0
101
ACDSRECORD
 95
        0
 90
        1
  2
AcDbDs::TreatedAsObjectData
280
     1
291
     1
101
ACDSRECORD
 95
        0
 90
        2
  2
AcDbDs::Legacy
280
     1
291
     1
101
ACDSRECORD
  1
AcDbDs::ID
 90
        3
  2
AcDs:Indexable
280
     1
291
     1
101
ACDSRECORD
  1
AcDbDs::ID
 90
        4
  2
AcDbDs::HandleAttribute
280
     7
282
     1
  0
ACDSSCHEMA
 90
        1
  1
AcDbDs::TreatedAsObjectDataSchema
  2
AcDbDs::TreatedAsObjectData
280
     1
 91
        0
  0
ACDSSCHEMA
 90
        2
  1
AcDbDs::LegacySchema
  2
AcDbDs::Legacy
280
     1
 91
        0
  0
ACDSSCHEMA
 90
        3
  1
AcDbDs::IndexedPropertySchema
  2
AcDs:Indexable
280
     1
 91
        0
  0
ACDSSCHEMA
 90
        4
  1
AcDbDs::HandleAttributeSchema
  2
AcDbDs::HandleAttribute
280
     7
 91
        1
284
     1
  0
ACDSRECORD
 90
        0
  2
AcDbDs::ID
280
    10
320
2B44
  2
Thumbnail_Data
280
    15
 94
     2479
310
89504E470D0A1A0A0000000D49484452000000B40000010008030000002D3FACD700000300504C5445FFFFFF000000C8C8C80000000000000000000000000000000000000000000000000000330000660000990000CC0000FF0033000033330033660033990033CC0033FF0066000066330066660066990066CC0066FF0099
310
000099330099660099990099CC0099FF00CC0000CC3300CC6600CC9900CCCC00CCFF00FF0000FF3300FF6600FF9900FFCC00FFFF3300003300333300663300993300CC3300FF3333003333333333663333993333CC3333FF3366003366333366663366993366CC3366FF3399003399333399663399993399CC3399FF33CC00
310
33CC3333CC6633CC9933CCCC33CCFF33FF0033FF3333FF6633FF9933FFCC33FFFF6600006600336600666600996600CC6600FF6633006633336633666633996633CC6633FF6666006666336666666666996666CC6666FF6699006699336699666699996699CC6699FF66CC0066CC3366CC6666CC9966CCCC66CCFF66FF0066
310
FF3366FF6666FF9966FFCC66FFFF9900009900339900669900999900CC9900FF9933009933339933669933999933CC9933FF9966009966339966669966999966CC9966FF9999009999339999669999999999CC9999FF99CC0099CC3399CC6699CC9999CCCC99CCFF99FF0099FF3399FF6699FF9999FFCC99FFFFCC0000CC00
310
33CC0066CC0099CC00CCCC00FFCC3300CC3333CC3366CC3399CC33CCCC33FFCC6600CC6633CC6666CC6699CC66CCCC66FFCC9900CC9933CC9966CC9999CC99CCCC99FFCCCC00CCCC33CCCC66CCCC99CCCCCCCCCCFFCCFF00CCFF33CCFF66CCFF99CCFFCCCCFFFFFF0000FF0033FF0066FF0099FF00CCFF00FFFF3300FF3333
310
FF3366FF3399FF33CCFF33FFFF6600FF6633FF6666FF6699FF66CCFF66FFFF9900FF9933FF9966FF9999FF99CCFF99FFFFCC00FFCC33FFCC66FFCC99FFCCCCFFCCFFFFFF00FFFF33FFFF66FFFF99FFFFCCFFFFFF0000000D0D0D1A1A1A2828283535354343435050505D5D5D6B6B6B787878868686939393A1A1A1AEAEAEBB
310
BBBBC9C9C9D6D6D6E4E4E4F1F1F1FFFFFF000000000000000000000000000000000000000000000000000000000000B0E2D2350000060F4944415478DAED9DBD72E33610C7317901577E0D57AAF8184A23BD88D3588DF3164C43A688E6AA74295559D57577D744A5254C06779A8926E20304FC0609802079A4B07BDA952CD2
310
1074F7D3DF8B05B82041F6EDE12B3A63DF1E183E236882266882BE3BE8073CA640332482133441133441133403DAA138A0E1C94BD03F20344F0D26B49DCB01CDBD428F359FD0A39D071174A53112E88CB6820EA4C1876EB974703E0718946EFC82119AF9837E7DE5AFBDAD59D523F4B969FC3CC4825AFEAE083813742DA649
310
78219F422DA8BE62BFCE662EE8CE2E43E4F6F8D8FEF304AC97D4B343332374F67440DFD23DF23FF830E84643F402ED0E806DF7C8CBA0428B92376F698F796BCB8B18506849566EAB66C6D3AF927D9F0CBA8E1A30A04BE43430D4FBB2066068D11C2929D4AA7BC08216ED21B468D6291A2270E8BA8437074C70A005C30E5D8C
310
FF457390010E5A98C6D2B27751AD80E680A1990E1D04AAF250A135ED39A8E841D0BEA2075AE8761187D610FB400389D3EAD1A97031B7F31E10A0DB90BAF420A185E9784087E690A05550610A26401AA29671C906FBC2885C843CA047E3A2231DC9C11D23F6C8A112F48F0F6D4A8B1DDBD60C7699F98C1EC604A403BA9180F4
310
11A7EF12DA4F8FE84EF56A1DB8779F1E1E3D6A4A2421AF292D0E688E5069CED043E36888CDC937E01345ADF75AD08CA02786E68CA0BF0BBA99BFE5FCD1660A745E80015A39BFC23B74F38C0F6E3FE143BE9506E5AA0E0E9F6E9DD911C051DA7E1A0D6FEDE088D390727963CF6122A5C93D8CA12FB7733398403F46CC37679F
310
59D3C10DB1AC832A97A72AED0B7A78C8E308952E6A2153BAA8862E3FED3BE48DEEC68380538F38386B3A48E93C6B1A40CB4F3B35869854C7013DCC3DBC434F3213D07DFD19A090A7CE8DDF1C7A6CC8F30A4D4A93D2332B8D66C004F9CC1A984A937B90D2A434293D9DD2DD67D6284A43CA7B68D036A521E53D4869529AE234
310
41937B40543A3FC90099D2C3168B22A549698A1E70E23407BA28893B3F8D6E26C087D2773951E4F1EA8B11F388B8AEBEA0A1E9D44A3B7A759FD05C5F24CC6D1094AE151D7A459157A54D3ECD6D0328EEDDA79B7EDBF6690ED4A7BF6331567FD01D713A5F25CAEED9F0425EC96BC306D8B9085117AAFB903B17E79A130095D6
310
A4150894D69515E09536E82AC02BDD636D20144AEB65D0A62FFA2B0D67FAC218964969BF3E4DD1637268F89D8BC13F04C26E5C60189A0A840326F7CA6230334CA25366A819A6F20011D1E15691F948D7CBC63551A4AE9B824669DE79F93BD0AC2983ABB40DDA75D30290EEC11DAB237899472C2EC0CA37BAD2AD7553F44FD6
310
732E37BCF745609A19D473BE06A58DF388ECF6D09AD2ED75538C9FBCFDFD5C02C305ECCA1D884A8179609EBD80095D2A0D0B5AB12E6883559FBB3974B78DB9FDDA8DA1B95EC0B53D7B6D821E08CDD5D44B9988E1A6376140CF7597C119A1758A1A4C47E4507D7AC2DA04EDC4B03A2F35C4091BE274B519DD7C172574F3F295
310
E3D1766D4BB567AF42D04EE84EEB51EFCEA131DED91DB4113441133441133441CF0D8DC5C83D089AA0097A32E8E47A481F49F67A4D70401FB6DBFD36DEEEE38FF17EFBF1204BDEDDA65562A63A3342C771B4938FF02D8AA2180B74F44714859B551885D1160D741C46BF2C16A7A7B5A4C6031DAD9E4ED216CB975D7C48D8D3
310
C456FDF743EA76432787F87991311F4F3C537A726851DC8D7E3A68E9D3ABD3717194E08BD32A738FA9AD829ED23D325EF9E04754D08BE57ABDE2A7D37256E87E56B6E1726BF1E997E572B559FFFCF2FC12453DA3473F1B03FD5EBC945B9B4F8732E8ADD72F3250EFE259A15D157B4327877DDA1DC6EB4DF816BECD0AFD3419
310
74DAB9A4B49B143ADACB380D03DAE1D3FB70173D6F7EDDC8D147386FF4E813A7FBFAB4748F78F3CF3A96C326FFD1A3AF7B48EF089F374BD91C775B974F77C429EB0766804EFEFE3D7EFB4D0EF4A268BFFD92E0804EDDFACF4F1F3E7DF8FCF99024CC37749FCE25B92689FCB9661BF97A4DE6831E37643541FF74B9C8E7E5DF
310
CBE5BF747BF96BBE863819F4DC266A9B0C5A186C36E8A98E5C8CD0EFC39DDA5AB3F7BFAB7CA6F91B418F81CE6AB2EA959977E141DB48290149D0F709FD8070760B99113441133441DF15F4577426A1F1D9FFF29AD71382DED4E30000000049454E44AE4260820049454E44AE4260824E44AE426082ED393AC0F80F04FA7995
310
156411310000000049454E44AE426082D4136F8D5EEEE1F02C508D6A54A31AD5DEA87D8CFF018D5004D20CFC7EA50000000049454E44AE42608249454E44AE426082
  0
ACDSRECORD
 90
        0
  2
AcDbDs::ID
280
    10
320
22
  2
Thumbnail_Data
280
    15
 94
     3695
310
89504E470D0A1A0A0000000D49484452000001000000007508030000009634CF9200000300504C5445FFFFFF000000C8C8C80000000000000000000000000000000000000000000000000000330000660000990000CC0000FF0033000033330033660033990033CC0033FF0066000066330066660066990066CC0066FF0099
310
000099330099660099990099CC0099FF00CC0000CC3300CC6600CC9900CCCC00CCFF00FF0000FF3300FF6600FF9900FFCC00FFFF3300003300333300663300993300CC3300FF3333003333333333663333993333CC3333FF3366003366333366663366993366CC3366FF3399003399333399663399993399CC3399FF33CC00
310
33CC3333CC6633CC9933CCCC33CCFF33FF0033FF3333FF6633FF9933FFCC33FFFF6600006600336600666600996600CC6600FF6633006633336633666633996633CC6633FF6666006666336666666666996666CC6666FF6699006699336699666699996699CC6699FF66CC0066CC3366CC6666CC9966CCCC66CCFF66FF0066
310
FF3366FF6666FF9966FFCC66FFFF9900009900339900669900999900CC9900FF9933009933339933669933999933CC9933FF9966009966339966669966999966CC9966FF9999009999339999669999999999CC9999FF99CC0099CC3399CC6699CC9999CCCC99CCFF99FF0099FF3399FF6699FF9999FFCC99FFFFCC0000CC00
310
33CC0066CC0099CC00CCCC00FFCC3300CC3333CC3366CC3399CC33CCCC33FFCC6600CC6633CC6666CC6699CC66CCCC66FFCC9900CC9933CC9966CC9999CC99CCCC99FFCCCC00CCCC33CCCC66CCCC99CCCCCCCCCCFFCCFF00CCFF33CCFF66CCFF99CCFFCCCCFFFFFF0000FF0033FF0066FF0099FF00CCFF00FFFF3300FF3333
310
FF3366FF3399FF33CCFF33FFFF6600FF6633FF6666FF6699FF66CCFF66FFFF9900FF9933FF9966FF9999FF99CCFF99FFFFCC00FFCC33FFCC66FFCC99FFCCCCFFCCFFFFFF00FFFF33FFFF66FFFF99FFFFCCFFFFFF0000000D0D0D1A1A1A2828283535354343435050505D5D5D6B6B6B787878868686939393A1A1A1AEAEAEBB
310
BBBBC9C9C9D6D6D6E4E4E4F1F1F1FFFFFF000000000000000000000000000000000000000000000000000000000000B0E2D2350000015B4944415478DAEDDDC16DC3300C85612EA165389E06EB302E7820C0212AD956A1DE7A48D026EF67103327C3FA4252802E36239E131F0F8F5703F8F737040000000000000000000000
310
00000000000000000000000000000000000000000000000000000000000080A73EEF31E2FA617BFACEEF0FB0D67A9C1A767E5648B4C071EC12D7AACFC58B00EC15B000B62C3203EE7F5DB305D8060100000000000000000000000000000000000000000000003D8058E1AA003DA2F78CEE119200BD5B6466A42CC02882B421
310
A00E3087812840CC16305D802130B387700BACDD5012A0B588D65A959B680554458D6F544803942E40BF007487E05D0105000000880EC1D01E82B1852CC03C0F08E1199059293D04B3C401660BC802B8FB5CBAEE2EE0AE7E2C6EBFDC03DF18E0479203F89C715F452BE00F6F08000000000000000000000000000000000000
310
0000000000000000000000F0A8E7557FE3E4ABC417F38347E52BFE62D00000000049454E44AE42608240004000CEA5B1B93586520CCD6B8301626104DE031803088000CC4E5800A3E6792986E801E80D11B6C4E8014C838EB3800C179FB281006401192FC77E0AC1037AFE93B11A88F508CC37BDBE387BFF86045010542D07
310
DC62A899AE78B5C0F4DA9CC2D502D503CE3BAF988FC0C5F315B22546006B008C010400F7EEF0FDCD51B899A02A745B3C9702D0EB0232B546D00048C20210AB9E009C3D41B7DF128BE9ECFBCAFD30FE76FD39BD98AEDF8B6BAB23D3A56F00A6E79EA0FD1DDC4BC6AC671C83E3C8BF00D02ABEB62F785C8300C0FDA6EE174F87
310
0180EE02F01E00ACB625F2B8ED90B49FE358EC9AF40860D26A10C0033EA8F0D9A0288AA2A8FFD40FF2C22FD4EB3BBA260000000049454E44AE426082FB3F4589EF19000110E0B1808F0D01000000000000000000000000000000000000000000805BE637198C5EF717517D810000000049454E44AE42608280000420000108
310
400002108000042000010840000210800004200001084000021080000420C01F03B83D13C77EEBE478CF7758180C0663E6F80650DD99FFE992B15F0000000049454E44AE426082F9A703B0F539C96DEEAD49E90F0078B83BE310F8E2C301000000000000000000000000000000000000000000000000000000000000000000
310
0000000000000000000000EC00B87CCBD4FEF0073EC07EB67F339B0B9C8253D1650000000049454E44AE4260825DA904610A406125C84B21BEE5674460B45FA8B4124CEB21CC07BD02E25EB2EA4AB0E4FA0A408C01A927A2BA126CD2019CB3404905E2D3E054013B1B9D1EC8E5510B80FC41BA02EC1400CFFAEEF2A9017C75
310
3A41C61FAC26B72BECA73E9000E47E8073ED5E39F0E7298807F04901C65727E760F0F0907E0083E766E343C4825D20CD9E9F77BCE791BF7E8A16F6C3EE121560F073923C2960FA2E2BA0D34D5523D091A2FDF06201ECFBF11D26FBA3B4E0C31B70FF17C8FCFC806F0460A40368353C0670D6B97800571B9FD7EF3FE6F9AF0B
310
FC0880C77EC1EF7581BBF62A40340059F60400FC4F44FEE19BBF2403C87FFE57639FE0DCFD6E110046F66F3FF02AE00D822F8017C00BE005F002F8BFF61704DAC6EF5724558A0000000049454E44AE426082C8AAF0763E298820C7663700D04C03D4FC80735FA05203EE9A2ABB39F5F96DCB2D5E6E05676C7E2FE07218BBF7
310
EDF29BAB89C5001873BE66ACD21B07E0EAE1C9C66EB381EDFC670BCFDAC0CFA85243C9144C6D6E2180651400E9C09D06A015610E00500A002C00E806C008E4FB40EE04CC59AD86AAAF60B2C6FBA524FB743DDF850F881FF7FDE7ADB94F4B008D863E1540241EC7EE8A184E0F0D067E009E0100CA01C01500A0863E1340C92B
310
45D3D91F99EE5D0FFB9C606F00BDA5ED57F80522211827B80DDECA0000000049454E44AE426082BB01740544660760FCBF641204F87700C0D7DAB6005C7D81C22200C0BD3CA7AE021F0080E4A536130348B7704E00A39DA156D1E1B05768AC2701312476F6454A649DE08A2A60105C7993D44F0008F9A4514552F301D099E3
310
CE3E3A12B76EA80ACA44E3B400CEF4D1485BEE01C4EAF3B925E0B88F0EA9DF255C55566CB0B804F4BC5011CBC7CC3309F8170030D7093707402A01B82480BE576A628983CE50321F3912B09004F4BC51128B579152550B6C4D00529E0580648F086C5509A0B71A1250E9F105301AC0206F7048C34E37F103007FDCC3FAA6A4
310
AE078B0000000049454E44AE42608204941542EAC209430780AEF77B8680DAD3C0507344BB466D262A4CCA021BB70EE846815C1B9CAC92484AFF9C8B003ED011B3A9D6CDDD50D7E4C190005D17BC0E005D16888E22B1871671E800CDB6BB5D2F785E882708B85750368BA5191C71352A2BA67049FA0000FAB20027008EDA08
310
0008180D409F754433BC104C7F621270134930E6101D6EC758BED60A6975C5A4C2B90A0ED1959EDB0E00A61DE00400B80000C400C05A286842308BE19CCFFB455EC8A5C3106735FD2A96FFE0328DEFC040E65B476E0F315E0815B880E829AD28FD5ABECF80A1F82DBD41BD8DD675F6C21EBBBAA614F4F34FCF1A80935E1275
310
333A5D6FF08DD79D37127D22EE8E7ED08900439BED804D01685B6B1FB285B657340F7557213D5BEE0F694D5F525A3D57E97A79A0751A33539766CFECF5324BEBFA99EE960FEC9A2CC6AC04159B099FAB6C9DEE6B5AEF5F689D71C7A8DECFCE15813B0C331AC3EC809ED123E33D0D1902BB1AC119C5CB18A60794E1F819ED2B
310
1CEF43E605CF50552176C9F2AF254DFF8999E3C459CF025C9F290007841EEF9E16688D0EA8AAF9D6485AA3E714B1771C3F2D7E5DA33D7AA9B3431ADED214D754007088539AA22AC6E88555D8E0C018CDCE7408EC43CC3989432601B734C6AC976BBC7C62ADB7AC35669CAD517558C47B54D3FDAF35034C48C0336552811ED0
310
7A875ED8B8408F283E4F002A8C1EB9D0578B3243EB94F57D384BD13AC40C8987E513668E316BCFF043865919735EF769B8BB7ACCB87CC4E8F7AC5C1E6629C3EBE13C017889774CEDEDD7777B3CC321DED7B74FE8AF347BBCAD9FD2789DC6748FAB678CE3B4CA30C64CDF89ADC535E318EFE27D7DC0192E99EE48EBDD990240
310
9985CBCCDD9A1FD4DCDCE5355ACB56B14D9C9F1267EAFF522A8D63791270C7885D7B5B89CFDF9DB931D8CEEDC614AFB5A82683D60ACED80E705876FAAD13342351BBB98276AF057AEE026094BA102807C6ED34462C98FC7E1D3EB79F437B7C0487DFDC77A7156B47F0AB3C653BC0A3EFC5B5A2BA66B448CD143976D41AFB45
310
9C6E2FEDF301E98083A40504FF3600665247E5436D546269C48A871959203BDCFA77C6C8E87087B22FD28C902B617F235EA886818D78B002801AD8B382A4A67810935D2700F46B7BFE6AC49B102D26AC258AD4CDE34AB0FE9500001300F25A00BE3AA9390F7DA7AF9D1830729A7A8FAAC3C14A0D28170824558D01AC2C90AE
310
03DE1F004D02ACF100D4CDE4C61820BADEB325A00540BF400F995B5920A0EBCDF707801812E0CC87EA89E216002BA4EF02C0BCC04C2E10F744F04100000D008D7332080018004047A8CBA4E8B24F9CEB2188352EDE090060A581ECE502B698D8635F5F57001CB960473E99987FC3D44D1F80C177651692D18DD304E07BE2FF
310
FB770C3C79F2E4C993274F9E3CFD185496EAD33EEC39EB6A608507C003E001F00078003C001E806F1C1E3277A39DFCAAF702C0B92FD2FE0DF6CD808DDD81F67D740778EFCD499B49D2A6E5FD0050F634EA777DD792D456F2B60DE8133BCB37B2F3ED9BD85BF76AEDBEE81D01B0DFEDBC90BEE753DFD661EEF41C07808E77C7
310
AD9A84001F0680DE032600E66DBF4D9937DAC06B2440DDA0637FD5C70040D4DB4B771DA3E5CD88EB6775BFEEAD00909EAFFA1000ACBD8244BFCDAC769B55D0A3F4AC8D52AF04C0DABC65FD57076F0778003C001E000F8007C003F02303F00FE5691FF69C7535B0E2FCC8E7053C79F2E4C993A71F97FE0FDD7D5BAF806EF9BC
310
0000000049454E44AE426082
  0
ACDSRECORD
 90
        0
  2
AcDbDs::ID
280
    10
320
D7
  2
Thumbnail_Data
280
    15
 94
     1439
310
89504E470D0A1A0A0000000D4948445200000100000000B408030000004C80028300000300504C5445FFFFFF000000C8C8C80000000000000000000000000000000000000000000000000000330000660000990000CC0000FF0033000033330033660033990033CC0033FF0066000066330066660066990066CC0066FF0099
310
000099330099660099990099CC0099FF00CC0000CC3300CC6600CC9900CCCC00CCFF00FF0000FF3300FF6600FF9900FFCC00FFFF3300003300333300663300993300CC3300FF3333003333333333663333993333CC3333FF3366003366333366663366993366CC3366FF3399003399333399663399993399CC3399FF33CC00
310
33CC3333CC6633CC9933CCCC33CCFF33FF0033FF3333FF6633FF9933FFCC33FFFF6600006600336600666600996600CC6600FF6633006633336633666633996633CC6633FF6666006666336666666666996666CC6666FF6699006699336699666699996699CC6699FF66CC0066CC3366CC6666CC9966CCCC66CCFF66FF0066
310
FF3366FF6666FF9966FFCC66FFFF9900009900339900669900999900CC9900FF9933009933339933669933999933CC9933FF9966009966339966669966999966CC9966FF9999009999339999669999999999CC9999FF99CC0099CC3399CC6699CC9999CCCC99CCFF99FF0099FF3399FF6699FF9999FFCC99FFFFCC0000CC00
310
33CC0066CC0099CC00CCCC00FFCC3300CC3333CC3366CC3399CC33CCCC33FFCC6600CC6633CC6666CC6699CC66CCCC66FFCC9900CC9933CC9966CC9999CC99CCCC99FFCCCC00CCCC33CCCC66CCCC99CCCCCCCCCCFFCCFF00CCFF33CCFF66CCFF99CCFFCCCCFFFFFF0000FF0033FF0066FF0099FF00CCFF00FFFF3300FF3333
310
FF3366FF3399FF33CCFF33FFFF6600FF6633FF6666FF6699FF66CCFF66FFFF9900FF9933FF9966FF9999FF99CCFF99FFFFCC00FFCC33FFCC66FFCC99FFCCCCFFCCFFFFFF00FFFF33FFFF66FFFF99FFFFCCFFFFFF0000000D0D0D1A1A1A2828283535354343435050505D5D5D6B6B6B787878868686939393A1A1A1AEAEAEBB
310
BBBBC9C9C9D6D6D6E4E4E4F1F1F1FFFFFF000000000000000000000000000000000000000000000000000000000000B0E2D2350000025A4944415478DAEDDD3192DA30140050DD80C3D1E4302953ED115CB117A1DA53A44A641AA7867E1708C9829191D79891F1FBCC52C86BA3797CA12F3183430C738EF83B009837400400
310
0040ABED18AD865B076E9E10C73A21BFAB5900CFFC86030000000000000A2100000000000000401F8038B518B0219257434DADE61B5A0A0300000000000000000000305780DC85C7D88B9A418BA19132208E982A5FDDB507F07580F0C40043364416E9B80058DC310A02481F6A01DCEFFD0700000000008F06884F0C100100
310
000000000000000000000000000000364400000000000000000A2100000000000000000000000000003077001B220000000000000080D90228850100000000000000000000000000C00C016C8800000000000000F30550090200000000000000000000F0B9F5297E58590600780CC0EE14B30508EBD5C763BB0B036F0937D5
310
EF0576DBD57AF37D551EC0901DA1A6599E476706ACEA4DBDD9EE9619D134AD4B2F0B05E83104FEBCD475FD2BEB33E000308D0C68BFC6218BAF67C0B7B7AA7B087401EC0FEFFF0A03B8E87C174055FDA8DE7A00B4DAE3E151F667403C76F37A06AC5F5EF7B340EE10485CBB2C80D06308FCAC3EE6C1709E0117397E6ADD0384
310
490C81D4B4D555086502A4A6C492BE17689273781BA03945DE006892D72EA912BCD2C9BF5DED0248953DFFDA5200C7E7A2009AD83AF56E00FFAFF9F91FAC066D882CDC6CAD1C8062EE375860063C340000000000000000230284FE85508971EF0D91270D00000000000000409935DF23CA48000000000000E0FACA3FB91590
310
3A70F38438D609F95D5508010000000080738099C73B55D119216D027E380000000049454E44AE426082
  0
ENDSEC
  0
EOF
